  0
SECTION
  2
HEADER
  9
$ACADVER
  1
AC1018
  9
$ACADMAINTVER
 70
   104
  9
$DWGCODEPAGE
  3
ANSI_1252
  9
$LASTSAVEDBY
  1
a06741
  9
$INSBASE
 10
0.0
 20
0.0
 30
0.0
  9
$EXTMIN
 10
827.7017231328667
 20
428.2064220884424
 30
-0.0015258207003583
  9
$EXTMAX
 10
1017.847596888719
 20
567.5384684136818
 30
0.0000000349246037
  9
$LIMMIN
 10
0.0
 20
0.0
  9
$LIMMAX
 10
420.0
 20
297.0
  9
$ORTHOMODE
 70
     0
  9
$REGENMODE
 70
     1
  9
$FILLMODE
 70
     1
  9
$QTEXTMODE
 70
     0
  9
$MIRRTEXT
 70
     0
  9
$LTSCALE
 40
1.0
  9
$ATTMODE
 70
     1
  9
$TEXTSIZE
 40
2.5
  9
$TRACEWID
 40
1.0
  9
$TEXTSTYLE
  7
Standard
  9
$CLAYER
  8
0
  9
$CELTYPE
  6
ByLayer
  9
$CECOLOR
 62
   256
  9
$CELTSCALE
 40
1.0
  9
$DISPSILH
 70
     0
  9
$DIMSCALE
 40
1.0
  9
$DIMASZ
 40
2.5
  9
$DIMEXO
 40
0.625
  9
$DIMDLI
 40
3.75
  9
$DIMRND
 40
0.0
  9
$DIMDLE
 40
0.0
  9
$DIMEXE
 40
1.25
  9
$DIMTP
 40
0.0
  9
$DIMTM
 40
0.0
  9
$DIMTXT
 40
2.5
  9
$DIMCEN
 40
2.5
  9
$DIMTSZ
 40
0.0
  9
$DIMTOL
 70
     0
  9
$DIMLIM
 70
     0
  9
$DIMTIH
 70
     0
  9
$DIMTOH
 70
     0
  9
$DIMSE1
 70
     0
  9
$DIMSE2
 70
     0
  9
$DIMTAD
 70
     1
  9
$DIMZIN
 70
     8
  9
$DIMBLK
  1

  9
$DIMASO
 70
     1
  9
$DIMSHO
 70
     1
  9
$DIMPOST
  1

  9
$DIMAPOST
  1

  9
$DIMALT
 70
     0
  9
$DIMALTD
 70
     3
  9
$DIMALTF
 40
0.03937007874016
  9
$DIMLFAC
 40
1.0
  9
$DIMTOFL
 70
     1
  9
$DIMTVP
 40
0.0
  9
$DIMTIX
 70
     0
  9
$DIMSOXD
 70
     0
  9
$DIMSAH
 70
     0
  9
$DIMBLK1
  1

  9
$DIMBLK2
  1

  9
$DIMSTYLE
  2
ISO-25
  9
$DIMCLRD
 70
     0
  9
$DIMCLRE
 70
     0
  9
$DIMCLRT
 70
     0
  9
$DIMTFAC
 40
1.0
  9
$DIMGAP
 40
0.625
  9
$DIMJUST
 70
     0
  9
$DIMSD1
 70
     0
  9
$DIMSD2
 70
     0
  9
$DIMTOLJ
 70
     0
  9
$DIMTZIN
 70
     8
  9
$DIMALTZ
 70
     0
  9
$DIMALTTZ
 70
     0
  9
$DIMUPT
 70
     0
  9
$DIMDEC
 70
     2
  9
$DIMTDEC
 70
     2
  9
$DIMALTU
 70
     2
  9
$DIMALTTD
 70
     3
  9
$DIMTXSTY
  7
Standard
  9
$DIMAUNIT
 70
     0
  9
$DIMADEC
 70
     0
  9
$DIMALTRND
 40
0.0
  9
$DIMAZIN
 70
     0
  9
$DIMDSEP
 70
    44
  9
$DIMATFIT
 70
     3
  9
$DIMFRAC
 70
     0
  9
$DIMLDRBLK
  1

  9
$DIMLUNIT
 70
     2
  9
$DIMLWD
 70
    -2
  9
$DIMLWE
 70
    -2
  9
$DIMTMOVE
 70
     0
  9
$LUNITS
 70
     2
  9
$LUPREC
 70
     4
  9
$SKETCHINC
 40
1.0
  9
$FILLETRAD
 40
0.0
  9
$AUNITS
 70
     0
  9
$AUPREC
 70
     0
  9
$MENU
  1
.
  9
$ELEVATION
 40
0.0
  9
$PELEVATION
 40
0.0
  9
$THICKNESS
 40
0.0
  9
$LIMCHECK
 70
     0
  9
$CHAMFERA
 40
0.0
  9
$CHAMFERB
 40
0.0
  9
$CHAMFERC
 40
0.0
  9
$CHAMFERD
 40
0.0
  9
$SKPOLY
 70
     0
  9
$TDCREATE
 40
2456139.481921227
  9
$TDUCREATE
 40
2456139.398587894
  9
$TDUPDATE
 40
2456139.483010799
  9
$TDUUPDATE
 40
2456139.399677466
  9
$TDINDWG
 40
0.0010900926
  9
$TDUSRTIMER
 40
0.0010900694
  9
$USRTIMER
 70
     1
  9
$ANGBASE
 50
0.0
  9
$ANGDIR
 70
     0
  9
$PDMODE
 70
     0
  9
$PDSIZE
 40
0.0
  9
$PLINEWID
 40
0.0
  9
$SPLFRAME
 70
     0
  9
$SPLINETYPE
 70
     6
  9
$SPLINESEGS
 70
     8
  9
$HANDSEED
  5
6EB
  9
$SURFTAB1
 70
     6
  9
$SURFTAB2
 70
     6
  9
$SURFTYPE
 70
     6
  9
$SURFU
 70
     6
  9
$SURFV
 70
     6
  9
$UCSBASE
  2

  9
$UCSNAME
  2

  9
$UCSORG
 10
0.0
 20
0.0
 30
0.0
  9
$UCSXDIR
 10
1.0
 20
0.0
 30
0.0
  9
$UCSYDIR
 10
0.0
 20
1.0
 30
0.0
  9
$UCSORTHOREF
  2

  9
$UCSORTHOVIEW
 70
     0
  9
$UCSORGTOP
 10
0.0
 20
0.0
 30
0.0
  9
$UCSORGBOTTOM
 10
0.0
 20
0.0
 30
0.0
  9
$UCSORGLEFT
 10
0.0
 20
0.0
 30
0.0
  9
$UCSORGRIGHT
 10
0.0
 20
0.0
 30
0.0
  9
$UCSORGFRONT
 10
0.0
 20
0.0
 30
0.0
  9
$UCSORGBACK
 10
0.0
 20
0.0
 30
0.0
  9
$PUCSBASE
  2

  9
$PUCSNAME
  2

  9
$PUCSORG
 10
0.0
 20
0.0
 30
0.0
  9
$PUCSXDIR
 10
1.0
 20
0.0
 30
0.0
  9
$PUCSYDIR
 10
0.0
 20
1.0
 30
0.0
  9
$PUCSORTHOREF
  2

  9
$PUCSORTHOVIEW
 70
     0
  9
$PUCSORGTOP
 10
0.0
 20
0.0
 30
0.0
  9
$PUCSORGBOTTOM
 10
0.0
 20
0.0
 30
0.0
  9
$PUCSORGLEFT
 10
0.0
 20
0.0
 30
0.0
  9
$PUCSORGRIGHT
 10
0.0
 20
0.0
 30
0.0
  9
$PUCSORGFRONT
 10
0.0
 20
0.0
 30
0.0
  9
$PUCSORGBACK
 10
0.0
 20
0.0
 30
0.0
  9
$USERI1
 70
     0
  9
$USERI2
 70
     0
  9
$USERI3
 70
     0
  9
$USERI4
 70
     0
  9
$USERI5
 70
     0
  9
$USERR1
 40
0.0
  9
$USERR2
 40
0.0
  9
$USERR3
 40
0.0
  9
$USERR4
 40
0.0
  9
$USERR5
 40
0.0
  9
$WORLDVIEW
 70
     1
  9
$SHADEDGE
 70
     3
  9
$SHADEDIF
 70
    70
  9
$TILEMODE
 70
     1
  9
$MAXACTVP
 70
    64
  9
$PINSBASE
 10
0.0
 20
0.0
 30
0.0
  9
$PLIMCHECK
 70
     0
  9
$PEXTMIN
 10
0.0
 20
0.0
 30
0.0
  9
$PEXTMAX
 10
0.0
 20
0.0
 30
0.0
  9
$PLIMMIN
 10
0.0
 20
0.0
  9
$PLIMMAX
 10
12.0
 20
9.0
  9
$UNITMODE
 70
     0
  9
$VISRETAIN
 70
     1
  9
$PLINEGEN
 70
     0
  9
$PSLTSCALE
 70
     1
  9
$TREEDEPTH
 70
  3020
  9
$CMLSTYLE
  2
Standard
  9
$CMLJUST
 70
     0
  9
$CMLSCALE
 40
20.0
  9
$PROXYGRAPHICS
 70
     1
  9
$MEASUREMENT
 70
     1
  9
$CELWEIGHT
370
    -1
  9
$ENDCAPS
280
     0
  9
$JOINSTYLE
280
     0
  9
$LWDISPLAY
290
     0
  9
$INSUNITS
 70
     4
  9
$HYPERLINKBASE
  1

  9
$STYLESHEET
  1

  9
$XEDIT
290
     1
  9
$CEPSNTYPE
380
     0
  9
$PSTYLEMODE
290
     1
  9
$FINGERPRINTGUID
  2
{C03001EA-C754-4CEC-B0F6-C17C9E56E452}
  9
$VERSIONGUID
  2
{1CFB7334-0F43-4EF5-BC3B-DE0AC61D2068}
  9
$EXTNAMES
290
     1
  9
$PSVPSCALE
 40
0.0
  9
$OLESTARTUP
290
     0
  9
$SORTENTS
280
   127
  9
$INDEXCTL
280
     0
  9
$HIDETEXT
280
     1
  9
$XCLIPFRAME
290
     0
  9
$HALOGAP
280
     0
  9
$OBSCOLOR
 70
   257
  9
$OBSLTYPE
280
     0
  9
$INTERSECTIONDISPLAY
280
     0
  9
$INTERSECTIONCOLOR
 70
   257
  9
$DIMASSOC
280
     2
  9
$PROJECTNAME
  1

  0
ENDSEC
  0
SECTION
  2
CLASSES
  0
CLASS
  1
ACDBDICTIONARYWDFLT
  2
AcDbDictionaryWithDefault
  3
ObjectDBX Classes
 90
        0
 91
        1
280
     0
281
     0
  0
CLASS
  1
DICTIONARYVAR
  2
AcDbDictionaryVar
  3
ObjectDBX Classes
 90
        0
 91
       17
280
     0
281
     0
  0
CLASS
  1
TABLESTYLE
  2
AcDbTableStyle
  3
ObjectDBX Classes
 90
     4095
 91
        1
280
     0
281
     0
  0
CLASS
  1
MATERIAL
  2
AcDbMaterial
  3
ObjectDBX Classes
 90
     1153
 91
        3
280
     0
281
     0
  0
CLASS
  1
VISUALSTYLE
  2
AcDbVisualStyle
  3
ObjectDBX Classes
 90
     4095
 91
       19
280
     0
281
     0
  0
CLASS
  1
SCALE
  2
AcDbScale
  3
ObjectDBX Classes
 90
     1153
 91
       17
280
     0
281
     0
  0
CLASS
  1
MLEADERSTYLE
  2
AcDbMLeaderStyle
  3
ACDB_MLEADERSTYLE_CLASS
 90
     4095
 91
        2
280
     0
281
     0
  0
CLASS
  1
CELLSTYLEMAP
  2
AcDbCellStyleMap
  3
ObjectDBX Classes
 90
     1152
 91
        2
280
     0
281
     0
  0
CLASS
  1
EXACXREFPANELOBJECT
  2
ExAcXREFPanelObject
  3
EXAC_ESW
 90
     1025
 91
        0
280
     0
281
     0
  0
CLASS
  1
NPOCOLLECTION
  2
AcDbImpNonPersistentObjectsCollection
  3
ObjectDBX Classes
 90
     1153
 91
        0
280
     0
281
     0
  0
CLASS
  1
LAYER_INDEX
  2
AcDbLayerIndex
  3
ObjectDBX Classes
 90
        0
 91
        0
280
     0
281
     0
  0
CLASS
  1
SPATIAL_INDEX
  2
AcDbSpatialIndex
  3
ObjectDBX Classes
 90
        0
 91
        0
280
     0
281
     0
  0
CLASS
  1
IDBUFFER
  2
AcDbIdBuffer
  3
ObjectDBX Classes
 90
        0
 91
        0
280
     0
281
     0
  0
CLASS
  1
DIMASSOC
  2
AcDbDimAssoc
  3
"AcDbDimAssoc|Product Desc:     AcDim ARX App For Dimension|Company:          Autodesk, Inc.|WEB Address:      www.autodesk.com"
 90
        0
 91
       50
280
     0
281
     0
  0
CLASS
  1
SORTENTSTABLE
  2
AcDbSortentsTable
  3
ObjectDBX Classes
 90
        0
 91
        1
280
     0
281
     0
  0
ENDSEC
  0
SECTION
  2
TABLES
  0
TABLE
  2
VPORT
  5
8
330
0
100
AcDbSymbolTable
 70
     1
  0
VPORT
  5
EA
330
8
100
AcDbSymbolTableRecord
100
AcDbViewportTableRecord
  2
*Active
 70
     0
 10
0.0
 20
0.0
 11
1.0
 21
1.0
 12
922.7746600107927
 22
497.8724452510621
 13
0.0
 23
0.0
 14
10.0
 24
10.0
 15
10.0
 25
10.0
 16
0.0
 26
0.0
 36
1.0
 17
0.0
 27
0.0
 37
0.0
 40
140.4467026958413
 41
2.132176234979973
 42
50.0
 43
0.0
 44
0.0
 50
0.0
 51
0.0
 71
     0
 72
  1000
 73
     1
 74
     3
 75
     0
 76
     0
 77
     0
 78
     0
281
     0
 65
     1
110
0.0
120
0.0
130
0.0
111
1.0
121
0.0
131
0.0
112
0.0
122
1.0
132
0.0
 79
     0
146
0.0
  0
ENDTAB
  0
TABLE
  2
LTYPE
  5
5
330
0
100
AcDbSymbolTable
 70
     1
  0
LTYPE
  5
14
330
5
100
AcDbSymbolTableRecord
100
AcDbLinetypeTableRecord
  2
ByBlock
 70
     0
  3

 72
    65
 73
     0
 40
0.0
  0
LTYPE
  5
15
330
5
100
AcDbSymbolTableRecord
100
AcDbLinetypeTableRecord
  2
ByLayer
 70
     0
  3

 72
    65
 73
     0
 40
0.0
  0
LTYPE
  5
16
330
5
100
AcDbSymbolTableRecord
100
AcDbLinetypeTableRecord
  2
Continuous
 70
     0
  3
Solid line
 72
    65
 73
     0
 40
0.0
  0
ENDTAB
  0
TABLE
  2
LAYER
  5
2
102
{ACAD_XDICTIONARY
360
34D
102
}
330
0
100
AcDbSymbolTable
 70
     5
  0
LAYER
  5
10
102
{ACAD_XDICTIONARY
360
13C
102
}
330
2
100
AcDbSymbolTableRecord
100
AcDbLayerTableRecord
  2
0
 70
     0
 62
     7
  6
Continuous
370
    -3
390
F
  0
LAYER
  5
33B
330
2
100
AcDbSymbolTableRecord
100
AcDbLayerTableRecord
  2
Defpoints
 70
     0
 62
     7
  6
Continuous
290
     0
370
    -3
390
F
  0
LAYER
  5
33C
102
{ACAD_XDICTIONARY
360
33D
102
}
330
2
100
AcDbSymbolTableRecord
100
AcDbLayerTableRecord
  2
S10_Quote
 70
     0
 62
     7
  6
Continuous
370
    -3
390
F
  0
LAYER
  5
33E
102
{ACAD_XDICTIONARY
360
33F
102
}
330
2
100
AcDbSymbolTableRecord
100
AcDbLayerTableRecord
  2
S08_Retino
 70
     0
 62
   252
  6
Continuous
370
    -3
390
F
  0
LAYER
  5
340
330
2
100
AcDbSymbolTableRecord
100
AcDbLayerTableRecord
  2
Sichtbar (ISO)
 70
     0
 62
     5
  6
Continuous
370
    35
390
F
  0
ENDTAB
  0
TABLE
  2
STYLE
  5
3
330
0
100
AcDbSymbolTable
 70
     5
  0
STYLE
  5
11
330
3
100
AcDbSymbolTableRecord
100
AcDbTextStyleTableRecord
  2
Standard
 70
     0
 40
0.0
 41
1.0
 50
0.0
 71
     0
 42
2.5
  3
ARIAL.TTF
  4

1001
ACAD
1000
Arial
1071
       34
  0
STYLE
  5
132
330
3
100
AcDbSymbolTableRecord
100
AcDbTextStyleTableRecord
  2
Annotativa
 70
     0
 40
0.0
 41
1.0
 50
0.0
 71
     0
 42
2.5
  3
ARIAL.TTF
  4

1001
AcadAnnotative
1000
AnnotativeData
1002
{
1070
     1
1070
     1
1002
}
1001
ACAD
1000
Arial
1071
       34
  0
STYLE
  5
341
330
3
100
AcDbSymbolTableRecord
100
AcDbTextStyleTableRecord
  2
ROMANS
 70
     0
 40
0.0
 41
1.0
 50
0.0
 71
     0
 42
0.21
  3
ROMANS.shx
  4

  0
STYLE
  5
342
330
3
100
AcDbSymbolTableRecord
100
AcDbTextStyleTableRecord
  2
Arial
 70
     0
 40
0.0
 41
1.0
 50
0.0
 71
     0
 42
0.2
  3
arial.ttf
  4

1001
ACAD
1000
Arial
1071
      256
  0
STYLE
  5
343
330
3
100
AcDbSymbolTableRecord
100
AcDbTextStyleTableRecord
  2
wurth
 70
     0
 40
0.0
 41
1.0
 50
0.0
 71
     0
 42
40.0
  3
WuerthBook.ttf
  4

1001
ACAD
1000
Wuerth Book
1071
        2
  0
ENDTAB
  0
TABLE
  2
VIEW
  5
6
330
0
100
AcDbSymbolTable
 70
     0
  0
ENDTAB
  0
TABLE
  2
UCS
  5
7
330
0
100
AcDbSymbolTable
 70
     0
  0
ENDTAB
  0
TABLE
  2
APPID
  5
9
330
0
100
AcDbSymbolTable
 70
    11
  0
APPID
  5
12
330
9
100
AcDbSymbolTableRecord
100
AcDbRegAppTableRecord
  2
ACAD
 70
     0
  0
APPID
  5
9E
330
9
100
AcDbSymbolTableRecord
100
AcDbRegAppTableRecord
  2
ACAD_PSEXT
 70
     0
  0
APPID
  5
133
330
9
100
AcDbSymbolTableRecord
100
AcDbRegAppTableRecord
  2
AcadAnnoPO
 70
     0
  0
APPID
  5
134
330
9
100
AcDbSymbolTableRecord
100
AcDbRegAppTableRecord
  2
AcadAnnotative
 70
     0
  0
APPID
  5
135
330
9
100
AcDbSymbolTableRecord
100
AcDbRegAppTableRecord
  2
ACAD_DSTYLE_DIMJAG
 70
     0
  0
APPID
  5
136
330
9
100
AcDbSymbolTableRecord
100
AcDbRegAppTableRecord
  2
ACAD_DSTYLE_DIMTALN
 70
     0
  0
APPID
  5
165
330
9
100
AcDbSymbolTableRecord
100
AcDbRegAppTableRecord
  2
ACAD_MLEADERVER
 70
     0
  0
APPID
  5
349
330
9
100
AcDbSymbolTableRecord
100
AcDbRegAppTableRecord
  2
AcDbDynamicBlockGUID
 70
     0
  0
APPID
  5
34A
330
9
100
AcDbSymbolTableRecord
100
AcDbRegAppTableRecord
  2
AcDbBlockRepETag
 70
     0
  0
APPID
  5
34B
330
9
100
AcDbSymbolTableRecord
100
AcDbRegAppTableRecord
  2
ACAD_DSTYLE_DIMBREAK
 70
     0
  0
APPID
  5
34C
330
9
100
AcDbSymbolTableRecord
100
AcDbRegAppTableRecord
  2
ACAD_DSTYLE_DIMRADIAL_EXTENSION
 70
     0
  0
ENDTAB
  0
TABLE
  2
DIMSTYLE
  5
A
330
0
100
AcDbSymbolTable
 70
     8
100
AcDbDimStyleTable
 71
     2
340
27
340
137
  0
DIMSTYLE
105
1B0
330
A
100
AcDbSymbolTableRecord
100
AcDbDimStyleTableRecord
  2
Standard
 70
     0
340
11
  0
DIMSTYLE
105
137
330
A
100
AcDbSymbolTableRecord
100
AcDbDimStyleTableRecord
  2
Annotativa
 70
     0
 40
0.0
 41
2.5
 42
0.625
 43
3.75
 44
1.25
 73
     0
 74
     0
 77
     1
 78
     8
140
2.5
141
2.5
143
0.03937007874016
147
0.625
171
     3
172
     1
271
     2
272
     2
274
     3
278
    44
283
     0
284
     8
340
11
1001
AcadAnnotative
1000
AnnotativeData
1002
{
1070
     1
1070
     1
1002
}
1001
ACAD_DSTYLE_DIMJAG
1070
   388
1040
1.5
1001
ACAD_DSTYLE_DIMTALN
1070
   392
1070
     0
  0
DIMSTYLE
105
27
330
A
100
AcDbSymbolTableRecord
100
AcDbDimStyleTableRecord
  2
ISO-25
 70
     0
 41
2.5
 42
0.625
 43
3.75
 44
1.25
 73
     0
 74
     0
 77
     1
 78
     8
140
2.5
141
2.5
143
0.03937007874016
147
0.625
171
     3
172
     1
271
     2
272
     2
274
     3
278
    44
283
     0
284
     8
340
11
  0
DIMSTYLE
105
344
330
A
100
AcDbSymbolTableRecord
100
AcDbDimStyleTableRecord
  2
mm 1_50
 70
     0
 40
50.0
 41
0.015
 42
0.625
 43
1.0
 44
1.25
 73
     0
 74
     0
 75
     1
 76
     1
 77
     1
 78
     8
140
2.0
141
-0.5
143
0.03937007874016
147
0.8
171
     3
172
     1
174
     1
179
     2
271
     1
272
     1
274
     3
283
     0
284
     8
340
341
342
1F4
  0
DIMSTYLE
105
345
330
A
100
AcDbSymbolTableRecord
100
AcDbDimStyleTableRecord
  2
mm 1_20
 70
     0
 40
20.0
 41
0.015
 42
0.625
 43
1.0
 44
1.25
 73
     0
 74
     0
 75
     1
 76
     1
 77
     1
 78
     8
140
2.0
141
0.5
143
0.03937007874016
147
0.8
171
     3
172
     1
174
     1
179
     2
271
     0
272
     0
274
     3
283
     0
284
     8
340
341
342
1F4
1001
ACAD_DSTYLE_DIMJAG
1070
   388
1040
1.5
1001
ACAD_DSTYLE_DIMTALN
1070
   392
1070
     0
  0
DIMSTYLE
105
346
330
A
100
AcDbSymbolTableRecord
100
AcDbDimStyleTableRecord
  2
mm 1_100
 70
     0
 40
100.0
 41
0.015
 42
0.0
 43
1.0
 44
0.5
 73
     0
 74
     0
 75
     1
 76
     1
 77
     1
 78
     8
140
2.0
141
0.5
143
0.03937007874016
147
0.8
171
     3
172
     1
174
     1
179
     2
271
     1
272
     1
274
     3
283
     0
284
     8
340
341
342
1F4
  0
DIMSTYLE
105
347
102
{ACAD_REACTORS
330
3D2
330
3D5
330
3D8
330
3DB
330
3DE
330
3E1
330
3E4
330
3E5
330
3E8
330
3EB
330
3EE
330
3F1
330
3F4
330
3F7
330
3FA
330
3FD
330
400
330
403
330
406
330
409
330
40C
330
40F
330
412
330
415
330
418
330
419
330
41C
330
4AA
330
4AD
330
4B0
330
4B3
330
4B6
330
4B9
330
4BC
330
4BD
330
4C0
330
4C3
330
4C6
330
4C9
330
4CC
330
4CF
330
4D2
330
4D5
330
4D8
330
4DB
330
4DE
330
4E1
330
4E4
330
4E7
330
4EA
330
4ED
330
4F0
330
4F1
330
4F4
102
}
330
A
100
AcDbSymbolTableRecord
100
AcDbDimStyleTableRecord
  2
mm 1_1
 70
     0
 41
0.015
 42
0.625
 43
1.0
 44
1.25
 73
     0
 74
     0
 77
     1
 78
     8
140
2.0
141
0.5
143
0.03937007874016
147
0.8
171
     3
172
     1
174
     1
179
     2
271
     2
272
     2
274
     3
283
     0
284
     8
340
343
342
1F4
1001
ACAD_DSTYLE_DIMBREAK
1070
   391
1040
3.75
1001
ACAD_DSTYLE_DIMJAG
1070
   388
1040
1.5
1001
ACAD_DSTYLE_DIMTALN
1070
   392
1070
     0
  0
DIMSTYLE
105
348
330
A
100
AcDbSymbolTableRecord
100
AcDbDimStyleTableRecord
  2
Standard (DIN)
 70
     0
 40
0.5
 41
2.5
 42
0.8
 43
6.0
 44
3.174999999999999
 45
0.00000001
 46
10.0
 73
     0
 74
     0
 77
     1
140
2.200000047683715
143
0.03937
146
0.6818181670401711
147
0.8
171
     3
172
     1
176
   256
177
   256
178
   256
271
     2
272
     2
274
     3
278
    44
340
342
371
    -1
372
    -1
  0
ENDTAB
  0
TABLE
  2
BLOCK_RECORD
  5
1
330
0
100
AcDbSymbolTable
 70
    57
  0
BLOCK_RECORD
  5
1F
102
{ACAD_XDICTIONARY
360
1CE
102
}
330
1
100
AcDbSymbolTableRecord
100
AcDbBlockTableRecord
  2
*Model_Space
340
22
  0
BLOCK_RECORD
  5
D2
330
1
100
AcDbSymbolTableRecord
100
AcDbBlockTableRecord
  2
*Paper_Space
340
D3
  0
BLOCK_RECORD
  5
D6
330
1
100
AcDbSymbolTableRecord
100
AcDbBlockTableRecord
  2
*Paper_Space0
340
D7
  0
BLOCK_RECORD
  5
1F4
102
{ACAD_XDICTIONARY
360
1F5
102
}
330
1
100
AcDbSymbolTableRecord
100
AcDbBlockTableRecord
  2
A$C79C4041D
340
0
102
{BLKREFS
331
220
331
221
331
22C
331
22D
331
238
331
239
331
244
331
245
331
250
331
251
331
25C
331
25D
331
268
331
269
331
274
331
275
331
280
331
281
331
28C
331
28D
331
298
331
299
331
2A4
331
2A5
331
2B0
331
2B1
331
2BC
331
2BD
331
2C8
331
2C9
331
2D4
331
2D5
331
2E0
331
2E1
331
2EC
331
2ED
331
2F8
331
2F9
331
304
331
305
331
310
331
311
331
31C
331
31D
331
328
331
329
331
334
331
335
331
216
331
217
331
200
331
201
331
20B
331
20C
331
536
331
537
331
542
331
543
331
54E
331
54F
331
557
331
558
331
56F
331
570
331
57B
331
57C
331
587
331
588
331
593
331
594
331
59F
331
5A0
331
5AB
331
5AC
331
5B7
331
5B8
331
5C3
331
5C4
331
5CF
331
5D0
331
5DB
331
5DC
331
5E7
331
5E8
331
5F3
331
5F4
331
5FF
331
600
331
60B
331
60C
331
617
331
618
331
623
331
624
331
62C
331
62D
331
638
331
639
331
644
331
645
331
64D
331
64E
331
657
331
658
331
65F
331
660
331
667
331
668
102
}
1001
AcDbDynamicBlockGUID
1000
{93BD5B1E-816B-4960-B1CC-7C46A00E0667}
1001
AcDbBlockRepETag
1070
     1
1071
        2
  0
BLOCK_RECORD
  5
1FA
330
1
100
AcDbSymbolTableRecord
100
AcDbBlockTableRecord
  2
*D2
340
0
  0
BLOCK_RECORD
  5
205
330
1
100
AcDbSymbolTableRecord
100
AcDbBlockTableRecord
  2
*D3
340
0
  0
BLOCK_RECORD
  5
210
330
1
100
AcDbSymbolTableRecord
100
AcDbBlockTableRecord
  2
*D4
340
0
  0
BLOCK_RECORD
  5
21B
330
1
100
AcDbSymbolTableRecord
100
AcDbBlockTableRecord
  2
*D5
340
0
  0
BLOCK_RECORD
  5
227
330
1
100
AcDbSymbolTableRecord
100
AcDbBlockTableRecord
  2
*D6
340
0
  0
BLOCK_RECORD
  5
233
330
1
100
AcDbSymbolTableRecord
100
AcDbBlockTableRecord
  2
*D7
340
0
  0
BLOCK_RECORD
  5
23F
330
1
100
AcDbSymbolTableRecord
100
AcDbBlockTableRecord
  2
*D8
340
0
  0
BLOCK_RECORD
  5
24B
330
1
100
AcDbSymbolTableRecord
100
AcDbBlockTableRecord
  2
*D9
340
0
  0
BLOCK_RECORD
  5
257
330
1
100
AcDbSymbolTableRecord
100
AcDbBlockTableRecord
  2
*D10
340
0
  0
BLOCK_RECORD
  5
263
330
1
100
AcDbSymbolTableRecord
100
AcDbBlockTableRecord
  2
*D11
340
0
  0
BLOCK_RECORD
  5
26F
330
1
100
AcDbSymbolTableRecord
100
AcDbBlockTableRecord
  2
*D12
340
0
  0
BLOCK_RECORD
  5
27B
330
1
100
AcDbSymbolTableRecord
100
AcDbBlockTableRecord
  2
*D13
340
0
  0
BLOCK_RECORD
  5
287
330
1
100
AcDbSymbolTableRecord
100
AcDbBlockTableRecord
  2
*D14
340
0
  0
BLOCK_RECORD
  5
293
330
1
100
AcDbSymbolTableRecord
100
AcDbBlockTableRecord
  2
*D15
340
0
  0
BLOCK_RECORD
  5
29F
330
1
100
AcDbSymbolTableRecord
100
AcDbBlockTableRecord
  2
*D16
340
0
  0
BLOCK_RECORD
  5
2AB
330
1
100
AcDbSymbolTableRecord
100
AcDbBlockTableRecord
  2
*D17
340
0
  0
BLOCK_RECORD
  5
2B7
330
1
100
AcDbSymbolTableRecord
100
AcDbBlockTableRecord
  2
*D18
340
0
  0
BLOCK_RECORD
  5
2C3
330
1
100
AcDbSymbolTableRecord
100
AcDbBlockTableRecord
  2
*D19
340
0
  0
BLOCK_RECORD
  5
2CF
330
1
100
AcDbSymbolTableRecord
100
AcDbBlockTableRecord
  2
*D20
340
0
  0
BLOCK_RECORD
  5
2DB
330
1
100
AcDbSymbolTableRecord
100
AcDbBlockTableRecord
  2
*D21
340
0
  0
BLOCK_RECORD
  5
2E7
330
1
100
AcDbSymbolTableRecord
100
AcDbBlockTableRecord
  2
*D22
340
0
  0
BLOCK_RECORD
  5
2F3
330
1
100
AcDbSymbolTableRecord
100
AcDbBlockTableRecord
  2
*D23
340
0
  0
BLOCK_RECORD
  5
2FF
330
1
100
AcDbSymbolTableRecord
100
AcDbBlockTableRecord
  2
*D24
340
0
  0
BLOCK_RECORD
  5
30B
330
1
100
AcDbSymbolTableRecord
100
AcDbBlockTableRecord
  2
*D25
340
0
  0
BLOCK_RECORD
  5
317
330
1
100
AcDbSymbolTableRecord
100
AcDbBlockTableRecord
  2
*D26
340
0
  0
BLOCK_RECORD
  5
323
330
1
100
AcDbSymbolTableRecord
100
AcDbBlockTableRecord
  2
*D27
340
0
  0
BLOCK_RECORD
  5
32F
330
1
100
AcDbSymbolTableRecord
100
AcDbBlockTableRecord
  2
*D28
340
0
  0
BLOCK_RECORD
  5
4F7
330
1
100
AcDbSymbolTableRecord
100
AcDbBlockTableRecord
  2
*D30
340
0
  0
BLOCK_RECORD
  5
503
330
1
100
AcDbSymbolTableRecord
100
AcDbBlockTableRecord
  2
*D31
340
0
  0
BLOCK_RECORD
  5
50F
330
1
100
AcDbSymbolTableRecord
100
AcDbBlockTableRecord
  2
*D32
340
0
  0
BLOCK_RECORD
  5
51A
330
1
100
AcDbSymbolTableRecord
100
AcDbBlockTableRecord
  2
*D33
340
0
  0
BLOCK_RECORD
  5
525
330
1
100
AcDbSymbolTableRecord
100
AcDbBlockTableRecord
  2
*D34
340
0
  0
BLOCK_RECORD
  5
530
330
1
100
AcDbSymbolTableRecord
100
AcDbBlockTableRecord
  2
*D35
340
0
  0
BLOCK_RECORD
  5
53C
330
1
100
AcDbSymbolTableRecord
100
AcDbBlockTableRecord
  2
*D36
340
0
  0
BLOCK_RECORD
  5
548
330
1
100
AcDbSymbolTableRecord
100
AcDbBlockTableRecord
  2
*D37
340
0
  0
BLOCK_RECORD
  5
55D
330
1
100
AcDbSymbolTableRecord
100
AcDbBlockTableRecord
  2
*D38
340
0
  0
BLOCK_RECORD
  5
569
330
1
100
AcDbSymbolTableRecord
100
AcDbBlockTableRecord
  2
*D39
340
0
  0
BLOCK_RECORD
  5
575
330
1
100
AcDbSymbolTableRecord
100
AcDbBlockTableRecord
  2
*D40
340
0
  0
BLOCK_RECORD
  5
581
330
1
100
AcDbSymbolTableRecord
100
AcDbBlockTableRecord
  2
*D41
340
0
  0
BLOCK_RECORD
  5
58D
330
1
100
AcDbSymbolTableRecord
100
AcDbBlockTableRecord
  2
*D42
340
0
  0
BLOCK_RECORD
  5
599
330
1
100
AcDbSymbolTableRecord
100
AcDbBlockTableRecord
  2
*D43
340
0
  0
BLOCK_RECORD
  5
5A5
330
1
100
AcDbSymbolTableRecord
100
AcDbBlockTableRecord
  2
*D44
340
0
  0
BLOCK_RECORD
  5
5B1
330
1
100
AcDbSymbolTableRecord
100
AcDbBlockTableRecord
  2
*D45
340
0
  0
BLOCK_RECORD
  5
5BD
330
1
100
AcDbSymbolTableRecord
100
AcDbBlockTableRecord
  2
*D46
340
0
  0
BLOCK_RECORD
  5
5C9
330
1
100
AcDbSymbolTableRecord
100
AcDbBlockTableRecord
  2
*D47
340
0
  0
BLOCK_RECORD
  5
5D5
330
1
100
AcDbSymbolTableRecord
100
AcDbBlockTableRecord
  2
*D48
340
0
  0
BLOCK_RECORD
  5
5E1
330
1
100
AcDbSymbolTableRecord
100
AcDbBlockTableRecord
  2
*D49
340
0
  0
BLOCK_RECORD
  5
5ED
330
1
100
AcDbSymbolTableRecord
100
AcDbBlockTableRecord
  2
*D50
340
0
  0
BLOCK_RECORD
  5
5F9
330
1
100
AcDbSymbolTableRecord
100
AcDbBlockTableRecord
  2
*D51
340
0
  0
BLOCK_RECORD
  5
605
330
1
100
AcDbSymbolTableRecord
100
AcDbBlockTableRecord
  2
*D52
340
0
  0
BLOCK_RECORD
  5
611
330
1
100
AcDbSymbolTableRecord
100
AcDbBlockTableRecord
  2
*D53
340
0
  0
BLOCK_RECORD
  5
61D
330
1
100
AcDbSymbolTableRecord
100
AcDbBlockTableRecord
  2
*D54
340
0
  0
BLOCK_RECORD
  5
632
330
1
100
AcDbSymbolTableRecord
100
AcDbBlockTableRecord
  2
*D55
340
0
  0
BLOCK_RECORD
  5
63E
330
1
100
AcDbSymbolTableRecord
100
AcDbBlockTableRecord
  2
*D56
340
0
  0
ENDTAB
  0
ENDSEC
  0
SECTION
  2
BLOCKS
  0
BLOCK
  5
20
330
1F
100
AcDbEntity
  8
0
100
AcDbBlockBegin
  2
*Model_Space
 70
     0
 10
0.0
 20
0.0
 30
0.0
  3
*Model_Space
  1

  0
ENDBLK
  5
21
330
1F
100
AcDbEntity
  8
0
100
AcDbBlockEnd
  0
BLOCK
  5
D4
330
D2
100
AcDbEntity
 67
     1
  8
0
100
AcDbBlockBegin
  2
*Paper_Space
 70
     0
 10
0.0
 20
0.0
 30
0.0
  3
*Paper_Space
  1

  0
ENDBLK
  5
D5
330
D2
100
AcDbEntity
 67
     1
  8
0
100
AcDbBlockEnd
  0
BLOCK
  5
D8
330
D6
100
AcDbEntity
 67
     1
  8
0
100
AcDbBlockBegin
  2
*Paper_Space0
 70
     0
 10
0.0
 20
0.0
 30
0.0
  3
*Paper_Space0
  1

  0
ENDBLK
  5
D9
330
D6
100
AcDbEntity
 67
     1
  8
0
100
AcDbBlockEnd
  0
BLOCK
  5
1F6
330
1F4
100
AcDbEntity
  8
0
 62
     3
100
AcDbBlockBegin
  2
A$C79C4041D
 70
     0
 10
0.0
 20
0.0
 30
0.0
  3
A$C79C4041D
  1

  0
LINE
  5
1F7
330
1F4
100
AcDbEntity
  8
S10_Quote
 62
     4
100
AcDbLine
 10
-20.0
 20
-50.0
 30
0.0
 11
20.0
 21
50.0
 31
0.0
1001
AcDbBlockRepETag
1070
     1
1071
        0
1005
1F7
  0
LINE
  5
1F8
330
1F4
100
AcDbEntity
  8
S10_Quote
100
AcDbLine
 10
0.0
 20
50.0
 30
0.0
 11
0.0
 21
-50.0
 31
0.0
1001
AcDbBlockRepETag
1070
     1
1071
        1
1005
1F8
  0
ENDBLK
  5
1F9
330
1F4
100
AcDbEntity
  8
0
 62
     3
100
AcDbBlockEnd
  0
BLOCK
  5
1FB
330
1FA
100
AcDbEntity
  8
0
100
AcDbBlockBegin
  2
*D2
 70
     1
 10
0.0
 20
0.0
 30
0.0
  3
*D2
  1

  0
LINE
  5
1FC
330
1FA
100
AcDbEntity
  8
S10_Quote
 62
     0
370
    -2
100
AcDbLine
 10
-1452.919023588323
 20
3502.936761933221
 30
0.0
 11
-1457.084034111401
 21
3501.093005377614
 31
0.0
  0
LINE
  5
1FD
330
1FA
100
AcDbEntity
  8
S10_Quote
 62
     0
370
    -2
100
AcDbLine
 10
-1461.68351736397
 20
3499.056917508846
 30
0.0
 11
-1461.697233516811
 21
3499.050845676236
 31
0.0
  0
MTEXT
  5
1FE
102
{ACAD_XDICTIONARY
360
6DF
102
}
330
1FA
100
AcDbEntity
  8
S10_Quote
 62
     0
100
AcDbMText
 10
-1455.729518207345
 20
3503.67792576167
 30
0.0
 40
2.0
 41
0.0
 71
     5
 72
     1
  1
\U+22055
  7
wurth
 11
0.9144101893774811
 21
0.4047888407091279
 31
0.0
 73
     1
 44
1.0
  0
LINE
  5
1FF
330
1FA
100
AcDbEntity
  8
S10_Quote
 62
     0
370
    -2
100
AcDbLine
 10
-1461.669801211129
 20
3499.062989341457
 30
0.0
 11
-1457.097750264242
 21
3501.086933545003
 31
0.0
  0
INSERT
  5
200
330
1FA
100
AcDbEntity
  8
S10_Quote
 62
     0
370
    -2
100
AcDbBlockReference
  2
A$C79C4041D
 10
-1461.669801211129
 20
3499.062989341457
 30
0.0
 41
0.015
 42
0.015
 43
0.015
 50
23.87789549174267
  0
INSERT
  5
201
330
1FA
100
AcDbEntity
  8
S10_Quote
 62
     0
370
    -2
100
AcDbBlockReference
  2
A$C79C4041D
 10
-1457.097750264242
 20
3501.086933545003
 30
0.0
 41
0.015
 42
0.015
 43
0.015
 50
203.8778954917426
  0
POINT
  5
202
330
1FA
100
AcDbEntity
  8
Defpoints
 62
     0
100
AcDbPoint
 10
-1457.097750264242
 20
3501.086933545003
 30
0.0
  0
POINT
  5
203
330
1FA
100
AcDbEntity
  8
Defpoints
 62
     0
100
AcDbPoint
 10
-1461.669801211129
 20
3499.062989341457
 30
0.0
  0
ENDBLK
  5
204
330
1FA
100
AcDbEntity
  8
0
100
AcDbBlockEnd
  0
BLOCK
  5
206
330
205
100
AcDbEntity
  8
0
100
AcDbBlockBegin
  2
*D3
 70
     1
 10
0.0
 20
0.0
 30
0.0
  3
*D3
  1

  0
LINE
  5
207
330
205
100
AcDbEntity
  8
S10_Quote
 62
     0
370
    -2
100
AcDbLine
 10
-1340.757417053519
 20
3505.420962539622
 30
0.0
 11
-1343.738015869668
 21
3501.976723640989
 31
0.0
  0
LINE
  5
208
330
205
100
AcDbEntity
  8
S10_Quote
 62
     0
370
    -2
100
AcDbLine
 10
-1347.029535605704
 20
3498.173199245472
 30
0.0
 11
-1347.03935127092
 21
3498.161856727393
 31
0.0
  0
MTEXT
  5
209
102
{ACAD_XDICTIONARY
360
6E1
102
}
330
205
100
AcDbEntity
  8
S10_Quote
 62
     0
100
AcDbMText
 10
-1343.615544150229
 20
3504.892461524301
 30
0.0
 40
2.0
 41
0.0
 71
     5
 72
     1
  1
\U+22055
  7
wurth
 11
0.6543776811203336
 21
0.7561678718720964
 31
0.0
 73
     1
 44
1.0
  0
LINE
  5
20A
330
205
100
AcDbEntity
  8
S10_Quote
 62
     0
370
    -2
100
AcDbLine
 10
-1347.019719940487
 20
3498.18454176355
 30
0.0
 11
-1343.747831534884
 21
3501.965381122911
 31
0.0
  0
INSERT
  5
20B
330
205
100
AcDbEntity
  8
S10_Quote
 62
     0
370
    -2
100
AcDbBlockReference
  2
A$C79C4041D
 10
-1347.019719940487
 20
3498.18454176355
 30
0.0
 41
0.015
 42
0.015
 43
0.015
 50
49.12752072903646
  0
INSERT
  5
20C
330
205
100
AcDbEntity
  8
S10_Quote
 62
     0
370
    -2
100
AcDbBlockReference
  2
A$C79C4041D
 10
-1343.747831534884
 20
3501.965381122911
 30
0.0
 41
0.015
 42
0.015
 43
0.015
 50
229.1275207290365
  0
POINT
  5
20D
330
205
100
AcDbEntity
  8
Defpoints
 62
     0
100
AcDbPoint
 10
-1343.747831534884
 20
3501.965381122911
 30
0.0
  0
POINT
  5
20E
330
205
100
AcDbEntity
  8
Defpoints
 62
     0
100
AcDbPoint
 10
-1347.019719940487
 20
3498.18454176355
 30
0.0
  0
ENDBLK
  5
20F
330
205
100
AcDbEntity
  8
0
100
AcDbBlockEnd
  0
BLOCK
  5
211
330
210
100
AcDbEntity
  8
0
100
AcDbBlockBegin
  2
*D4
 70
     1
 10
0.0
 20
0.0
 30
0.0
  3
*D4
  1

  0
LINE
  5
212
330
210
100
AcDbEntity
  8
S10_Quote
 62
     0
370
    -2
100
AcDbLine
 10
-1302.485728636321
 20
3603.7156778876
 30
0.0
 11
-1305.733339355566
 21
3600.391645174678
 31
0.0
  0
LINE
  5
213
330
210
100
AcDbEntity
  8
S10_Quote
 62
     0
370
    -2
100
AcDbLine
 10
-1312.043833371253
 20
3593.932654132882
 30
0.0
 11
-1312.054315919451
 21
3593.921924911882
 31
0.0
  0
MTEXT
  5
214
102
{ACAD_XDICTIONARY
360
6E3
102
}
330
210
100
AcDbEntity
  8
S10_Quote
 62
     0
100
AcDbMText
 10
-1305.408305735648
 20
3603.333058922725
 30
0.0
 40
2.0
 41
0.0
 71
     5
 72
     1
  1
\U+22059
  7
wurth
 11
0.6988365465875944
 21
0.7152813999773271
 31
0.0
 73
     1
 44
1.0
  0
LINE
  5
215
330
210
100
AcDbEntity
  8
S10_Quote
 62
     0
370
    -2
100
AcDbLine
 10
-1312.033350823054
 20
3593.943383353881
 30
0.0
 11
-1305.743821903765
 21
3600.380915953678
 31
0.0
  0
INSERT
  5
216
330
210
100
AcDbEntity
  8
S10_Quote
 62
     0
370
    -2
100
AcDbBlockReference
  2
A$C79C4041D
 10
-1312.033350823054
 20
3593.943383353881
 30
0.0
 41
0.015
 42
0.015
 43
0.015
 50
45.66626565766639
  0
INSERT
  5
217
330
210
100
AcDbEntity
  8
S10_Quote
 62
     0
370
    -2
100
AcDbBlockReference
  2
A$C79C4041D
 10
-1305.743821903765
 20
3600.380915953678
 30
0.0
 41
0.015
 42
0.015
 43
0.015
 50
225.6662656576664
  0
POINT
  5
218
330
210
100
AcDbEntity
  8
Defpoints
 62
     0
100
AcDbPoint
 10
-1305.743821903765
 20
3600.380915953678
 30
0.0
  0
POINT
  5
219
330
210
100
AcDbEntity
  8
Defpoints
 62
     0
100
AcDbPoint
 10
-1312.033350823054
 20
3593.943383353881
 30
0.0
  0
ENDBLK
  5
21A
330
210
100
AcDbEntity
  8
0
100
AcDbBlockEnd
  0
BLOCK
  5
21C
330
21B
100
AcDbEntity
  8
0
100
AcDbBlockBegin
  2
*D5
 70
     1
 10
0.0
 20
0.0
 30
0.0
  3
*D5
  1

  0
LINE
  5
21D
330
21B
100
AcDbEntity
  8
S10_Quote
 62
     0
370
    -2
100
AcDbLine
 10
-1471.383775737685
 20
3546.037149653779
 30
0.0
 11
-1471.383775737685
 21
3539.806023987954
 31
0.0
  0
LINE
  5
21E
330
21B
100
AcDbEntity
  8
S10_Quote
 62
     0
370
    -2
100
AcDbLine
 10
-1387.383775737685
 20
3553.971100380799
 30
0.0
 11
-1387.383775737685
 21
3539.806023987954
 31
0.0
  0
LINE
  5
21F
330
21B
100
AcDbEntity
  8
S10_Quote
 62
     0
370
    -2
100
AcDbLine
 10
-1471.368775737685
 20
3541.056023987954
 30
0.0
 11
-1387.398775737685
 21
3541.056023987954
 31
0.0
  0
INSERT
  5
220
330
21B
100
AcDbEntity
  8
S10_Quote
 62
     0
370
    -2
100
AcDbBlockReference
  2
A$C79C4041D
 10
-1471.383775737685
 20
3541.056023987954
 30
0.0
 41
0.015
 42
0.015
 43
0.015
 50
180.0
  0
INSERT
  5
221
330
21B
100
AcDbEntity
  8
S10_Quote
 62
     0
370
    -2
100
AcDbBlockReference
  2
A$C79C4041D
 10
-1387.383775737685
 20
3541.056023987954
 30
0.0
 41
0.015
 42
0.015
 43
0.015
  0
MTEXT
  5
222
330
21B
100
AcDbEntity
  8
S10_Quote
 62
     0
100
AcDbMText
 10
-1429.383775737685
 20
3542.879100911032
 30
0.0
 40
2.0
 41
0.0
 71
     5
 72
     1
  1
84
  7
wurth
 73
     1
 44
1.0
  0
POINT
  5
223
330
21B
100
AcDbEntity
  8
Defpoints
 62
     0
100
AcDbPoint
 10
-1471.383775737685
 20
3546.662149653779
 30
0.0
  0
POINT
  5
224
330
21B
100
AcDbEntity
  8
Defpoints
 62
     0
100
AcDbPoint
 10
-1387.383775737685
 20
3554.596100380799
 30
0.0
  0
POINT
  5
225
330
21B
100
AcDbEntity
  8
Defpoints
 62
     0
100
AcDbPoint
 10
-1387.383775737685
 20
3541.056023987954
 30
0.0
  0
ENDBLK
  5
226
330
21B
100
AcDbEntity
  8
0
100
AcDbBlockEnd
  0
BLOCK
  5
228
330
227
100
AcDbEntity
  8
0
100
AcDbBlockBegin
  2
*D6
 70
     1
 10
0.0
 20
0.0
 30
0.0
  3
*D6
  1

  0
LINE
  5
229
330
227
100
AcDbEntity
  8
S10_Quote
 62
     0
370
    -2
100
AcDbLine
 10
-1387.383775737685
 20
3553.971100380799
 30
0.0
 11
-1387.383775737685
 21
3539.806023987955
 31
0.0
  0
LINE
  5
22A
330
227
100
AcDbEntity
  8
S10_Quote
 62
     0
370
    -2
100
AcDbLine
 10
-1382.383775737685
 20
3553.971100380799
 30
0.0
 11
-1382.383775737685
 21
3539.806023987955
 31
0.0
  0
LINE
  5
22B
330
227
100
AcDbEntity
  8
S10_Quote
 62
     0
370
    -2
100
AcDbLine
 10
-1387.368775737685
 20
3541.056023987954
 30
0.0
 11
-1382.398775737685
 21
3541.056023987954
 31
0.0
  0
INSERT
  5
22C
330
227
100
AcDbEntity
  8
S10_Quote
 62
     0
370
    -2
100
AcDbBlockReference
  2
A$C79C4041D
 10
-1387.383775737685
 20
3541.056023987954
 30
0.0
 41
0.015
 42
0.015
 43
0.015
 50
180.0
  0
INSERT
  5
22D
330
227
100
AcDbEntity
  8
S10_Quote
 62
     0
370
    -2
100
AcDbBlockReference
  2
A$C79C4041D
 10
-1382.383775737685
 20
3541.056023987954
 30
0.0
 41
0.015
 42
0.015
 43
0.015
  0
MTEXT
  5
22E
330
227
100
AcDbEntity
  8
S10_Quote
 62
     0
100
AcDbMText
 10
-1384.883775737685
 20
3542.871408603339
 30
0.0
 40
2.0
 41
0.0
 71
     5
 72
     1
  1
5
  7
wurth
 73
     1
 44
1.0
  0
POINT
  5
22F
330
227
100
AcDbEntity
  8
Defpoints
 62
     0
100
AcDbPoint
 10
-1387.383775737685
 20
3554.5961003808
 30
0.0
  0
POINT
  5
230
330
227
100
AcDbEntity
  8
Defpoints
 62
     0
100
AcDbPoint
 10
-1382.383775737685
 20
3554.5961003808
 30
0.0
  0
POINT
  5
231
330
227
100
AcDbEntity
  8
Defpoints
 62
     0
100
AcDbPoint
 10
-1382.383775737685
 20
3541.056023987954
 30
0.0
  0
ENDBLK
  5
232
330
227
100
AcDbEntity
  8
0
100
AcDbBlockEnd
  0
BLOCK
  5
234
330
233
100
AcDbEntity
  8
0
100
AcDbBlockBegin
  2
*D7
 70
     1
 10
0.0
 20
0.0
 30
0.0
  3
*D7
  1

  0
LINE
  5
235
330
233
100
AcDbEntity
  8
S10_Quote
 62
     0
370
    -2
100
AcDbLine
 10
-1382.383775737685
 20
3553.971100380799
 30
0.0
 11
-1382.383775737685
 21
3539.806023987955
 31
0.0
  0
LINE
  5
236
330
233
100
AcDbEntity
  8
S10_Quote
 62
     0
370
    -2
100
AcDbLine
 10
-1333.383775737685
 20
3546.03714965378
 30
0.0
 11
-1333.383775737685
 21
3539.806023987955
 31
0.0
  0
LINE
  5
237
330
233
100
AcDbEntity
  8
S10_Quote
 62
     0
370
    -2
100
AcDbLine
 10
-1382.368775737685
 20
3541.056023987954
 30
0.0
 11
-1333.398775737685
 21
3541.056023987954
 31
0.0
  0
INSERT
  5
238
330
233
100
AcDbEntity
  8
S10_Quote
 62
     0
370
    -2
100
AcDbBlockReference
  2
A$C79C4041D
 10
-1382.383775737685
 20
3541.056023987954
 30
0.0
 41
0.015
 42
0.015
 43
0.015
 50
180.0
  0
INSERT
  5
239
330
233
100
AcDbEntity
  8
S10_Quote
 62
     0
370
    -2
100
AcDbBlockReference
  2
A$C79C4041D
 10
-1333.383775737685
 20
3541.056023987954
 30
0.0
 41
0.015
 42
0.015
 43
0.015
  0
MTEXT
  5
23A
330
233
100
AcDbEntity
  8
S10_Quote
 62
     0
100
AcDbMText
 10
-1357.883775737685
 20
3542.886793218724
 30
0.0
 40
2.0
 41
0.0
 71
     5
 72
     1
  1
49
  7
wurth
 73
     1
 44
1.0
  0
POINT
  5
23B
330
233
100
AcDbEntity
  8
Defpoints
 62
     0
100
AcDbPoint
 10
-1382.383775737685
 20
3554.5961003808
 30
0.0
  0
POINT
  5
23C
330
233
100
AcDbEntity
  8
Defpoints
 62
     0
100
AcDbPoint
 10
-1333.383775737685
 20
3546.66214965378
 30
0.0
  0
POINT
  5
23D
330
233
100
AcDbEntity
  8
Defpoints
 62
     0
100
AcDbPoint
 10
-1333.383775737685
 20
3541.056023987954
 30
0.0
  0
ENDBLK
  5
23E
330
233
100
AcDbEntity
  8
0
100
AcDbBlockEnd
  0
BLOCK
  5
240
330
23F
100
AcDbEntity
  8
0
100
AcDbBlockBegin
  2
*D8
 70
     1
 10
0.0
 20
0.0
 30
0.0
  3
*D8
  1

  0
LINE
  5
241
330
23F
100
AcDbEntity
  8
S10_Quote
 62
     0
370
    -2
100
AcDbLine
 10
-1471.383775737685
 20
3546.03714965378
 30
0.0
 11
-1471.383775737685
 21
3535.476816351569
 31
0.0
  0
LINE
  5
242
330
23F
100
AcDbEntity
  8
S10_Quote
 62
     0
370
    -2
100
AcDbLine
 10
-1333.383775737685
 20
3546.03714965378
 30
0.0
 11
-1333.383775737685
 21
3535.476816351569
 31
0.0
  0
LINE
  5
243
330
23F
100
AcDbEntity
  8
S10_Quote
 62
     0
370
    -2
100
AcDbLine
 10
-1471.368775737685
 20
3536.72681635157
 30
0.0
 11
-1333.398775737685
 21
3536.72681635157
 31
0.0
  0
INSERT
  5
244
330
23F
100
AcDbEntity
  8
S10_Quote
 62
     0
370
    -2
100
AcDbBlockReference
  2
A$C79C4041D
 10
-1471.383775737685
 20
3536.72681635157
 30
0.0
 41
0.015
 42
0.015
 43
0.015
 50
180.0
  0
INSERT
  5
245
330
23F
100
AcDbEntity
  8
S10_Quote
 62
     0
370
    -2
100
AcDbBlockReference
  2
A$C79C4041D
 10
-1333.383775737685
 20
3536.72681635157
 30
0.0
 41
0.015
 42
0.015
 43
0.015
  0
MTEXT
  5
246
330
23F
100
AcDbEntity
  8
S10_Quote
 62
     0
100
AcDbMText
 10
-1402.383775737685
 20
3538.542200966954
 30
0.0
 40
2.0
 41
0.0
 71
     5
 72
     1
  1
138
  7
wurth
 73
     1
 44
1.0
  0
POINT
  5
247
330
23F
100
AcDbEntity
  8
Defpoints
 62
     0
100
AcDbPoint
 10
-1471.383775737685
 20
3546.66214965378
 30
0.0
  0
POINT
  5
248
330
23F
100
AcDbEntity
  8
Defpoints
 62
     0
100
AcDbPoint
 10
-1333.383775737685
 20
3546.66214965378
 30
0.0
  0
POINT
  5
249
330
23F
100
AcDbEntity
  8
Defpoints
 62
     0
100
AcDbPoint
 10
-1333.383775737685
 20
3536.72681635157
 30
0.0
  0
ENDBLK
  5
24A
330
23F
100
AcDbEntity
  8
0
100
AcDbBlockEnd
  0
BLOCK
  5
24C
330
24B
100
AcDbEntity
  8
0
100
AcDbBlockBegin
  2
*D9
 70
     1
 10
0.0
 20
0.0
 30
0.0
  3
*D9
  1

  0
LINE
  5
24D
330
24B
100
AcDbEntity
  8
S10_Quote
 62
     0
370
    -2
100
AcDbLine
 10
-1385.399644887578
 20
3612.662149653779
 30
0.0
 11
-1476.004352369072
 21
3612.662149653779
 31
0.0
  0
LINE
  5
24E
330
24B
100
AcDbEntity
  8
S10_Quote
 62
     0
370
    -2
100
AcDbLine
 10
-1388.308775737685
 20
3548.662149653779
 30
0.0
 11
-1476.004352369072
 21
3548.662149653779
 31
0.0
  0
LINE
  5
24F
330
24B
100
AcDbEntity
  8
S10_Quote
 62
     0
370
    -2
100
AcDbLine
 10
-1474.754352369072
 20
3612.647149653779
 30
0.0
 11
-1474.754352369072
 21
3548.677149653779
 31
0.0
  0
INSERT
  5
250
330
24B
100
AcDbEntity
  8
S10_Quote
 62
     0
370
    -2
100
AcDbBlockReference
  2
A$C79C4041D
 10
-1474.754352369072
 20
3612.662149653779
 30
0.0
 41
0.015
 42
0.015
 43
0.015
 50
90.0
  0
INSERT
  5
251
330
24B
100
AcDbEntity
  8
S10_Quote
 62
     0
370
    -2
100
AcDbBlockReference
  2
A$C79C4041D
 10
-1474.754352369072
 20
3548.662149653779
 30
0.0
 41
0.015
 42
0.015
 43
0.015
 50
270.0
  0
MTEXT
  5
252
330
24B
100
AcDbEntity
  8
S10_Quote
 62
     0
100
AcDbMText
 10
-1476.57742929215
 20
3580.662149653778
 30
0.0
 40
2.0
 41
0.0
 71
     5
 72
     1
  1
64
  7
wurth
 11
0.0000000000000001
 21
1.0
 31
0.0
 73
     1
 44
1.0
  0
POINT
  5
253
330
24B
100
AcDbEntity
  8
Defpoints
 62
     0
100
AcDbPoint
 10
-1384.774644887579
 20
3612.662149653779
 30
0.0
  0
POINT
  5
254
330
24B
100
AcDbEntity
  8
Defpoints
 62
     0
100
AcDbPoint
 10
-1387.683775737685
 20
3548.662149653779
 30
0.0
  0
POINT
  5
255
330
24B
100
AcDbEntity
  8
Defpoints
 62
     0
100
AcDbPoint
 10
-1474.754352369072
 20
3548.662149653779
 30
0.0
  0
ENDBLK
  5
256
330
24B
100
AcDbEntity
  8
0
100
AcDbBlockEnd
  0
BLOCK
  5
258
330
257
100
AcDbEntity
  8
0
100
AcDbBlockBegin
  2
*D10
 70
     1
 10
0.0
 20
0.0
 30
0.0
  3
*D10
  1

  0
LINE
  5
259
330
257
100
AcDbEntity
  8
S10_Quote
 62
     0
370
    -2
100
AcDbLine
 10
-1388.308775737685
 20
3548.662149653779
 30
0.0
 11
-1476.004352369072
 21
3548.662149653779
 31
0.0
  0
LINE
  5
25A
330
257
100
AcDbEntity
  8
S10_Quote
 62
     0
370
    -2
100
AcDbLine
 10
-1471.808775737685
 20
3544.662149653779
 30
0.0
 11
-1476.004352369072
 21
3544.662149653779
 31
0.0
  0
LINE
  5
25B
330
257
100
AcDbEntity
  8
S10_Quote
 62
     0
370
    -2
100
AcDbLine
 10
-1474.754352369072
 20
3548.647149653779
 30
0.0
 11
-1474.754352369072
 21
3544.677149653779
 31
0.0
  0
INSERT
  5
25C
330
257
100
AcDbEntity
  8
S10_Quote
 62
     0
370
    -2
100
AcDbBlockReference
  2
A$C79C4041D
 10
-1474.754352369072
 20
3548.662149653779
 30
0.0
 41
0.015
 42
0.015
 43
0.015
 50
90.0
  0
INSERT
  5
25D
330
257
100
AcDbEntity
  8
S10_Quote
 62
     0
370
    -2
100
AcDbBlockReference
  2
A$C79C4041D
 10
-1474.754352369072
 20
3544.662149653779
 30
0.0
 41
0.015
 42
0.015
 43
0.015
 50
270.0
  0
MTEXT
  5
25E
330
257
100
AcDbEntity
  8
S10_Quote
 62
     0
100
AcDbMText
 10
-1476.562044676765
 20
3546.662149653779
 30
0.0
 40
2.0
 41
0.0
 71
     5
 72
     1
  1
4
  7
wurth
 11
0.0000000000000001
 21
1.0
 31
0.0
 73
     1
 44
1.0
  0
POINT
  5
25F
330
257
100
AcDbEntity
  8
Defpoints
 62
     0
100
AcDbPoint
 10
-1387.683775737685
 20
3548.662149653779
 30
0.0
  0
POINT
  5
260
330
257
100
AcDbEntity
  8
Defpoints
 62
     0
100
AcDbPoint
 10
-1471.183775737685
 20
3544.662149653779
 30
0.0
  0
POINT
  5
261
330
257
100
AcDbEntity
  8
Defpoints
 62
     0
100
AcDbPoint
 10
-1474.754352369072
 20
3544.662149653779
 30
0.0
  0
ENDBLK
  5
262
330
257
100
AcDbEntity
  8
0
100
AcDbBlockEnd
  0
BLOCK
  5
264
330
263
100
AcDbEntity
  8
0
100
AcDbBlockBegin
  2
*D11
 70
     1
 10
0.0
 20
0.0
 30
0.0
  3
*D11
  1

  0
LINE
  5
265
330
263
100
AcDbEntity
  8
S10_Quote
 62
     0
370
    -2
100
AcDbLine
 10
-1381.958775737685
 20
3612.662149653779
 30
0.0
 11
-1375.991720158537
 21
3612.662149653779
 31
0.0
  0
LINE
  5
266
330
263
100
AcDbEntity
  8
S10_Quote
 62
     0
370
    -2
100
AcDbLine
 10
-1381.958775737685
 20
3601.662149653779
 30
0.0
 11
-1375.991720158537
 21
3601.662149653779
 31
0.0
  0
LINE
  5
267
330
263
100
AcDbEntity
  8
S10_Quote
 62
     0
370
    -2
100
AcDbLine
 10
-1377.241720158537
 20
3612.647149653779
 30
0.0
 11
-1377.241720158537
 21
3601.677149653779
 31
0.0
  0
INSERT
  5
268
330
263
100
AcDbEntity
  8
S10_Quote
 62
     0
370
    -2
100
AcDbBlockReference
  2
A$C79C4041D
 10
-1377.241720158537
 20
3612.662149653779
 30
0.0
 41
0.015
 42
0.015
 43
0.015
 50
90.0
  0
INSERT
  5
269
330
263
100
AcDbEntity
  8
S10_Quote
 62
     0
370
    -2
100
AcDbBlockReference
  2
A$C79C4041D
 10
-1377.241720158537
 20
3601.662149653779
 30
0.0
 41
0.015
 42
0.015
 43
0.015
 50
270.0
  0
MTEXT
  5
26A
330
263
100
AcDbEntity
  8
S10_Quote
 62
     0
100
AcDbMText
 10
-1379.041720158538
 20
3607.162149653778
 30
0.0
 40
2.0
 41
0.0
 71
     5
 72
     1
  1
11
  7
wurth
 11
0.0000000000000001
 21
1.0
 31
0.0
 73
     1
 44
1.0
  0
POINT
  5
26B
330
263
100
AcDbEntity
  8
Defpoints
 62
     0
100
AcDbPoint
 10
-1382.583775737685
 20
3612.662149653779
 30
0.0
  0
POINT
  5
26C
330
263
100
AcDbEntity
  8
Defpoints
 62
     0
100
AcDbPoint
 10
-1382.583775737685
 20
3601.662149653779
 30
0.0
  0
POINT
  5
26D
330
263
100
AcDbEntity
  8
Defpoints
 62
     0
100
AcDbPoint
 10
-1377.241720158537
 20
3601.662149653779
 30
0.0
  0
ENDBLK
  5
26E
330
263
100
AcDbEntity
  8
0
100
AcDbBlockEnd
  0
BLOCK
  5
270
330
26F
100
AcDbEntity
  8
0
100
AcDbBlockBegin
  2
*D12
 70
     1
 10
0.0
 20
0.0
 30
0.0
  3
*D12
  1

  0
LINE
  5
271
330
26F
100
AcDbEntity
  8
S10_Quote
 62
     0
370
    -2
100
AcDbLine
 10
-1381.958775737685
 20
3601.662149653779
 30
0.0
 11
-1375.991720158537
 21
3601.662149653779
 31
0.0
  0
LINE
  5
272
330
26F
100
AcDbEntity
  8
S10_Quote
 62
     0
370
    -2
100
AcDbLine
 10
-1384.029195762688
 20
3571.662149653779
 30
0.0
 11
-1375.991720158537
 21
3571.662149653779
 31
0.0
  0
LINE
  5
273
330
26F
100
AcDbEntity
  8
S10_Quote
 62
     0
370
    -2
100
AcDbLine
 10
-1377.241720158537
 20
3601.647149653779
 30
0.0
 11
-1377.241720158537
 21
3571.677149653779
 31
0.0
  0
INSERT
  5
274
330
26F
100
AcDbEntity
  8
S10_Quote
 62
     0
370
    -2
100
AcDbBlockReference
  2
A$C79C4041D
 10
-1377.241720158537
 20
3601.662149653779
 30
0.0
 41
0.015
 42
0.015
 43
0.015
 50
90.0
  0
INSERT
  5
275
330
26F
100
AcDbEntity
  8
S10_Quote
 62
     0
370
    -2
100
AcDbBlockReference
  2
A$C79C4041D
 10
-1377.241720158537
 20
3571.662149653779
 30
0.0
 41
0.015
 42
0.015
 43
0.015
 50
270.0
  0
MTEXT
  5
276
330
26F
100
AcDbEntity
  8
S10_Quote
 62
     0
100
AcDbMText
 10
-1379.057104773922
 20
3586.662149653778
 30
0.0
 40
2.0
 41
0.0
 71
     5
 72
     1
  1
30
  7
wurth
 11
0.0000000000000001
 21
1.0
 31
0.0
 73
     1
 44
1.0
  0
POINT
  5
277
330
26F
100
AcDbEntity
  8
Defpoints
 62
     0
100
AcDbPoint
 10
-1382.583775737685
 20
3601.662149653779
 30
0.0
  0
POINT
  5
278
330
26F
100
AcDbEntity
  8
Defpoints
 62
     0
100
AcDbPoint
 10
-1384.654195762688
 20
3571.662149653779
 30
0.0
  0
POINT
  5
279
330
26F
100
AcDbEntity
  8
Defpoints
 62
     0
100
AcDbPoint
 10
-1377.241720158537
 20
3571.662149653779
 30
0.0
  0
ENDBLK
  5
27A
330
26F
100
AcDbEntity
  8
0
100
AcDbBlockEnd
  0
BLOCK
  5
27C
330
27B
100
AcDbEntity
  8
0
100
AcDbBlockBegin
  2
*D13
 70
     1
 10
0.0
 20
0.0
 30
0.0
  3
*D13
  1

  0
LINE
  5
27D
330
27B
100
AcDbEntity
  8
S10_Quote
 62
     0
370
    -2
100
AcDbLine
 10
-1384.029195762688
 20
3571.662149653779
 30
0.0
 11
-1375.991720158537
 21
3571.662149653779
 31
0.0
  0
LINE
  5
27E
330
27B
100
AcDbEntity
  8
S10_Quote
 62
     0
370
    -2
100
AcDbLine
 10
-1381.458775737685
 20
3548.662149653779
 30
0.0
 11
-1375.991720158537
 21
3548.662149653779
 31
0.0
  0
LINE
  5
27F
330
27B
100
AcDbEntity
  8
S10_Quote
 62
     0
370
    -2
100
AcDbLine
 10
-1377.241720158537
 20
3571.647149653779
 30
0.0
 11
-1377.241720158537
 21
3548.677149653779
 31
0.0
  0
INSERT
  5
280
330
27B
100
AcDbEntity
  8
S10_Quote
 62
     0
370
    -2
100
AcDbBlockReference
  2
A$C79C4041D
 10
-1377.241720158537
 20
3571.662149653779
 30
0.0
 41
0.015
 42
0.015
 43
0.015
 50
90.0
  0
INSERT
  5
281
330
27B
100
AcDbEntity
  8
S10_Quote
 62
     0
370
    -2
100
AcDbBlockReference
  2
A$C79C4041D
 10
-1377.241720158537
 20
3548.662149653779
 30
0.0
 41
0.015
 42
0.015
 43
0.015
 50
270.0
  0
MTEXT
  5
282
330
27B
100
AcDbEntity
  8
S10_Quote
 62
     0
100
AcDbMText
 10
-1379.057104773922
 20
3560.162149653778
 30
0.0
 40
2.0
 41
0.0
 71
     5
 72
     1
  1
23
  7
wurth
 11
0.0000000000000001
 21
1.0
 31
0.0
 73
     1
 44
1.0
  0
POINT
  5
283
330
27B
100
AcDbEntity
  8
Defpoints
 62
     0
100
AcDbPoint
 10
-1384.654195762688
 20
3571.662149653779
 30
0.0
  0
POINT
  5
284
330
27B
100
AcDbEntity
  8
Defpoints
 62
     0
100
AcDbPoint
 10
-1382.083775737685
 20
3548.662149653779
 30
0.0
  0
POINT
  5
285
330
27B
100
AcDbEntity
  8
Defpoints
 62
     0
100
AcDbPoint
 10
-1377.241720158537
 20
3548.662149653779
 30
0.0
  0
ENDBLK
  5
286
330
27B
100
AcDbEntity
  8
0
100
AcDbBlockEnd
  0
BLOCK
  5
288
330
287
100
AcDbEntity
  8
0
100
AcDbBlockBegin
  2
*D14
 70
     1
 10
0.0
 20
0.0
 30
0.0
  3
*D14
  1

  0
LINE
  5
289
330
287
100
AcDbEntity
  8
S10_Quote
 62
     0
370
    -2
100
AcDbLine
 10
-1323.888586363409
 20
3544.037149653779
 30
0.0
 11
-1323.888586363409
 21
3539.806023987955
 31
0.0
  0
LINE
  5
28A
330
287
100
AcDbEntity
  8
S10_Quote
 62
     0
370
    -2
100
AcDbLine
 10
-1293.888586363409
 20
3544.037149653779
 30
0.0
 11
-1293.888586363409
 21
3539.806023987955
 31
0.0
  0
LINE
  5
28B
330
287
100
AcDbEntity
  8
S10_Quote
 62
     0
370
    -2
100
AcDbLine
 10
-1323.873586363409
 20
3541.056023987954
 30
0.0
 11
-1293.903586363409
 21
3541.056023987954
 31
0.0
  0
INSERT
  5
28C
330
287
100
AcDbEntity
  8
S10_Quote
 62
     0
370
    -2
100
AcDbBlockReference
  2
A$C79C4041D
 10
-1323.888586363409
 20
3541.056023987954
 30
0.0
 41
0.015
 42
0.015
 43
0.015
 50
180.0
  0
INSERT
  5
28D
330
287
100
AcDbEntity
  8
S10_Quote
 62
     0
370
    -2
100
AcDbBlockReference
  2
A$C79C4041D
 10
-1293.888586363409
 20
3541.056023987954
 30
0.0
 41
0.015
 42
0.015
 43
0.015
  0
MTEXT
  5
28E
330
287
100
AcDbEntity
  8
S10_Quote
 62
     0
100
AcDbMText
 10
-1308.888586363409
 20
3542.871408603339
 30
0.0
 40
2.0
 41
0.0
 71
     5
 72
     1
  1
30
  7
wurth
 73
     1
 44
1.0
  0
POINT
  5
28F
330
287
100
AcDbEntity
  8
Defpoints
 62
     0
100
AcDbPoint
 10
-1323.888586363409
 20
3544.662149653779
 30
0.0
  0
POINT
  5
290
330
287
100
AcDbEntity
  8
Defpoints
 62
     0
100
AcDbPoint
 10
-1293.888586363409
 20
3544.662149653779
 30
0.0
  0
POINT
  5
291
330
287
100
AcDbEntity
  8
Defpoints
 62
     0
100
AcDbPoint
 10
-1293.888586363409
 20
3541.056023987954
 30
0.0
  0
ENDBLK
  5
292
330
287
100
AcDbEntity
  8
0
100
AcDbBlockEnd
  0
BLOCK
  5
294
330
293
100
AcDbEntity
  8
0
100
AcDbBlockBegin
  2
*D15
 70
     1
 10
0.0
 20
0.0
 30
0.0
  3
*D15
  1

  0
LINE
  5
295
330
293
100
AcDbEntity
  8
S10_Quote
 62
     0
370
    -2
100
AcDbLine
 10
-1308.263586363409
 20
3544.662149653779
 30
0.0
 11
-1288.044121020178
 21
3544.662149653779
 31
0.0
  0
LINE
  5
296
330
293
100
AcDbEntity
  8
S10_Quote
 62
     0
370
    -2
100
AcDbLine
 10
-1308.263586363409
 20
3548.662149653779
 30
0.0
 11
-1288.044121020178
 21
3548.662149653779
 31
0.0
  0
LINE
  5
297
330
293
100
AcDbEntity
  8
S10_Quote
 62
     0
370
    -2
100
AcDbLine
 10
-1289.294121020178
 20
3544.677149653779
 30
0.0
 11
-1289.294121020178
 21
3548.647149653779
 31
0.0
  0
INSERT
  5
298
330
293
100
AcDbEntity
  8
S10_Quote
 62
     0
370
    -2
100
AcDbBlockReference
  2
A$C79C4041D
 10
-1289.294121020178
 20
3544.662149653779
 30
0.0
 41
0.015
 42
0.015
 43
0.015
 50
270.0
  0
INSERT
  5
299
330
293
100
AcDbEntity
  8
S10_Quote
 62
     0
370
    -2
100
AcDbBlockReference
  2
A$C79C4041D
 10
-1289.294121020178
 20
3548.662149653779
 30
0.0
 41
0.015
 42
0.015
 43
0.015
 50
90.0
  0
MTEXT
  5
29A
330
293
100
AcDbEntity
  8
S10_Quote
 62
     0
100
AcDbMText
 10
-1291.101813327871
 20
3546.662149653779
 30
0.0
 40
2.0
 41
0.0
 71
     5
 72
     1
  1
4
  7
wurth
 11
0.0000000000000001
 21
1.0
 31
0.0
 73
     1
 44
1.0
  0
POINT
  5
29B
330
293
100
AcDbEntity
  8
Defpoints
 62
     0
100
AcDbPoint
 10
-1308.888586363409
 20
3544.662149653779
 30
0.0
  0
POINT
  5
29C
330
293
100
AcDbEntity
  8
Defpoints
 62
     0
100
AcDbPoint
 10
-1308.888586363409
 20
3548.662149653779
 30
0.0
  0
POINT
  5
29D
330
293
100
AcDbEntity
  8
Defpoints
 62
     0
100
AcDbPoint
 10
-1289.294121020178
 20
3548.662149653779
 30
0.0
  0
ENDBLK
  5
29E
330
293
100
AcDbEntity
  8
0
100
AcDbBlockEnd
  0
BLOCK
  5
2A0
330
29F
100
AcDbEntity
  8
0
100
AcDbBlockBegin
  2
*D16
 70
     1
 10
0.0
 20
0.0
 30
0.0
  3
*D16
  1

  0
LINE
  5
2A1
330
29F
100
AcDbEntity
  8
S10_Quote
 62
     0
370
    -2
100
AcDbLine
 10
-1308.263586363409
 20
3548.662149653779
 30
0.0
 11
-1288.044121020178
 21
3548.662149653779
 31
0.0
  0
LINE
  5
2A2
330
29F
100
AcDbEntity
  8
S10_Quote
 62
     0
370
    -2
100
AcDbLine
 10
-1293.263586363409
 20
3612.662149653779
 30
0.0
 11
-1288.044121020178
 21
3612.662149653779
 31
0.0
  0
LINE
  5
2A3
330
29F
100
AcDbEntity
  8
S10_Quote
 62
     0
370
    -2
100
AcDbLine
 10
-1289.294121020178
 20
3548.677149653779
 30
0.0
 11
-1289.294121020178
 21
3612.647149653779
 31
0.0
  0
INSERT
  5
2A4
330
29F
100
AcDbEntity
  8
S10_Quote
 62
     0
370
    -2
100
AcDbBlockReference
  2
A$C79C4041D
 10
-1289.294121020178
 20
3548.662149653779
 30
0.0
 41
0.015
 42
0.015
 43
0.015
 50
270.0
  0
INSERT
  5
2A5
330
29F
100
AcDbEntity
  8
S10_Quote
 62
     0
370
    -2
100
AcDbBlockReference
  2
A$C79C4041D
 10
-1289.294121020178
 20
3612.662149653779
 30
0.0
 41
0.015
 42
0.015
 43
0.015
 50
90.0
  0
MTEXT
  5
2A6
330
29F
100
AcDbEntity
  8
S10_Quote
 62
     0
100
AcDbMText
 10
-1291.117197943256
 20
3580.662149653778
 30
0.0
 40
2.0
 41
0.0
 71
     5
 72
     1
  1
64
  7
wurth
 11
0.0000000000000001
 21
1.0
 31
0.0
 73
     1
 44
1.0
  0
POINT
  5
2A7
330
29F
100
AcDbEntity
  8
Defpoints
 62
     0
100
AcDbPoint
 10
-1308.888586363409
 20
3548.662149653779
 30
0.0
  0
POINT
  5
2A8
330
29F
100
AcDbEntity
  8
Defpoints
 62
     0
100
AcDbPoint
 10
-1293.888586363409
 20
3612.662149653779
 30
0.0
  0
POINT
  5
2A9
330
29F
100
AcDbEntity
  8
Defpoints
 62
     0
100
AcDbPoint
 10
-1289.294121020178
 20
3612.662149653779
 30
0.0
  0
ENDBLK
  5
2AA
330
29F
100
AcDbEntity
  8
0
100
AcDbBlockEnd
  0
BLOCK
  5
2AC
330
2AB
100
AcDbEntity
  8
0
100
AcDbBlockBegin
  2
*D17
 70
     1
 10
0.0
 20
0.0
 30
0.0
  3
*D17
  1

  0
LINE
  5
2AD
330
2AB
100
AcDbEntity
  8
S10_Quote
 62
     0
370
    -2
100
AcDbLine
 10
-1309.513586363409
 20
3612.662149653779
 30
0.0
 11
-1329.7517930262
 21
3612.662149653779
 31
0.0
  0
LINE
  5
2AE
330
2AB
100
AcDbEntity
  8
S10_Quote
 62
     0
370
    -2
100
AcDbLine
 10
-1309.513586363409
 20
3601.662149653779
 30
0.0
 11
-1329.7517930262
 21
3601.662149653779
 31
0.0
  0
LINE
  5
2AF
330
2AB
100
AcDbEntity
  8
S10_Quote
 62
     0
370
    -2
100
AcDbLine
 10
-1328.501793026199
 20
3612.647149653779
 30
0.0
 11
-1328.501793026199
 21
3601.677149653779
 31
0.0
  0
INSERT
  5
2B0
330
2AB
100
AcDbEntity
  8
S10_Quote
 62
     0
370
    -2
100
AcDbBlockReference
  2
A$C79C4041D
 10
-1328.501793026199
 20
3612.662149653779
 30
0.0
 41
0.015
 42
0.015
 43
0.015
 50
90.0
  0
INSERT
  5
2B1
330
2AB
100
AcDbEntity
  8
S10_Quote
 62
     0
370
    -2
100
AcDbBlockReference
  2
A$C79C4041D
 10
-1328.501793026199
 20
3601.662149653779
 30
0.0
 41
0.015
 42
0.015
 43
0.015
 50
270.0
  0
MTEXT
  5
2B2
330
2AB
100
AcDbEntity
  8
S10_Quote
 62
     0
100
AcDbMText
 10
-1330.3017930262
 20
3607.162149653778
 30
0.0
 40
2.0
 41
0.0
 71
     5
 72
     1
  1
11
  7
wurth
 11
0.0000000000000001
 21
1.0
 31
0.0
 73
     1
 44
1.0
  0
POINT
  5
2B3
330
2AB
100
AcDbEntity
  8
Defpoints
 62
     0
100
AcDbPoint
 10
-1308.888586363409
 20
3612.662149653779
 30
0.0
  0
POINT
  5
2B4
330
2AB
100
AcDbEntity
  8
Defpoints
 62
     0
100
AcDbPoint
 10
-1308.888586363409
 20
3601.662149653779
 30
0.0
  0
POINT
  5
2B5
330
2AB
100
AcDbEntity
  8
Defpoints
 62
     0
100
AcDbPoint
 10
-1328.501793026199
 20
3601.662149653779
 30
0.0
  0
ENDBLK
  5
2B6
330
2AB
100
AcDbEntity
  8
0
100
AcDbBlockEnd
  0
BLOCK
  5
2B8
330
2B7
100
AcDbEntity
  8
0
100
AcDbBlockBegin
  2
*D18
 70
     1
 10
0.0
 20
0.0
 30
0.0
  3
*D18
  1

  0
LINE
  5
2B9
330
2B7
100
AcDbEntity
  8
S10_Quote
 62
     0
370
    -2
100
AcDbLine
 10
-1309.513586363409
 20
3601.662149653779
 30
0.0
 11
-1329.751793026199
 21
3601.662149653779
 31
0.0
  0
LINE
  5
2BA
330
2B7
100
AcDbEntity
  8
S10_Quote
 62
     0
370
    -2
100
AcDbLine
 10
-1309.513586363409
 20
3571.662149653779
 30
0.0
 11
-1329.7517930262
 21
3571.662149653779
 31
0.0
  0
LINE
  5
2BB
330
2B7
100
AcDbEntity
  8
S10_Quote
 62
     0
370
    -2
100
AcDbLine
 10
-1328.501793026199
 20
3601.647149653779
 30
0.0
 11
-1328.501793026199
 21
3571.677149653779
 31
0.0
  0
INSERT
  5
2BC
330
2B7
100
AcDbEntity
  8
S10_Quote
 62
     0
370
    -2
100
AcDbBlockReference
  2
A$C79C4041D
 10
-1328.501793026199
 20
3601.662149653779
 30
0.0
 41
0.015
 42
0.015
 43
0.015
 50
90.0
  0
INSERT
  5
2BD
330
2B7
100
AcDbEntity
  8
S10_Quote
 62
     0
370
    -2
100
AcDbBlockReference
  2
A$C79C4041D
 10
-1328.501793026199
 20
3571.662149653779
 30
0.0
 41
0.015
 42
0.015
 43
0.015
 50
270.0
  0
MTEXT
  5
2BE
330
2B7
100
AcDbEntity
  8
S10_Quote
 62
     0
100
AcDbMText
 10
-1330.317177641585
 20
3586.662149653778
 30
0.0
 40
2.0
 41
0.0
 71
     5
 72
     1
  1
30
  7
wurth
 11
0.0000000000000001
 21
1.0
 31
0.0
 73
     1
 44
1.0
  0
POINT
  5
2BF
330
2B7
100
AcDbEntity
  8
Defpoints
 62
     0
100
AcDbPoint
 10
-1308.888586363409
 20
3601.662149653779
 30
0.0
  0
POINT
  5
2C0
330
2B7
100
AcDbEntity
  8
Defpoints
 62
     0
100
AcDbPoint
 10
-1308.888586363409
 20
3571.662149653779
 30
0.0
  0
POINT
  5
2C1
330
2B7
100
AcDbEntity
  8
Defpoints
 62
     0
100
AcDbPoint
 10
-1328.501793026199
 20
3571.662149653779
 30
0.0
  0
ENDBLK
  5
2C2
330
2B7
100
AcDbEntity
  8
0
100
AcDbBlockEnd
  0
BLOCK
  5
2C4
330
2C3
100
AcDbEntity
  8
0
100
AcDbBlockBegin
  2
*D19
 70
     1
 10
0.0
 20
0.0
 30
0.0
  3
*D19
  1

  0
LINE
  5
2C5
330
2C3
100
AcDbEntity
  8
S10_Quote
 62
     0
370
    -2
100
AcDbLine
 10
-1309.513586363409
 20
3571.662149653779
 30
0.0
 11
-1329.7517930262
 21
3571.662149653779
 31
0.0
  0
LINE
  5
2C6
330
2C3
100
AcDbEntity
  8
S10_Quote
 62
     0
370
    -2
100
AcDbLine
 10
-1324.513586363409
 20
3548.662149653779
 30
0.0
 11
-1329.7517930262
 21
3548.662149653779
 31
0.0
  0
LINE
  5
2C7
330
2C3
100
AcDbEntity
  8
S10_Quote
 62
     0
370
    -2
100
AcDbLine
 10
-1328.501793026199
 20
3571.647149653779
 30
0.0
 11
-1328.501793026199
 21
3548.677149653779
 31
0.0
  0
INSERT
  5
2C8
330
2C3
100
AcDbEntity
  8
S10_Quote
 62
     0
370
    -2
100
AcDbBlockReference
  2
A$C79C4041D
 10
-1328.501793026199
 20
3571.662149653779
 30
0.0
 41
0.015
 42
0.015
 43
0.015
 50
90.0
  0
INSERT
  5
2C9
330
2C3
100
AcDbEntity
  8
S10_Quote
 62
     0
370
    -2
100
AcDbBlockReference
  2
A$C79C4041D
 10
-1328.501793026199
 20
3548.662149653779
 30
0.0
 41
0.015
 42
0.015
 43
0.015
 50
270.0
  0
MTEXT
  5
2CA
330
2C3
100
AcDbEntity
  8
S10_Quote
 62
     0
100
AcDbMText
 10
-1330.317177641585
 20
3560.162149653778
 30
0.0
 40
2.0
 41
0.0
 71
     5
 72
     1
  1
23
  7
wurth
 11
0.0000000000000001
 21
1.0
 31
0.0
 73
     1
 44
1.0
  0
POINT
  5
2CB
330
2C3
100
AcDbEntity
  8
Defpoints
 62
     0
100
AcDbPoint
 10
-1308.888586363409
 20
3571.662149653779
 30
0.0
  0
POINT
  5
2CC
330
2C3
100
AcDbEntity
  8
Defpoints
 62
     0
100
AcDbPoint
 10
-1323.888586363409
 20
3548.662149653779
 30
0.0
  0
POINT
  5
2CD
330
2C3
100
AcDbEntity
  8
Defpoints
 62
     0
100
AcDbPoint
 10
-1328.501793026199
 20
3548.662149653779
 30
0.0
  0
ENDBLK
  5
2CE
330
2C3
100
AcDbEntity
  8
0
100
AcDbBlockEnd
  0
BLOCK
  5
2D0
330
2CF
100
AcDbEntity
  8
0
100
AcDbBlockBegin
  2
*D20
 70
     1
 10
0.0
 20
0.0
 30
0.0
  3
*D20
  1

  0
LINE
  5
2D1
330
2CF
100
AcDbEntity
  8
S10_Quote
 62
     0
370
    -2
100
AcDbLine
 10
-1324.513586363409
 20
3548.662149653779
 30
0.0
 11
-1329.7517930262
 21
3548.662149653779
 31
0.0
  0
LINE
  5
2D2
330
2CF
100
AcDbEntity
  8
S10_Quote
 62
     0
370
    -2
100
AcDbLine
 10
-1324.513586363409
 20
3544.662149653779
 30
0.0
 11
-1329.7517930262
 21
3544.662149653779
 31
0.0
  0
LINE
  5
2D3
330
2CF
100
AcDbEntity
  8
S10_Quote
 62
     0
370
    -2
100
AcDbLine
 10
-1328.501793026199
 20
3548.647149653779
 30
0.0
 11
-1328.501793026199
 21
3544.677149653779
 31
0.0
  0
INSERT
  5
2D4
330
2CF
100
AcDbEntity
  8
S10_Quote
 62
     0
370
    -2
100
AcDbBlockReference
  2
A$C79C4041D
 10
-1328.501793026199
 20
3548.662149653779
 30
0.0
 41
0.015
 42
0.015
 43
0.015
 50
90.0
  0
INSERT
  5
2D5
330
2CF
100
AcDbEntity
  8
S10_Quote
 62
     0
370
    -2
100
AcDbBlockReference
  2
A$C79C4041D
 10
-1328.501793026199
 20
3544.662149653779
 30
0.0
 41
0.015
 42
0.015
 43
0.015
 50
270.0
  0
MTEXT
  5
2D6
330
2CF
100
AcDbEntity
  8
S10_Quote
 62
     0
100
AcDbMText
 10
-1330.309485333893
 20
3546.662149653779
 30
0.0
 40
2.0
 41
0.0
 71
     5
 72
     1
  1
4
  7
wurth
 11
0.0000000000000001
 21
1.0
 31
0.0
 73
     1
 44
1.0
  0
POINT
  5
2D7
330
2CF
100
AcDbEntity
  8
Defpoints
 62
     0
100
AcDbPoint
 10
-1323.888586363409
 20
3548.662149653779
 30
0.0
  0
POINT
  5
2D8
330
2CF
100
AcDbEntity
  8
Defpoints
 62
     0
100
AcDbPoint
 10
-1323.888586363409
 20
3544.662149653779
 30
0.0
  0
POINT
  5
2D9
330
2CF
100
AcDbEntity
  8
Defpoints
 62
     0
100
AcDbPoint
 10
-1328.501793026199
 20
3544.662149653779
 30
0.0
  0
ENDBLK
  5
2DA
330
2CF
100
AcDbEntity
  8
0
100
AcDbBlockEnd
  0
BLOCK
  5
2DC
330
2DB
100
AcDbEntity
  8
0
100
AcDbBlockBegin
  2
*D21
 70
     1
 10
0.0
 20
0.0
 30
0.0
  3
*D21
  1

  0
LINE
  5
2DD
330
2DB
100
AcDbEntity
  8
S10_Quote
 62
     0
370
    -2
100
AcDbLine
 10
-1471.383775737685
 20
3484.44996144323
 30
0.0
 11
-1471.383775737685
 21
3478.466878650623
 31
0.0
  0
LINE
  5
2DE
330
2DB
100
AcDbEntity
  8
S10_Quote
 62
     0
370
    -2
100
AcDbLine
 10
-1459.383775737685
 20
3499.44996144323
 30
0.0
 11
-1459.383775737685
 21
3478.466878650623
 31
0.0
  0
LINE
  5
2DF
330
2DB
100
AcDbEntity
  8
S10_Quote
 62
     0
370
    -2
100
AcDbLine
 10
-1471.368775737685
 20
3479.716878650624
 30
0.0
 11
-1459.398775737686
 21
3479.716878650624
 31
0.0
  0
INSERT
  5
2E0
330
2DB
100
AcDbEntity
  8
S10_Quote
 62
     0
370
    -2
100
AcDbBlockReference
  2
A$C79C4041D
 10
-1471.383775737685
 20
3479.716878650624
 30
0.0
 41
0.015
 42
0.015
 43
0.015
 50
180.0
  0
INSERT
  5
2E1
330
2DB
100
AcDbEntity
  8
S10_Quote
 62
     0
370
    -2
100
AcDbBlockReference
  2
A$C79C4041D
 10
-1459.383775737685
 20
3479.716878650624
 30
0.0
 41
0.015
 42
0.015
 43
0.015
  0
MTEXT
  5
2E2
330
2DB
100
AcDbEntity
  8
S10_Quote
 62
     0
100
AcDbMText
 10
-1465.383775737685
 20
3481.516878650623
 30
0.0
 40
2.0
 41
0.0
 71
     5
 72
     1
  1
12
  7
wurth
 73
     1
 44
1.0
  0
POINT
  5
2E3
330
2DB
100
AcDbEntity
  8
Defpoints
 62
     0
100
AcDbPoint
 10
-1471.383775737685
 20
3485.07496144323
 30
0.0
  0
POINT
  5
2E4
330
2DB
100
AcDbEntity
  8
Defpoints
 62
     0
100
AcDbPoint
 10
-1459.383775737685
 20
3500.07496144323
 30
0.0
  0
POINT
  5
2E5
330
2DB
100
AcDbEntity
  8
Defpoints
 62
     0
100
AcDbPoint
 10
-1459.383775737685
 20
3479.716878650624
 30
0.0
  0
ENDBLK
  5
2E6
330
2DB
100
AcDbEntity
  8
0
100
AcDbBlockEnd
  0
BLOCK
  5
2E8
330
2E7
100
AcDbEntity
  8
0
100
AcDbBlockBegin
  2
*D22
 70
     1
 10
0.0
 20
0.0
 30
0.0
  3
*D22
  1

  0
LINE
  5
2E9
330
2E7
100
AcDbEntity
  8
S10_Quote
 62
     0
370
    -2
100
AcDbLine
 10
-1459.383775737685
 20
3499.44996144323
 30
0.0
 11
-1459.383775737685
 21
3478.466878650623
 31
0.0
  0
LINE
  5
2EA
330
2E7
100
AcDbEntity
  8
S10_Quote
 62
     0
370
    -2
100
AcDbLine
 10
-1387.383775737685
 20
3484.44996144323
 30
0.0
 11
-1387.383775737685
 21
3478.466878650623
 31
0.0
  0
LINE
  5
2EB
330
2E7
100
AcDbEntity
  8
S10_Quote
 62
     0
370
    -2
100
AcDbLine
 10
-1459.368775737685
 20
3479.716878650624
 30
0.0
 11
-1387.398775737685
 21
3479.716878650624
 31
0.0
  0
INSERT
  5
2EC
330
2E7
100
AcDbEntity
  8
S10_Quote
 62
     0
370
    -2
100
AcDbBlockReference
  2
A$C79C4041D
 10
-1459.383775737685
 20
3479.716878650624
 30
0.0
 41
0.015
 42
0.015
 43
0.015
 50
180.0
  0
INSERT
  5
2ED
330
2E7
100
AcDbEntity
  8
S10_Quote
 62
     0
370
    -2
100
AcDbBlockReference
  2
A$C79C4041D
 10
-1387.383775737685
 20
3479.716878650624
 30
0.0
 41
0.015
 42
0.015
 43
0.015
  0
MTEXT
  5
2EE
330
2E7
100
AcDbEntity
  8
S10_Quote
 62
     0
100
AcDbMText
 10
-1423.383775737685
 20
3481.539256273001
 30
0.0
 40
2.0
 41
0.0
 71
     5
 72
     1
  1
72
  7
wurth
 73
     1
 44
1.0
  0
POINT
  5
2EF
330
2E7
100
AcDbEntity
  8
Defpoints
 62
     0
100
AcDbPoint
 10
-1459.383775737685
 20
3500.07496144323
 30
0.0
  0
POINT
  5
2F0
330
2E7
100
AcDbEntity
  8
Defpoints
 62
     0
100
AcDbPoint
 10
-1387.383775737685
 20
3485.07496144323
 30
0.0
  0
POINT
  5
2F1
330
2E7
100
AcDbEntity
  8
Defpoints
 62
     0
100
AcDbPoint
 10
-1387.383775737685
 20
3479.716878650624
 30
0.0
  0
ENDBLK
  5
2F2
330
2E7
100
AcDbEntity
  8
0
100
AcDbBlockEnd
  0
BLOCK
  5
2F4
330
2F3
100
AcDbEntity
  8
0
100
AcDbBlockBegin
  2
*D23
 70
     1
 10
0.0
 20
0.0
 30
0.0
  3
*D23
  1

  0
LINE
  5
2F5
330
2F3
100
AcDbEntity
  8
S10_Quote
 62
     0
370
    -2
100
AcDbLine
 10
-1387.383775737685
 20
3484.44996144323
 30
0.0
 11
-1387.383775737685
 21
3478.466878650623
 31
0.0
  0
LINE
  5
2F6
330
2F3
100
AcDbEntity
  8
S10_Quote
 62
     0
370
    -2
100
AcDbLine
 10
-1382.383775737685
 20
3484.44996144323
 30
0.0
 11
-1382.383775737685
 21
3478.466878650623
 31
0.0
  0
LINE
  5
2F7
330
2F3
100
AcDbEntity
  8
S10_Quote
 62
     0
370
    -2
100
AcDbLine
 10
-1387.368775737685
 20
3479.716878650624
 30
0.0
 11
-1382.398775737685
 21
3479.716878650624
 31
0.0
  0
INSERT
  5
2F8
330
2F3
100
AcDbEntity
  8
S10_Quote
 62
     0
370
    -2
100
AcDbBlockReference
  2
A$C79C4041D
 10
-1387.383775737685
 20
3479.716878650624
 30
0.0
 41
0.015
 42
0.015
 43
0.015
 50
180.0
  0
INSERT
  5
2F9
330
2F3
100
AcDbEntity
  8
S10_Quote
 62
     0
370
    -2
100
AcDbBlockReference
  2
A$C79C4041D
 10
-1382.383775737685
 20
3479.716878650624
 30
0.0
 41
0.015
 42
0.015
 43
0.015
  0
MTEXT
  5
2FA
330
2F3
100
AcDbEntity
  8
S10_Quote
 62
     0
100
AcDbMText
 10
-1384.883775737685
 20
3481.532263266008
 30
0.0
 40
2.0
 41
0.0
 71
     5
 72
     1
  1
5
  7
wurth
 73
     1
 44
1.0
  0
POINT
  5
2FB
330
2F3
100
AcDbEntity
  8
Defpoints
 62
     0
100
AcDbPoint
 10
-1387.383775737685
 20
3485.07496144323
 30
0.0
  0
POINT
  5
2FC
330
2F3
100
AcDbEntity
  8
Defpoints
 62
     0
100
AcDbPoint
 10
-1382.383775737685
 20
3485.07496144323
 30
0.0
  0
POINT
  5
2FD
330
2F3
100
AcDbEntity
  8
Defpoints
 62
     0
100
AcDbPoint
 10
-1382.383775737685
 20
3479.716878650624
 30
0.0
  0
ENDBLK
  5
2FE
330
2F3
100
AcDbEntity
  8
0
100
AcDbBlockEnd
  0
BLOCK
  5
300
330
2FF
100
AcDbEntity
  8
0
100
AcDbBlockBegin
  2
*D24
 70
     1
 10
0.0
 20
0.0
 30
0.0
  3
*D24
  1

  0
LINE
  5
301
330
2FF
100
AcDbEntity
  8
S10_Quote
 62
     0
370
    -2
100
AcDbLine
 10
-1382.383775737685
 20
3484.44996144323
 30
0.0
 11
-1382.383775737685
 21
3478.466878650623
 31
0.0
  0
LINE
  5
302
330
2FF
100
AcDbEntity
  8
S10_Quote
 62
     0
370
    -2
100
AcDbLine
 10
-1345.383775737685
 20
3499.44996144323
 30
0.0
 11
-1345.383775737685
 21
3478.466878650623
 31
0.0
  0
LINE
  5
303
330
2FF
100
AcDbEntity
  8
S10_Quote
 62
     0
370
    -2
100
AcDbLine
 10
-1382.368775737685
 20
3479.716878650624
 30
0.0
 11
-1345.398775737685
 21
3479.716878650624
 31
0.0
  0
INSERT
  5
304
330
2FF
100
AcDbEntity
  8
S10_Quote
 62
     0
370
    -2
100
AcDbBlockReference
  2
A$C79C4041D
 10
-1382.383775737685
 20
3479.716878650624
 30
0.0
 41
0.015
 42
0.015
 43
0.015
 50
180.0
  0
INSERT
  5
305
330
2FF
100
AcDbEntity
  8
S10_Quote
 62
     0
370
    -2
100
AcDbBlockReference
  2
A$C79C4041D
 10
-1345.383775737685
 20
3479.716878650624
 30
0.0
 41
0.015
 42
0.015
 43
0.015
  0
MTEXT
  5
306
330
2FF
100
AcDbEntity
  8
S10_Quote
 62
     0
100
AcDbMText
 10
-1363.883775737685
 20
3481.539256273001
 30
0.0
 40
2.0
 41
0.0
 71
     5
 72
     1
  1
37
  7
wurth
 73
     1
 44
1.0
  0
POINT
  5
307
330
2FF
100
AcDbEntity
  8
Defpoints
 62
     0
100
AcDbPoint
 10
-1382.383775737685
 20
3485.07496144323
 30
0.0
  0
POINT
  5
308
330
2FF
100
AcDbEntity
  8
Defpoints
 62
     0
100
AcDbPoint
 10
-1345.383775737685
 20
3500.07496144323
 30
0.0
  0
POINT
  5
309
330
2FF
100
AcDbEntity
  8
Defpoints
 62
     0
100
AcDbPoint
 10
-1345.383775737685
 20
3479.716878650624
 30
0.0
  0
ENDBLK
  5
30A
330
2FF
100
AcDbEntity
  8
0
100
AcDbBlockEnd
  0
BLOCK
  5
30C
330
30B
100
AcDbEntity
  8
0
100
AcDbBlockBegin
  2
*D25
 70
     1
 10
0.0
 20
0.0
 30
0.0
  3
*D25
  1

  0
LINE
  5
30D
330
30B
100
AcDbEntity
  8
S10_Quote
 62
     0
370
    -2
100
AcDbLine
 10
-1345.383775737685
 20
3499.44996144323
 30
0.0
 11
-1345.383775737685
 21
3478.466878650623
 31
0.0
  0
LINE
  5
30E
330
30B
100
AcDbEntity
  8
S10_Quote
 62
     0
370
    -2
100
AcDbLine
 10
-1333.383775737685
 20
3484.44996144323
 30
0.0
 11
-1333.383775737685
 21
3478.466878650623
 31
0.0
  0
LINE
  5
30F
330
30B
100
AcDbEntity
  8
S10_Quote
 62
     0
370
    -2
100
AcDbLine
 10
-1345.368775737685
 20
3479.716878650624
 30
0.0
 11
-1333.398775737685
 21
3479.716878650624
 31
0.0
  0
INSERT
  5
310
330
30B
100
AcDbEntity
  8
S10_Quote
 62
     0
370
    -2
100
AcDbBlockReference
  2
A$C79C4041D
 10
-1345.383775737685
 20
3479.716878650624
 30
0.0
 41
0.015
 42
0.015
 43
0.015
 50
180.0
  0
INSERT
  5
311
330
30B
100
AcDbEntity
  8
S10_Quote
 62
     0
370
    -2
100
AcDbBlockReference
  2
A$C79C4041D
 10
-1333.383775737685
 20
3479.716878650624
 30
0.0
 41
0.015
 42
0.015
 43
0.015
  0
MTEXT
  5
312
330
30B
100
AcDbEntity
  8
S10_Quote
 62
     0
100
AcDbMText
 10
-1339.383775737685
 20
3481.516878650623
 30
0.0
 40
2.0
 41
0.0
 71
     5
 72
     1
  1
12
  7
wurth
 73
     1
 44
1.0
  0
POINT
  5
313
330
30B
100
AcDbEntity
  8
Defpoints
 62
     0
100
AcDbPoint
 10
-1345.383775737685
 20
3500.07496144323
 30
0.0
  0
POINT
  5
314
330
30B
100
AcDbEntity
  8
Defpoints
 62
     0
100
AcDbPoint
 10
-1333.383775737685
 20
3485.07496144323
 30
0.0
  0
POINT
  5
315
330
30B
100
AcDbEntity
  8
Defpoints
 62
     0
100
AcDbPoint
 10
-1333.383775737685
 20
3479.716878650624
 30
0.0
  0
ENDBLK
  5
316
330
30B
100
AcDbEntity
  8
0
100
AcDbBlockEnd
  0
BLOCK
  5
318
330
317
100
AcDbEntity
  8
0
100
AcDbBlockBegin
  2
*D26
 70
     1
 10
0.0
 20
0.0
 30
0.0
  3
*D26
  1

  0
LINE
  5
319
330
317
100
AcDbEntity
  8
S10_Quote
 62
     0
370
    -2
100
AcDbLine
 10
-1471.383775737685
 20
3484.44996144323
 30
0.0
 11
-1471.383775737685
 21
3473.652904821591
 31
0.0
  0
LINE
  5
31A
330
317
100
AcDbEntity
  8
S10_Quote
 62
     0
370
    -2
100
AcDbLine
 10
-1333.383775737685
 20
3484.44996144323
 30
0.0
 11
-1333.383775737685
 21
3473.652904821591
 31
0.0
  0
LINE
  5
31B
330
317
100
AcDbEntity
  8
S10_Quote
 62
     0
370
    -2
100
AcDbLine
 10
-1471.368775737685
 20
3474.902904821591
 30
0.0
 11
-1333.398775737685
 21
3474.902904821591
 31
0.0
  0
INSERT
  5
31C
330
317
100
AcDbEntity
  8
S10_Quote
 62
     0
370
    -2
100
AcDbBlockReference
  2
A$C79C4041D
 10
-1471.383775737685
 20
3474.902904821591
 30
0.0
 41
0.015
 42
0.015
 43
0.015
 50
180.0
  0
INSERT
  5
31D
330
317
100
AcDbEntity
  8
S10_Quote
 62
     0
370
    -2
100
AcDbBlockReference
  2
A$C79C4041D
 10
-1333.383775737685
 20
3474.902904821591
 30
0.0
 41
0.015
 42
0.015
 43
0.015
  0
MTEXT
  5
31E
330
317
100
AcDbEntity
  8
S10_Quote
 62
     0
100
AcDbMText
 10
-1402.383775737685
 20
3476.718289436976
 30
0.0
 40
2.0
 41
0.0
 71
     5
 72
     1
  1
138
  7
wurth
 73
     1
 44
1.0
  0
POINT
  5
31F
330
317
100
AcDbEntity
  8
Defpoints
 62
     0
100
AcDbPoint
 10
-1471.383775737685
 20
3485.07496144323
 30
0.0
  0
POINT
  5
320
330
317
100
AcDbEntity
  8
Defpoints
 62
     0
100
AcDbPoint
 10
-1333.383775737685
 20
3485.07496144323
 30
0.0
  0
POINT
  5
321
330
317
100
AcDbEntity
  8
Defpoints
 62
     0
100
AcDbPoint
 10
-1333.383775737685
 20
3474.902904821591
 30
0.0
  0
ENDBLK
  5
322
330
317
100
AcDbEntity
  8
0
100
AcDbBlockEnd
  0
BLOCK
  5
324
330
323
100
AcDbEntity
  8
0
100
AcDbBlockBegin
  2
*D27
 70
     1
 10
0.0
 20
0.0
 30
0.0
  3
*D27
  1

  0
LINE
  5
325
330
323
100
AcDbEntity
  8
S10_Quote
 62
     0
370
    -2
100
AcDbLine
 10
-1332.758775737685
 20
3515.07496144323
 30
0.0
 11
-1325.577332733057
 21
3515.07496144323
 31
0.0
  0
LINE
  5
326
330
323
100
AcDbEntity
  8
S10_Quote
 62
     0
370
    -2
100
AcDbLine
 10
-1332.758775737685
 20
3485.07496144323
 30
0.0
 11
-1325.577332733057
 21
3485.07496144323
 31
0.0
  0
LINE
  5
327
330
323
100
AcDbEntity
  8
S10_Quote
 62
     0
370
    -2
100
AcDbLine
 10
-1326.827332733057
 20
3515.05996144323
 30
0.0
 11
-1326.827332733057
 21
3485.08996144323
 31
0.0
  0
INSERT
  5
328
330
323
100
AcDbEntity
  8
S10_Quote
 62
     0
370
    -2
100
AcDbBlockReference
  2
A$C79C4041D
 10
-1326.827332733057
 20
3515.07496144323
 30
0.0
 41
0.015
 42
0.015
 43
0.015
 50
90.0
  0
INSERT
  5
329
330
323
100
AcDbEntity
  8
S10_Quote
 62
     0
370
    -2
100
AcDbBlockReference
  2
A$C79C4041D
 10
-1326.827332733057
 20
3485.07496144323
 30
0.0
 41
0.015
 42
0.015
 43
0.015
 50
270.0
  0
MTEXT
  5
32A
330
323
100
AcDbEntity
  8
S10_Quote
 62
     0
100
AcDbMText
 10
-1328.642717348442
 20
3500.07496144323
 30
0.0
 40
2.0
 41
0.0
 71
     5
 72
     1
  1
30
  7
wurth
 11
0.0000000000000001
 21
1.0
 31
0.0
 73
     1
 44
1.0
  0
POINT
  5
32B
330
323
100
AcDbEntity
  8
Defpoints
 62
     0
100
AcDbPoint
 10
-1333.383775737685
 20
3515.07496144323
 30
0.0
  0
POINT
  5
32C
330
323
100
AcDbEntity
  8
Defpoints
 62
     0
100
AcDbPoint
 10
-1333.383775737685
 20
3485.07496144323
 30
0.0
  0
POINT
  5
32D
330
323
100
AcDbEntity
  8
Defpoints
 62
     0
100
AcDbPoint
 10
-1326.827332733057
 20
3485.07496144323
 30
0.0
  0
ENDBLK
  5
32E
330
323
100
AcDbEntity
  8
0
100
AcDbBlockEnd
  0
BLOCK
  5
330
330
32F
100
AcDbEntity
  8
0
100
AcDbBlockBegin
  2
*D28
 70
     1
 10
0.0
 20
0.0
 30
0.0
  3
*D28
  1

  0
LINE
  5
331
330
32F
100
AcDbEntity
  8
S10_Quote
 62
     0
370
    -2
100
AcDbLine
 10
-1385.508775737685
 20
3504.574961443231
 30
0.0
 11
-1392.306638858302
 21
3504.574961443231
 31
0.0
  0
LINE
  5
332
330
32F
100
AcDbEntity
  8
S10_Quote
 62
     0
370
    -2
100
AcDbLine
 10
-1385.508775737685
 20
3495.57496144323
 30
0.0
 11
-1392.306638858302
 21
3495.57496144323
 31
0.0
  0
LINE
  5
333
330
32F
100
AcDbEntity
  8
S10_Quote
 62
     0
370
    -2
100
AcDbLine
 10
-1391.056638858302
 20
3504.559961443231
 30
0.0
 11
-1391.056638858302
 21
3495.589961443231
 31
0.0
  0
INSERT
  5
334
330
32F
100
AcDbEntity
  8
S10_Quote
 62
     0
370
    -2
100
AcDbBlockReference
  2
A$C79C4041D
 10
-1391.056638858302
 20
3504.574961443231
 30
0.0
 41
0.015
 42
0.015
 43
0.015
 50
90.0
  0
INSERT
  5
335
330
32F
100
AcDbEntity
  8
S10_Quote
 62
     0
370
    -2
100
AcDbBlockReference
  2
A$C79C4041D
 10
-1391.056638858302
 20
3495.57496144323
 30
0.0
 41
0.015
 42
0.015
 43
0.015
 50
270.0
  0
MTEXT
  5
336
330
32F
100
AcDbEntity
  8
S10_Quote
 62
     0
100
AcDbMText
 10
-1392.87971578138
 20
3500.07496144323
 30
0.0
 40
2.0
 41
0.0
 71
     5
 72
     1
  1
9
  7
wurth
 11
0.0000000000000001
 21
1.0
 31
0.0
 73
     1
 44
1.0
  0
POINT
  5
337
330
32F
100
AcDbEntity
  8
Defpoints
 62
     0
100
AcDbPoint
 10
-1384.883775737685
 20
3504.574961443231
 30
0.0
  0
POINT
  5
338
330
32F
100
AcDbEntity
  8
Defpoints
 62
     0
100
AcDbPoint
 10
-1384.883775737685
 20
3495.57496144323
 30
0.0
  0
POINT
  5
339
330
32F
100
AcDbEntity
  8
Defpoints
 62
     0
100
AcDbPoint
 10
-1391.056638858302
 20
3495.57496144323
 30
0.0
  0
ENDBLK
  5
33A
330
32F
100
AcDbEntity
  8
0
100
AcDbBlockEnd
  0
BLOCK
  5
4F8
330
4F7
100
AcDbEntity
  8
0
100
AcDbBlockBegin
  2
*D30
 70
     1
 10
0.0
 20
0.0
 30
0.0
  3
*D30
  1

  0
LINE
  5
554
330
4F7
100
AcDbEntity
  8
S10_Quote
 62
     0
370
    -2
100
AcDbLine
 10
834.4770455481452
 20
500.6004632257204
 30
0.0
 11
834.4770455481452
 21
490.0401299235104
 31
0.0
  0
LINE
  5
555
330
4F7
100
AcDbEntity
  8
S10_Quote
 62
     0
370
    -2
100
AcDbLine
 10
972.4770455481452
 20
500.6004632257204
 30
0.0
 11
972.4770455481452
 21
490.0401299235104
 31
0.0
  0
LINE
  5
556
330
4F7
100
AcDbEntity
  8
S10_Quote
 62
     0
370
    -2
100
AcDbLine
 10
834.4920455481453
 20
491.2901299235104
 30
0.0
 11
972.4620455481453
 21
491.2901299235104
 31
0.0
  0
INSERT
  5
557
330
4F7
100
AcDbEntity
  8
S10_Quote
 62
     0
370
    -2
100
AcDbBlockReference
  2
A$C79C4041D
 10
834.4770455481452
 20
491.2901299235104
 30
0.0
 41
0.015
 42
0.015
 43
0.015
 50
180.0
  0
INSERT
  5
558
330
4F7
100
AcDbEntity
  8
S10_Quote
 62
     0
370
    -2
100
AcDbBlockReference
  2
A$C79C4041D
 10
972.4770455481452
 20
491.2901299235104
 30
0.0
 41
0.015
 42
0.015
 43
0.015
  0
MTEXT
  5
559
330
4F7
100
AcDbEntity
  8
S10_Quote
 62
     0
100
AcDbMText
 10
903.4770455481453
 20
493.1055145388951
 30
0.0
 40
2.0
 41
0.0
 71
     5
 72
     1
  1
138
  7
wurth
 73
     1
 44
1.0
  0
POINT
  5
55A
330
4F7
100
AcDbEntity
  8
Defpoints
 62
     0
100
AcDbPoint
 10
834.4770455481452
 20
501.2254632257204
 30
0.0
  0
POINT
  5
55B
330
4F7
100
AcDbEntity
  8
Defpoints
 62
     0
100
AcDbPoint
 10
972.4770455481452
 20
501.2254632257204
 30
0.0
  0
POINT
  5
55C
330
4F7
100
AcDbEntity
  8
Defpoints
 62
     0
100
AcDbPoint
 10
972.4770455481452
 20
491.2901299235104
 30
0.0
  0
ENDBLK
  5
4F9
330
4F7
100
AcDbEntity
  8
0
100
AcDbBlockEnd
  0
BLOCK
  5
504
330
503
100
AcDbEntity
  8
0
100
AcDbBlockBegin
  2
*D31
 70
     1
 10
0.0
 20
0.0
 30
0.0
  3
*D31
  1

  0
LINE
  5
629
330
503
100
AcDbEntity
  8
S10_Quote
 62
     0
370
    -2
100
AcDbLine
 10
834.4770455481452
 20
439.013275015171
 30
0.0
 11
834.4770455481452
 21
428.2162183935319
 31
0.0
  0
LINE
  5
62A
330
503
100
AcDbEntity
  8
S10_Quote
 62
     0
370
    -2
100
AcDbLine
 10
972.4770455481452
 20
439.013275015171
 30
0.0
 11
972.4770455481452
 21
428.2162183935319
 31
0.0
  0
LINE
  5
62B
330
503
100
AcDbEntity
  8
S10_Quote
 62
     0
370
    -2
100
AcDbLine
 10
834.4920455481453
 20
429.466218393532
 30
0.0
 11
972.4620455481453
 21
429.466218393532
 31
0.0
  0
INSERT
  5
62C
330
503
100
AcDbEntity
  8
S10_Quote
 62
     0
370
    -2
100
AcDbBlockReference
  2
A$C79C4041D
 10
834.4770455481452
 20
429.466218393532
 30
0.0
 41
0.015
 42
0.015
 43
0.015
 50
180.0
  0
INSERT
  5
62D
330
503
100
AcDbEntity
  8
S10_Quote
 62
     0
370
    -2
100
AcDbBlockReference
  2
A$C79C4041D
 10
972.4770455481452
 20
429.466218393532
 30
0.0
 41
0.015
 42
0.015
 43
0.015
  0
MTEXT
  5
62E
330
503
100
AcDbEntity
  8
S10_Quote
 62
     0
100
AcDbMText
 10
903.4770455481453
 20
431.2816030089166
 30
0.0
 40
2.0
 41
0.0
 71
     5
 72
     1
  1
138
  7
wurth
 73
     1
 44
1.0
  0
POINT
  5
62F
330
503
100
AcDbEntity
  8
Defpoints
 62
     0
100
AcDbPoint
 10
834.4770455481452
 20
439.638275015171
 30
0.0
  0
POINT
  5
630
330
503
100
AcDbEntity
  8
Defpoints
 62
     0
100
AcDbPoint
 10
972.4770455481452
 20
439.638275015171
 30
0.0
  0
POINT
  5
631
330
503
100
AcDbEntity
  8
Defpoints
 62
     0
100
AcDbPoint
 10
972.4770455481452
 20
429.466218393532
 30
0.0
  0
ENDBLK
  5
505
330
503
100
AcDbEntity
  8
0
100
AcDbBlockEnd
  0
BLOCK
  5
510
330
50F
100
AcDbEntity
  8
0
100
AcDbBlockBegin
  2
*D32
 70
     1
 10
0.0
 20
0.0
 30
0.0
  3
*D32
  1

  0
LINE
  5
65B
330
50F
100
AcDbEntity
  8
S10_Quote
 62
     0
370
    -2
100
AcDbLine
 10
852.9417976975064
 20
457.5000755051615
 30
0.0
 11
848.7767871744294
 21
455.6563189495547
 31
0.0
  0
LINE
  5
65C
330
50F
100
AcDbEntity
  8
S10_Quote
 62
     0
370
    -2
100
AcDbLine
 10
844.1773039218608
 20
453.6202310807872
 30
0.0
 11
844.1635877690201
 21
453.6141592481765
 31
0.0
  0
MTEXT
  5
65D
102
{ACAD_XDICTIONARY
360
6E7
102
}
330
50F
100
AcDbEntity
  8
S10_Quote
 62
     0
100
AcDbMText
 10
850.1313030784853
 20
458.2412393336101
 30
0.0
 40
2.0
 41
0.0
 71
     5
 72
     1
  1
\U+22055
  7
wurth
 11
0.9144101893774239
 21
0.404788840709256
 31
0.0
 73
     1
 44
1.0
  0
LINE
  5
65E
330
50F
100
AcDbEntity
  8
S10_Quote
 62
     0
370
    -2
100
AcDbLine
 10
844.1910200747013
 20
453.6263029133978
 30
0.0
 11
848.7630710215887
 21
455.6502471169441
 31
0.0
  0
INSERT
  5
65F
330
50F
100
AcDbEntity
  8
S10_Quote
 62
     0
370
    -2
100
AcDbBlockReference
  2
A$C79C4041D
 10
844.1910200747013
 20
453.6263029133978
 30
0.0
 41
0.015
 42
0.015
 43
0.015
 50
23.87789549175066
  0
INSERT
  5
660
330
50F
100
AcDbEntity
  8
S10_Quote
 62
     0
370
    -2
100
AcDbBlockReference
  2
A$C79C4041D
 10
848.7630710215887
 20
455.6502471169441
 30
0.0
 41
0.015
 42
0.015
 43
0.015
 50
203.8778954917507
  0
POINT
  5
661
330
50F
100
AcDbEntity
  8
Defpoints
 62
     0
100
AcDbPoint
 10
848.7630710215887
 20
455.6502471169441
 30
0.0
  0
POINT
  5
662
330
50F
100
AcDbEntity
  8
Defpoints
 62
     0
100
AcDbPoint
 10
844.1910200747013
 20
453.6263029133978
 30
0.0
  0
ENDBLK
  5
511
330
50F
100
AcDbEntity
  8
0
100
AcDbBlockEnd
  0
BLOCK
  5
51B
330
51A
100
AcDbEntity
  8
0
100
AcDbBlockBegin
  2
*D33
 70
     1
 10
0.0
 20
0.0
 30
0.0
  3
*D33
  1

  0
LINE
  5
663
330
51A
100
AcDbEntity
  8
S10_Quote
 62
     0
370
    -2
100
AcDbLine
 10
965.1034042323123
 20
459.984276111562
 30
0.0
 11
962.122805416163
 21
456.5400372129292
 31
0.0
  0
LINE
  5
664
330
51A
100
AcDbEntity
  8
S10_Quote
 62
     0
370
    -2
100
AcDbLine
 10
958.8312856801271
 20
452.7365128174126
 30
0.0
 11
958.8214700149103
 21
452.7251702993345
 31
0.0
  0
MTEXT
  5
665
102
{ACAD_XDICTIONARY
360
6E9
102
}
330
51A
100
AcDbEntity
  8
S10_Quote
 62
     0
100
AcDbMText
 10
962.2452771356016
 20
459.4557750962415
 30
0.0
 40
2.0
 41
0.0
 71
     5
 72
     1
  1
\U+22055
  7
wurth
 11
0.6543776811203914
 21
0.7561678718720464
 31
0.0
 73
     1
 44
1.0
  0
LINE
  5
666
330
51A
100
AcDbEntity
  8
S10_Quote
 62
     0
370
    -2
100
AcDbLine
 10
958.8411013453439
 20
452.7478553354908
 30
0.0
 11
962.1129897509462
 21
456.5286946948511
 31
0.0
  0
INSERT
  5
667
330
51A
100
AcDbEntity
  8
S10_Quote
 62
     0
370
    -2
100
AcDbBlockReference
  2
A$C79C4041D
 10
958.8411013453439
 20
452.7478553354908
 30
0.0
 41
0.015
 42
0.015
 43
0.015
 50
49.12752072903207
  0
INSERT
  5
668
330
51A
100
AcDbEntity
  8
S10_Quote
 62
     0
370
    -2
100
AcDbBlockReference
  2
A$C79C4041D
 10
962.1129897509462
 20
456.5286946948511
 30
0.0
 41
0.015
 42
0.015
 43
0.015
 50
229.1275207290321
  0
POINT
  5
669
330
51A
100
AcDbEntity
  8
Defpoints
 62
     0
100
AcDbPoint
 10
962.1129897509462
 20
456.5286946948511
 30
0.0
  0
POINT
  5
66A
330
51A
100
AcDbEntity
  8
Defpoints
 62
     0
100
AcDbPoint
 10
958.8411013453439
 20
452.7478553354908
 30
0.0
  0
ENDBLK
  5
51C
330
51A
100
AcDbEntity
  8
0
100
AcDbBlockEnd
  0
BLOCK
  5
526
330
525
100
AcDbEntity
  8
0
100
AcDbBlockBegin
  2
*D34
 70
     1
 10
0.0
 20
0.0
 30
0.0
  3
*D34
  1

  0
LINE
  5
653
330
525
100
AcDbEntity
  8
S10_Quote
 62
     0
370
    -2
100
AcDbLine
 10
1003.37509264951
 20
558.2789914595395
 30
0.0
 11
1000.127481930265
 21
554.9549587466172
 31
0.0
  0
LINE
  5
654
330
525
100
AcDbEntity
  8
S10_Quote
 62
     0
370
    -2
100
AcDbLine
 10
993.816987914578
 20
548.4959677048213
 30
0.0
 11
993.8065053663793
 21
548.4852384838218
 31
0.0
  0
MTEXT
  5
655
102
{ACAD_XDICTIONARY
360
6E5
102
}
330
525
100
AcDbEntity
  8
S10_Quote
 62
     0
100
AcDbMText
 10
1000.452515550181
 20
557.8963724946647
 30
0.0
 40
2.0
 41
0.0
 71
     5
 72
     1
  1
\U+22059
  7
wurth
 11
0.6988365465876074
 21
0.7152813999773144
 31
0.0
 73
     1
 44
1.0
  0
LINE
  5
656
330
525
100
AcDbEntity
  8
S10_Quote
 62
     0
370
    -2
100
AcDbLine
 10
993.8274704627771
 20
548.5066969258212
 30
0.0
 11
1000.116999382066
 21
554.9442295256174
 31
0.0
  0
INSERT
  5
657
330
525
100
AcDbEntity
  8
S10_Quote
 62
     0
370
    -2
100
AcDbBlockReference
  2
A$C79C4041D
 10
993.8274704627771
 20
548.5066969258212
 30
0.0
 41
0.015
 42
0.015
 43
0.015
 50
45.66626565766535
  0
INSERT
  5
658
330
525
100
AcDbEntity
  8
S10_Quote
 62
     0
370
    -2
100
AcDbBlockReference
  2
A$C79C4041D
 10
1000.116999382066
 20
554.9442295256174
 30
0.0
 41
0.015
 42
0.015
 43
0.015
 50
225.6662656576653
  0
POINT
  5
659
330
525
100
AcDbEntity
  8
Defpoints
 62
     0
100
AcDbPoint
 10
1000.116999382066
 20
554.9442295256174
 30
0.0
  0
POINT
  5
65A
330
525
100
AcDbEntity
  8
Defpoints
 62
     0
100
AcDbPoint
 10
993.8274704627771
 20
548.5066969258212
 30
0.0
  0
ENDBLK
  5
527
330
525
100
AcDbEntity
  8
0
100
AcDbBlockEnd
  0
BLOCK
  5
531
330
530
100
AcDbEntity
  8
0
100
AcDbBlockBegin
  2
*D35
 70
     1
 10
0.0
 20
0.0
 30
0.0
  3
*D35
  1

  0
LINE
  5
533
330
530
100
AcDbEntity
  8
S10_Quote
 62
     0
370
    -2
100
AcDbLine
 10
834.4770455481452
 20
500.60046322572
 30
0.0
 11
834.4770455481452
 21
494.369337559895
 31
0.0
  0
LINE
  5
534
330
530
100
AcDbEntity
  8
S10_Quote
 62
     0
370
    -2
100
AcDbLine
 10
918.4770455481453
 20
508.5344139527396
 30
0.0
 11
918.4770455481453
 21
494.369337559895
 31
0.0
  0
LINE
  5
535
330
530
100
AcDbEntity
  8
S10_Quote
 62
     0
370
    -2
100
AcDbLine
 10
834.4920455481453
 20
495.619337559895
 30
0.0
 11
918.4620455481452
 21
495.619337559895
 31
0.0
  0
INSERT
  5
536
330
530
100
AcDbEntity
  8
S10_Quote
 62
     0
370
    -2
100
AcDbBlockReference
  2
A$C79C4041D
 10
834.4770455481452
 20
495.619337559895
 30
0.0
 41
0.015
 42
0.015
 43
0.015
 50
180.0
  0
INSERT
  5
537
330
530
100
AcDbEntity
  8
S10_Quote
 62
     0
370
    -2
100
AcDbBlockReference
  2
A$C79C4041D
 10
918.4770455481453
 20
495.619337559895
 30
0.0
 41
0.015
 42
0.015
 43
0.015
  0
MTEXT
  5
538
330
530
100
AcDbEntity
  8
S10_Quote
 62
     0
100
AcDbMText
 10
876.4770455481452
 20
497.4424144829719
 30
0.0
 40
2.0
 41
0.0
 71
     5
 72
     1
  1
84
  7
wurth
 73
     1
 44
1.0
  0
POINT
  5
539
330
530
100
AcDbEntity
  8
Defpoints
 62
     0
100
AcDbPoint
 10
834.4770455481452
 20
501.2254632257199
 30
0.0
  0
POINT
  5
53A
330
530
100
AcDbEntity
  8
Defpoints
 62
     0
100
AcDbPoint
 10
918.4770455481453
 20
509.1594139527396
 30
0.0
  0
POINT
  5
53B
330
530
100
AcDbEntity
  8
Defpoints
 62
     0
100
AcDbPoint
 10
918.4770455481453
 20
495.619337559895
 30
0.0
  0
ENDBLK
  5
532
330
530
100
AcDbEntity
  8
0
100
AcDbBlockEnd
  0
BLOCK
  5
53D
330
53C
100
AcDbEntity
  8
0
100
AcDbBlockBegin
  2
*D36
 70
     1
 10
0.0
 20
0.0
 30
0.0
  3
*D36
  1

  0
LINE
  5
53F
330
53C
100
AcDbEntity
  8
S10_Quote
 62
     0
370
    -2
100
AcDbLine
 10
918.4770455481453
 20
508.5344139527401
 30
0.0
 11
918.4770455481453
 21
494.3693375598955
 31
0.0
  0
LINE
  5
540
330
53C
100
AcDbEntity
  8
S10_Quote
 62
     0
370
    -2
100
AcDbLine
 10
923.4770455481452
 20
508.5344139527401
 30
0.0
 11
923.4770455481452
 21
494.3693375598955
 31
0.0
  0
LINE
  5
541
330
53C
100
AcDbEntity
  8
S10_Quote
 62
     0
370
    -2
100
AcDbLine
 10
918.4920455481453
 20
495.6193375598955
 30
0.0
 11
923.4620455481453
 21
495.6193375598955
 31
0.0
  0
INSERT
  5
542
330
53C
100
AcDbEntity
  8
S10_Quote
 62
     0
370
    -2
100
AcDbBlockReference
  2
A$C79C4041D
 10
918.4770455481453
 20
495.6193375598955
 30
0.0
 41
0.015
 42
0.015
 43
0.015
 50
180.0
  0
INSERT
  5
543
330
53C
100
AcDbEntity
  8
S10_Quote
 62
     0
370
    -2
100
AcDbBlockReference
  2
A$C79C4041D
 10
923.4770455481452
 20
495.6193375598955
 30
0.0
 41
0.015
 42
0.015
 43
0.015
  0
MTEXT
  5
544
330
53C
100
AcDbEntity
  8
S10_Quote
 62
     0
100
AcDbMText
 10
920.9770455481452
 20
497.43472217528
 30
0.0
 40
2.0
 41
0.0
 71
     5
 72
     1
  1
5
  7
wurth
 73
     1
 44
1.0
  0
POINT
  5
545
330
53C
100
AcDbEntity
  8
Defpoints
 62
     0
100
AcDbPoint
 10
918.4770455481453
 20
509.15941395274
 30
0.0
  0
POINT
  5
546
330
53C
100
AcDbEntity
  8
Defpoints
 62
     0
100
AcDbPoint
 10
923.4770455481452
 20
509.15941395274
 30
0.0
  0
POINT
  5
547
330
53C
100
AcDbEntity
  8
Defpoints
 62
     0
100
AcDbPoint
 10
923.4770455481452
 20
495.6193375598955
 30
0.0
  0
ENDBLK
  5
53E
330
53C
100
AcDbEntity
  8
0
100
AcDbBlockEnd
  0
BLOCK
  5
549
330
548
100
AcDbEntity
  8
0
100
AcDbBlockBegin
  2
*D37
 70
     1
 10
0.0
 20
0.0
 30
0.0
  3
*D37
  1

  0
LINE
  5
54B
330
548
100
AcDbEntity
  8
S10_Quote
 62
     0
370
    -2
100
AcDbLine
 10
923.4770455481452
 20
508.5344139527401
 30
0.0
 11
923.4770455481452
 21
494.3693375598955
 31
0.0
  0
LINE
  5
54C
330
548
100
AcDbEntity
  8
S10_Quote
 62
     0
370
    -2
100
AcDbLine
 10
972.4770455481452
 20
500.6004632257204
 30
0.0
 11
972.4770455481452
 21
494.3693375598955
 31
0.0
  0
LINE
  5
54D
330
548
100
AcDbEntity
  8
S10_Quote
 62
     0
370
    -2
100
AcDbLine
 10
923.4920455481452
 20
495.6193375598955
 30
0.0
 11
972.4620455481453
 21
495.6193375598955
 31
0.0
  0
INSERT
  5
54E
330
548
100
AcDbEntity
  8
S10_Quote
 62
     0
370
    -2
100
AcDbBlockReference
  2
A$C79C4041D
 10
923.4770455481452
 20
495.6193375598955
 30
0.0
 41
0.015
 42
0.015
 43
0.015
 50
180.0
  0
INSERT
  5
54F
330
548
100
AcDbEntity
  8
S10_Quote
 62
     0
370
    -2
100
AcDbBlockReference
  2
A$C79C4041D
 10
972.4770455481452
 20
495.6193375598955
 30
0.0
 41
0.015
 42
0.015
 43
0.015
  0
MTEXT
  5
550
330
548
100
AcDbEntity
  8
S10_Quote
 62
     0
100
AcDbMText
 10
947.9770455481453
 20
497.4501067906647
 30
0.0
 40
2.0
 41
0.0
 71
     5
 72
     1
  1
49
  7
wurth
 73
     1
 44
1.0
  0
POINT
  5
551
330
548
100
AcDbEntity
  8
Defpoints
 62
     0
100
AcDbPoint
 10
923.4770455481452
 20
509.15941395274
 30
0.0
  0
POINT
  5
552
330
548
100
AcDbEntity
  8
Defpoints
 62
     0
100
AcDbPoint
 10
972.4770455481452
 20
501.2254632257204
 30
0.0
  0
POINT
  5
553
330
548
100
AcDbEntity
  8
Defpoints
 62
     0
100
AcDbPoint
 10
972.4770455481452
 20
495.6193375598955
 30
0.0
  0
ENDBLK
  5
54A
330
548
100
AcDbEntity
  8
0
100
AcDbBlockEnd
  0
BLOCK
  5
55E
330
55D
100
AcDbEntity
  8
0
100
AcDbBlockBegin
  2
*D38
 70
     1
 10
0.0
 20
0.0
 30
0.0
  3
*D38
  1

  0
LINE
  5
64A
330
55D
100
AcDbEntity
  8
S10_Quote
 62
     0
370
    -2
100
AcDbLine
 10
920.4611763982521
 20
567.2254632257195
 30
0.0
 11
829.8564689167584
 21
567.2254632257195
 31
0.0
  0
LINE
  5
64B
330
55D
100
AcDbEntity
  8
S10_Quote
 62
     0
370
    -2
100
AcDbLine
 10
917.5520455481454
 20
503.2254632257195
 30
0.0
 11
829.8564689167584
 21
503.2254632257195
 31
0.0
  0
LINE
  5
64C
330
55D
100
AcDbEntity
  8
S10_Quote
 62
     0
370
    -2
100
AcDbLine
 10
831.1064689167585
 20
567.2104632257195
 30
0.0
 11
831.1064689167585
 21
503.2404632257195
 31
0.0
  0
INSERT
  5
64D
330
55D
100
AcDbEntity
  8
S10_Quote
 62
     0
370
    -2
100
AcDbBlockReference
  2
A$C79C4041D
 10
831.1064689167585
 20
567.2254632257195
 30
0.0
 41
0.015
 42
0.015
 43
0.015
 50
90.0
  0
INSERT
  5
64E
330
55D
100
AcDbEntity
  8
S10_Quote
 62
     0
370
    -2
100
AcDbBlockReference
  2
A$C79C4041D
 10
831.1064689167585
 20
503.2254632257195
 30
0.0
 41
0.015
 42
0.015
 43
0.015
 50
270.0
  0
MTEXT
  5
64F
330
55D
100
AcDbEntity
  8
S10_Quote
 62
     0
100
AcDbMText
 10
829.2833919936814
 20
535.2254632257197
 30
0.0
 40
2.0
 41
0.0
 71
     5
 72
     1
  1
64
  7
wurth
 11
0.0000000000000001
 21
1.0
 31
0.0
 73
     1
 44
1.0
  0
POINT
  5
650
330
55D
100
AcDbEntity
  8
Defpoints
 62
     0
100
AcDbPoint
 10
921.0861763982521
 20
567.2254632257195
 30
0.0
  0
POINT
  5
651
330
55D
100
AcDbEntity
  8
Defpoints
 62
     0
100
AcDbPoint
 10
918.1770455481453
 20
503.2254632257195
 30
0.0
  0
POINT
  5
652
330
55D
100
AcDbEntity
  8
Defpoints
 62
     0
100
AcDbPoint
 10
831.1064689167585
 20
503.2254632257195
 30
0.0
  0
ENDBLK
  5
55F
330
55D
100
AcDbEntity
  8
0
100
AcDbBlockEnd
  0
BLOCK
  5
56A
330
569
100
AcDbEntity
  8
0
100
AcDbBlockBegin
  2
*D39
 70
     1
 10
0.0
 20
0.0
 30
0.0
  3
*D39
  1

  0
LINE
  5
56C
330
569
100
AcDbEntity
  8
S10_Quote
 62
     0
370
    -2
100
AcDbLine
 10
917.5520455481454
 20
503.2254632257195
 30
0.0
 11
829.8564689167584
 21
503.2254632257195
 31
0.0
  0
LINE
  5
56D
330
569
100
AcDbEntity
  8
S10_Quote
 62
     0
370
    -2
100
AcDbLine
 10
834.0520455481453
 20
499.2254632257195
 30
0.0
 11
829.8564689167584
 21
499.2254632257195
 31
0.0
  0
LINE
  5
56E
330
569
100
AcDbEntity
  8
S10_Quote
 62
     0
370
    -2
100
AcDbLine
 10
831.1064689167583
 20
503.2104632257196
 30
0.0
 11
831.1064689167583
 21
499.2404632257195
 31
0.0
  0
INSERT
  5
56F
330
569
100
AcDbEntity
  8
S10_Quote
 62
     0
370
    -2
100
AcDbBlockReference
  2
A$C79C4041D
 10
831.1064689167583
 20
503.2254632257195
 30
0.0
 41
0.015
 42
0.015
 43
0.015
 50
90.0
  0
INSERT
  5
570
330
569
100
AcDbEntity
  8
S10_Quote
 62
     0
370
    -2
100
AcDbBlockReference
  2
A$C79C4041D
 10
831.1064689167583
 20
499.2254632257195
 30
0.0
 41
0.015
 42
0.015
 43
0.015
 50
270.0
  0
MTEXT
  5
571
330
569
100
AcDbEntity
  8
S10_Quote
 62
     0
100
AcDbMText
 10
829.2987766090659
 20
501.2254632257197
 30
0.0
 40
2.0
 41
0.0
 71
     5
 72
     1
  1
4
  7
wurth
 11
0.0000000000000001
 21
1.0
 31
0.0
 73
     1
 44
1.0
  0
POINT
  5
572
330
569
100
AcDbEntity
  8
Defpoints
 62
     0
100
AcDbPoint
 10
918.1770455481453
 20
503.2254632257195
 30
0.0
  0
POINT
  5
573
330
569
100
AcDbEntity
  8
Defpoints
 62
     0
100
AcDbPoint
 10
834.6770455481452
 20
499.2254632257195
 30
0.0
  0
POINT
  5
574
330
569
100
AcDbEntity
  8
Defpoints
 62
     0
100
AcDbPoint
 10
831.1064689167583
 20
499.2254632257195
 30
0.0
  0
ENDBLK
  5
56B
330
569
100
AcDbEntity
  8
0
100
AcDbBlockEnd
  0
BLOCK
  5
576
330
575
100
AcDbEntity
  8
0
100
AcDbBlockBegin
  2
*D40
 70
     1
 10
0.0
 20
0.0
 30
0.0
  3
*D40
  1

  0
LINE
  5
578
330
575
100
AcDbEntity
  8
S10_Quote
 62
     0
370
    -2
100
AcDbLine
 10
923.9020455481451
 20
567.2254632257195
 30
0.0
 11
929.8691011272936
 21
567.2254632257195
 31
0.0
  0
LINE
  5
579
330
575
100
AcDbEntity
  8
S10_Quote
 62
     0
370
    -2
100
AcDbLine
 10
923.9020455481451
 20
556.2254632257195
 30
0.0
 11
929.8691011272936
 21
556.2254632257195
 31
0.0
  0
LINE
  5
57A
330
575
100
AcDbEntity
  8
S10_Quote
 62
     0
370
    -2
100
AcDbLine
 10
928.6191011272935
 20
567.2104632257195
 30
0.0
 11
928.6191011272935
 21
556.2404632257194
 31
0.0
  0
INSERT
  5
57B
330
575
100
AcDbEntity
  8
S10_Quote
 62
     0
370
    -2
100
AcDbBlockReference
  2
A$C79C4041D
 10
928.6191011272935
 20
567.2254632257195
 30
0.0
 41
0.015
 42
0.015
 43
0.015
 50
90.0
  0
INSERT
  5
57C
330
575
100
AcDbEntity
  8
S10_Quote
 62
     0
370
    -2
100
AcDbBlockReference
  2
A$C79C4041D
 10
928.6191011272935
 20
556.2254632257195
 30
0.0
 41
0.015
 42
0.015
 43
0.015
 50
270.0
  0
MTEXT
  5
57D
330
575
100
AcDbEntity
  8
S10_Quote
 62
     0
100
AcDbMText
 10
926.8191011272934
 20
561.7254632257197
 30
0.0
 40
2.0
 41
0.0
 71
     5
 72
     1
  1
11
  7
wurth
 11
0.0000000000000001
 21
1.0
 31
0.0
 73
     1
 44
1.0
  0
POINT
  5
57E
330
575
100
AcDbEntity
  8
Defpoints
 62
     0
100
AcDbPoint
 10
923.2770455481452
 20
567.2254632257195
 30
0.0
  0
POINT
  5
57F
330
575
100
AcDbEntity
  8
Defpoints
 62
     0
100
AcDbPoint
 10
923.2770455481452
 20
556.2254632257195
 30
0.0
  0
POINT
  5
580
330
575
100
AcDbEntity
  8
Defpoints
 62
     0
100
AcDbPoint
 10
928.6191011272935
 20
556.2254632257195
 30
0.0
  0
ENDBLK
  5
577
330
575
100
AcDbEntity
  8
0
100
AcDbBlockEnd
  0
BLOCK
  5
582
330
581
100
AcDbEntity
  8
0
100
AcDbBlockBegin
  2
*D41
 70
     1
 10
0.0
 20
0.0
 30
0.0
  3
*D41
  1

  0
LINE
  5
584
330
581
100
AcDbEntity
  8
S10_Quote
 62
     0
370
    -2
100
AcDbLine
 10
923.9020455481451
 20
556.2254632257195
 30
0.0
 11
929.8691011272936
 21
556.2254632257195
 31
0.0
  0
LINE
  5
585
330
581
100
AcDbEntity
  8
S10_Quote
 62
     0
370
    -2
100
AcDbLine
 10
921.8316255231421
 20
526.2254632257195
 30
0.0
 11
929.8691011272936
 21
526.2254632257195
 31
0.0
  0
LINE
  5
586
330
581
100
AcDbEntity
  8
S10_Quote
 62
     0
370
    -2
100
AcDbLine
 10
928.6191011272935
 20
556.2104632257195
 30
0.0
 11
928.6191011272935
 21
526.2404632257195
 31
0.0
  0
INSERT
  5
587
330
581
100
AcDbEntity
  8
S10_Quote
 62
     0
370
    -2
100
AcDbBlockReference
  2
A$C79C4041D
 10
928.6191011272935
 20
556.2254632257195
 30
0.0
 41
0.015
 42
0.015
 43
0.015
 50
90.0
  0
INSERT
  5
588
330
581
100
AcDbEntity
  8
S10_Quote
 62
     0
370
    -2
100
AcDbBlockReference
  2
A$C79C4041D
 10
928.6191011272935
 20
526.2254632257195
 30
0.0
 41
0.015
 42
0.015
 43
0.015
 50
270.0
  0
MTEXT
  5
589
330
581
100
AcDbEntity
  8
S10_Quote
 62
     0
100
AcDbMText
 10
926.8037165119089
 20
541.2254632257197
 30
0.0
 40
2.0
 41
0.0
 71
     5
 72
     1
  1
30
  7
wurth
 11
0.0000000000000001
 21
1.0
 31
0.0
 73
     1
 44
1.0
  0
POINT
  5
58A
330
581
100
AcDbEntity
  8
Defpoints
 62
     0
100
AcDbPoint
 10
923.2770455481452
 20
556.2254632257195
 30
0.0
  0
POINT
  5
58B
330
581
100
AcDbEntity
  8
Defpoints
 62
     0
100
AcDbPoint
 10
921.206625523142
 20
526.2254632257195
 30
0.0
  0
POINT
  5
58C
330
581
100
AcDbEntity
  8
Defpoints
 62
     0
100
AcDbPoint
 10
928.6191011272935
 20
526.2254632257195
 30
0.0
  0
ENDBLK
  5
583
330
581
100
AcDbEntity
  8
0
100
AcDbBlockEnd
  0
BLOCK
  5
58E
330
58D
100
AcDbEntity
  8
0
100
AcDbBlockBegin
  2
*D42
 70
     1
 10
0.0
 20
0.0
 30
0.0
  3
*D42
  1

  0
LINE
  5
590
330
58D
100
AcDbEntity
  8
S10_Quote
 62
     0
370
    -2
100
AcDbLine
 10
921.8316255231421
 20
526.2254632257195
 30
0.0
 11
929.8691011272936
 21
526.2254632257195
 31
0.0
  0
LINE
  5
591
330
58D
100
AcDbEntity
  8
S10_Quote
 62
     0
370
    -2
100
AcDbLine
 10
924.4020455481452
 20
503.2254632257195
 30
0.0
 11
929.8691011272936
 21
503.2254632257195
 31
0.0
  0
LINE
  5
592
330
58D
100
AcDbEntity
  8
S10_Quote
 62
     0
370
    -2
100
AcDbLine
 10
928.6191011272935
 20
526.2104632257195
 30
0.0
 11
928.6191011272935
 21
503.2404632257195
 31
0.0
  0
INSERT
  5
593
330
58D
100
AcDbEntity
  8
S10_Quote
 62
     0
370
    -2
100
AcDbBlockReference
  2
A$C79C4041D
 10
928.6191011272935
 20
526.2254632257195
 30
0.0
 41
0.015
 42
0.015
 43
0.015
 50
90.0
  0
INSERT
  5
594
330
58D
100
AcDbEntity
  8
S10_Quote
 62
     0
370
    -2
100
AcDbBlockReference
  2
A$C79C4041D
 10
928.6191011272935
 20
503.2254632257195
 30
0.0
 41
0.015
 42
0.015
 43
0.015
 50
270.0
  0
MTEXT
  5
595
330
58D
100
AcDbEntity
  8
S10_Quote
 62
     0
100
AcDbMText
 10
926.8037165119089
 20
514.7254632257197
 30
0.0
 40
2.0
 41
0.0
 71
     5
 72
     1
  1
23
  7
wurth
 11
0.0000000000000001
 21
1.0
 31
0.0
 73
     1
 44
1.0
  0
POINT
  5
596
330
58D
100
AcDbEntity
  8
Defpoints
 62
     0
100
AcDbPoint
 10
921.206625523142
 20
526.2254632257195
 30
0.0
  0
POINT
  5
597
330
58D
100
AcDbEntity
  8
Defpoints
 62
     0
100
AcDbPoint
 10
923.7770455481452
 20
503.2254632257195
 30
0.0
  0
POINT
  5
598
330
58D
100
AcDbEntity
  8
Defpoints
 62
     0
100
AcDbPoint
 10
928.6191011272935
 20
503.2254632257195
 30
0.0
  0
ENDBLK
  5
58F
330
58D
100
AcDbEntity
  8
0
100
AcDbBlockEnd
  0
BLOCK
  5
59A
330
599
100
AcDbEntity
  8
0
100
AcDbBlockBegin
  2
*D43
 70
     1
 10
0.0
 20
0.0
 30
0.0
  3
*D43
  1

  0
LINE
  5
59C
330
599
100
AcDbEntity
  8
S10_Quote
 62
     0
370
    -2
100
AcDbLine
 10
981.9722349224216
 20
498.6004632257195
 30
0.0
 11
981.9722349224216
 21
494.3693375598955
 31
0.0
  0
LINE
  5
59D
330
599
100
AcDbEntity
  8
S10_Quote
 62
     0
370
    -2
100
AcDbLine
 10
1011.972234922422
 20
498.6004632257195
 30
0.0
 11
1011.972234922422
 21
494.3693375598955
 31
0.0
  0
LINE
  5
59E
330
599
100
AcDbEntity
  8
S10_Quote
 62
     0
370
    -2
100
AcDbLine
 10
981.9872349224215
 20
495.6193375598955
 30
0.0
 11
1011.957234922421
 21
495.6193375598955
 31
0.0
  0
INSERT
  5
59F
330
599
100
AcDbEntity
  8
S10_Quote
 62
     0
370
    -2
100
AcDbBlockReference
  2
A$C79C4041D
 10
981.9722349224216
 20
495.6193375598955
 30
0.0
 41
0.015
 42
0.015
 43
0.015
 50
180.0
  0
INSERT
  5
5A0
330
599
100
AcDbEntity
  8
S10_Quote
 62
     0
370
    -2
100
AcDbBlockReference
  2
A$C79C4041D
 10
1011.972234922422
 20
495.6193375598955
 30
0.0
 41
0.015
 42
0.015
 43
0.015
  0
MTEXT
  5
5A1
330
599
100
AcDbEntity
  8
S10_Quote
 62
     0
100
AcDbMText
 10
996.9722349224216
 20
497.43472217528
 30
0.0
 40
2.0
 41
0.0
 71
     5
 72
     1
  1
30
  7
wurth
 73
     1
 44
1.0
  0
POINT
  5
5A2
330
599
100
AcDbEntity
  8
Defpoints
 62
     0
100
AcDbPoint
 10
981.9722349224216
 20
499.2254632257195
 30
0.0
  0
POINT
  5
5A3
330
599
100
AcDbEntity
  8
Defpoints
 62
     0
100
AcDbPoint
 10
1011.972234922422
 20
499.2254632257195
 30
0.0
  0
POINT
  5
5A4
330
599
100
AcDbEntity
  8
Defpoints
 62
     0
100
AcDbPoint
 10
1011.972234922422
 20
495.6193375598955
 30
0.0
  0
ENDBLK
  5
59B
330
599
100
AcDbEntity
  8
0
100
AcDbBlockEnd
  0
BLOCK
  5
5A6
330
5A5
100
AcDbEntity
  8
0
100
AcDbBlockBegin
  2
*D44
 70
     1
 10
0.0
 20
0.0
 30
0.0
  3
*D44
  1

  0
LINE
  5
5A8
330
5A5
100
AcDbEntity
  8
S10_Quote
 62
     0
370
    -2
100
AcDbLine
 10
997.5972349224216
 20
499.2254632257195
 30
0.0
 11
1017.816700265652
 21
499.2254632257195
 31
0.0
  0
LINE
  5
5A9
330
5A5
100
AcDbEntity
  8
S10_Quote
 62
     0
370
    -2
100
AcDbLine
 10
997.5972349224216
 20
503.2254632257195
 30
0.0
 11
1017.816700265652
 21
503.2254632257195
 31
0.0
  0
LINE
  5
5AA
330
5A5
100
AcDbEntity
  8
S10_Quote
 62
     0
370
    -2
100
AcDbLine
 10
1016.566700265652
 20
499.2404632257195
 30
0.0
 11
1016.566700265652
 21
503.2104632257195
 31
0.0
  0
INSERT
  5
5AB
330
5A5
100
AcDbEntity
  8
S10_Quote
 62
     0
370
    -2
100
AcDbBlockReference
  2
A$C79C4041D
 10
1016.566700265652
 20
499.2254632257195
 30
0.0
 41
0.015
 42
0.015
 43
0.015
 50
270.0
  0
INSERT
  5
5AC
330
5A5
100
AcDbEntity
  8
S10_Quote
 62
     0
370
    -2
100
AcDbBlockReference
  2
A$C79C4041D
 10
1016.566700265652
 20
503.2254632257195
 30
0.0
 41
0.015
 42
0.015
 43
0.015
 50
90.0
  0
MTEXT
  5
5AD
330
5A5
100
AcDbEntity
  8
S10_Quote
 62
     0
100
AcDbMText
 10
1014.75900795796
 20
501.2254632257197
 30
0.0
 40
2.0
 41
0.0
 71
     5
 72
     1
  1
4
  7
wurth
 11
0.0000000000000001
 21
1.0
 31
0.0
 73
     1
 44
1.0
  0
POINT
  5
5AE
330
5A5
100
AcDbEntity
  8
Defpoints
 62
     0
100
AcDbPoint
 10
996.9722349224216
 20
499.2254632257195
 30
0.0
  0
POINT
  5
5AF
330
5A5
100
AcDbEntity
  8
Defpoints
 62
     0
100
AcDbPoint
 10
996.9722349224216
 20
503.2254632257195
 30
0.0
  0
POINT
  5
5B0
330
5A5
100
AcDbEntity
  8
Defpoints
 62
     0
100
AcDbPoint
 10
1016.566700265652
 20
503.2254632257195
 30
0.0
  0
ENDBLK
  5
5A7
330
5A5
100
AcDbEntity
  8
0
100
AcDbBlockEnd
  0
BLOCK
  5
5B2
330
5B1
100
AcDbEntity
  8
0
100
AcDbBlockBegin
  2
*D45
 70
     1
 10
0.0
 20
0.0
 30
0.0
  3
*D45
  1

  0
LINE
  5
5B4
330
5B1
100
AcDbEntity
  8
S10_Quote
 62
     0
370
    -2
100
AcDbLine
 10
997.5972349224216
 20
503.2254632257195
 30
0.0
 11
1017.816700265652
 21
503.2254632257195
 31
0.0
  0
LINE
  5
5B5
330
5B1
100
AcDbEntity
  8
S10_Quote
 62
     0
370
    -2
100
AcDbLine
 10
1012.597234922421
 20
567.2254632257195
 30
0.0
 11
1017.816700265652
 21
567.2254632257195
 31
0.0
  0
LINE
  5
5B6
330
5B1
100
AcDbEntity
  8
S10_Quote
 62
     0
370
    -2
100
AcDbLine
 10
1016.566700265652
 20
503.2404632257195
 30
0.0
 11
1016.566700265652
 21
567.2104632257195
 31
0.0
  0
INSERT
  5
5B7
330
5B1
100
AcDbEntity
  8
S10_Quote
 62
     0
370
    -2
100
AcDbBlockReference
  2
A$C79C4041D
 10
1016.566700265652
 20
503.2254632257195
 30
0.0
 41
0.015
 42
0.015
 43
0.015
 50
270.0
  0
INSERT
  5
5B8
330
5B1
100
AcDbEntity
  8
S10_Quote
 62
     0
370
    -2
100
AcDbBlockReference
  2
A$C79C4041D
 10
1016.566700265652
 20
567.2254632257195
 30
0.0
 41
0.015
 42
0.015
 43
0.015
 50
90.0
  0
MTEXT
  5
5B9
330
5B1
100
AcDbEntity
  8
S10_Quote
 62
     0
100
AcDbMText
 10
1014.743623342575
 20
535.2254632257196
 30
0.0
 40
2.0
 41
0.0
 71
     5
 72
     1
  1
64
  7
wurth
 11
0.0000000000000001
 21
1.0
 31
0.0
 73
     1
 44
1.0
  0
POINT
  5
5BA
330
5B1
100
AcDbEntity
  8
Defpoints
 62
     0
100
AcDbPoint
 10
996.9722349224216
 20
503.2254632257195
 30
0.0
  0
POINT
  5
5BB
330
5B1
100
AcDbEntity
  8
Defpoints
 62
     0
100
AcDbPoint
 10
1011.972234922422
 20
567.2254632257195
 30
0.0
  0
POINT
  5
5BC
330
5B1
100
AcDbEntity
  8
Defpoints
 62
     0
100
AcDbPoint
 10
1016.566700265652
 20
567.2254632257195
 30
0.0
  0
ENDBLK
  5
5B3
330
5B1
100
AcDbEntity
  8
0
100
AcDbBlockEnd
  0
BLOCK
  5
5BE
330
5BD
100
AcDbEntity
  8
0
100
AcDbBlockBegin
  2
*D46
 70
     1
 10
0.0
 20
0.0
 30
0.0
  3
*D46
  1

  0
LINE
  5
5C0
330
5BD
100
AcDbEntity
  8
S10_Quote
 62
     0
370
    -2
100
AcDbLine
 10
996.3472349224216
 20
567.2254632257195
 30
0.0
 11
976.109028259631
 21
567.2254632257195
 31
0.0
  0
LINE
  5
5C1
330
5BD
100
AcDbEntity
  8
S10_Quote
 62
     0
370
    -2
100
AcDbLine
 10
996.3472349224216
 20
556.2254632257195
 30
0.0
 11
976.109028259631
 21
556.2254632257195
 31
0.0
  0
LINE
  5
5C2
330
5BD
100
AcDbEntity
  8
S10_Quote
 62
     0
370
    -2
100
AcDbLine
 10
977.3590282596311
 20
567.2104632257195
 30
0.0
 11
977.3590282596311
 21
556.2404632257194
 31
0.0
  0
INSERT
  5
5C3
330
5BD
100
AcDbEntity
  8
S10_Quote
 62
     0
370
    -2
100
AcDbBlockReference
  2
A$C79C4041D
 10
977.3590282596311
 20
567.2254632257195
 30
0.0
 41
0.015
 42
0.015
 43
0.015
 50
90.0
  0
INSERT
  5
5C4
330
5BD
100
AcDbEntity
  8
S10_Quote
 62
     0
370
    -2
100
AcDbBlockReference
  2
A$C79C4041D
 10
977.3590282596311
 20
556.2254632257195
 30
0.0
 41
0.015
 42
0.015
 43
0.015
 50
270.0
  0
MTEXT
  5
5C5
330
5BD
100
AcDbEntity
  8
S10_Quote
 62
     0
100
AcDbMText
 10
975.559028259631
 20
561.7254632257196
 30
0.0
 40
2.0
 41
0.0
 71
     5
 72
     1
  1
11
  7
wurth
 11
0.0000000000000001
 21
1.0
 31
0.0
 73
     1
 44
1.0
  0
POINT
  5
5C6
330
5BD
100
AcDbEntity
  8
Defpoints
 62
     0
100
AcDbPoint
 10
996.9722349224216
 20
567.2254632257195
 30
0.0
  0
POINT
  5
5C7
330
5BD
100
AcDbEntity
  8
Defpoints
 62
     0
100
AcDbPoint
 10
996.9722349224216
 20
556.2254632257195
 30
0.0
  0
POINT
  5
5C8
330
5BD
100
AcDbEntity
  8
Defpoints
 62
     0
100
AcDbPoint
 10
977.3590282596311
 20
556.2254632257195
 30
0.0
  0
ENDBLK
  5
5BF
330
5BD
100
AcDbEntity
  8
0
100
AcDbBlockEnd
  0
BLOCK
  5
5CA
330
5C9
100
AcDbEntity
  8
0
100
AcDbBlockBegin
  2
*D47
 70
     1
 10
0.0
 20
0.0
 30
0.0
  3
*D47
  1

  0
LINE
  5
5CC
330
5C9
100
AcDbEntity
  8
S10_Quote
 62
     0
370
    -2
100
AcDbLine
 10
996.3472349224216
 20
556.2254632257195
 30
0.0
 11
976.109028259631
 21
556.2254632257195
 31
0.0
  0
LINE
  5
5CD
330
5C9
100
AcDbEntity
  8
S10_Quote
 62
     0
370
    -2
100
AcDbLine
 10
996.3472349224216
 20
526.2254632257195
 30
0.0
 11
976.109028259631
 21
526.2254632257195
 31
0.0
  0
LINE
  5
5CE
330
5C9
100
AcDbEntity
  8
S10_Quote
 62
     0
370
    -2
100
AcDbLine
 10
977.3590282596311
 20
556.2104632257195
 30
0.0
 11
977.3590282596311
 21
526.2404632257195
 31
0.0
  0
INSERT
  5
5CF
330
5C9
100
AcDbEntity
  8
S10_Quote
 62
     0
370
    -2
100
AcDbBlockReference
  2
A$C79C4041D
 10
977.3590282596311
 20
556.2254632257195
 30
0.0
 41
0.015
 42
0.015
 43
0.015
 50
90.0
  0
INSERT
  5
5D0
330
5C9
100
AcDbEntity
  8
S10_Quote
 62
     0
370
    -2
100
AcDbBlockReference
  2
A$C79C4041D
 10
977.3590282596311
 20
526.2254632257195
 30
0.0
 41
0.015
 42
0.015
 43
0.015
 50
270.0
  0
MTEXT
  5
5D1
330
5C9
100
AcDbEntity
  8
S10_Quote
 62
     0
100
AcDbMText
 10
975.5436436442463
 20
541.2254632257196
 30
0.0
 40
2.0
 41
0.0
 71
     5
 72
     1
  1
30
  7
wurth
 11
0.0000000000000001
 21
1.0
 31
0.0
 73
     1
 44
1.0
  0
POINT
  5
5D2
330
5C9
100
AcDbEntity
  8
Defpoints
 62
     0
100
AcDbPoint
 10
996.9722349224216
 20
556.2254632257195
 30
0.0
  0
POINT
  5
5D3
330
5C9
100
AcDbEntity
  8
Defpoints
 62
     0
100
AcDbPoint
 10
996.9722349224216
 20
526.2254632257195
 30
0.0
  0
POINT
  5
5D4
330
5C9
100
AcDbEntity
  8
Defpoints
 62
     0
100
AcDbPoint
 10
977.3590282596311
 20
526.2254632257195
 30
0.0
  0
ENDBLK
  5
5CB
330
5C9
100
AcDbEntity
  8
0
100
AcDbBlockEnd
  0
BLOCK
  5
5D6
330
5D5
100
AcDbEntity
  8
0
100
AcDbBlockBegin
  2
*D48
 70
     1
 10
0.0
 20
0.0
 30
0.0
  3
*D48
  1

  0
LINE
  5
5D8
330
5D5
100
AcDbEntity
  8
S10_Quote
 62
     0
370
    -2
100
AcDbLine
 10
996.3472349224216
 20
526.2254632257195
 30
0.0
 11
976.109028259631
 21
526.2254632257195
 31
0.0
  0
LINE
  5
5D9
330
5D5
100
AcDbEntity
  8
S10_Quote
 62
     0
370
    -2
100
AcDbLine
 10
981.3472349224216
 20
503.2254632257195
 30
0.0
 11
976.109028259631
 21
503.2254632257195
 31
0.0
  0
LINE
  5
5DA
330
5D5
100
AcDbEntity
  8
S10_Quote
 62
     0
370
    -2
100
AcDbLine
 10
977.3590282596311
 20
526.2104632257195
 30
0.0
 11
977.3590282596311
 21
503.2404632257195
 31
0.0
  0
INSERT
  5
5DB
330
5D5
100
AcDbEntity
  8
S10_Quote
 62
     0
370
    -2
100
AcDbBlockReference
  2
A$C79C4041D
 10
977.3590282596311
 20
526.2254632257195
 30
0.0
 41
0.015
 42
0.015
 43
0.015
 50
90.0
  0
INSERT
  5
5DC
330
5D5
100
AcDbEntity
  8
S10_Quote
 62
     0
370
    -2
100
AcDbBlockReference
  2
A$C79C4041D
 10
977.3590282596311
 20
503.2254632257195
 30
0.0
 41
0.015
 42
0.015
 43
0.015
 50
270.0
  0
MTEXT
  5
5DD
330
5D5
100
AcDbEntity
  8
S10_Quote
 62
     0
100
AcDbMText
 10
975.5436436442463
 20
514.7254632257196
 30
0.0
 40
2.0
 41
0.0
 71
     5
 72
     1
  1
23
  7
wurth
 11
0.0000000000000001
 21
1.0
 31
0.0
 73
     1
 44
1.0
  0
POINT
  5
5DE
330
5D5
100
AcDbEntity
  8
Defpoints
 62
     0
100
AcDbPoint
 10
996.9722349224216
 20
526.2254632257195
 30
0.0
  0
POINT
  5
5DF
330
5D5
100
AcDbEntity
  8
Defpoints
 62
     0
100
AcDbPoint
 10
981.9722349224216
 20
503.2254632257195
 30
0.0
  0
POINT
  5
5E0
330
5D5
100
AcDbEntity
  8
Defpoints
 62
     0
100
AcDbPoint
 10
977.3590282596311
 20
503.2254632257195
 30
0.0
  0
ENDBLK
  5
5D7
330
5D5
100
AcDbEntity
  8
0
100
AcDbBlockEnd
  0
BLOCK
  5
5E2
330
5E1
100
AcDbEntity
  8
0
100
AcDbBlockBegin
  2
*D49
 70
     1
 10
0.0
 20
0.0
 30
0.0
  3
*D49
  1

  0
LINE
  5
5E4
330
5E1
100
AcDbEntity
  8
S10_Quote
 62
     0
370
    -2
100
AcDbLine
 10
981.3472349224216
 20
503.2254632257195
 30
0.0
 11
976.109028259631
 21
503.2254632257195
 31
0.0
  0
LINE
  5
5E5
330
5E1
100
AcDbEntity
  8
S10_Quote
 62
     0
370
    -2
100
AcDbLine
 10
981.3472349224216
 20
499.2254632257195
 30
0.0
 11
976.109028259631
 21
499.2254632257195
 31
0.0
  0
LINE
  5
5E6
330
5E1
100
AcDbEntity
  8
S10_Quote
 62
     0
370
    -2
100
AcDbLine
 10
977.3590282596311
 20
503.2104632257195
 30
0.0
 11
977.3590282596311
 21
499.2404632257195
 31
0.0
  0
INSERT
  5
5E7
330
5E1
100
AcDbEntity
  8
S10_Quote
 62
     0
370
    -2
100
AcDbBlockReference
  2
A$C79C4041D
 10
977.3590282596311
 20
503.2254632257195
 30
0.0
 41
0.015
 42
0.015
 43
0.015
 50
90.0
  0
INSERT
  5
5E8
330
5E1
100
AcDbEntity
  8
S10_Quote
 62
     0
370
    -2
100
AcDbBlockReference
  2
A$C79C4041D
 10
977.3590282596311
 20
499.2254632257195
 30
0.0
 41
0.015
 42
0.015
 43
0.015
 50
270.0
  0
MTEXT
  5
5E9
330
5E1
100
AcDbEntity
  8
S10_Quote
 62
     0
100
AcDbMText
 10
975.5513359519387
 20
501.2254632257197
 30
0.0
 40
2.0
 41
0.0
 71
     5
 72
     1
  1
4
  7
wurth
 11
0.0000000000000001
 21
1.0
 31
0.0
 73
     1
 44
1.0
  0
POINT
  5
5EA
330
5E1
100
AcDbEntity
  8
Defpoints
 62
     0
100
AcDbPoint
 10
981.9722349224216
 20
503.2254632257195
 30
0.0
  0
POINT
  5
5EB
330
5E1
100
AcDbEntity
  8
Defpoints
 62
     0
100
AcDbPoint
 10
981.9722349224216
 20
499.2254632257195
 30
0.0
  0
POINT
  5
5EC
330
5E1
100
AcDbEntity
  8
Defpoints
 62
     0
100
AcDbPoint
 10
977.3590282596311
 20
499.2254632257195
 30
0.0
  0
ENDBLK
  5
5E3
330
5E1
100
AcDbEntity
  8
0
100
AcDbBlockEnd
  0
BLOCK
  5
5EE
330
5ED
100
AcDbEntity
  8
0
100
AcDbBlockBegin
  2
*D50
 70
     1
 10
0.0
 20
0.0
 30
0.0
  3
*D50
  1

  0
LINE
  5
5F0
330
5ED
100
AcDbEntity
  8
S10_Quote
 62
     0
370
    -2
100
AcDbLine
 10
834.4770455481452
 20
439.013275015171
 30
0.0
 11
834.4770455481452
 21
433.030192222564
 31
0.0
  0
LINE
  5
5F1
330
5ED
100
AcDbEntity
  8
S10_Quote
 62
     0
370
    -2
100
AcDbLine
 10
846.4770455481453
 20
454.0132750151711
 30
0.0
 11
846.4770455481453
 21
433.030192222564
 31
0.0
  0
LINE
  5
5F2
330
5ED
100
AcDbEntity
  8
S10_Quote
 62
     0
370
    -2
100
AcDbLine
 10
834.4920455481453
 20
434.2801922225639
 30
0.0
 11
846.4620455481453
 21
434.2801922225639
 31
0.0
  0
INSERT
  5
5F3
330
5ED
100
AcDbEntity
  8
S10_Quote
 62
     0
370
    -2
100
AcDbBlockReference
  2
A$C79C4041D
 10
834.4770455481452
 20
434.2801922225639
 30
0.0
 41
0.015
 42
0.015
 43
0.015
 50
180.0
  0
INSERT
  5
5F4
330
5ED
100
AcDbEntity
  8
S10_Quote
 62
     0
370
    -2
100
AcDbBlockReference
  2
A$C79C4041D
 10
846.4770455481453
 20
434.2801922225639
 30
0.0
 41
0.015
 42
0.015
 43
0.015
  0
MTEXT
  5
5F5
330
5ED
100
AcDbEntity
  8
S10_Quote
 62
     0
100
AcDbMText
 10
840.4770455481452
 20
436.080192222564
 30
0.0
 40
2.0
 41
0.0
 71
     5
 72
     1
  1
12
  7
wurth
 73
     1
 44
1.0
  0
POINT
  5
5F6
330
5ED
100
AcDbEntity
  8
Defpoints
 62
     0
100
AcDbPoint
 10
834.4770455481452
 20
439.638275015171
 30
0.0
  0
POINT
  5
5F7
330
5ED
100
AcDbEntity
  8
Defpoints
 62
     0
100
AcDbPoint
 10
846.4770455481453
 20
454.638275015171
 30
0.0
  0
POINT
  5
5F8
330
5ED
100
AcDbEntity
  8
Defpoints
 62
     0
100
AcDbPoint
 10
846.4770455481453
 20
434.2801922225639
 30
0.0
  0
ENDBLK
  5
5EF
330
5ED
100
AcDbEntity
  8
0
100
AcDbBlockEnd
  0
BLOCK
  5
5FA
330
5F9
100
AcDbEntity
  8
0
100
AcDbBlockBegin
  2
*D51
 70
     1
 10
0.0
 20
0.0
 30
0.0
  3
*D51
  1

  0
LINE
  5
5FC
330
5F9
100
AcDbEntity
  8
S10_Quote
 62
     0
370
    -2
100
AcDbLine
 10
846.4770455481453
 20
454.0132750151711
 30
0.0
 11
846.4770455481453
 21
433.030192222564
 31
0.0
  0
LINE
  5
5FD
330
5F9
100
AcDbEntity
  8
S10_Quote
 62
     0
370
    -2
100
AcDbLine
 10
918.4770455481453
 20
439.013275015171
 30
0.0
 11
918.4770455481453
 21
433.030192222564
 31
0.0
  0
LINE
  5
5FE
330
5F9
100
AcDbEntity
  8
S10_Quote
 62
     0
370
    -2
100
AcDbLine
 10
846.4920455481452
 20
434.2801922225639
 30
0.0
 11
918.4620455481452
 21
434.2801922225639
 31
0.0
  0
INSERT
  5
5FF
330
5F9
100
AcDbEntity
  8
S10_Quote
 62
     0
370
    -2
100
AcDbBlockReference
  2
A$C79C4041D
 10
846.4770455481453
 20
434.2801922225639
 30
0.0
 41
0.015
 42
0.015
 43
0.015
 50
180.0
  0
INSERT
  5
600
330
5F9
100
AcDbEntity
  8
S10_Quote
 62
     0
370
    -2
100
AcDbBlockReference
  2
A$C79C4041D
 10
918.4770455481453
 20
434.2801922225639
 30
0.0
 41
0.015
 42
0.015
 43
0.015
  0
MTEXT
  5
601
330
5F9
100
AcDbEntity
  8
S10_Quote
 62
     0
100
AcDbMText
 10
882.4770455481452
 20
436.1025698449416
 30
0.0
 40
2.0
 41
0.0
 71
     5
 72
     1
  1
72
  7
wurth
 73
     1
 44
1.0
  0
POINT
  5
602
330
5F9
100
AcDbEntity
  8
Defpoints
 62
     0
100
AcDbPoint
 10
846.4770455481453
 20
454.638275015171
 30
0.0
  0
POINT
  5
603
330
5F9
100
AcDbEntity
  8
Defpoints
 62
     0
100
AcDbPoint
 10
918.4770455481453
 20
439.638275015171
 30
0.0
  0
POINT
  5
604
330
5F9
100
AcDbEntity
  8
Defpoints
 62
     0
100
AcDbPoint
 10
918.4770455481453
 20
434.2801922225639
 30
0.0
  0
ENDBLK
  5
5FB
330
5F9
100
AcDbEntity
  8
0
100
AcDbBlockEnd
  0
BLOCK
  5
606
330
605
100
AcDbEntity
  8
0
100
AcDbBlockBegin
  2
*D52
 70
     1
 10
0.0
 20
0.0
 30
0.0
  3
*D52
  1

  0
LINE
  5
608
330
605
100
AcDbEntity
  8
S10_Quote
 62
     0
370
    -2
100
AcDbLine
 10
918.4770455481453
 20
439.013275015171
 30
0.0
 11
918.4770455481453
 21
433.030192222564
 31
0.0
  0
LINE
  5
609
330
605
100
AcDbEntity
  8
S10_Quote
 62
     0
370
    -2
100
AcDbLine
 10
923.4770455481452
 20
439.013275015171
 30
0.0
 11
923.4770455481452
 21
433.030192222564
 31
0.0
  0
LINE
  5
60A
330
605
100
AcDbEntity
  8
S10_Quote
 62
     0
370
    -2
100
AcDbLine
 10
918.4920455481453
 20
434.2801922225639
 30
0.0
 11
923.4620455481453
 21
434.2801922225639
 31
0.0
  0
INSERT
  5
60B
330
605
100
AcDbEntity
  8
S10_Quote
 62
     0
370
    -2
100
AcDbBlockReference
  2
A$C79C4041D
 10
918.4770455481453
 20
434.2801922225639
 30
0.0
 41
0.015
 42
0.015
 43
0.015
 50
180.0
  0
INSERT
  5
60C
330
605
100
AcDbEntity
  8
S10_Quote
 62
     0
370
    -2
100
AcDbBlockReference
  2
A$C79C4041D
 10
923.4770455481452
 20
434.2801922225639
 30
0.0
 41
0.015
 42
0.015
 43
0.015
  0
MTEXT
  5
60D
330
605
100
AcDbEntity
  8
S10_Quote
 62
     0
100
AcDbMText
 10
920.9770455481452
 20
436.0955768379485
 30
0.0
 40
2.0
 41
0.0
 71
     5
 72
     1
  1
5
  7
wurth
 73
     1
 44
1.0
  0
POINT
  5
60E
330
605
100
AcDbEntity
  8
Defpoints
 62
     0
100
AcDbPoint
 10
918.4770455481453
 20
439.638275015171
 30
0.0
  0
POINT
  5
60F
330
605
100
AcDbEntity
  8
Defpoints
 62
     0
100
AcDbPoint
 10
923.4770455481452
 20
439.638275015171
 30
0.0
  0
POINT
  5
610
330
605
100
AcDbEntity
  8
Defpoints
 62
     0
100
AcDbPoint
 10
923.4770455481452
 20
434.2801922225639
 30
0.0
  0
ENDBLK
  5
607
330
605
100
AcDbEntity
  8
0
100
AcDbBlockEnd
  0
BLOCK
  5
612
330
611
100
AcDbEntity
  8
0
100
AcDbBlockBegin
  2
*D53
 70
     1
 10
0.0
 20
0.0
 30
0.0
  3
*D53
  1

  0
LINE
  5
614
330
611
100
AcDbEntity
  8
S10_Quote
 62
     0
370
    -2
100
AcDbLine
 10
923.4770455481452
 20
439.013275015171
 30
0.0
 11
923.4770455481452
 21
433.030192222564
 31
0.0
  0
LINE
  5
615
330
611
100
AcDbEntity
  8
S10_Quote
 62
     0
370
    -2
100
AcDbLine
 10
960.4770455481457
 20
454.0132750151711
 30
0.0
 11
960.4770455481457
 21
433.030192222564
 31
0.0
  0
LINE
  5
616
330
611
100
AcDbEntity
  8
S10_Quote
 62
     0
370
    -2
100
AcDbLine
 10
923.4920455481452
 20
434.2801922225639
 30
0.0
 11
960.4620455481457
 21
434.2801922225639
 31
0.0
  0
INSERT
  5
617
330
611
100
AcDbEntity
  8
S10_Quote
 62
     0
370
    -2
100
AcDbBlockReference
  2
A$C79C4041D
 10
923.4770455481452
 20
434.2801922225639
 30
0.0
 41
0.015
 42
0.015
 43
0.015
 50
180.0
  0
INSERT
  5
618
330
611
100
AcDbEntity
  8
S10_Quote
 62
     0
370
    -2
100
AcDbBlockReference
  2
A$C79C4041D
 10
960.4770455481457
 20
434.2801922225639
 30
0.0
 41
0.015
 42
0.015
 43
0.015
  0
MTEXT
  5
619
330
611
100
AcDbEntity
  8
S10_Quote
 62
     0
100
AcDbMText
 10
941.9770455481454
 20
436.1025698449416
 30
0.0
 40
2.0
 41
0.0
 71
     5
 72
     1
  1
37
  7
wurth
 73
     1
 44
1.0
  0
POINT
  5
61A
330
611
100
AcDbEntity
  8
Defpoints
 62
     0
100
AcDbPoint
 10
923.4770455481452
 20
439.638275015171
 30
0.0
  0
POINT
  5
61B
330
611
100
AcDbEntity
  8
Defpoints
 62
     0
100
AcDbPoint
 10
960.4770455481457
 20
454.638275015171
 30
0.0
  0
POINT
  5
61C
330
611
100
AcDbEntity
  8
Defpoints
 62
     0
100
AcDbPoint
 10
960.4770455481457
 20
434.2801922225639
 30
0.0
  0
ENDBLK
  5
613
330
611
100
AcDbEntity
  8
0
100
AcDbBlockEnd
  0
BLOCK
  5
61E
330
61D
100
AcDbEntity
  8
0
100
AcDbBlockBegin
  2
*D54
 70
     1
 10
0.0
 20
0.0
 30
0.0
  3
*D54
  1

  0
LINE
  5
620
330
61D
100
AcDbEntity
  8
S10_Quote
 62
     0
370
    -2
100
AcDbLine
 10
960.4770455481457
 20
454.0132750151711
 30
0.0
 11
960.4770455481457
 21
433.030192222564
 31
0.0
  0
LINE
  5
621
330
61D
100
AcDbEntity
  8
S10_Quote
 62
     0
370
    -2
100
AcDbLine
 10
972.4770455481452
 20
439.013275015171
 30
0.0
 11
972.4770455481452
 21
433.030192222564
 31
0.0
  0
LINE
  5
622
330
61D
100
AcDbEntity
  8
S10_Quote
 62
     0
370
    -2
100
AcDbLine
 10
960.4920455481456
 20
434.2801922225639
 30
0.0
 11
972.4620455481453
 21
434.2801922225639
 31
0.0
  0
INSERT
  5
623
330
61D
100
AcDbEntity
  8
S10_Quote
 62
     0
370
    -2
100
AcDbBlockReference
  2
A$C79C4041D
 10
960.4770455481457
 20
434.2801922225639
 30
0.0
 41
0.015
 42
0.015
 43
0.015
 50
180.0
  0
INSERT
  5
624
330
61D
100
AcDbEntity
  8
S10_Quote
 62
     0
370
    -2
100
AcDbBlockReference
  2
A$C79C4041D
 10
972.4770455481452
 20
434.2801922225639
 30
0.0
 41
0.015
 42
0.015
 43
0.015
  0
MTEXT
  5
625
330
61D
100
AcDbEntity
  8
S10_Quote
 62
     0
100
AcDbMText
 10
966.4770455481455
 20
436.080192222564
 30
0.0
 40
2.0
 41
0.0
 71
     5
 72
     1
  1
12
  7
wurth
 73
     1
 44
1.0
  0
POINT
  5
626
330
61D
100
AcDbEntity
  8
Defpoints
 62
     0
100
AcDbPoint
 10
960.4770455481457
 20
454.638275015171
 30
0.0
  0
POINT
  5
627
330
61D
100
AcDbEntity
  8
Defpoints
 62
     0
100
AcDbPoint
 10
972.4770455481452
 20
439.638275015171
 30
0.0
  0
POINT
  5
628
330
61D
100
AcDbEntity
  8
Defpoints
 62
     0
100
AcDbPoint
 10
972.4770455481452
 20
434.2801922225639
 30
0.0
  0
ENDBLK
  5
61F
330
61D
100
AcDbEntity
  8
0
100
AcDbBlockEnd
  0
BLOCK
  5
633
330
632
100
AcDbEntity
  8
0
100
AcDbBlockBegin
  2
*D55
 70
     1
 10
0.0
 20
0.0
 30
0.0
  3
*D55
  1

  0
LINE
  5
635
330
632
100
AcDbEntity
  8
S10_Quote
 62
     0
370
    -2
100
AcDbLine
 10
973.1020455481452
 20
469.6382750151711
 30
0.0
 11
980.283488552774
 21
469.6382750151711
 31
0.0
  0
LINE
  5
636
330
632
100
AcDbEntity
  8
S10_Quote
 62
     0
370
    -2
100
AcDbLine
 10
973.1020455481452
 20
439.638275015171
 30
0.0
 11
980.283488552774
 21
439.638275015171
 31
0.0
  0
LINE
  5
637
330
632
100
AcDbEntity
  8
S10_Quote
 62
     0
370
    -2
100
AcDbLine
 10
979.0334885527741
 20
469.623275015171
 30
0.0
 11
979.0334885527741
 21
439.6532750151711
 31
0.0
  0
INSERT
  5
638
330
632
100
AcDbEntity
  8
S10_Quote
 62
     0
370
    -2
100
AcDbBlockReference
  2
A$C79C4041D
 10
979.0334885527741
 20
469.6382750151711
 30
0.0
 41
0.015
 42
0.015
 43
0.015
 50
90.0
  0
INSERT
  5
639
330
632
100
AcDbEntity
  8
S10_Quote
 62
     0
370
    -2
100
AcDbBlockReference
  2
A$C79C4041D
 10
979.0334885527741
 20
439.638275015171
 30
0.0
 41
0.015
 42
0.015
 43
0.015
 50
270.0
  0
MTEXT
  5
63A
330
632
100
AcDbEntity
  8
S10_Quote
 62
     0
100
AcDbMText
 10
977.2181039373894
 20
454.6382750151712
 30
0.0
 40
2.0
 41
0.0
 71
     5
 72
     1
  1
30
  7
wurth
 11
0.0000000000000001
 21
1.0
 31
0.0
 73
     1
 44
1.0
  0
POINT
  5
63B
330
632
100
AcDbEntity
  8
Defpoints
 62
     0
100
AcDbPoint
 10
972.4770455481452
 20
469.6382750151711
 30
0.0
  0
POINT
  5
63C
330
632
100
AcDbEntity
  8
Defpoints
 62
     0
100
AcDbPoint
 10
972.4770455481452
 20
439.638275015171
 30
0.0
  0
POINT
  5
63D
330
632
100
AcDbEntity
  8
Defpoints
 62
     0
100
AcDbPoint
 10
979.0334885527741
 20
439.638275015171
 30
0.0
  0
ENDBLK
  5
634
330
632
100
AcDbEntity
  8
0
100
AcDbBlockEnd
  0
BLOCK
  5
63F
330
63E
100
AcDbEntity
  8
0
100
AcDbBlockBegin
  2
*D56
 70
     1
 10
0.0
 20
0.0
 30
0.0
  3
*D56
  1

  0
LINE
  5
641
330
63E
100
AcDbEntity
  8
S10_Quote
 62
     0
370
    -2
100
AcDbLine
 10
920.3520455481452
 20
459.138275015171
 30
0.0
 11
913.5541824275282
 21
459.138275015171
 31
0.0
  0
LINE
  5
642
330
63E
100
AcDbEntity
  8
S10_Quote
 62
     0
370
    -2
100
AcDbLine
 10
920.3520455481452
 20
450.138275015171
 30
0.0
 11
913.5541824275282
 21
450.138275015171
 31
0.0
  0
LINE
  5
643
330
63E
100
AcDbEntity
  8
S10_Quote
 62
     0
370
    -2
100
AcDbLine
 10
914.8041824275283
 20
459.1232750151711
 30
0.0
 11
914.8041824275283
 21
450.153275015171
 31
0.0
  0
INSERT
  5
644
330
63E
100
AcDbEntity
  8
S10_Quote
 62
     0
370
    -2
100
AcDbBlockReference
  2
A$C79C4041D
 10
914.8041824275283
 20
459.138275015171
 30
0.0
 41
0.015
 42
0.015
 43
0.015
 50
90.0
  0
INSERT
  5
645
330
63E
100
AcDbEntity
  8
S10_Quote
 62
     0
370
    -2
100
AcDbBlockReference
  2
A$C79C4041D
 10
914.8041824275283
 20
450.138275015171
 30
0.0
 41
0.015
 42
0.015
 43
0.015
 50
270.0
  0
MTEXT
  5
646
330
63E
100
AcDbEntity
  8
S10_Quote
 62
     0
100
AcDbMText
 10
912.9811055044513
 20
454.6382750151712
 30
0.0
 40
2.0
 41
0.0
 71
     5
 72
     1
  1
9
  7
wurth
 11
0.0000000000000001
 21
1.0
 31
0.0
 73
     1
 44
1.0
  0
POINT
  5
647
330
63E
100
AcDbEntity
  8
Defpoints
 62
     0
100
AcDbPoint
 10
920.9770455481452
 20
459.138275015171
 30
0.0
  0
POINT
  5
648
330
63E
100
AcDbEntity
  8
Defpoints
 62
     0
100
AcDbPoint
 10
920.9770455481452
 20
450.138275015171
 30
0.0
  0
POINT
  5
649
330
63E
100
AcDbEntity
  8
Defpoints
 62
     0
100
AcDbPoint
 10
914.8041824275283
 20
450.138275015171
 30
0.0
  0
ENDBLK
  5
640
330
63E
100
AcDbEntity
  8
0
100
AcDbBlockEnd
  0
ENDSEC
  0
SECTION
  2
ENTITIES
  0
ARC
  5
428
330
1F
100
AcDbEntity
  8
Sichtbar (ISO)
100
AcDbCircle
 10
918.8953072483592
 20
567.0254632257196
 30
0.0
 40
0.1999999999999935
100
AcDbArc
 50
89.99999999998697
 51
227.4999999999748
  0
LINE
  5
429
330
1F
100
AcDbEntity
  8
Sichtbar (ISO)
100
AcDbLine
 10
918.7601892068359
 20
566.8780077583574
 30
0.0
 11
919.4121635896683
 21
566.2805833067081
 31
0.0
  0
LINE
  5
42A
330
1F
100
AcDbEntity
  8
Sichtbar (ISO)
100
AcDbLine
 10
919.4121635896683
 20
565.9856723719835
 30
0.0
 11
918.5419275066221
 21
565.1882479203336
 31
0.0
  0
ARC
  5
42B
330
1F
100
AcDbEntity
  8
Sichtbar (ISO)
100
AcDbCircle
 10
919.2770455481452
 20
566.1331278393459
 30
0.0
 40
0.2000000000000011
100
AcDbArc
 50
312.4999999999884
 51
47.49999999997481
  0
ARC
  5
42C
330
1F
100
AcDbEntity
  8
Sichtbar (ISO)
100
AcDbCircle
 10
918.6770455481452
 20
565.0407924529713
 30
0.0
 40
0.2000000000000045
100
AcDbArc
 50
132.5000000000251
 51
227.4999999999748
  0
LINE
  5
42D
330
1F
100
AcDbEntity
  8
Sichtbar (ISO)
100
AcDbLine
 10
918.5419275066221
 20
516.8305799851464
 30
0.0
 11
919.4121635896683
 21
516.0331555334964
 31
0.0
  0
LINE
  5
42E
330
1F
100
AcDbEntity
  8
Sichtbar (ISO)
100
AcDbLine
 10
919.4121635896683
 20
515.7382445987718
 30
0.0
 11
918.5419275066221
 21
514.9408201471219
 31
0.0
  0
ARC
  5
42F
330
1F
100
AcDbEntity
  8
Sichtbar (ISO)
100
AcDbCircle
 10
919.2770455481452
 20
515.8857000661341
 30
0.0
 40
0.1999999999999995
100
AcDbArc
 50
312.5000000000252
 51
47.49999999997481
  0
ARC
  5
430
330
1F
100
AcDbEntity
  8
Sichtbar (ISO)
100
AcDbCircle
 10
918.6770455481452
 20
514.7933646797605
 30
0.0
 40
0.1999999999999938
100
AcDbArc
 50
132.5000000000251
 51
180.0
  0
LINE
  5
431
330
1F
100
AcDbEntity
  8
Sichtbar (ISO)
100
AcDbLine
 10
918.5419275066221
 20
519.0152507578946
 30
0.0
 11
919.4121635896683
 21
518.2178263062446
 31
0.0
  0
LINE
  5
432
330
1F
100
AcDbEntity
  8
Sichtbar (ISO)
100
AcDbLine
 10
919.4121635896683
 20
517.9229153715209
 30
0.0
 11
918.5419275066221
 21
517.1254909198701
 31
0.0
  0
ARC
  5
433
330
1F
100
AcDbEntity
  8
Sichtbar (ISO)
100
AcDbCircle
 10
919.2770455481452
 20
518.0703708388823
 30
0.0
 40
0.1999999999999995
100
AcDbArc
 50
312.5000000000252
 51
47.49999999997481
  0
ARC
  5
434
330
1F
100
AcDbEntity
  8
Sichtbar (ISO)
100
AcDbCircle
 10
918.6770455481452
 20
516.9780354525086
 30
0.0
 40
0.1999999999999993
100
AcDbArc
 50
132.5000000000251
 51
227.4999999999748
  0
LINE
  5
435
330
1F
100
AcDbEntity
  8
Sichtbar (ISO)
100
AcDbLine
 10
918.5419275066221
 20
521.1999215306427
 30
0.0
 11
919.4121635896683
 21
520.4024970789928
 31
0.0
  0
LINE
  5
436
330
1F
100
AcDbEntity
  8
Sichtbar (ISO)
100
AcDbLine
 10
919.4121635896683
 20
520.1075861442691
 30
0.0
 11
918.5419275066221
 21
519.3101616926192
 31
0.0
  0
ARC
  5
437
330
1F
100
AcDbEntity
  8
Sichtbar (ISO)
100
AcDbCircle
 10
919.2770455481452
 20
520.2550416116305
 30
0.0
 40
0.2000000000000011
100
AcDbArc
 50
312.5000000000252
 51
47.49999999997481
  0
ARC
  5
438
330
1F
100
AcDbEntity
  8
Sichtbar (ISO)
100
AcDbCircle
 10
918.6770455481452
 20
519.1627062252568
 30
0.0
 40
0.2000000000000035
100
AcDbArc
 50
132.5000000000251
 51
227.4999999999748
  0
LINE
  5
439
330
1F
100
AcDbEntity
  8
Sichtbar (ISO)
100
AcDbLine
 10
918.5419275066221
 20
523.3845923033909
 30
0.0
 11
919.4121635896683
 21
522.5871678517409
 31
0.0
  0
LINE
  5
43A
330
1F
100
AcDbEntity
  8
Sichtbar (ISO)
100
AcDbLine
 10
919.4121635896683
 20
522.2922569170172
 30
0.0
 11
918.5419275066221
 21
521.4948324653674
 31
0.0
  0
ARC
  5
43B
330
1F
100
AcDbEntity
  8
Sichtbar (ISO)
100
AcDbCircle
 10
919.2770455481452
 20
522.4397123843796
 30
0.0
 40
0.2000000000000011
100
AcDbArc
 50
312.5000000000252
 51
47.49999999997481
  0
ARC
  5
43C
330
1F
100
AcDbEntity
  8
Sichtbar (ISO)
100
AcDbCircle
 10
918.6770455481452
 20
521.347376998005
 30
0.0
 40
0.2000000000000027
100
AcDbArc
 50
132.5000000000251
 51
227.4999999999748
  0
LINE
  5
43D
330
1F
100
AcDbEntity
  8
Sichtbar (ISO)
100
AcDbLine
 10
918.5419275066221
 20
525.56926307614
 30
0.0
 11
919.4121635896683
 21
524.7718386244891
 31
0.0
  0
LINE
  5
43E
330
1F
100
AcDbEntity
  8
Sichtbar (ISO)
100
AcDbLine
 10
919.4121635896683
 20
524.4769276897654
 30
0.0
 11
918.5419275066221
 21
523.6795032381155
 31
0.0
  0
ARC
  5
43F
330
1F
100
AcDbEntity
  8
Sichtbar (ISO)
100
AcDbCircle
 10
919.2770455481452
 20
524.6243831571278
 30
0.0
 40
0.2000000000000011
100
AcDbArc
 50
312.5000000000252
 51
47.49999999997481
  0
ARC
  5
440
330
1F
100
AcDbEntity
  8
Sichtbar (ISO)
100
AcDbCircle
 10
918.6770455481452
 20
523.5320477707532
 30
0.0
 40
0.2000000000000027
100
AcDbArc
 50
132.5000000000251
 51
227.4999999999748
  0
LINE
  5
441
330
1F
100
AcDbEntity
  8
Sichtbar (ISO)
100
AcDbLine
 10
918.5419275066221
 20
527.7539338488882
 30
0.0
 11
919.4121635896683
 21
526.9565093972382
 31
0.0
  0
LINE
  5
442
330
1F
100
AcDbEntity
  8
Sichtbar (ISO)
100
AcDbLine
 10
919.4121635896683
 20
526.6615984625136
 30
0.0
 11
918.5419275066221
 21
525.8641740108637
 31
0.0
  0
ARC
  5
443
330
1F
100
AcDbEntity
  8
Sichtbar (ISO)
100
AcDbCircle
 10
919.2770455481452
 20
526.809053929876
 30
0.0
 40
0.2000000000000011
100
AcDbArc
 50
312.5000000000252
 51
47.49999999997481
  0
ARC
  5
444
330
1F
100
AcDbEntity
  8
Sichtbar (ISO)
100
AcDbCircle
 10
918.6770455481452
 20
525.7167185435014
 30
0.0
 40
0.2000000000000027
100
AcDbArc
 50
132.5000000000251
 51
227.4999999999748
  0
LINE
  5
445
330
1F
100
AcDbEntity
  8
Sichtbar (ISO)
100
AcDbLine
 10
918.5419275066221
 20
529.9386046216364
 30
0.0
 11
919.4121635896683
 21
529.1411801699864
 31
0.0
  0
LINE
  5
446
330
1F
100
AcDbEntity
  8
Sichtbar (ISO)
100
AcDbLine
 10
919.4121635896683
 20
528.8462692352618
 30
0.0
 11
918.5419275066221
 21
528.0488447836119
 31
0.0
  0
ARC
  5
447
330
1F
100
AcDbEntity
  8
Sichtbar (ISO)
100
AcDbCircle
 10
919.2770455481452
 20
528.9937247026241
 30
0.0
 40
0.2000000000000011
100
AcDbArc
 50
312.5000000000252
 51
47.49999999997481
  0
ARC
  5
448
330
1F
100
AcDbEntity
  8
Sichtbar (ISO)
100
AcDbCircle
 10
918.6770455481452
 20
527.9013893162505
 30
0.0
 40
0.2000000000000027
100
AcDbArc
 50
132.5000000000251
 51
227.4999999999748
  0
LINE
  5
449
330
1F
100
AcDbEntity
  8
Sichtbar (ISO)
100
AcDbLine
 10
918.5419275066221
 20
532.1232753943845
 30
0.0
 11
919.4121635896683
 21
531.3258509427346
 31
0.0
  0
LINE
  5
44A
330
1F
100
AcDbEntity
  8
Sichtbar (ISO)
100
AcDbLine
 10
919.4121635896683
 20
531.0309400080109
 30
0.0
 11
918.5419275066221
 21
530.2335155563601
 31
0.0
  0
ARC
  5
44B
330
1F
100
AcDbEntity
  8
Sichtbar (ISO)
100
AcDbCircle
 10
919.2770455481452
 20
531.1783954753723
 30
0.0
 40
0.2000000000000011
100
AcDbArc
 50
312.5000000000252
 51
47.49999999997481
  0
ARC
  5
44C
330
1F
100
AcDbEntity
  8
Sichtbar (ISO)
100
AcDbCircle
 10
918.6770455481452
 20
530.0860600889986
 30
0.0
 40
0.2000000000000027
100
AcDbArc
 50
132.5000000000251
 51
227.4999999999748
  0
LINE
  5
44D
330
1F
100
AcDbEntity
  8
Sichtbar (ISO)
100
AcDbLine
 10
918.5419275066221
 20
534.3079461671327
 30
0.0
 11
919.4121635896683
 21
533.5105217154827
 31
0.0
  0
LINE
  5
44E
330
1F
100
AcDbEntity
  8
Sichtbar (ISO)
100
AcDbLine
 10
919.4121635896683
 20
533.215610780759
 30
0.0
 11
918.5419275066221
 21
532.4181863291092
 31
0.0
  0
ARC
  5
44F
330
1F
100
AcDbEntity
  8
Sichtbar (ISO)
100
AcDbCircle
 10
919.2770455481452
 20
533.3630662481205
 30
0.0
 40
0.2000000000000011
100
AcDbArc
 50
312.5000000000252
 51
47.49999999997481
  0
ARC
  5
450
330
1F
100
AcDbEntity
  8
Sichtbar (ISO)
100
AcDbCircle
 10
918.6770455481452
 20
532.2707308617468
 30
0.0
 40
0.2000000000000027
100
AcDbArc
 50
132.5000000000251
 51
227.4999999999748
  0
LINE
  5
451
330
1F
100
AcDbEntity
  8
Sichtbar (ISO)
100
AcDbLine
 10
918.5419275066221
 20
536.4926169398809
 30
0.0
 11
919.4121635896683
 21
535.6951924882309
 31
0.0
  0
LINE
  5
452
330
1F
100
AcDbEntity
  8
Sichtbar (ISO)
100
AcDbLine
 10
919.4121635896683
 20
535.4002815535072
 30
0.0
 11
918.5419275066221
 21
534.6028571018573
 31
0.0
  0
ARC
  5
453
330
1F
100
AcDbEntity
  8
Sichtbar (ISO)
100
AcDbCircle
 10
919.2770455481452
 20
535.5477370208696
 30
0.0
 40
0.2000000000000011
100
AcDbArc
 50
312.5000000000252
 51
47.49999999997481
  0
ARC
  5
454
330
1F
100
AcDbEntity
  8
Sichtbar (ISO)
100
AcDbCircle
 10
918.6770455481452
 20
534.455401634495
 30
0.0
 40
0.2000000000000027
100
AcDbArc
 50
132.5000000000251
 51
227.5000000000116
  0
LINE
  5
455
330
1F
100
AcDbEntity
  8
Sichtbar (ISO)
100
AcDbLine
 10
918.5419275066221
 20
538.67728771263
 30
0.0
 11
919.4121635896683
 21
537.8798632609791
 31
0.0
  0
LINE
  5
456
330
1F
100
AcDbEntity
  8
Sichtbar (ISO)
100
AcDbLine
 10
919.4121635896683
 20
537.5849523262554
 30
0.0
 11
918.5419275066221
 21
536.7875278746055
 31
0.0
  0
ARC
  5
457
330
1F
100
AcDbEntity
  8
Sichtbar (ISO)
100
AcDbCircle
 10
919.2770455481452
 20
537.7324077936178
 30
0.0
 40
0.2000000000000011
100
AcDbArc
 50
312.4999999999884
 51
47.49999999997481
  0
ARC
  5
458
330
1F
100
AcDbEntity
  8
Sichtbar (ISO)
100
AcDbCircle
 10
918.6770455481452
 20
536.6400724072432
 30
0.0
 40
0.2000000000000027
100
AcDbArc
 50
132.5000000000251
 51
227.5000000000116
  0
LINE
  5
459
330
1F
100
AcDbEntity
  8
Sichtbar (ISO)
100
AcDbLine
 10
918.5419275066221
 20
540.8619584853782
 30
0.0
 11
919.4121635896683
 21
540.0645340337282
 31
0.0
  0
LINE
  5
45A
330
1F
100
AcDbEntity
  8
Sichtbar (ISO)
100
AcDbLine
 10
919.4121635896683
 20
539.7696230990036
 30
0.0
 11
918.5419275066221
 21
538.9721986473537
 31
0.0
  0
ARC
  5
45B
330
1F
100
AcDbEntity
  8
Sichtbar (ISO)
100
AcDbCircle
 10
919.2770455481452
 20
539.9170785663659
 30
0.0
 40
0.2000000000000011
100
AcDbArc
 50
312.4999999999884
 51
47.49999999997481
  0
ARC
  5
45C
330
1F
100
AcDbEntity
  8
Sichtbar (ISO)
100
AcDbCircle
 10
918.6770455481452
 20
538.8247431799913
 30
0.0
 40
0.2000000000000027
100
AcDbArc
 50
132.5000000000251
 51
227.5000000000116
  0
LINE
  5
45D
330
1F
100
AcDbEntity
  8
Sichtbar (ISO)
100
AcDbLine
 10
918.5419275066221
 20
543.0466292581264
 30
0.0
 11
919.4121635896683
 21
542.2492048064764
 31
0.0
  0
LINE
  5
45E
330
1F
100
AcDbEntity
  8
Sichtbar (ISO)
100
AcDbLine
 10
919.4121635896683
 20
541.9542938717518
 30
0.0
 11
918.5419275066221
 21
541.1568694201019
 31
0.0
  0
ARC
  5
45F
330
1F
100
AcDbEntity
  8
Sichtbar (ISO)
100
AcDbCircle
 10
919.2770455481452
 20
542.1017493391141
 30
0.0
 40
0.2000000000000011
100
AcDbArc
 50
312.5000000000252
 51
47.49999999997481
  0
ARC
  5
460
330
1F
100
AcDbEntity
  8
Sichtbar (ISO)
100
AcDbCircle
 10
918.6770455481452
 20
541.0094139527404
 30
0.0
 40
0.2000000000000045
100
AcDbArc
 50
132.5000000000251
 51
227.4999999999748
  0
LINE
  5
461
330
1F
100
AcDbEntity
  8
Sichtbar (ISO)
100
AcDbLine
 10
918.5419275066221
 20
545.2313000308745
 30
0.0
 11
919.4121635896683
 21
544.4338755792245
 31
0.0
  0
LINE
  5
462
330
1F
100
AcDbEntity
  8
Sichtbar (ISO)
100
AcDbLine
 10
919.4121635896683
 20
544.1389646445009
 30
0.0
 11
918.5419275066221
 21
543.34154019285
 31
0.0
  0
ARC
  5
463
330
1F
100
AcDbEntity
  8
Sichtbar (ISO)
100
AcDbCircle
 10
919.2770455481452
 20
544.2864201118623
 30
0.0
 40
0.2000000000000011
100
AcDbArc
 50
312.5000000000252
 51
47.49999999997481
  0
ARC
  5
464
330
1F
100
AcDbEntity
  8
Sichtbar (ISO)
100
AcDbCircle
 10
918.6770455481452
 20
543.1940847254886
 30
0.0
 40
0.2000000000000045
100
AcDbArc
 50
132.5000000000251
 51
227.4999999999748
  0
LINE
  5
465
330
1F
100
AcDbEntity
  8
Sichtbar (ISO)
100
AcDbLine
 10
918.5419275066221
 20
547.4159708036227
 30
0.0
 11
919.4121635896683
 21
546.6185463519727
 31
0.0
  0
LINE
  5
466
330
1F
100
AcDbEntity
  8
Sichtbar (ISO)
100
AcDbLine
 10
919.4121635896683
 20
546.323635417249
 30
0.0
 11
918.5419275066221
 21
545.5262109655991
 31
0.0
  0
ARC
  5
467
330
1F
100
AcDbEntity
  8
Sichtbar (ISO)
100
AcDbCircle
 10
919.2770455481452
 20
546.4710908846105
 30
0.0
 40
0.2000000000000011
100
AcDbArc
 50
312.4999999999884
 51
47.49999999997481
  0
ARC
  5
468
330
1F
100
AcDbEntity
  8
Sichtbar (ISO)
100
AcDbCircle
 10
918.6770455481452
 20
545.3787554982368
 30
0.0
 40
0.2000000000000045
100
AcDbArc
 50
132.5000000000251
 51
227.4999999999748
  0
LINE
  5
469
330
1F
100
AcDbEntity
  8
Sichtbar (ISO)
100
AcDbLine
 10
918.5419275066221
 20
549.6006415763709
 30
0.0
 11
919.4121635896683
 21
548.8032171247209
 31
0.0
  0
LINE
  5
46A
330
1F
100
AcDbEntity
  8
Sichtbar (ISO)
100
AcDbLine
 10
919.4121635896683
 20
548.5083061899972
 30
0.0
 11
918.5419275066221
 21
547.7108817383473
 31
0.0
  0
ARC
  5
46B
330
1F
100
AcDbEntity
  8
Sichtbar (ISO)
100
AcDbCircle
 10
919.2770455481452
 20
548.6557616573596
 30
0.0
 40
0.2000000000000011
100
AcDbArc
 50
312.4999999999884
 51
47.49999999997481
  0
ARC
  5
46C
330
1F
100
AcDbEntity
  8
Sichtbar (ISO)
100
AcDbCircle
 10
918.6770455481452
 20
547.563426270985
 30
0.0
 40
0.2000000000000045
100
AcDbArc
 50
132.5000000000251
 51
227.4999999999748
  0
LINE
  5
46D
330
1F
100
AcDbEntity
  8
Sichtbar (ISO)
100
AcDbLine
 10
918.5419275066221
 20
551.78531234912
 30
0.0
 11
919.4121635896683
 21
550.9878878974691
 31
0.0
  0
LINE
  5
46E
330
1F
100
AcDbEntity
  8
Sichtbar (ISO)
100
AcDbLine
 10
919.4121635896683
 20
550.6929769627454
 30
0.0
 11
918.5419275066221
 21
549.8955525110955
 31
0.0
  0
ARC
  5
46F
330
1F
100
AcDbEntity
  8
Sichtbar (ISO)
100
AcDbCircle
 10
919.2770455481452
 20
550.8404324301077
 30
0.0
 40
0.2000000000000011
100
AcDbArc
 50
312.5000000000252
 51
47.49999999997481
  0
ARC
  5
470
330
1F
100
AcDbEntity
  8
Sichtbar (ISO)
100
AcDbCircle
 10
918.6770455481452
 20
549.7480970437331
 30
0.0
 40
0.2000000000000045
100
AcDbArc
 50
132.5000000000251
 51
227.4999999999748
  0
LINE
  5
471
330
1F
100
AcDbEntity
  8
Sichtbar (ISO)
100
AcDbLine
 10
918.5419275066221
 20
553.9699831218682
 30
0.0
 11
919.4121635896683
 21
553.1725586702182
 31
0.0
  0
LINE
  5
472
330
1F
100
AcDbEntity
  8
Sichtbar (ISO)
100
AcDbLine
 10
919.4121635896683
 20
552.8776477354936
 30
0.0
 11
918.5419275066221
 21
552.0802232838437
 31
0.0
  0
ARC
  5
473
330
1F
100
AcDbEntity
  8
Sichtbar (ISO)
100
AcDbCircle
 10
919.2770455481452
 20
553.0251032028559
 30
0.0
 40
0.2000000000000011
100
AcDbArc
 50
312.5000000000252
 51
47.49999999997481
  0
ARC
  5
474
330
1F
100
AcDbEntity
  8
Sichtbar (ISO)
100
AcDbCircle
 10
918.6770455481452
 20
551.9327678164813
 30
0.0
 40
0.2000000000000045
100
AcDbArc
 50
132.5000000000251
 51
227.4999999999748
  0
LINE
  5
475
330
1F
100
AcDbEntity
  8
Sichtbar (ISO)
100
AcDbLine
 10
918.5419275066221
 20
556.1546538946163
 30
0.0
 11
919.4121635896683
 21
555.3572294429663
 31
0.0
  0
LINE
  5
476
330
1F
100
AcDbEntity
  8
Sichtbar (ISO)
100
AcDbLine
 10
919.4121635896683
 20
555.0623185082417
 30
0.0
 11
918.5419275066221
 21
554.2648940565918
 31
0.0
  0
ARC
  5
477
330
1F
100
AcDbEntity
  8
Sichtbar (ISO)
100
AcDbCircle
 10
919.2770455481452
 20
555.2097739756041
 30
0.0
 40
0.2000000000000011
100
AcDbArc
 50
312.4999999999884
 51
47.49999999997481
  0
ARC
  5
478
330
1F
100
AcDbEntity
  8
Sichtbar (ISO)
100
AcDbCircle
 10
918.6770455481452
 20
554.1174385892295
 30
0.0
 40
0.2000000000000045
100
AcDbArc
 50
132.5000000000251
 51
227.4999999999748
  0
LINE
  5
479
330
1F
100
AcDbEntity
  8
Sichtbar (ISO)
100
AcDbLine
 10
918.5419275066221
 20
558.3393246673645
 30
0.0
 11
919.4121635896683
 21
557.5419002157145
 31
0.0
  0
LINE
  5
47A
330
1F
100
AcDbEntity
  8
Sichtbar (ISO)
100
AcDbLine
 10
919.4121635896683
 20
557.2469892809908
 30
0.0
 11
918.5419275066221
 21
556.44956482934
 31
0.0
  0
ARC
  5
47B
330
1F
100
AcDbEntity
  8
Sichtbar (ISO)
100
AcDbCircle
 10
919.2770455481452
 20
557.3944447483523
 30
0.0
 40
0.2000000000000011
100
AcDbArc
 50
312.4999999999884
 51
47.49999999997481
  0
ARC
  5
47C
330
1F
100
AcDbEntity
  8
Sichtbar (ISO)
100
AcDbCircle
 10
918.6770455481452
 20
556.3021093619786
 30
0.0
 40
0.2000000000000045
100
AcDbArc
 50
132.5000000000251
 51
227.4999999999748
  0
LINE
  5
47D
330
1F
100
AcDbEntity
  8
Sichtbar (ISO)
100
AcDbLine
 10
918.5419275066221
 20
560.5239954401127
 30
0.0
 11
919.4121635896683
 21
559.7265709884627
 31
0.0
  0
LINE
  5
47E
330
1F
100
AcDbEntity
  8
Sichtbar (ISO)
100
AcDbLine
 10
919.4121635896683
 20
559.431660053739
 30
0.0
 11
918.5419275066221
 21
558.6342356020882
 31
0.0
  0
ARC
  5
47F
330
1F
100
AcDbEntity
  8
Sichtbar (ISO)
100
AcDbCircle
 10
919.2770455481452
 20
559.5791155211004
 30
0.0
 40
0.2000000000000011
100
AcDbArc
 50
312.5000000000252
 51
47.49999999997481
  0
ARC
  5
480
330
1F
100
AcDbEntity
  8
Sichtbar (ISO)
100
AcDbCircle
 10
918.6770455481452
 20
558.4867801347268
 30
0.0
 40
0.2000000000000045
100
AcDbArc
 50
132.5000000000251
 51
227.4999999999748
  0
LINE
  5
481
330
1F
100
AcDbEntity
  8
Sichtbar (ISO)
100
AcDbLine
 10
918.5419275066221
 20
562.7086662128609
 30
0.0
 11
919.4121635896683
 21
561.9112417612109
 31
0.0
  0
LINE
  5
482
330
1F
100
AcDbEntity
  8
Sichtbar (ISO)
100
AcDbLine
 10
919.4121635896683
 20
561.6163308264872
 30
0.0
 11
918.5419275066221
 21
560.8189063748373
 31
0.0
  0
ARC
  5
483
330
1F
100
AcDbEntity
  8
Sichtbar (ISO)
100
AcDbCircle
 10
919.2770455481452
 20
561.7637862938495
 30
0.0
 40
0.2000000000000011
100
AcDbArc
 50
312.5000000000252
 51
47.49999999997481
  0
ARC
  5
484
330
1F
100
AcDbEntity
  8
Sichtbar (ISO)
100
AcDbCircle
 10
918.6770455481452
 20
560.6714509074749
 30
0.0
 40
0.2000000000000045
100
AcDbArc
 50
132.5000000000251
 51
227.4999999999748
  0
LINE
  5
485
330
1F
100
AcDbEntity
  8
Sichtbar (ISO)
100
AcDbLine
 10
918.5419275066221
 20
564.8933369856099
 30
0.0
 11
919.4121635896683
 21
564.095912533959
 31
0.0
  0
LINE
  5
486
330
1F
100
AcDbEntity
  8
Sichtbar (ISO)
100
AcDbLine
 10
919.4121635896683
 20
563.8010015992354
 30
0.0
 11
918.5419275066221
 21
563.0035771475855
 31
0.0
  0
ARC
  5
487
330
1F
100
AcDbEntity
  8
Sichtbar (ISO)
100
AcDbCircle
 10
919.2770455481452
 20
563.9484570665977
 30
0.0
 40
0.2000000000000011
100
AcDbArc
 50
312.4999999999884
 51
47.49999999997481
  0
ARC
  5
488
330
1F
100
AcDbEntity
  8
Sichtbar (ISO)
100
AcDbCircle
 10
918.6770455481452
 20
562.8561216802231
 30
0.0
 40
0.2000000000000045
100
AcDbArc
 50
132.5000000000251
 51
227.4999999999748
  0
LINE
  5
489
102
{ACAD_REACTORS
330
4B5
330
4B8
102
}
330
1F
100
AcDbEntity
  8
Sichtbar (ISO)
100
AcDbLine
 10
918.4770455481453
 20
503.5254632257196
 30
0.0
 11
918.4770455481453
 21
514.7933646797605
 31
0.0
  0
ARC
  5
48A
330
1F
100
AcDbEntity
  8
Sichtbar (ISO)
100
AcDbCircle
 10
918.1770455481453
 20
503.5254632257196
 30
0.0
 40
0.3000000000000008
100
AcDbArc
 50
270.0
 51
0.0
  0
LINE
  5
48B
102
{ACAD_REACTORS
330
4BF
330
4C2
102
}
330
1F
100
AcDbEntity
  8
Sichtbar (ISO)
100
AcDbLine
 10
834.6770455481452
 20
503.2254632257195
 30
0.0
 11
918.1770455481453
 21
503.2254632257195
 31
0.0
  0
ARC
  5
48C
330
1F
100
AcDbEntity
  8
Sichtbar (ISO)
100
AcDbCircle
 10
834.6770455481452
 20
503.0254632257197
 30
0.0
 40
0.2000000000000313
100
AcDbArc
 50
90.0
 51
180.0
  0
LINE
  5
48D
102
{ACAD_REACTORS
330
4B5
102
}
330
1F
100
AcDbEntity
  8
Sichtbar (ISO)
100
AcDbLine
 10
834.4770455481452
 20
499.4254632257202
 30
0.0
 11
834.4770455481452
 21
503.0254632257197
 31
0.0
  0
ARC
  5
48E
330
1F
100
AcDbEntity
  8
Sichtbar (ISO)
100
AcDbCircle
 10
834.6770455481452
 20
499.4254632257202
 30
0.0
 40
0.2000000000000184
100
AcDbArc
 50
180.0
 51
269.999999999987
  0
LINE
  5
48F
102
{ACAD_REACTORS
330
4C2
102
}
330
1F
100
AcDbEntity
  8
Sichtbar (ISO)
100
AcDbLine
 10
972.2770455481452
 20
499.2254632257195
 30
0.0
 11
834.6770455481452
 21
499.2254632257195
 31
0.0
  0
ARC
  5
490
330
1F
100
AcDbEntity
  8
Sichtbar (ISO)
100
AcDbCircle
 10
972.2770455481452
 20
499.4254632257202
 30
0.0
 40
0.1999999999999957
100
AcDbArc
 50
270.0
 51
0.0
  0
LINE
  5
491
102
{ACAD_REACTORS
330
4BB
102
}
330
1F
100
AcDbEntity
  8
Sichtbar (ISO)
100
AcDbLine
 10
972.4770455481452
 20
503.0254632257197
 30
0.0
 11
972.4770455481452
 21
499.4254632257202
 31
0.0
  0
ARC
  5
492
330
1F
100
AcDbEntity
  8
Sichtbar (ISO)
100
AcDbCircle
 10
972.2770455481452
 20
503.0254632257197
 30
0.0
 40
0.1999999999999985
100
AcDbArc
 50
0.0
 51
90.0
  0
LINE
  5
493
330
1F
100
AcDbEntity
  8
Sichtbar (ISO)
100
AcDbLine
 10
923.7770455481452
 20
503.2254632257195
 30
0.0
 11
972.2770455481452
 21
503.2254632257195
 31
0.0
  0
ARC
  5
494
330
1F
100
AcDbEntity
  8
Sichtbar (ISO)
100
AcDbCircle
 10
923.7770455481452
 20
503.5254632257196
 30
0.0
 40
0.3000000000000025
100
AcDbArc
 50
180.0
 51
270.0
  0
LINE
  5
495
330
1F
100
AcDbEntity
  8
Sichtbar (ISO)
100
AcDbLine
 10
923.4770455481452
 20
567.0254632257196
 30
0.0
 11
923.4770455481452
 21
503.5254632257196
 31
0.0
  0
ARC
  5
496
330
1F
100
AcDbEntity
  8
Sichtbar (ISO)
100
AcDbCircle
 10
923.2770455481452
 20
567.0254632257196
 30
0.0
 40
0.1999999999999957
100
AcDbArc
 50
0.0
 51
90.0
  0
LINE
  5
497
102
{ACAD_REACTORS
330
4BF
330
4C5
102
}
330
1F
100
AcDbEntity
  8
Sichtbar (ISO)
100
AcDbLine
 10
918.8953072483592
 20
567.2254632257195
 30
0.0
 11
923.2770455481452
 21
567.2254632257195
 31
0.0
  0
LWPOLYLINE
  5
498
102
{ACAD_REACTORS
330
4D4
330
4D7
102
}
330
1F
100
AcDbEntity
  8
Sichtbar (ISO)
100
AcDbPolyline
 90
        5
 70
     0
 43
0.0
 10
981.9722349224216
 20
499.2254632257195
 10
1011.972234922422
 20
499.2254632257195
 10
1011.972234922422
 20
567.2254632257195
 10
981.9722349224216
 20
567.2254632257195
 10
981.9722349224216
 20
499.2254632257195
  0
LWPOLYLINE
  5
499
102
{ACAD_REACTORS
330
4CE
330
4D1
330
4D4
330
4DD
330
4E0
102
}
330
1F
100
AcDbEntity
  8
Sichtbar (ISO)
100
AcDbPolyline
 90
        4
 70
     1
 43
0.0
 10
981.9722349224216
 20
503.2254632257195
 10
1011.972234922422
 20
503.2254632257195
 10
1011.972234922422
 20
499.2254632257195
 10
981.9722349224216
 20
499.2254632257195
  0
ARC
  5
49A
102
{ACAD_REACTORS
330
4B2
330
4D7
330
4DA
102
}
330
1F
100
AcDbEntity
  8
Sichtbar (ISO)
100
AcDbCircle
 10
996.9722349224216
 20
551.7254632257195
 30
0.0
 40
4.5
100
AcDbArc
 50
0.0
 51
180.0
  0
ARC
  5
49B
102
{ACAD_REACTORS
330
4DA
330
4DD
102
}
330
1F
100
AcDbEntity
  8
Sichtbar (ISO)
100
AcDbCircle
 10
996.9722349224216
 20
530.7254632257195
 30
0.0
 40
4.5
100
AcDbArc
 50
180.0
 51
0.0
  0
LINE
  5
49C
330
1F
100
AcDbEntity
  8
Sichtbar (ISO)
100
AcDbLine
 10
992.4722349224216
 20
551.7254632257195
 30
0.0
 11
992.4722349224216
 21
530.7254632257195
 31
0.0
  0
LINE
  5
49D
330
1F
100
AcDbEntity
  8
Sichtbar (ISO)
100
AcDbLine
 10
1001.472234922421
 20
551.7254632257195
 30
0.0
 11
1001.472234922421
 21
530.7254632257195
 31
0.0
  0
LWPOLYLINE
  5
49E
102
{ACAD_REACTORS
330
4E3
330
4EF
330
4F3
102
}
330
1F
100
AcDbEntity
  8
Sichtbar (ISO)
100
AcDbPolyline
 90
        5
 70
     0
 43
0.0
 10
834.4770455481452
 20
469.6382750151711
 10
834.4770455481452
 20
439.638275015171
 10
972.4770455481452
 20
439.638275015171
 10
972.4770455481452
 20
469.6382750151711
 10
834.4770455481452
 20
469.6382750151711
  0
LWPOLYLINE
  5
49F
102
{ACAD_REACTORS
330
4E6
330
4E9
330
4EC
102
}
330
1F
100
AcDbEntity
  8
Sichtbar (ISO)
100
AcDbPolyline
 90
        4
 70
     1
 43
0.0
 10
918.4770455481453
 20
469.6382750151711
 10
923.4770455481452
 20
469.6382750151711
 10
923.4770455481452
 20
439.638275015171
 10
918.4770455481453
 20
439.638275015171
  0
CIRCLE
  5
4A0
102
{ACAD_REACTORS
330
4AC
330
4E3
330
4E6
102
}
330
1F
100
AcDbEntity
  8
Sichtbar (ISO)
100
AcDbCircle
 10
846.4770455481453
 20
454.638275015171
 30
0.0
 40
2.5
  0
CIRCLE
  5
4A1
102
{ACAD_REACTORS
330
4AF
102
}
330
1F
100
AcDbEntity
  8
Sichtbar (ISO)
100
AcDbCircle
 10
960.4770455481453
 20
454.638275015171
 30
0.0
 40
2.5
  0
LINE
  5
4A2
102
{ACAD_REACTORS
330
4C5
330
4C8
102
}
330
1F
100
AcDbEntity
  8
S08_Retino
100
AcDbLine
 10
923.4770455481452
 20
556.2254632257195
 30
0.0
 11
918.4923150152153
 21
556.2254632257195
 31
0.0
  0
LINE
  5
4A3
102
{ACAD_REACTORS
330
4C8
330
4CB
102
}
330
1F
100
AcDbEntity
  8
S08_Retino
100
AcDbLine
 10
923.4770455481452
 20
526.2254632257195
 30
0.0
 11
918.9362054981389
 21
526.2254632257195
 31
0.0
  0
LINE
  5
4A4
330
1F
100
AcDbEntity
  8
S08_Retino
100
AcDbLine
 10
843.9770455481452
 20
503.2254632257195
 30
0.0
 11
843.9770455481452
 21
499.2254632257195
 31
0.0
  0
LINE
  5
4A5
330
1F
100
AcDbEntity
  8
S08_Retino
100
AcDbLine
 10
848.9770455481453
 20
503.2254632257195
 30
0.0
 11
848.9770455481453
 21
499.2254632257195
 31
0.0
  0
LINE
  5
4A6
330
1F
100
AcDbEntity
  8
S08_Retino
100
AcDbLine
 10
957.9770455481453
 20
503.2254632257195
 30
0.0
 11
957.9770455481453
 21
499.2254632257195
 31
0.0
  0
LINE
  5
4A7
330
1F
100
AcDbEntity
  8
S08_Retino
100
AcDbLine
 10
962.9770455481452
 20
503.2254632257195
 30
0.0
 11
962.9770455481452
 21
499.2254632257195
 31
0.0
  0
LINE
  5
4A8
102
{ACAD_REACTORS
330
4F6
102
}
330
1F
100
AcDbEntity
  8
S08_Retino
100
AcDbLine
 10
918.4770455481453
 20
450.138275015171
 30
0.0
 11
923.4770455481452
 21
450.138275015171
 31
0.0
  0
LINE
  5
4A9
102
{ACAD_REACTORS
330
4F6
102
}
330
1F
100
AcDbEntity
  8
S08_Retino
100
AcDbLine
 10
918.4770455481453
 20
459.138275015171
 30
0.0
 11
923.4770455481452
 21
459.138275015171
 31
0.0
  0
DIMENSION
  5
4AA
102
{ACAD_XDICTIONARY
360
4AB
102
}
102
{ACAD_REACTORS
330
4AC
102
}
330
1F
100
AcDbEntity
  8
S10_Quote
100
AcDbDimension
  2
*D32
 10
844.1910200747013
 20
453.6263029133978
 30
0.0
 11
850.1313030784853
 21
458.2412393336101
 31
0.0
 70
    35
 71
     5
 42
5.000000000000113
  3
mm 1_1
100
AcDbDiametricDimension
 15
848.7630710215887
 25
455.6502471169441
 35
0.0
 40
0.0
1001
ACAD
1000
DSTYLE
1002
{
1070
    49
1040
500.0
1070
   290
1070
     1
1070
   345
1005
15
1070
   346
1005
15
1070
   347
1005
15
1002
}
1001
ACAD_DSTYLE_DIMRADIAL_EXTENSION
1070
   387
1070
     1
1070
   388
1040
0.0
1070
   390
1040
0.0
  0
DIMENSION
  5
4AD
102
{ACAD_XDICTIONARY
360
4AE
102
}
102
{ACAD_REACTORS
330
4AF
102
}
330
1F
100
AcDbEntity
  8
S10_Quote
100
AcDbDimension
  2
*D33
 10
958.8411013453439
 20
452.7478553354908
 30
0.0
 11
962.2452771356016
 21
459.4557750962415
 31
0.0
 70
    35
 71
     5
 42
5.000000000000227
  3
mm 1_1
100
AcDbDiametricDimension
 15
962.1129897509462
 25
456.5286946948511
 35
0.0
 40
0.0
1001
ACAD
1000
DSTYLE
1002
{
1070
    49
1040
500.0
1070
   290
1070
     1
1070
   345
1005
15
1070
   346
1005
15
1070
   347
1005
15
1002
}
1001
ACAD_DSTYLE_DIMRADIAL_EXTENSION
1070
   387
1070
     1
1070
   388
1040
0.0
1070
   390
1040
0.0
  0
DIMENSION
  5
4B0
102
{ACAD_XDICTIONARY
360
4B1
102
}
102
{ACAD_REACTORS
330
4B2
102
}
330
1F
100
AcDbEntity
  8
S10_Quote
100
AcDbDimension
  2
*D34
 10
993.8274704627771
 20
548.5066969258212
 30
0.0
 11
1000.452515550181
 21
557.8963724946647
 31
0.0
 70
    35
 71
     5
 42
9.000000000000682
  3
mm 1_1
100
AcDbDiametricDimension
 15
1000.116999382066
 25
554.9442295256174
 35
0.0
 40
0.0
1001
ACAD
1000
DSTYLE
1002
{
1070
    49
1040
500.0
1070
   290
1070
     1
1070
   345
1005
15
1070
   346
1005
15
1070
   347
1005
15
1002
}
1001
ACAD_DSTYLE_DIMRADIAL_EXTENSION
1070
   387
1070
     1
1070
   388
1040
0.0
1070
   390
1040
3.141592653589793
  0
DIMENSION
  5
4B3
102
{ACAD_XDICTIONARY
360
4B4
102
}
102
{ACAD_REACTORS
330
4B5
102
}
330
1F
100
AcDbEntity
  8
S10_Quote
100
AcDbDimension
  2
*D35
 10
918.4770455481453
 20
495.619337559895
 30
0.0
 11
876.4770455481452
 21
497.4424144829719
 31
0.0
 70
    32
 71
     5
 42
84.0
  3
mm 1_1
100
AcDbAlignedDimension
 13
834.4770455481452
 23
501.2254632257199
 33
0.0
 14
918.4770455481453
 24
509.1594139527396
 34
0.0
100
AcDbRotatedDimension
1001
ACAD
1000
DSTYLE
1002
{
1070
    49
1040
500.0
1070
   290
1070
     1
1070
   345
1005
15
1070
   346
1005
15
1070
   347
1005
15
1002
}
  0
DIMENSION
  5
4B6
102
{ACAD_XDICTIONARY
360
4B7
102
}
102
{ACAD_REACTORS
330
4B8
102
}
330
1F
100
AcDbEntity
  8
S10_Quote
100
AcDbDimension
  2
*D36
 10
923.4770455481452
 20
495.6193375598955
 30
0.0
 11
920.9770455481452
 21
497.43472217528
 31
0.0
 70
    32
 71
     5
 42
5.0
  3
mm 1_1
100
AcDbAlignedDimension
 13
918.4770455481453
 23
509.15941395274
 33
0.0
 14
923.4770455481452
 24
509.15941395274
 34
0.0
100
AcDbRotatedDimension
1001
ACAD
1000
DSTYLE
1002
{
1070
   279
1070
     1
1070
    49
1040
500.0
1070
   290
1070
     1
1070
   345
1005
15
1070
   346
1005
15
1070
   347
1005
15
1002
}
  0
DIMENSION
  5
4B9
102
{ACAD_XDICTIONARY
360
4BA
102
}
102
{ACAD_REACTORS
330
4BB
102
}
330
1F
100
AcDbEntity
  8
S10_Quote
100
AcDbDimension
  2
*D37
 10
972.4770455481452
 20
495.6193375598955
 30
0.0
 11
947.9770455481453
 21
497.4501067906647
 31
0.0
 70
    32
 71
     5
 42
49.0
  3
mm 1_1
100
AcDbAlignedDimension
 13
923.4770455481452
 23
509.15941395274
 33
0.0
 14
972.4770455481452
 24
501.2254632257204
 34
0.0
100
AcDbRotatedDimension
1001
ACAD
1000
DSTYLE
1002
{
1070
   279
1070
     1
1070
    49
1040
500.0
1070
   290
1070
     1
1070
   345
1005
15
1070
   346
1005
15
1070
   347
1005
15
1002
}
  0
DIMENSION
  5
4BC
330
1F
100
AcDbEntity
  8
S10_Quote
100
AcDbDimension
  2
*D30
 10
972.4770455481452
 20
491.2901299235104
 30
0.0
 11
903.4770455481453
 21
493.1055145388951
 31
0.0
 70
    32
 71
     5
 42
138.0
  3
mm 1_1
100
AcDbAlignedDimension
 13
834.4770455481452
 23
501.2254632257204
 33
0.0
 14
972.4770455481452
 24
501.2254632257204
 34
0.0
100
AcDbRotatedDimension
1001
ACAD
1000
DSTYLE
1002
{
1070
    49
1040
500.0
1070
   290
1070
     1
1070
   345
1005
15
1070
   346
1005
15
1070
   347
1005
15
1002
}
  0
DIMENSION
  5
4BD
102
{ACAD_XDICTIONARY
360
4BE
102
}
102
{ACAD_REACTORS
330
4BF
102
}
330
1F
100
AcDbEntity
  8
S10_Quote
100
AcDbDimension
  2
*D38
 10
831.1064689167585
 20
503.2254632257195
 30
0.0
 11
829.2833919936814
 21
535.2254632257197
 31
0.0
 70
    32
 71
     5
 42
64.0
  3
mm 1_1
100
AcDbAlignedDimension
 13
921.0861763982521
 23
567.2254632257195
 33
0.0
 14
918.1770455481453
 24
503.2254632257195
 34
0.0
 50
90.0
100
AcDbRotatedDimension
1001
ACAD
1000
DSTYLE
1002
{
1070
    49
1040
500.0
1070
   290
1070
     1
1070
   345
1005
15
1070
   346
1005
15
1070
   347
1005
15
1002
}
  0
DIMENSION
  5
4C0
102
{ACAD_XDICTIONARY
360
4C1
102
}
102
{ACAD_REACTORS
330
4C2
102
}
330
1F
100
AcDbEntity
  8
S10_Quote
100
AcDbDimension
  2
*D39
 10
831.1064689167583
 20
499.2254632257195
 30
0.0
 11
829.2987766090659
 21
501.2254632257197
 31
0.0
 70
    32
 71
     5
 42
4.000000000000056
  3
mm 1_1
100
AcDbAlignedDimension
 13
918.1770455481453
 23
503.2254632257195
 33
0.0
 14
834.6770455481452
 24
499.2254632257195
 34
0.0
 50
90.0
100
AcDbRotatedDimension
1001
ACAD
1000
DSTYLE
1002
{
1070
   279
1070
     1
1070
    49
1040
500.0
1070
   290
1070
     1
1070
   345
1005
15
1070
   346
1005
15
1070
   347
1005
15
1002
}
  0
DIMENSION
  5
4C3
102
{ACAD_XDICTIONARY
360
4C4
102
}
102
{ACAD_REACTORS
330
4C5
102
}
330
1F
100
AcDbEntity
  8
S10_Quote
100
AcDbDimension
  2
*D40
 10
928.6191011272935
 20
556.2254632257195
 30
0.0
 11
926.8191011272934
 21
561.7254632257197
 31
0.0
 70
    32
 71
     5
 42
11.0
  3
mm 1_1
100
AcDbAlignedDimension
 13
923.2770455481452
 23
567.2254632257195
 33
0.0
 14
923.2770455481452
 24
556.2254632257195
 34
0.0
 50
90.0
100
AcDbRotatedDimension
1001
ACAD
1000
DSTYLE
1002
{
1070
    49
1040
500.0
1070
   290
1070
     1
1070
   345
1005
15
1070
   346
1005
15
1070
   347
1005
15
1002
}
  0
DIMENSION
  5
4C6
102
{ACAD_XDICTIONARY
360
4C7
102
}
102
{ACAD_REACTORS
330
4C8
102
}
330
1F
100
AcDbEntity
  8
S10_Quote
100
AcDbDimension
  2
*D41
 10
928.6191011272935
 20
526.2254632257195
 30
0.0
 11
926.8037165119089
 21
541.2254632257197
 31
0.0
 70
    32
 71
     5
 42
30.0
  3
mm 1_1
100
AcDbAlignedDimension
 13
923.2770455481452
 23
556.2254632257195
 33
0.0
 14
921.206625523142
 24
526.2254632257195
 34
0.0
 50
90.0
100
AcDbRotatedDimension
1001
ACAD
1000
DSTYLE
1002
{
1070
   279
1070
     1
1070
    49
1040
500.0
1070
   290
1070
     1
1070
   345
1005
15
1070
   346
1005
15
1070
   347
1005
15
1002
}
  0
DIMENSION
  5
4C9
102
{ACAD_XDICTIONARY
360
4CA
102
}
102
{ACAD_REACTORS
330
4CB
102
}
330
1F
100
AcDbEntity
  8
S10_Quote
100
AcDbDimension
  2
*D42
 10
928.6191011272935
 20
503.2254632257195
 30
0.0
 11
926.8037165119089
 21
514.7254632257197
 31
0.0
 70
    32
 71
     5
 42
23.0
  3
mm 1_1
100
AcDbAlignedDimension
 13
921.206625523142
 23
526.2254632257195
 33
0.0
 14
923.7770455481452
 24
503.2254632257195
 34
0.0
 50
90.0
100
AcDbRotatedDimension
1001
ACAD
1000
DSTYLE
1002
{
1070
   279
1070
     1
1070
    49
1040
500.0
1070
   290
1070
     1
1070
   345
1005
15
1070
   346
1005
15
1070
   347
1005
15
1002
}
  0
DIMENSION
  5
4CC
102
{ACAD_XDICTIONARY
360
4CD
102
}
102
{ACAD_REACTORS
330
4CE
102
}
330
1F
100
AcDbEntity
  8
S10_Quote
100
AcDbDimension
  2
*D43
 10
1011.972234922422
 20
495.6193375598955
 30
0.0
 11
996.9722349224216
 21
497.43472217528
 31
0.0
 70
    32
 71
     5
 42
30.0
  3
mm 1_1
100
AcDbAlignedDimension
 13
981.9722349224216
 23
499.2254632257195
 33
0.0
 14
1011.972234922422
 24
499.2254632257195
 34
0.0
100
AcDbRotatedDimension
1001
ACAD
1000
DSTYLE
1002
{
1070
    49
1040
500.0
1070
   290
1070
     1
1070
   345
1005
15
1070
   346
1005
15
1070
   347
1005
15
1002
}
  0
DIMENSION
  5
4CF
102
{ACAD_XDICTIONARY
360
4D0
102
}
102
{ACAD_REACTORS
330
4D1
102
}
330
1F
100
AcDbEntity
  8
S10_Quote
100
AcDbDimension
  2
*D44
 10
1016.566700265652
 20
503.2254632257195
 30
0.0
 11
1014.75900795796
 21
501.2254632257197
 31
0.0
 70
    32
 71
     5
 42
4.0
  3
mm 1_1
100
AcDbAlignedDimension
 13
996.9722349224216
 23
499.2254632257195
 33
0.0
 14
996.9722349224216
 24
503.2254632257195
 34
0.0
 50
90.0
100
AcDbRotatedDimension
1001
ACAD
1000
DSTYLE
1002
{
1070
    49
1040
500.0
1070
   290
1070
     1
1070
   345
1005
15
1070
   346
1005
15
1070
   347
1005
15
1002
}
  0
DIMENSION
  5
4D2
102
{ACAD_XDICTIONARY
360
4D3
102
}
102
{ACAD_REACTORS
330
4D4
102
}
330
1F
100
AcDbEntity
  8
S10_Quote
100
AcDbDimension
  2
*D45
 10
1016.566700265652
 20
567.2254632257195
 30
0.0
 11
1014.743623342575
 21
535.2254632257196
 31
0.0
 70
    32
 71
     5
 42
64.0
  3
mm 1_1
100
AcDbAlignedDimension
 13
996.9722349224216
 23
503.2254632257195
 33
0.0
 14
1011.972234922422
 24
567.2254632257195
 34
0.0
 50
90.0
100
AcDbRotatedDimension
1001
ACAD
1000
DSTYLE
1002
{
1070
   279
1070
     1
1070
    49
1040
500.0
1070
   290
1070
     1
1070
   345
1005
15
1070
   346
1005
15
1070
   347
1005
15
1002
}
  0
DIMENSION
  5
4D5
102
{ACAD_XDICTIONARY
360
4D6
102
}
102
{ACAD_REACTORS
330
4D7
102
}
330
1F
100
AcDbEntity
  8
S10_Quote
100
AcDbDimension
  2
*D46
 10
977.3590282596311
 20
556.2254632257195
 30
0.0
 11
975.559028259631
 21
561.7254632257196
 31
0.0
 70
    32
 71
     5
 42
11.0
  3
mm 1_1
100
AcDbAlignedDimension
 13
996.9722349224216
 23
567.2254632257195
 33
0.0
 14
996.9722349224216
 24
556.2254632257195
 34
0.0
 50
90.0
100
AcDbRotatedDimension
1001
ACAD
1000
DSTYLE
1002
{
1070
    49
1040
500.0
1070
   290
1070
     1
1070
   345
1005
15
1070
   346
1005
15
1070
   347
1005
15
1002
}
  0
DIMENSION
  5
4D8
102
{ACAD_XDICTIONARY
360
4D9
102
}
102
{ACAD_REACTORS
330
4DA
102
}
330
1F
100
AcDbEntity
  8
S10_Quote
100
AcDbDimension
  2
*D47
 10
977.3590282596311
 20
526.2254632257195
 30
0.0
 11
975.5436436442463
 21
541.2254632257196
 31
0.0
 70
    32
 71
     5
 42
30.0
  3
mm 1_1
100
AcDbAlignedDimension
 13
996.9722349224216
 23
556.2254632257195
 33
0.0
 14
996.9722349224216
 24
526.2254632257195
 34
0.0
 50
90.0
100
AcDbRotatedDimension
1001
ACAD
1000
DSTYLE
1002
{
1070
   279
1070
     1
1070
    49
1040
500.0
1070
   290
1070
     1
1070
   345
1005
15
1070
   346
1005
15
1070
   347
1005
15
1002
}
  0
DIMENSION
  5
4DB
102
{ACAD_XDICTIONARY
360
4DC
102
}
102
{ACAD_REACTORS
330
4DD
102
}
330
1F
100
AcDbEntity
  8
S10_Quote
100
AcDbDimension
  2
*D48
 10
977.3590282596311
 20
503.2254632257195
 30
0.0
 11
975.5436436442463
 21
514.7254632257196
 31
0.0
 70
    32
 71
     5
 42
23.0
  3
mm 1_1
100
AcDbAlignedDimension
 13
996.9722349224216
 23
526.2254632257195
 33
0.0
 14
981.9722349224216
 24
503.2254632257195
 34
0.0
 50
90.0
100
AcDbRotatedDimension
1001
ACAD
1000
DSTYLE
1002
{
1070
   279
1070
     1
1070
    49
1040
500.0
1070
   290
1070
     1
1070
   345
1005
15
1070
   346
1005
15
1070
   347
1005
15
1002
}
  0
DIMENSION
  5
4DE
102
{ACAD_XDICTIONARY
360
4DF
102
}
102
{ACAD_REACTORS
330
4E0
102
}
330
1F
100
AcDbEntity
  8
S10_Quote
100
AcDbDimension
  2
*D49
 10
977.3590282596311
 20
499.2254632257195
 30
0.0
 11
975.5513359519387
 21
501.2254632257197
 31
0.0
 70
    32
 71
     5
 42
4.0
  3
mm 1_1
100
AcDbAlignedDimension
 13
981.9722349224216
 23
503.2254632257195
 33
0.0
 14
981.9722349224216
 24
499.2254632257195
 34
0.0
 50
90.0
100
AcDbRotatedDimension
1001
ACAD
1000
DSTYLE
1002
{
1070
   279
1070
     1
1070
    49
1040
500.0
1070
   290
1070
     1
1070
   345
1005
15
1070
   346
1005
15
1070
   347
1005
15
1002
}
  0
DIMENSION
  5
4E1
102
{ACAD_XDICTIONARY
360
4E2
102
}
102
{ACAD_REACTORS
330
4E3
102
}
330
1F
100
AcDbEntity
  8
S10_Quote
100
AcDbDimension
  2
*D50
 10
846.4770455481453
 20
434.2801922225639
 30
0.0
 11
840.4770455481452
 21
436.080192222564
 31
0.0
 70
    32
 71
     5
 42
12.0
  3
mm 1_1
100
AcDbAlignedDimension
 13
834.4770455481452
 23
439.638275015171
 33
0.0
 14
846.4770455481453
 24
454.638275015171
 34
0.0
100
AcDbRotatedDimension
1001
ACAD
1000
DSTYLE
1002
{
1070
    49
1040
500.0
1070
   290
1070
     1
1070
   345
1005
15
1070
   346
1005
15
1070
   347
1005
15
1002
}
  0
DIMENSION
  5
4E4
102
{ACAD_XDICTIONARY
360
4E5
102
}
102
{ACAD_REACTORS
330
4E6
102
}
330
1F
100
AcDbEntity
  8
S10_Quote
100
AcDbDimension
  2
*D51
 10
918.4770455481453
 20
434.2801922225639
 30
0.0
 11
882.4770455481452
 21
436.1025698449416
 31
0.0
 70
    32
 71
     5
 42
72.0
  3
mm 1_1
100
AcDbAlignedDimension
 13
846.4770455481453
 23
454.638275015171
 33
0.0
 14
918.4770455481453
 24
439.638275015171
 34
0.0
100
AcDbRotatedDimension
1001
ACAD
1000
DSTYLE
1002
{
1070
   279
1070
     1
1070
    49
1040
500.0
1070
   290
1070
     1
1070
   345
1005
15
1070
   346
1005
15
1070
   347
1005
15
1002
}
  0
DIMENSION
  5
4E7
102
{ACAD_XDICTIONARY
360
4E8
102
}
102
{ACAD_REACTORS
330
4E9
102
}
330
1F
100
AcDbEntity
  8
S10_Quote
100
AcDbDimension
  2
*D52
 10
923.4770455481452
 20
434.2801922225639
 30
0.0
 11
920.9770455481452
 21
436.0955768379485
 31
0.0
 70
    32
 71
     5
 42
5.0
  3
mm 1_1
100
AcDbAlignedDimension
 13
918.4770455481453
 23
439.638275015171
 33
0.0
 14
923.4770455481452
 24
439.638275015171
 34
0.0
100
AcDbRotatedDimension
1001
ACAD
1000
DSTYLE
1002
{
1070
   279
1070
     1
1070
    49
1040
500.0
1070
   290
1070
     1
1070
   345
1005
15
1070
   346
1005
15
1070
   347
1005
15
1002
}
  0
DIMENSION
  5
4EA
102
{ACAD_XDICTIONARY
360
4EB
102
}
102
{ACAD_REACTORS
330
4EC
102
}
330
1F
100
AcDbEntity
  8
S10_Quote
100
AcDbDimension
  2
*D53
 10
960.4770455481457
 20
434.2801922225639
 30
0.0
 11
941.9770455481454
 21
436.1025698449416
 31
0.0
 70
    32
 71
     5
 42
37.00000000000045
  3
mm 1_1
100
AcDbAlignedDimension
 13
923.4770455481452
 23
439.638275015171
 33
0.0
 14
960.4770455481457
 24
454.638275015171
 34
0.0
100
AcDbRotatedDimension
1001
ACAD
1000
DSTYLE
1002
{
1070
   279
1070
     1
1070
    49
1040
500.0
1070
   290
1070
     1
1070
   345
1005
15
1070
   346
1005
15
1070
   347
1005
15
1002
}
  0
DIMENSION
  5
4ED
102
{ACAD_XDICTIONARY
360
4EE
102
}
102
{ACAD_REACTORS
330
4EF
102
}
330
1F
100
AcDbEntity
  8
S10_Quote
100
AcDbDimension
  2
*D54
 10
972.4770455481452
 20
434.2801922225639
 30
0.0
 11
966.4770455481455
 21
436.080192222564
 31
0.0
 70
    32
 71
     5
 42
11.99999999999954
  3
mm 1_1
100
AcDbAlignedDimension
 13
960.4770455481457
 23
454.638275015171
 33
0.0
 14
972.4770455481452
 24
439.638275015171
 34
0.0
100
AcDbRotatedDimension
1001
ACAD
1000
DSTYLE
1002
{
1070
   279
1070
     1
1070
    49
1040
500.0
1070
   290
1070
     1
1070
   345
1005
15
1070
   346
1005
15
1070
   347
1005
15
1002
}
  0
DIMENSION
  5
4F0
330
1F
100
AcDbEntity
  8
S10_Quote
100
AcDbDimension
  2
*D31
 10
972.4770455481452
 20
429.466218393532
 30
0.0
 11
903.4770455481453
 21
431.2816030089166
 31
0.0
 70
    32
 71
     5
 42
138.0
  3
mm 1_1
100
AcDbAlignedDimension
 13
834.4770455481452
 23
439.638275015171
 33
0.0
 14
972.4770455481452
 24
439.638275015171
 34
0.0
100
AcDbRotatedDimension
1001
ACAD
1000
DSTYLE
1002
{
1070
    49
1040
500.0
1070
   290
1070
     1
1070
   345
1005
15
1070
   346
1005
15
1070
   347
1005
15
1002
}
  0
DIMENSION
  5
4F1
102
{ACAD_XDICTIONARY
360
4F2
102
}
102
{ACAD_REACTORS
330
4F3
102
}
330
1F
100
AcDbEntity
  8
S10_Quote
100
AcDbDimension
  2
*D55
 10
979.0334885527741
 20
439.638275015171
 30
0.0
 11
977.2181039373894
 21
454.6382750151712
 31
0.0
 70
    32
 71
     5
 42
30.0
  3
mm 1_1
100
AcDbAlignedDimension
 13
972.4770455481452
 23
469.6382750151711
 33
0.0
 14
972.4770455481452
 24
439.638275015171
 34
0.0
 50
90.0
100
AcDbRotatedDimension
1001
ACAD
1000
DSTYLE
1002
{
1070
    49
1040
500.0
1070
   290
1070
     1
1070
   345
1005
15
1070
   346
1005
15
1070
   347
1005
15
1002
}
  0
DIMENSION
  5
4F4
102
{ACAD_XDICTIONARY
360
4F5
102
}
102
{ACAD_REACTORS
330
4F6
102
}
330
1F
100
AcDbEntity
  8
S10_Quote
100
AcDbDimension
  2
*D56
 10
914.8041824275283
 20
450.138275015171
 30
0.0
 11
912.9811055044513
 21
454.6382750151712
 31
0.0
 70
    32
 71
     5
 42
9.0
  3
mm 1_1
100
AcDbAlignedDimension
 13
920.9770455481452
 23
459.138275015171
 33
0.0
 14
920.9770455481452
 24
450.138275015171
 34
0.0
 50
90.0
100
AcDbRotatedDimension
1001
ACAD
1000
DSTYLE
1002
{
1070
    49
1040
500.0
1070
   290
1070
     1
1070
   345
1005
15
1070
   346
1005
15
1070
   347
1005
15
1002
}
  0
ENDSEC
  0
SECTION
  2
OBJECTS
  0
DICTIONARY
  5
C
330
0
100
AcDbDictionary
281
     1
  3
ACAD_COLOR
350
6B
  3
ACAD_GROUP
350
D
  3
ACAD_LAYOUT
350
1A
  3
ACAD_MATERIAL
350
6A
  3
ACAD_MLEADERSTYLE
350
12D
  3
ACAD_MLINESTYLE
350
17
  3
ACAD_PLOTSETTINGS
350
19
  3
ACAD_PLOTSTYLENAME
350
E
  3
ACAD_SCALELIST
350
10C
  3
ACAD_TABLESTYLE
350
7E
  3
ACAD_VISUALSTYLE
350
EF
  3
ACDB_RECOMPOSE_DATA
350
6B2
  3
AcDbVariableDictionary
350
5E
  0
DICTIONARY
  5
34D
330
2
100
AcDbDictionary
280
     1
281
     1
  3
ACAD_LAYERSTATES
360
34E
  0
DICTIONARY
  5
13C
330
10
100
AcDbDictionary
280
     1
281
     1
  0
DICTIONARY
  5
33D
330
33C
100
AcDbDictionary
280
     1
281
     1
  0
DICTIONARY
  5
33F
330
33E
100
AcDbDictionary
280
     1
281
     1
  0
DICTIONARY
  5
1CE
330
1F
100
AcDbDictionary
280
     1
281
     1
  0
DICTIONARY
  5
1F5
330
1F4
100
AcDbDictionary
280
     1
281
     1
  0
DICTIONARY
  5
6DF
330
1FE
100
AcDbDictionary
280
     1
281
     1
  3
ACAD_MTEXT_2008_RT
360
6E0
  0
DICTIONARY
  5
6E1
330
209
100
AcDbDictionary
280
     1
281
     1
  3
ACAD_MTEXT_2008_RT
360
6E2
  0
DICTIONARY
  5
6E3
330
214
100
AcDbDictionary
280
     1
281
     1
  3
ACAD_MTEXT_2008_RT
360
6E4
  0
DICTIONARY
  5
6E7
330
65D
100
AcDbDictionary
280
     1
281
     1
  3
ACAD_MTEXT_2008_RT
360
6E8
  0
DICTIONARY
  5
6E9
330
665
100
AcDbDictionary
280
     1
281
     1
  3
ACAD_MTEXT_2008_RT
360
6EA
  0
DICTIONARY
  5
6E5
330
655
100
AcDbDictionary
280
     1
281
     1
  3
ACAD_MTEXT_2008_RT
360
6E6
  0
DICTIONARY
  5
4AB
330
4AA
100
AcDbDictionary
280
     1
281
     1
  3
ACAD_DIMASSOC
360
4AC
  0
DICTIONARY
  5
4AE
330
4AD
100
AcDbDictionary
280
     1
281
     1
  3
ACAD_DIMASSOC
360
4AF
  0
DICTIONARY
  5
4B1
330
4B0
100
AcDbDictionary
280
     1
281
     1
  3
ACAD_DIMASSOC
360
4B2
  0
DICTIONARY
  5
4B4
330
4B3
100
AcDbDictionary
280
     1
281
     1
  3
ACAD_DIMASSOC
360
4B5
  0
DICTIONARY
  5
4B7
330
4B6
100
AcDbDictionary
280
     1
281
     1
  3
ACAD_DIMASSOC
360
4B8
  0
DICTIONARY
  5
4BA
330
4B9
100
AcDbDictionary
280
     1
281
     1
  3
ACAD_DIMASSOC
360
4BB
  0
DICTIONARY
  5
4BE
330
4BD
100
AcDbDictionary
280
     1
281
     1
  3
ACAD_DIMASSOC
360
4BF
  0
DICTIONARY
  5
4C1
330
4C0
100
AcDbDictionary
280
     1
281
     1
  3
ACAD_DIMASSOC
360
4C2
  0
DICTIONARY
  5
4C4
330
4C3
100
AcDbDictionary
280
     1
281
     1
  3
ACAD_DIMASSOC
360
4C5
  0
DICTIONARY
  5
4C7
330
4C6
100
AcDbDictionary
280
     1
281
     1
  3
ACAD_DIMASSOC
360
4C8
  0
DICTIONARY
  5
4CA
330
4C9
100
AcDbDictionary
280
     1
281
     1
  3
ACAD_DIMASSOC
360
4CB
  0
DICTIONARY
  5
4CD
330
4CC
100
AcDbDictionary
280
     1
281
     1
  3
ACAD_DIMASSOC
360
4CE
  0
DICTIONARY
  5
4D0
330
4CF
100
AcDbDictionary
280
     1
281
     1
  3
ACAD_DIMASSOC
360
4D1
  0
DICTIONARY
  5
4D3
330
4D2
100
AcDbDictionary
280
     1
281
     1
  3
ACAD_DIMASSOC
360
4D4
  0
DICTIONARY
  5
4D6
330
4D5
100
AcDbDictionary
280
     1
281
     1
  3
ACAD_DIMASSOC
360
4D7
  0
DICTIONARY
  5
4D9
330
4D8
100
AcDbDictionary
280
     1
281
     1
  3
ACAD_DIMASSOC
360
4DA
  0
DICTIONARY
  5
4DC
330
4DB
100
AcDbDictionary
280
     1
281
     1
  3
ACAD_DIMASSOC
360
4DD
  0
DICTIONARY
  5
4DF
330
4DE
100
AcDbDictionary
280
     1
281
     1
  3
ACAD_DIMASSOC
360
4E0
  0
DICTIONARY
  5
4E2
330
4E1
100
AcDbDictionary
280
     1
281
     1
  3
ACAD_DIMASSOC
360
4E3
  0
DICTIONARY
  5
4E5
330
4E4
100
AcDbDictionary
280
     1
281
     1
  3
ACAD_DIMASSOC
360
4E6
  0
DICTIONARY
  5
4E8
330
4E7
100
AcDbDictionary
280
     1
281
     1
  3
ACAD_DIMASSOC
360
4E9
  0
DICTIONARY
  5
4EB
330
4EA
100
AcDbDictionary
280
     1
281
     1
  3
ACAD_DIMASSOC
360
4EC
  0
DICTIONARY
  5
4EE
330
4ED
100
AcDbDictionary
280
     1
281
     1
  3
ACAD_DIMASSOC
360
4EF
  0
DICTIONARY
  5
4F2
330
4F1
100
AcDbDictionary
280
     1
281
     1
  3
ACAD_DIMASSOC
360
4F3
  0
DICTIONARY
  5
4F5
330
4F4
100
AcDbDictionary
280
     1
281
     1
  3
ACAD_DIMASSOC
360
4F6
  0
DICTIONARY
  5
6B
102
{ACAD_REACTORS
330
C
102
}
330
C
100
AcDbDictionary
281
     1
  0
DICTIONARY
  5
D
102
{ACAD_REACTORS
330
C
102
}
330
C
100
AcDbDictionary
281
     1
  0
DICTIONARY
  5
1A
102
{ACAD_REACTORS
330
C
102
}
330
C
100
AcDbDictionary
281
     1
  3
Layout1
350
D3
  3
Layout2
350
D7
  3
Model
350
22
  0
DICTIONARY
  5
6A
102
{ACAD_REACTORS
330
C
102
}
330
C
100
AcDbDictionary
281
     1
  3
ByBlock
350
ED
  3
ByLayer
350
EC
  3
Global
350
EE
  0
DICTIONARY
  5
12D
102
{ACAD_REACTORS
330
C
102
}
330
C
100
AcDbDictionary
281
     1
  3
Annotativa
350
13B
  3
Standard
350
12E
  0
DICTIONARY
  5
17
102
{ACAD_REACTORS
330
C
102
}
330
C
100
AcDbDictionary
281
     1
  3
Standard
350
18
  0
DICTIONARY
  5
19
102
{ACAD_REACTORS
330
C
102
}
330
C
100
AcDbDictionary
281
     1
  0
ACDBDICTIONARYWDFLT
  5
E
102
{ACAD_REACTORS
330
C
102
}
330
C
100
AcDbDictionary
281
     1
  3
Normal
350
F
100
AcDbDictionaryWithDefault
340
F
  0
DICTIONARY
  5
10C
102
{ACAD_REACTORS
330
C
102
}
330
C
100
AcDbDictionary
281
     1
  3
A0
350
10D
  3
A1
350
1BE
  3
A2
350
1BF
  3
A3
350
1C0
  3
A4
350
1C1
  3
A5
350
1C2
  3
A6
350
1C3
  3
A7
350
1C4
  3
A8
350
1C5
  3
A9
350
1C6
  3
B0
350
1C7
  3
B1
350
1C8
  3
B2
350
1C9
  3
B3
350
1CA
  3
B4
350
1CB
  3
B5
350
1CC
  3
B6
350
1CD
  0
DICTIONARY
  5
7E
102
{ACAD_REACTORS
330
C
102
}
330
C
100
AcDbDictionary
281
     1
  3
Standard
350
7F
  0
DICTIONARY
  5
EF
102
{ACAD_REACTORS
330
C
102
}
330
C
100
AcDbDictionary
281
     1
  3
2dWireframe
350
F5
  3
3D Hidden
350
F7
  3
3dWireframe
350
F6
  3
Basic
350
F4
  3
Brighten
350
FB
  3
ColorChange
350
FF
  3
Conceptual
350
F8
  3
Dim
350
FA
  3
EdgeColorOff
350
1E6
  3
Facepattern
350
FE
  3
Flat
350
F0
  3
FlatWithEdges
350
F1
  3
Gouraud
350
F2
  3
GouraudWithEdges
350
F3
  3
JitterOff
350
1E4
  3
Linepattern
350
FD
  3
OverhangOff
350
1E5
  3
Realistic
350
F9
  3
Thicken
350
FC
  0
XRECORD
  5
6B2
102
{ACAD_REACTORS
330
C
102
}
330
C
100
AcDbXrecord
280
     1
 90
        1
330
7F
  0
DICTIONARY
  5
5E
102
{ACAD_REACTORS
330
C
102
}
330
C
100
AcDbDictionary
281
     1
  3
CANNOSCALE
350
146
  3
CMLEADERSTYLE
350
145
  3
CTABLESTYLE
350
84
  3
DIMASSOC
350
5F
  3
HIDETEXT
350
63
  3
LAYEREVAL
350
1AE
  3
LAYERNOTIFY
350
1AF
  3
LIGHTINGUNITS
350
6AD
  3
MSLTSCALE
350
6AC
  3
PSOLHEIGHT
350
6AF
  3
PSOLWIDTH
350
6AE
  3
XCLIPFRAME
350
6B0
  0
DICTIONARY
  5
34E
102
{ACAD_REACTORS
330
34D
102
}
330
34D
100
AcDbDictionary
281
     1
  0
XRECORD
  5
6E0
102
{ACAD_REACTORS
330
6DF
102
}
330
6DF
100
AcDbXrecord
280
     1
 40
1924.0
  1
\U+22055
  0
XRECORD
  5
6E2
102
{ACAD_REACTORS
330
6E1
102
}
330
6E1
100
AcDbXrecord
280
     1
 40
1924.0
  1
\U+22055
  0
XRECORD
  5
6E4
102
{ACAD_REACTORS
330
6E3
102
}
330
6E3
100
AcDbXrecord
280
     1
 40
1956.0
  1
\U+22059
  0
XRECORD
  5
6E8
102
{ACAD_REACTORS
330
6E7
102
}
330
6E7
100
AcDbXrecord
280
     1
 40
1924.0
  1
\U+22055
  0
XRECORD
  5
6EA
102
{ACAD_REACTORS
330
6E9
102
}
330
6E9
100
AcDbXrecord
280
     1
 40
1924.0
  1
\U+22055
  0
XRECORD
  5
6E6
102
{ACAD_REACTORS
330
6E5
102
}
330
6E5
100
AcDbXrecord
280
     1
 40
1956.0
  1
\U+22059
  0
DIMASSOC
  5
4AC
102
{ACAD_REACTORS
330
4AB
102
}
330
4AB
100
AcDbDimAssoc
330
4AA
 90
        2
 70
     0
 71
     0
  1
AcDbOsnapPointRef
 72
     3
331
4A0
 73
     2
 91
        0
 40
0.0
 10
0.0
 20
0.0
 30
0.0
 75
     0
  0
DIMASSOC
  5
4AF
102
{ACAD_REACTORS
330
4AE
102
}
330
4AE
100
AcDbDimAssoc
330
4AD
 90
        2
 70
     0
 71
     0
  1
AcDbOsnapPointRef
 72
     3
331
4A1
 73
     2
 91
        0
 40
0.0
 10
0.0
 20
0.0
 30
0.0
 75
     0
  0
DIMASSOC
  5
4B2
102
{ACAD_REACTORS
330
4B1
102
}
330
4B1
100
AcDbDimAssoc
330
4B0
 90
        2
 70
     0
 71
     0
  1
AcDbOsnapPointRef
 72
     3
331
49A
 73
     2
 91
        0
 40
0.0
 10
0.0
 20
0.0
 30
0.0
 75
     0
  0
DIMASSOC
  5
4B5
102
{ACAD_REACTORS
330
4B4
102
}
330
4B4
100
AcDbDimAssoc
330
4B3
 90
        3
 70
     0
 71
     0
  1
AcDbOsnapPointRef
 72
     2
331
48D
 73
     2
 91
        0
 40
0.5000000000001263
 10
0.0
 20
0.0
 30
0.0
 75
     0
  1
AcDbOsnapPointRef
 72
     2
331
489
 73
     2
 91
        0
 40
0.5
 10
0.0
 20
0.0
 30
0.0
 75
     0
  0
DIMASSOC
  5
4B8
102
{ACAD_REACTORS
330
4B7
102
}
330
4B7
100
AcDbDimAssoc
330
4B6
 90
        1
 70
     0
 71
     0
  1
AcDbOsnapPointRef
 72
     2
331
489
 73
     2
 91
        0
 40
0.5
 10
0.0
 20
0.0
 30
0.0
 75
     0
  0
DIMASSOC
  5
4BB
102
{ACAD_REACTORS
330
4BA
102
}
330
4BA
100
AcDbDimAssoc
330
4B9
 90
        2
 70
     0
 71
     0
  1
AcDbOsnapPointRef
 72
     2
331
491
 73
     2
 91
        0
 40
0.4999999999998737
 10
0.0
 20
0.0
 30
0.0
 75
     0
  0
DIMASSOC
  5
4BF
102
{ACAD_REACTORS
330
4BE
102
}
330
4BE
100
AcDbDimAssoc
330
4BD
 90
        3
 70
     0
 71
     0
  1
AcDbOsnapPointRef
 72
     2
331
497
 73
     2
 91
        0
 40
0.5
 10
0.0
 20
0.0
 30
0.0
 75
     0
  1
AcDbOsnapPointRef
 72
     1
331
48B
 73
     2
 91
        0
 40
1.0
 10
0.0
 20
0.0
 30
2.000000000000000E+50
 75
     0
  0
DIMASSOC
  5
4C2
102
{ACAD_REACTORS
330
4C1
102
}
330
4C1
100
AcDbDimAssoc
330
4C0
 90
        3
 70
     0
 71
     0
  1
AcDbOsnapPointRef
 72
     1
331
48B
 73
     2
 91
        0
 40
1.0
 10
0.0
 20
0.0
 30
2.000000000000000E+50
 75
     0
  1
AcDbOsnapPointRef
 72
     1
331
48F
 73
     2
 91
        0
 40
1.0
 10
0.0
 20
0.0
 30
2.000000000000000E+50
 75
     0
  0
DIMASSOC
  5
4C5
102
{ACAD_REACTORS
330
4C4
102
}
330
4C4
100
AcDbDimAssoc
330
4C3
 90
        3
 70
     0
 71
     0
  1
AcDbOsnapPointRef
 72
     1
331
497
 73
     2
 91
        0
 40
1.0
 10
0.0
 20
0.0
 30
2.000000000000000E+50
 75
     0
  1
AcDbOsnapPointRef
 72
     8
331
4A2
 73
     2
 91
        0
 40
0.0401225299299162
 10
0.0
 20
0.0
 30
0.0
 75
     1
  1
AcDbOsnapPointRef
 72
     1
331
497
 73
     2
 91
        0
 40
1.0
 10
0.0
 20
0.0
 30
2.000000000000000E+50
 75
     0
  0
DIMASSOC
  5
4C8
102
{ACAD_REACTORS
330
4C7
102
}
330
4C7
100
AcDbDimAssoc
330
4C6
 90
        3
 70
     0
 71
     0
  1
AcDbOsnapPointRef
 72
     8
331
4A2
 73
     2
 91
        0
 40
0.0401225299299162
 10
0.0
 20
0.0
 30
0.0
 75
     1
  1
AcDbOsnapPointRef
 72
     0
 40
0.0
 10
-307.5382910267166
 20
4240.439845560861
 30
0.0
 75
     0
  1
AcDbOsnapPointRef
 72
     2
331
4A3
 73
     2
 91
        0
 40
0.5
 10
0.0
 20
0.0
 30
0.0
 75
     0
  0
DIMASSOC
  5
4CB
102
{ACAD_REACTORS
330
4CA
102
}
330
4CA
100
AcDbDimAssoc
330
4C9
 90
        1
 70
     0
 71
     0
  1
AcDbOsnapPointRef
 72
     2
331
4A3
 73
     2
 91
        0
 40
0.5
 10
0.0
 20
0.0
 30
0.0
 75
     0
  0
DIMASSOC
  5
4CE
102
{ACAD_REACTORS
330
4CD
102
}
330
4CD
100
AcDbDimAssoc
330
4CC
 90
        3
 70
     0
 71
     0
  1
AcDbOsnapPointRef
 72
     1
331
499
 73
     2
 91
        3
 40
1.0
 10
0.0
 20
0.0
 30
2.000000000000000E+50
 75
     0
  1
AcDbOsnapPointRef
 72
    13
331
499
 73
     2
 91
        3
 40
0.0
 10
0.0
 20
0.0
 30
2.000000000000000E+50
 75
     0
  0
DIMASSOC
  5
4D1
102
{ACAD_REACTORS
330
4D0
102
}
330
4D0
100
AcDbDimAssoc
330
4CF
 90
        3
 70
     0
 71
     0
  1
AcDbOsnapPointRef
 72
     2
331
499
 73
     2
 91
        3
 40
0.5
 10
0.0
 20
0.0
 30
0.0
 75
     0
  1
AcDbOsnapPointRef
 72
     2
331
499
 73
     2
 91
        1
 40
0.5
 10
0.0
 20
0.0
 30
0.0
 75
     0
  0
DIMASSOC
  5
4D4
102
{ACAD_REACTORS
330
4D3
102
}
330
4D3
100
AcDbDimAssoc
330
4D2
 90
        3
 70
     0
 71
     0
  1
AcDbOsnapPointRef
 72
     2
331
499
 73
     2
 91
        1
 40
0.5
 10
0.0
 20
0.0
 30
0.0
 75
     0
  1
AcDbOsnapPointRef
 72
     1
331
498
 73
     2
 91
        2
 40
1.0
 10
0.0
 20
0.0
 30
2.000000000000000E+50
 75
     0
  0
DIMASSOC
  5
4D7
102
{ACAD_REACTORS
330
4D6
102
}
330
4D6
100
AcDbDimAssoc
330
4D5
 90
        3
 70
     0
 71
     0
  1
AcDbOsnapPointRef
 72
     2
331
498
 73
     2
 91
        3
 40
0.5
 10
0.0
 20
0.0
 30
0.0
 75
     0
  1
AcDbOsnapPointRef
 72
     2
331
49A
 73
     2
 91
        0
 40
1.570796326794896
 10
0.0
 20
0.0
 30
0.0
 75
     0
  0
DIMASSOC
  5
4DA
102
{ACAD_REACTORS
330
4D9
102
}
330
4D9
100
AcDbDimAssoc
330
4D8
 90
        3
 70
     0
 71
     0
  1
AcDbOsnapPointRef
 72
     2
331
49A
 73
     2
 91
        0
 40
1.570796326794896
 10
0.0
 20
0.0
 30
0.0
 75
     0
  1
AcDbOsnapPointRef
 72
     2
331
49B
 73
     2
 91
        0
 40
4.712388980384689
 10
0.0
 20
0.0
 30
0.0
 75
     0
  0
DIMASSOC
  5
4DD
102
{ACAD_REACTORS
330
4DC
102
}
330
4DC
100
AcDbDimAssoc
330
4DB
 90
        3
 70
     0
 71
     0
  1
AcDbOsnapPointRef
 72
     2
331
49B
 73
     2
 91
        0
 40
4.712388980384689
 10
0.0
 20
0.0
 30
0.0
 75
     0
  1
AcDbOsnapPointRef
 72
    13
331
499
 73
     2
 91
        1
 40
0.0
 10
0.0
 20
0.0
 30
2.000000000000000E+50
 75
     0
  0
DIMASSOC
  5
4E0
102
{ACAD_REACTORS
330
4DF
102
}
330
4DF
100
AcDbDimAssoc
330
4DE
 90
        3
 70
     0
 71
     0
  1
AcDbOsnapPointRef
 72
    13
331
499
 73
     2
 91
        1
 40
0.0
 10
0.0
 20
0.0
 30
2.000000000000000E+50
 75
     0
  1
AcDbOsnapPointRef
 72
     1
331
499
 73
     2
 91
        3
 40
1.0
 10
0.0
 20
0.0
 30
2.000000000000000E+50
 75
     0
  0
DIMASSOC
  5
4E3
102
{ACAD_REACTORS
330
4E2
102
}
330
4E2
100
AcDbDimAssoc
330
4E1
 90
        3
 70
     0
 71
     0
  1
AcDbOsnapPointRef
 72
     1
331
49E
 73
     2
 91
        1
 40
1.0
 10
0.0
 20
0.0
 30
2.000000000000000E+50
 75
     0
  1
AcDbOsnapPointRef
 72
     3
331
4A0
 73
     2
 91
        0
 40
0.0
 10
0.0
 20
0.0
 30
0.0
 75
     0
  0
DIMASSOC
  5
4E6
102
{ACAD_REACTORS
330
4E5
102
}
330
4E5
100
AcDbDimAssoc
330
4E4
 90
        3
 70
     0
 71
     0
  1
AcDbOsnapPointRef
 72
     3
331
4A0
 73
     2
 91
        0
 40
0.0
 10
0.0
 20
0.0
 30
0.0
 75
     0
  1
AcDbOsnapPointRef
 72
     1
331
49F
 73
     2
 91
        3
 40
1.0
 10
0.0
 20
0.0
 30
2.000000000000000E+50
 75
     0
  0
DIMASSOC
  5
4E9
102
{ACAD_REACTORS
330
4E8
102
}
330
4E8
100
AcDbDimAssoc
330
4E7
 90
        3
 70
     0
 71
     0
  1
AcDbOsnapPointRef
 72
     1
331
49F
 73
     2
 91
        3
 40
1.0
 10
0.0
 20
0.0
 30
2.000000000000000E+50
 75
     0
  1
AcDbOsnapPointRef
 72
     1
331
49F
 73
     2
 91
        2
 40
1.0
 10
0.0
 20
0.0
 30
2.000000000000000E+50
 75
     0
  0
DIMASSOC
  5
4EC
102
{ACAD_REACTORS
330
4EB
102
}
330
4EB
100
AcDbDimAssoc
330
4EA
 90
        1
 70
     0
 71
     0
  1
AcDbOsnapPointRef
 72
     1
331
49F
 73
     2
 91
        2
 40
1.0
 10
0.0
 20
0.0
 30
2.000000000000000E+50
 75
     0
  0
DIMASSOC
  5
4EF
102
{ACAD_REACTORS
330
4EE
102
}
330
4EE
100
AcDbDimAssoc
330
4ED
 90
        2
 70
     0
 71
     0
  1
AcDbOsnapPointRef
 72
     1
331
49E
 73
     2
 91
        2
 40
1.0
 10
0.0
 20
0.0
 30
2.000000000000000E+50
 75
     0
  0
DIMASSOC
  5
4F3
102
{ACAD_REACTORS
330
4F2
102
}
330
4F2
100
AcDbDimAssoc
330
4F1
 90
        1
 70
     0
 71
     0
  1
AcDbOsnapPointRef
 72
     1
331
49E
 73
     2
 91
        3
 40
1.0
 10
0.0
 20
0.0
 30
2.000000000000000E+50
 75
     0
  0
DIMASSOC
  5
4F6
102
{ACAD_REACTORS
330
4F5
102
}
330
4F5
100
AcDbDimAssoc
330
4F4
 90
        3
 70
     0
 71
     0
  1
AcDbOsnapPointRef
 72
     2
331
4A9
 73
     2
 91
        0
 40
0.5
 10
0.0
 20
0.0
 30
0.0
 75
     0
  1
AcDbOsnapPointRef
 72
     2
331
4A8
 73
     2
 91
        0
 40
0.5
 10
0.0
 20
0.0
 30
0.0
 75
     0
  0
LAYOUT
  5
D3
102
{ACAD_REACTORS
330
1A
102
}
330
1A
100
AcDbPlotSettings
  1

  2
C:\Documents and Settings\basas\Application Data\Autodesk\AutoCAD 2005\R16.1\enu\plotters\Default Windows System Printer.pc3
  4

  6

 40
0.0
 41
0.0
 42
0.0
 43
0.0
 44
0.0
 45
0.0
 46
0.0
 47
0.0
 48
0.0
 49
0.0
140
0.0
141
0.0
142
1.0
143
1.0
 70
   688
 72
     0
 73
     0
 74
     5
  7

 75
    16
147
1.0
 76
     0
 77
     2
 78
   300
148
0.0
149
0.0
100
AcDbLayout
  1
Layout1
 70
     1
 71
     1
 10
0.0
 20
0.0
 11
12.0
 21
9.0
 12
0.0
 22
0.0
 32
0.0
 14
0.0
 24
0.0
 34
0.0
 15
0.0
 25
0.0
 35
0.0
146
0.0
 13
0.0
 23
0.0
 33
0.0
 16
1.0
 26
0.0
 36
0.0
 17
0.0
 27
1.0
 37
0.0
 76
     0
330
D2
  0
LAYOUT
  5
D7
102
{ACAD_REACTORS
330
1A
102
}
330
1A
100
AcDbPlotSettings
  1

  2
C:\Documents and Settings\basas\Application Data\Autodesk\AutoCAD 2005\R16.1\enu\plotters\Default Windows System Printer.pc3
  4

  6

 40
0.0
 41
0.0
 42
0.0
 43
0.0
 44
0.0
 45
0.0
 46
0.0
 47
0.0
 48
0.0
 49
0.0
140
0.0
141
0.0
142
1.0
143
1.0
 70
   688
 72
     0
 73
     0
 74
     5
  7

 75
    16
147
1.0
 76
     0
 77
     2
 78
   300
148
0.0
149
0.0
100
AcDbLayout
  1
Layout2
 70
     1
 71
     2
 10
0.0
 20
0.0
 11
12.0
 21
9.0
 12
0.0
 22
0.0
 32
0.0
 14
0.0
 24
0.0
 34
0.0
 15
0.0
 25
0.0
 35
0.0
146
0.0
 13
0.0
 23
0.0
 33
0.0
 16
1.0
 26
0.0
 36
0.0
 17
0.0
 27
1.0
 37
0.0
 76
     0
330
D6
  0
LAYOUT
  5
22
102
{ACAD_REACTORS
330
1A
102
}
330
1A
100
AcDbPlotSettings
  1

  2
none_device
  4
ISO_A4_(210.00_x_297.00_MM)
  6

 40
7.5
 41
20.0
 42
7.5
 43
20.0
 44
210.0
 45
297.0
 46
11.54999923706054
 47
-13.65000009536743
 48
0.0
 49
0.0
140
0.0
141
0.0
142
1.0
143
8.704084754739808
 70
 11952
 72
     1
 73
     0
 74
     0
  7

 75
     0
147
0.1148885871608098
 76
     0
 77
     2
 78
   300
148
0.0
149
0.0
100
AcDbLayout
  1
Model
 70
     1
 71
     0
 10
0.0
 20
0.0
 11
12.0
 21
9.0
 12
0.0
 22
0.0
 32
0.0
 14
0.0
 24
0.0
 34
0.0
 15
0.0
 25
0.0
 35
0.0
146
0.0
 13
0.0
 23
0.0
 33
0.0
 16
1.0
 26
0.0
 36
0.0
 17
0.0
 27
1.0
 37
0.0
 76
     0
330
1F
331
EA
1001
ACAD_PSEXT
1000
None
1000
None
1000
Not applicable
1000
The layout will not be plotted unless a new plotter configuration name is selected.
1070
     0
  0
MATERIAL
  5
ED
102
{ACAD_XDICTIONARY
360
6B6
102
}
102
{ACAD_REACTORS
330
6A
102
}
330
6A
100
AcDbMaterial
  1
ByBlock
  0
MATERIAL
  5
EC
102
{ACAD_XDICTIONARY
360
6B4
102
}
102
{ACAD_REACTORS
330
6A
102
}
330
6A
100
AcDbMaterial
  1
ByLayer
  0
MATERIAL
  5
EE
102
{ACAD_XDICTIONARY
360
173
102
}
102
{ACAD_REACTORS
330
6A
102
}
330
6A
100
AcDbMaterial
  1
Global
 43
0.0007999999797903
 43
0.0
 43
0.0
 43
0.0
 43
0.0
 43
0.0007999999797903
 43
0.0
 43
0.0
 43
0.0
 43
0.0
 43
1.0
 43
0.0
 43
0.0
 43
0.0
 43
0.0
 43
1.0
 49
0.0007999999797903
 49
0.0
 49
0.0
 49
0.0
 49
0.0
 49
0.0007999999797903
 49
0.0
 49
0.0
 49
0.0
 49
0.0
 49
1.0
 49
0.0
 49
0.0
 49
0.0
 49
0.0
 49
1.0
142
0.0007999999797903
142
0.0
142
0.0
142
0.0
142
0.0
142
0.0007999999797903
142
0.0
142
0.0
142
0.0
142
0.0
142
1.0
142
0.0
142
0.0
142
0.0
142
0.0
142
1.0
144
0.0007999999797903
144
0.0
144
0.0
144
0.0
144
0.0
144
0.0007999999797903
144
0.0
144
0.0
144
0.0
144
0.0
144
1.0
144
0.0
144
0.0
144
0.0
144
0.0
144
1.0
1001
ACAD
1070
    -1
1070
     3
1070
     0
1000

1071
        0
1070
     0
  0
MLEADERSTYLE
  5
13B
102
{ACAD_REACTORS
330
12D
102
}
330
12D
100
AcDbMLeaderStyle
170
     2
171
     1
172
     0
 90
        2
 40
0.0
 41
0.0
173
     1
 91
-1056964608
340
14
 92
       -2
290
     1
 42
2.0
291
     1
 43
8.0
  3
Standard
 44
4.0
300

342
11
174
     1
178
     1
175
     1
176
     0
 93
-1056964608
 45
4.0
292
     0
297
     0
 46
4.0
 94
-1056964608
 47
1.0
 49
1.0
140
1.0
293
     1
141
0.0
294
     1
177
     0
142
1.0
295
     0
296
     1
143
3.75
1001
ACAD_MLEADERVER
1070
     2
  0
MLEADERSTYLE
  5
12E
102
{ACAD_REACTORS
330
12D
102
}
330
12D
100
AcDbMLeaderStyle
170
     2
171
     1
172
     0
 90
        2
 40
0.0
 41
0.0
173
     1
 91
-1056964608
340
14
 92
       -2
290
     1
 42
2.0
291
     1
 43
8.0
  3
Standard
 44
4.0
300

342
11
174
     1
178
     1
175
     1
176
     0
 93
-1056964608
 45
4.0
292
     0
297
     0
 46
4.0
 94
-1056964608
 47
1.0
 49
1.0
140
1.0
293
     1
141
0.0
294
     1
177
     0
142
1.0
295
     0
296
     0
143
3.75
1001
ACAD_MLEADERVER
1070
     2
  0
MLINESTYLE
  5
18
102
{ACAD_REACTORS
330
17
102
}
330
17
100
AcDbMlineStyle
  2
STANDARD
 70
     0
  3

 62
   256
 51
90.0
 52
90.0
 71
     2
 49
0.5
 62
   256
  6
BYLAYER
 49
-0.5
 62
   256
  6
BYLAYER
  0
ACDBPLACEHOLDER
  5
F
102
{ACAD_REACTORS
330
E
102
}
330
E
  0
SCALE
  5
10D
102
{ACAD_REACTORS
330
10C
102
}
330
10C
100
AcDbScale
 70
     0
300
1:1
140
1.0
141
1.0
290
     1
  0
SCALE
  5
1BE
102
{ACAD_REACTORS
330
10C
102
}
330
10C
100
AcDbScale
 70
     0
300
1:2
140
1.0
141
2.0
290
     0
  0
SCALE
  5
1BF
102
{ACAD_REACTORS
330
10C
102
}
330
10C
100
AcDbScale
 70
     0
300
1:4
140
1.0
141
4.0
290
     0
  0
SCALE
  5
1C0
102
{ACAD_REACTORS
330
10C
102
}
330
10C
100
AcDbScale
 70
     0
300
1:5
140
1.0
141
5.0
290
     0
  0
SCALE
  5
1C1
102
{ACAD_REACTORS
330
10C
102
}
330
10C
100
AcDbScale
 70
     0
300
1:8
140
1.0
141
8.0
290
     0
  0
SCALE
  5
1C2
102
{ACAD_REACTORS
330
10C
102
}
330
10C
100
AcDbScale
 70
     0
300
1:10
140
1.0
141
10.0
290
     0
  0
SCALE
  5
1C3
102
{ACAD_REACTORS
330
10C
102
}
330
10C
100
AcDbScale
 70
     0
300
1:16
140
1.0
141
16.0
290
     0
  0
SCALE
  5
1C4
102
{ACAD_REACTORS
330
10C
102
}
330
10C
100
AcDbScale
 70
     0
300
1:20
140
1.0
141
20.0
290
     0
  0
SCALE
  5
1C5
102
{ACAD_REACTORS
330
10C
102
}
330
10C
100
AcDbScale
 70
     0
300
1:30
140
1.0
141
30.0
290
     0
  0
SCALE
  5
1C6
102
{ACAD_REACTORS
330
10C
102
}
330
10C
100
AcDbScale
 70
     0
300
1:40
140
1.0
141
40.0
290
     0
  0
SCALE
  5
1C7
102
{ACAD_REACTORS
330
10C
102
}
330
10C
100
AcDbScale
 70
     0
300
1:50
140
1.0
141
50.0
290
     0
  0
SCALE
  5
1C8
102
{ACAD_REACTORS
330
10C
102
}
330
10C
100
AcDbScale
 70
     0
300
1:100
140
1.0
141
100.0
290
     0
  0
SCALE
  5
1C9
102
{ACAD_REACTORS
330
10C
102
}
330
10C
100
AcDbScale
 70
     0
300
2:1
140
2.0
141
1.0
290
     0
  0
SCALE
  5
1CA
102
{ACAD_REACTORS
330
10C
102
}
330
10C
100
AcDbScale
 70
     0
300
4:1
140
4.0
141
1.0
290
     0
  0
SCALE
  5
1CB
102
{ACAD_REACTORS
330
10C
102
}
330
10C
100
AcDbScale
 70
     0
300
8:1
140
8.0
141
1.0
290
     0
  0
SCALE
  5
1CC
102
{ACAD_REACTORS
330
10C
102
}
330
10C
100
AcDbScale
 70
     0
300
10:1
140
10.0
141
1.0
290
     0
  0
SCALE
  5
1CD
102
{ACAD_REACTORS
330
10C
102
}
330
10C
100
AcDbScale
 70
     0
300
100:1
140
100.0
141
1.0
290
     0
  0
TABLESTYLE
  5
7F
102
{ACAD_XDICTIONARY
360
162
102
}
102
{ACAD_REACTORS
330
7E
102
}
330
7E
100
AcDbTableStyle
  3
Standard
 70
     0
 71
     0
 40
1.5
 41
1.5
280
     0
281
     0
  7
Standard
140
4.5
170
     2
 62
     0
 63
     7
283
     0
274
    -2
284
     1
 64
     0
275
    -2
285
     1
 65
     0
276
    -2
286
     1
 66
     0
277
    -2
287
     1
 67
     0
278
    -2
288
     1
 68
     0
279
    -2
289
     1
 69
     0
  7
Standard
140
6.0
170
     5
 62
     0
 63
     7
283
     0
274
    -2
284
     1
 64
     0
275
    -2
285
     1
 65
     0
276
    -2
286
     1
 66
     0
277
    -2
287
     1
 67
     0
278
    -2
288
     1
 68
     0
279
    -2
289
     1
 69
     0
  7
Standard
140
4.5
170
     5
 62
     0
 63
     7
283
     0
274
    -2
284
     1
 64
     0
275
    -2
285
     1
 65
     0
276
    -2
286
     1
 66
     0
277
    -2
287
     1
 67
     0
278
    -2
288
     1
 68
     0
279
    -2
289
     1
 69
     0
  0
VISUALSTYLE
  5
F5
102
{ACAD_XDICTIONARY
360
6C3
102
}
102
{ACAD_REACTORS
330
EF
102
}
330
EF
100
AcDbVisualStyle
  2
2dWireframe
 70
     4
 71
     0
 72
     2
 73
     1
 90
        0
 40
-0.6
 41
-30.0
 62
     5
 63
     7
421
 16777215
 74
     1
 91
        4
 64
     7
 65
   257
 75
     1
175
     1
 42
1.0
 92
        0
 66
   257
 43
1.0
 76
     1
 77
     6
 78
     2
 67
     7
 79
     5
170
     0
171
     0
290
     0
174
     0
 93
        1
 44
0.0
173
     0
291
     0
 45
0.0
1001
ACAD
1000
AcDbSavedByObjectVersion
1070
     0
  0
VISUALSTYLE
  5
F7
102
{ACAD_XDICTIONARY
360
6C7
102
}
102
{ACAD_REACTORS
330
EF
102
}
330
EF
100
AcDbVisualStyle
  2
3D Hidden
 70
     6
 71
     1
 72
     2
 73
     2
 90
        0
 40
-0.6
 41
-30.0
 62
     5
 63
     7
421
 16777215
 74
     2
 91
        2
 64
     7
 65
   257
 75
     2
175
     1
 42
40.0
 92
        0
 66
   257
 43
1.0
 76
     1
 77
     6
 78
     2
 67
     7
 79
     3
170
     0
171
     0
290
     0
174
     0
 93
        1
 44
0.0
173
     0
291
     0
 45
0.0
1001
ACAD
1000
AcDbSavedByObjectVersion
1070
     0
  0
VISUALSTYLE
  5
F6
102
{ACAD_XDICTIONARY
360
6C5
102
}
102
{ACAD_REACTORS
330
EF
102
}
330
EF
100
AcDbVisualStyle
  2
3dWireframe
 70
     5
 71
     0
 72
     2
 73
     1
 90
        0
 40
-0.6
 41
-30.0
 62
     5
 63
     7
421
 16777215
 74
     1
 91
        4
 64
     7
 65
   257
 75
     1
175
     1
 42
1.0
 92
        0
 66
   257
 43
1.0
 76
     1
 77
     6
 78
     2
 67
     7
 79
     5
170
     0
171
     0
290
     0
174
     0
 93
        1
 44
0.0
173
     0
291
     0
 45
0.0
1001
ACAD
1000
AcDbSavedByObjectVersion
1070
     0
  0
VISUALSTYLE
  5
F4
102
{ACAD_XDICTIONARY
360
6C1
102
}
102
{ACAD_REACTORS
330
EF
102
}
330
EF
100
AcDbVisualStyle
  2
Basic
 70
     7
 71
     1
 72
     0
 73
     1
 90
        0
 40
-0.6
 41
-30.0
 62
     5
 63
     7
421
 16777215
 74
     0
 91
        4
 64
     7
 65
   257
 75
     1
175
     1
 42
1.0
 92
        8
 66
     7
 43
1.0
 76
     1
 77
     6
 78
     2
 67
     7
 79
     5
170
     0
171
     0
290
     0
174
     0
 93
        1
 44
0.0
173
     0
291
     1
 45
0.0
1001
ACAD
1000
AcDbSavedByObjectVersion
1070
     0
  0
VISUALSTYLE
  5
FB
102
{ACAD_XDICTIONARY
360
6CF
102
}
102
{ACAD_REACTORS
330
EF
102
}
330
EF
100
AcDbVisualStyle
  2
Brighten
 70
    12
 71
     2
 72
     2
 73
     1
 90
        0
 40
-0.6
 41
-30.0
 62
     5
 63
     7
421
 16777215
 74
     1
 91
        4
 64
     7
 65
   257
 75
     1
175
     1
 42
1.0
 92
        8
 66
     7
 43
1.0
 76
     1
 77
     6
 78
     2
 67
     7
 79
     5
170
     0
171
     0
290
     0
174
     0
 93
        1
 44
50.0
173
     0
291
     1
 45
0.0
1001
ACAD
1000
AcDbSavedByObjectVersion
1070
     0
  0
VISUALSTYLE
  5
FF
102
{ACAD_XDICTIONARY
360
6D7
102
}
102
{ACAD_REACTORS
330
EF
102
}
330
EF
100
AcDbVisualStyle
  2
ColorChange
 70
    16
 71
     2
 72
     2
 73
     3
 90
        0
 40
-0.6
 41
-30.0
 62
     5
 63
     8
421
  8421504
 74
     1
 91
        4
 64
     7
 65
   257
 75
     1
175
     1
 42
1.0
 92
        8
 66
     8
424
  8421504
 43
1.0
 76
     1
 77
     6
 78
     2
 67
     7
 79
     5
170
     0
171
     0
290
     0
174
     0
 93
        1
 44
0.0
173
     0
291
     1
 45
0.0
1001
ACAD
1000
AcDbSavedByObjectVersion
1070
     0
  0
VISUALSTYLE
  5
F8
102
{ACAD_XDICTIONARY
360
6C9
102
}
102
{ACAD_REACTORS
330
EF
102
}
330
EF
100
AcDbVisualStyle
  2
Conceptual
 70
     9
 71
     3
 72
     2
 73
     1
 90
        0
 40
-0.6
 41
-30.0
 62
     5
 63
     7
421
 16777215
 74
     2
 91
        2
 64
     7
 65
   257
 75
     1
175
     1
 42
40.0
 92
        8
 66
     7
 43
1.0
 76
     1
 77
     6
 78
     2
 67
     7
 79
     3
170
     0
171
     0
290
     0
174
     0
 93
        1
 44
0.0
173
     0
291
     0
 45
0.0
1001
ACAD
1000
AcDbSavedByObjectVersion
1070
     0
  0
VISUALSTYLE
  5
FA
102
{ACAD_XDICTIONARY
360
6CD
102
}
102
{ACAD_REACTORS
330
EF
102
}
330
EF
100
AcDbVisualStyle
  2
Dim
 70
    11
 71
     2
 72
     2
 73
     1
 90
        0
 40
-0.6
 41
-30.0
 62
     5
 63
     7
421
 16777215
 74
     1
 91
        4
 64
     7
 65
   257
 75
     1
175
     1
 42
1.0
 92
        8
 66
     7
 43
1.0
 76
     1
 77
     6
 78
     2
 67
     7
 79
     5
170
     0
171
     0
290
     0
174
     0
 93
        1
 44
-50.0
173
     0
291
     1
 45
0.0
1001
ACAD
1000
AcDbSavedByObjectVersion
1070
     0
  0
VISUALSTYLE
  5
1E6
102
{ACAD_XDICTIONARY
360
6DD
102
}
102
{ACAD_REACTORS
330
EF
102
}
330
EF
100
AcDbVisualStyle
  2
EdgeColorOff
 70
    22
 71
     2
 72
     2
 73
     0
 90
        0
 40
-0.6
 41
-30.0
 62
     5
 63
     7
421
 16777215
 74
     1
 91
        4
 64
     7
 65
   257
 75
     1
175
     1
 42
1.0
 92
        8
 66
     7
 43
1.0
 76
     1
 77
     6
 78
     2
 67
     7
 79
     5
170
     0
171
     0
290
     0
174
     0
 93
        1
 44
0.0
173
     0
291
     1
 45
0.0
1001
ACAD
1000
AcDbSavedByObjectVersion
1070
     0
  0
VISUALSTYLE
  5
FE
102
{ACAD_XDICTIONARY
360
6D5
102
}
102
{ACAD_REACTORS
330
EF
102
}
330
EF
100
AcDbVisualStyle
  2
Facepattern
 70
    15
 71
     2
 72
     2
 73
     1
 90
        0
 40
-0.6
 41
-30.0
 62
     5
 63
     7
421
 16777215
 74
     1
 91
        4
 64
     7
 65
   257
 75
     1
175
     1
 42
1.0
 92
        8
 66
     7
 43
1.0
 76
     1
 77
     6
 78
     2
 67
     7
 79
     5
170
     0
171
     0
290
     0
174
     0
 93
        1
 44
0.0
173
     0
291
     1
 45
0.0
1001
ACAD
1000
AcDbSavedByObjectVersion
1070
     0
  0
VISUALSTYLE
  5
F0
102
{ACAD_XDICTIONARY
360
6B9
102
}
102
{ACAD_REACTORS
330
EF
102
}
330
EF
100
AcDbVisualStyle
  2
Flat
 70
     0
 71
     2
 72
     1
 73
     1
 90
        2
 40
-0.6
 41
30.0
 62
     5
 63
     7
421
 16777215
 74
     0
 91
        4
 64
     7
 65
   257
 75
     1
175
     1
 42
1.0
 92
        8
 66
     7
 43
1.0
 76
     1
 77
     6
 78
     2
 67
     7
 79
     5
170
     0
171
     0
290
     0
174
     0
 93
        1
 44
0.0
173
     0
291
     1
 45
0.0
1001
ACAD
1000
AcDbSavedByObjectVersion
1070
     0
  0
VISUALSTYLE
  5
F1
102
{ACAD_XDICTIONARY
360
6BB
102
}
102
{ACAD_REACTORS
330
EF
102
}
330
EF
100
AcDbVisualStyle
  2
FlatWithEdges
 70
     1
 71
     2
 72
     1
 73
     1
 90
        2
 40
-0.6
 41
30.0
 62
     5
 63
     7
421
 16777215
 74
     1
 91
        4
 64
     7
 65
   257
 75
     1
175
     1
 42
1.0
 92
        0
 66
   257
 43
1.0
 76
     1
 77
     6
 78
     2
 67
     7
 79
     5
170
     0
171
     0
290
     0
174
     0
 93
        1
 44
0.0
173
     0
291
     1
 45
0.0
1001
ACAD
1000
AcDbSavedByObjectVersion
1070
     0
  0
VISUALSTYLE
  5
F2
102
{ACAD_XDICTIONARY
360
6BD
102
}
102
{ACAD_REACTORS
330
EF
102
}
330
EF
100
AcDbVisualStyle
  2
Gouraud
 70
     2
 71
     2
 72
     2
 73
     1
 90
        2
 40
-0.6
 41
30.0
 62
     5
 63
     7
421
 16777215
 74
     0
 91
        4
 64
     7
 65
   257
 75
     1
175
     1
 42
1.0
 92
        0
 66
     7
 43
1.0
 76
     1
 77
     6
 78
     2
 67
     7
 79
     5
170
     0
171
     0
290
     0
174
     0
 93
        1
 44
0.0
173
     0
291
     1
 45
0.0
1001
ACAD
1000
AcDbSavedByObjectVersion
1070
     0
  0
VISUALSTYLE
  5
F3
102
{ACAD_XDICTIONARY
360
6BF
102
}
102
{ACAD_REACTORS
330
EF
102
}
330
EF
100
AcDbVisualStyle
  2
GouraudWithEdges
 70
     3
 71
     2
 72
     2
 73
     1
 90
        2
 40
-0.6
 41
30.0
 62
     5
 63
     7
421
 16777215
 74
     1
 91
        4
 64
     7
 65
   257
 75
     1
175
     1
 42
1.0
 92
        0
 66
   257
 43
1.0
 76
     1
 77
     6
 78
     2
 67
     7
 79
     5
170
     0
171
     0
290
     0
174
     0
 93
        1
 44
0.0
173
     0
291
     1
 45
0.0
1001
ACAD
1000
AcDbSavedByObjectVersion
1070
     0
  0
VISUALSTYLE
  5
1E4
102
{ACAD_XDICTIONARY
360
6D9
102
}
102
{ACAD_REACTORS
330
EF
102
}
330
EF
100
AcDbVisualStyle
  2
JitterOff
 70
    20
 71
     2
 72
     2
 73
     0
 90
        0
 40
-0.6
 41
-30.0
 62
     5
 63
     7
421
 16777215
 74
     1
 91
        4
 64
     7
 65
   257
 75
     1
175
     1
 42
1.0
 92
       10
 66
     7
 43
1.0
 76
     1
 77
     6
 78
     2
 67
     7
 79
     5
170
     0
171
     0
290
     0
174
     0
 93
        1
 44
0.0
173
     0
291
     1
 45
0.0
1001
ACAD
1000
AcDbSavedByObjectVersion
1070
     0
  0
VISUALSTYLE
  5
FD
102
{ACAD_XDICTIONARY
360
6D3
102
}
102
{ACAD_REACTORS
330
EF
102
}
330
EF
100
AcDbVisualStyle
  2
Linepattern
 70
    14
 71
     2
 72
     2
 73
     1
 90
        0
 40
-0.6
 41
-30.0
 62
     5
 63
     7
421
 16777215
 74
     1
 91
        4
 64
     7
 65
   257
 75
     7
175
     7
 42
1.0
 92
        8
 66
     7
 43
1.0
 76
     1
 77
     6
 78
     2
 67
     7
 79
     5
170
     0
171
     0
290
     0
174
     0
 93
        1
 44
0.0
173
     0
291
     1
 45
0.0
1001
ACAD
1000
AcDbSavedByObjectVersion
1070
     0
  0
VISUALSTYLE
  5
1E5
102
{ACAD_XDICTIONARY
360
6DB
102
}
102
{ACAD_REACTORS
330
EF
102
}
330
EF
100
AcDbVisualStyle
  2
OverhangOff
 70
    21
 71
     2
 72
     2
 73
     0
 90
        0
 40
-0.6
 41
-30.0
 62
     5
 63
     7
421
 16777215
 74
     1
 91
        4
 64
     7
 65
   257
 75
     1
175
     1
 42
1.0
 92
        9
 66
     7
 43
1.0
 76
     1
 77
     6
 78
     2
 67
     7
 79
     5
170
     0
171
     0
290
     0
174
     0
 93
        1
 44
0.0
173
     0
291
     1
 45
0.0
1001
ACAD
1000
AcDbSavedByObjectVersion
1070
     0
  0
VISUALSTYLE
  5
F9
102
{ACAD_XDICTIONARY
360
6CB
102
}
102
{ACAD_REACTORS
330
EF
102
}
330
EF
100
AcDbVisualStyle
  2
Realistic
 70
     8
 71
     2
 72
     2
 73
     1
 90
        0
 40
-0.6
 41
-30.0
 62
     5
 63
     7
421
 16777215
 74
     1
 91
        0
 64
     7
 65
   257
 75
     1
175
     1
 42
1.0
 92
        8
 66
     8
424
  7895160
 43
1.0
 76
     1
 77
     6
 78
     2
 67
     7
 79
     5
170
     0
171
     0
290
     0
174
     0
 93
       13
 44
0.0
173
     0
291
     0
 45
0.0
1001
ACAD
1000
AcDbSavedByObjectVersion
1070
     0
  0
VISUALSTYLE
  5
FC
102
{ACAD_XDICTIONARY
360
6D1
102
}
102
{ACAD_REACTORS
330
EF
102
}
330
EF
100
AcDbVisualStyle
  2
Thicken
 70
    13
 71
     2
 72
     2
 73
     1
 90
        0
 40
-0.6
 41
-30.0
 62
     5
 63
     7
421
 16777215
 74
     1
 91
        4
 64
     7
 65
   257
 75
     1
175
     1
 42
1.0
 92
       12
 66
     7
 43
1.0
 76
     1
 77
     6
 78
     2
 67
     7
 79
     5
170
     0
171
     0
290
     0
174
     0
 93
        1
 44
0.0
173
     0
291
     1
 45
0.0
1001
ACAD
1000
AcDbSavedByObjectVersion
1070
     0
  0
DICTIONARYVAR
  5
146
102
{ACAD_REACTORS
330
5E
102
}
330
5E
100
DictionaryVariables
280
     0
  1
1:1
  0
DICTIONARYVAR
  5
145
102
{ACAD_REACTORS
330
5E
102
}
330
5E
100
DictionaryVariables
280
     0
  1
STANDARD
  0
DICTIONARYVAR
  5
84
102
{ACAD_REACTORS
330
5E
102
}
330
5E
100
DictionaryVariables
280
     0
  1
STANDARD
  0
DICTIONARYVAR
  5
5F
102
{ACAD_REACTORS
330
5E
102
}
330
5E
100
DictionaryVariables
280
     0
  1
2
  0
DICTIONARYVAR
  5
63
102
{ACAD_REACTORS
330
5E
102
}
330
5E
100
DictionaryVariables
280
     0
  1
1
  0
DICTIONARYVAR
  5
1AE
102
{ACAD_REACTORS
330
5E
102
}
330
5E
100
DictionaryVariables
280
     0
  1
0
  0
DICTIONARYVAR
  5
1AF
102
{ACAD_REACTORS
330
5E
102
}
330
5E
100
DictionaryVariables
280
     0
  1
0
  0
DICTIONARYVAR
  5
6AD
102
{ACAD_REACTORS
330
5E
102
}
330
5E
100
DictionaryVariables
280
     0
  1
2
  0
DICTIONARYVAR
  5
6AC
102
{ACAD_REACTORS
330
5E
102
}
330
5E
100
DictionaryVariables
280
     0
  1
1
  0
DICTIONARYVAR
  5
6AF
102
{ACAD_REACTORS
330
5E
102
}
330
5E
100
DictionaryVariables
280
     0
  1
80.000000
  0
DICTIONARYVAR
  5
6AE
102
{ACAD_REACTORS
330
5E
102
}
330
5E
100
DictionaryVariables
280
     0
  1
5.000000
  0
DICTIONARYVAR
  5
6B0
102
{ACAD_REACTORS
330
5E
102
}
330
5E
100
DictionaryVariables
280
     0
  1
2
  0
DICTIONARY
  5
6B6
330
ED
100
AcDbDictionary
280
     1
281
     1
  3
ACAD_XREC_ROUNDTRIP
360
6B7
  0
DICTIONARY
  5
6B4
330
EC
100
AcDbDictionary
280
     1
281
     1
  3
ACAD_XREC_ROUNDTRIP
360
6B5
  0
DICTIONARY
  5
173
330
EE
100
AcDbDictionary
280
     1
281
     1
  3
ACAD_XREC_ROUNDTRIP
360
6B8
  3
BUMPTILE
360
175
  3
DIFFUSETILE
360
174
  3
OPACITYTILE
360
176
  3
REFLECTIONTILE
360
177
  0
DICTIONARY
  5
162
330
7F
100
AcDbDictionary
280
     1
281
     1
  3
ACAD_ROUNDTRIP_2008_TABLESTYLE_CELLSTYLEMAP
360
6B1
  3
ACAD_XREC_ROUNDTRIP
360
6B3
  0
DICTIONARY
  5
6C3
330
F5
100
AcDbDictionary
280
     1
281
     1
  3
ACAD_XREC_ROUNDTRIP
360
6C4
  0
DICTIONARY
  5
6C7
330
F7
100
AcDbDictionary
280
     1
281
     1
  3
ACAD_XREC_ROUNDTRIP
360
6C8
  0
DICTIONARY
  5
6C5
330
F6
100
AcDbDictionary
280
     1
281
     1
  3
ACAD_XREC_ROUNDTRIP
360
6C6
  0
DICTIONARY
  5
6C1
330
F4
100
AcDbDictionary
280
     1
281
     1
  3
ACAD_XREC_ROUNDTRIP
360
6C2
  0
DICTIONARY
  5
6CF
330
FB
100
AcDbDictionary
280
     1
281
     1
  3
ACAD_XREC_ROUNDTRIP
360
6D0
  0
DICTIONARY
  5
6D7
330
FF
100
AcDbDictionary
280
     1
281
     1
  3
ACAD_XREC_ROUNDTRIP
360
6D8
  0
DICTIONARY
  5
6C9
330
F8
100
AcDbDictionary
280
     1
281
     1
  3
ACAD_XREC_ROUNDTRIP
360
6CA
  0
DICTIONARY
  5
6CD
330
FA
100
AcDbDictionary
280
     1
281
     1
  3
ACAD_XREC_ROUNDTRIP
360
6CE
  0
DICTIONARY
  5
6DD
330
1E6
100
AcDbDictionary
280
     1
281
     1
  3
ACAD_XREC_ROUNDTRIP
360
6DE
  0
DICTIONARY
  5
6D5
330
FE
100
AcDbDictionary
280
     1
281
     1
  3
ACAD_XREC_ROUNDTRIP
360
6D6
  0
DICTIONARY
  5
6B9
330
F0
100
AcDbDictionary
280
     1
281
     1
  3
ACAD_XREC_ROUNDTRIP
360
6BA
  0
DICTIONARY
  5
6BB
330
F1
100
AcDbDictionary
280
     1
281
     1
  3
ACAD_XREC_ROUNDTRIP
360
6BC
  0
DICTIONARY
  5
6BD
330
F2
100
AcDbDictionary
280
     1
281
     1
  3
ACAD_XREC_ROUNDTRIP
360
6BE
  0
DICTIONARY
  5
6BF
330
F3
100
AcDbDictionary
280
     1
281
     1
  3
ACAD_XREC_ROUNDTRIP
360
6C0
  0
DICTIONARY
  5
6D9
330
1E4
100
AcDbDictionary
280
     1
281
     1
  3
ACAD_XREC_ROUNDTRIP
360
6DA
  0
DICTIONARY
  5
6D3
330
FD
100
AcDbDictionary
280
     1
281
     1
  3
ACAD_XREC_ROUNDTRIP
360
6D4
  0
DICTIONARY
  5
6DB
330
1E5
100
AcDbDictionary
280
     1
281
     1
  3
ACAD_XREC_ROUNDTRIP
360
6DC
  0
DICTIONARY
  5
6CB
330
F9
100
AcDbDictionary
280
     1
281
     1
  3
ACAD_XREC_ROUNDTRIP
360
6CC
  0
DICTIONARY
  5
6D1
330
FC
100
AcDbDictionary
280
     1
281
     1
  3
ACAD_XREC_ROUNDTRIP
360
6D2
  0
XRECORD
  5
6B7
102
{ACAD_REACTORS
330
6B6
102
}
330
6B6
100
AcDbXrecord
280
     1
102
MATERIAL
148
0.0
149
0.0
149
0.0
 93
        0
 94
       63
282
     0
 72
     1
 77
     1
171
     1
175
     1
179
     1
273
     0
  0
XRECORD
  5
6B5
102
{ACAD_REACTORS
330
6B4
102
}
330
6B4
100
AcDbXrecord
280
     1
102
MATERIAL
148
0.0
149
0.0
149
0.0
 93
        0
 94
       63
282
     0
 72
     1
 77
     1
171
     1
175
     1
179
     1
273
     0
  0
XRECORD
  5
6B8
102
{ACAD_REACTORS
330
173
102
}
330
173
100
AcDbXrecord
280
     1
102
MATERIAL
148
0.0
149
0.0
149
0.0
 93
        0
 94
       63
282
     0
 72
     1
 77
     1
171
     1
175
     1
179
     1
273
     0
  0
XRECORD
  5
175
102
{ACAD_REACTORS
330
173
102
}
330
173
100
AcDbXrecord
280
     1
270
     1
271
     1
  0
XRECORD
  5
174
102
{ACAD_REACTORS
330
173
102
}
330
173
100
AcDbXrecord
280
     1
270
     1
271
     1
  0
XRECORD
  5
176
102
{ACAD_REACTORS
330
173
102
}
330
173
100
AcDbXrecord
280
     1
270
     1
271
     1
  0
XRECORD
  5
177
102
{ACAD_REACTORS
330
173
102
}
330
173
100
AcDbXrecord
280
     1
270
     1
271
     1
  0
CELLSTYLEMAP
  5
6B1
102
{ACAD_REACTORS
330
162
102
}
330
162
100
AcDbCellStyleMap
 90
        3
300
CELLSTYLE
  1
TABLEFORMAT_BEGIN
 90
        5
170
     1
 91
        0
 92
    32768
 62
   257
 93
        1
300
CONTENTFORMAT
  1
CONTENTFORMAT_BEGIN
 90
        0
 91
        0
 92
      512
 93
        0
300

 40
0.0
140
1.0
 94
        5
 62
     0
340
11
144
6.0
309
CONTENTFORMAT_END
171
     1
301
MARGIN
  1
CELLMARGIN_BEGIN
 40
1.5
 40
1.5
 40
1.5
 40
1.5
 40
4.5
 40
4.5
309
CELLMARGIN_END
 94
        6
 95
        1
302
GRIDFORMAT
  1
GRIDFORMAT_BEGIN
 90
        0
 91
        1
 62
     0
 92
       -2
340
14
 93
        0
 40
1.125
309
GRIDFORMAT_END
 95
        2
302
GRIDFORMAT
  1
GRIDFORMAT_BEGIN
 90
        0
 91
        1
 62
     0
 92
       -2
340
14
 93
        0
 40
1.125
309
GRIDFORMAT_END
 95
        4
302
GRIDFORMAT
  1
GRIDFORMAT_BEGIN
 90
        0
 91
        1
 62
     0
 92
       -2
340
14
 93
        0
 40
1.125
309
GRIDFORMAT_END
 95
        8
302
GRIDFORMAT
  1
GRIDFORMAT_BEGIN
 90
        0
 91
        1
 62
     0
 92
       -2
340
14
 93
        0
 40
1.125
309
GRIDFORMAT_END
 95
       16
302
GRIDFORMAT
  1
GRIDFORMAT_BEGIN
 90
        0
 91
        1
 62
     0
 92
       -2
340
14
 93
        0
 40
1.125
309
GRIDFORMAT_END
 95
       32
302
GRIDFORMAT
  1
GRIDFORMAT_BEGIN
 90
        0
 91
        1
 62
     0
 92
       -2
340
14
 93
        0
 40
1.125
309
GRIDFORMAT_END
309
TABLEFORMAT_END
  1
CELLSTYLE_BEGIN
 90
        1
 91
        1
300
_TITLE
309
CELLSTYLE_END
300
CELLSTYLE
  1
TABLEFORMAT_BEGIN
 90
        5
170
     1
 91
        0
 92
        0
 62
   257
 93
        1
300
CONTENTFORMAT
  1
CONTENTFORMAT_BEGIN
 90
        0
 91
        0
 92
      512
 93
        0
300

 40
0.0
140
1.0
 94
        5
 62
     0
340
11
144
4.5
309
CONTENTFORMAT_END
171
     1
301
MARGIN
  1
CELLMARGIN_BEGIN
 40
1.5
 40
1.5
 40
1.5
 40
1.5
 40
4.5
 40
4.5
309
CELLMARGIN_END
 94
        6
 95
        1
302
GRIDFORMAT
  1
GRIDFORMAT_BEGIN
 90
        0
 91
        1
 62
     0
 92
       -2
340
14
 93
        0
 40
1.125
309
GRIDFORMAT_END
 95
        2
302
GRIDFORMAT
  1
GRIDFORMAT_BEGIN
 90
        0
 91
        1
 62
     0
 92
       -2
340
14
 93
        0
 40
1.125
309
GRIDFORMAT_END
 95
        4
302
GRIDFORMAT
  1
GRIDFORMAT_BEGIN
 90
        0
 91
        1
 62
     0
 92
       -2
340
14
 93
        0
 40
1.125
309
GRIDFORMAT_END
 95
        8
302
GRIDFORMAT
  1
GRIDFORMAT_BEGIN
 90
        0
 91
        1
 62
     0
 92
       -2
340
14
 93
        0
 40
1.125
309
GRIDFORMAT_END
 95
       16
302
GRIDFORMAT
  1
GRIDFORMAT_BEGIN
 90
        0
 91
        1
 62
     0
 92
       -2
340
14
 93
        0
 40
1.125
309
GRIDFORMAT_END
 95
       32
302
GRIDFORMAT
  1
GRIDFORMAT_BEGIN
 90
        0
 91
        1
 62
     0
 92
       -2
340
14
 93
        0
 40
1.125
309
GRIDFORMAT_END
309
TABLEFORMAT_END
  1
CELLSTYLE_BEGIN
 90
        2
 91
        1
300
_HEADER
309
CELLSTYLE_END
300
CELLSTYLE
  1
TABLEFORMAT_BEGIN
 90
        5
170
     1
 91
        0
 92
        0
 62
   257
 93
        1
300
CONTENTFORMAT
  1
CONTENTFORMAT_BEGIN
 90
        0
 91
        0
 92
      512
 93
        0
300

 40
0.0
140
1.0
 94
        2
 62
     0
340
11
144
4.5
309
CONTENTFORMAT_END
171
     1
301
MARGIN
  1
CELLMARGIN_BEGIN
 40
1.5
 40
1.5
 40
1.5
 40
1.5
 40
4.5
 40
4.5
309
CELLMARGIN_END
 94
        6
 95
        1
302
GRIDFORMAT
  1
GRIDFORMAT_BEGIN
 90
        0
 91
        1
 62
     0
 92
       -2
340
14
 93
        0
 40
1.125
309
GRIDFORMAT_END
 95
        2
302
GRIDFORMAT
  1
GRIDFORMAT_BEGIN
 90
        0
 91
        1
 62
     0
 92
       -2
340
14
 93
        0
 40
1.125
309
GRIDFORMAT_END
 95
        4
302
GRIDFORMAT
  1
GRIDFORMAT_BEGIN
 90
        0
 91
        1
 62
     0
 92
       -2
340
14
 93
        0
 40
1.125
309
GRIDFORMAT_END
 95
        8
302
GRIDFORMAT
  1
GRIDFORMAT_BEGIN
 90
        0
 91
        1
 62
     0
 92
       -2
340
14
 93
        0
 40
1.125
309
GRIDFORMAT_END
 95
       16
302
GRIDFORMAT
  1
GRIDFORMAT_BEGIN
 90
        0
 91
        1
 62
     0
 92
       -2
340
14
 93
        0
 40
1.125
309
GRIDFORMAT_END
 95
       32
302
GRIDFORMAT
  1
GRIDFORMAT_BEGIN
 90
        0
 91
        1
 62
     0
 92
       -2
340
14
 93
        0
 40
1.125
309
GRIDFORMAT_END
309
TABLEFORMAT_END
  1
CELLSTYLE_BEGIN
 90
        3
 91
        2
300
_DATA
309
CELLSTYLE_END
  0
XRECORD
  5
6B3
102
{ACAD_REACTORS
330
162
102
}
330
162
100
AcDbXrecord
280
     1
102
ACAD_ROUNDTRIP_PRE2007_TABLESTYLE
 90
      512
 91
        0
  1

 92
      512
 93
        0
  2

 94
      512
 95
        0
  3

  0
XRECORD
  5
6C4
102
{ACAD_REACTORS
330
6C3
102
}
330
6C3
100
AcDbXrecord
280
     1
102
RTVSPropertyOp0
 70
     1
102
RTVSPropertyOp1
 70
     1
102
RTVSPropertyOp2
 70
     1
102
RTVSPropertyOp3
 70
     1
102
RTVSPropertyOp4
 70
     1
102
RTVSPropertyOp5
 70
     1
102
RTVSPropertyOp6
 70
     1
102
RTVSPropertyOp7
 70
     1
102
RTVSPropertyOp8
 70
     1
102
RTVSPropertyOp9
 70
     1
102
RTVSPropertyOp10
 70
     1
102
RTVSPropertyOp11
 70
     1
102
RTVSPropertyOp12
 70
     1
102
RTVSPropertyOp13
 70
     1
102
RTVSPropertyOp14
 70
     1
102
RTVSPropertyOp15
 70
     1
102
RTVSPropertyOp16
 70
     1
102
RTVSPropertyOp17
 70
     1
102
RTVSPropertyOp18
 70
     1
102
RTVSPropertyOp19
 70
     1
102
RTVSPropertyOp20
 70
     1
102
RTVSPropertyOp21
 70
     1
102
RTVSPropertyOp22
 70
     1
102
RTVSPropertyOp23
 70
     1
102
RTVSPropertyOp24
 70
     1
102
RTVSPropertyOp25
 70
     1
102
RTVSPropertyOp26
 70
     1
102
RTVSPropertyOp27
 70
     1
  0
XRECORD
  5
6C8
102
{ACAD_REACTORS
330
6C7
102
}
330
6C7
100
AcDbXrecord
280
     1
102
RTVSPropertyOp0
 70
     1
102
RTVSPropertyOp1
 70
     1
102
RTVSPropertyOp2
 70
     1
102
RTVSPropertyOp3
 70
     1
102
RTVSPropertyOp4
 70
     1
102
RTVSPropertyOp5
 70
     1
102
RTVSPropertyOp6
 70
     1
102
RTVSPropertyOp7
 70
     1
102
RTVSPropertyOp8
 70
     1
102
RTVSPropertyOp9
 70
     1
102
RTVSPropertyOp10
 70
     1
102
RTVSPropertyOp11
 70
     1
102
RTVSPropertyOp12
 70
     1
102
RTVSPropertyOp13
 70
     1
102
RTVSPropertyOp14
 70
     1
102
RTVSPropertyOp15
 70
     1
102
RTVSPropertyOp16
 70
     1
102
RTVSPropertyOp17
 70
     1
102
RTVSPropertyOp18
 70
     1
102
RTVSPropertyOp19
 70
     1
102
RTVSPropertyOp20
 70
     1
102
RTVSPropertyOp21
 70
     1
102
RTVSPropertyOp22
 70
     1
102
RTVSPropertyOp23
 70
     1
102
RTVSPropertyOp24
 70
     1
102
RTVSPropertyOp25
 70
     1
102
RTVSPropertyOp26
 70
     1
102
RTVSPropertyOp27
 70
     1
  0
XRECORD
  5
6C6
102
{ACAD_REACTORS
330
6C5
102
}
330
6C5
100
AcDbXrecord
280
     1
102
RTVSPropertyOp0
 70
     1
102
RTVSPropertyOp1
 70
     1
102
RTVSPropertyOp2
 70
     1
102
RTVSPropertyOp3
 70
     1
102
RTVSPropertyOp4
 70
     1
102
RTVSPropertyOp5
 70
     1
102
RTVSPropertyOp6
 70
     1
102
RTVSPropertyOp7
 70
     1
102
RTVSPropertyOp8
 70
     1
102
RTVSPropertyOp9
 70
     1
102
RTVSPropertyOp10
 70
     1
102
RTVSPropertyOp11
 70
     1
102
RTVSPropertyOp12
 70
     1
102
RTVSPropertyOp13
 70
     1
102
RTVSPropertyOp14
 70
     1
102
RTVSPropertyOp15
 70
     1
102
RTVSPropertyOp16
 70
     1
102
RTVSPropertyOp17
 70
     1
102
RTVSPropertyOp18
 70
     1
102
RTVSPropertyOp19
 70
     1
102
RTVSPropertyOp20
 70
     1
102
RTVSPropertyOp21
 70
     1
102
RTVSPropertyOp22
 70
     1
102
RTVSPropertyOp23
 70
     1
102
RTVSPropertyOp24
 70
     1
102
RTVSPropertyOp25
 70
     1
102
RTVSPropertyOp26
 70
     1
102
RTVSPropertyOp27
 70
     1
  0
XRECORD
  5
6C2
102
{ACAD_REACTORS
330
6C1
102
}
330
6C1
100
AcDbXrecord
280
     1
102
RTVSPropertyOp0
 70
     1
102
RTVSPropertyOp1
 70
     1
102
RTVSPropertyOp2
 70
     1
102
RTVSPropertyOp3
 70
     1
102
RTVSPropertyOp4
 70
     1
102
RTVSPropertyOp5
 70
     1
102
RTVSPropertyOp6
 70
     1
102
RTVSPropertyOp7
 70
     1
102
RTVSPropertyOp8
 70
     1
102
RTVSPropertyOp9
 70
     1
102
RTVSPropertyOp10
 70
     1
102
RTVSPropertyOp11
 70
     1
102
RTVSPropertyOp12
 70
     1
102
RTVSPropertyOp13
 70
     1
102
RTVSPropertyOp14
 70
     1
102
RTVSPropertyOp15
 70
     1
102
RTVSPropertyOp16
 70
     1
102
RTVSPropertyOp17
 70
     1
102
RTVSPropertyOp18
 70
     1
102
RTVSPropertyOp19
 70
     1
102
RTVSPropertyOp20
 70
     1
102
RTVSPropertyOp21
 70
     1
102
RTVSPropertyOp22
 70
     1
102
RTVSPropertyOp23
 70
     1
102
RTVSPropertyOp24
 70
     1
102
RTVSPropertyOp25
 70
     1
102
RTVSPropertyOp26
 70
     1
102
RTVSPropertyOp27
 70
     1
  0
XRECORD
  5
6D0
102
{ACAD_REACTORS
330
6CF
102
}
330
6CF
100
AcDbXrecord
280
     1
102
RTVSPropertyOp0
 70
     1
102
RTVSPropertyOp1
 70
     1
102
RTVSPropertyOp2
 70
     1
102
RTVSPropertyOp3
 70
     1
102
RTVSPropertyOp4
 70
     1
102
RTVSPropertyOp5
 70
     1
102
RTVSPropertyOp6
 70
     1
102
RTVSPropertyOp7
 70
     1
102
RTVSPropertyOp8
 70
     1
102
RTVSPropertyOp9
 70
     1
102
RTVSPropertyOp10
 70
     1
102
RTVSPropertyOp11
 70
     1
102
RTVSPropertyOp12
 70
     1
102
RTVSPropertyOp13
 70
     1
102
RTVSPropertyOp14
 70
     1
102
RTVSPropertyOp15
 70
     1
102
RTVSPropertyOp16
 70
     1
102
RTVSPropertyOp17
 70
     1
102
RTVSPropertyOp18
 70
     1
102
RTVSPropertyOp19
 70
     1
102
RTVSPropertyOp20
 70
     1
102
RTVSPropertyOp21
 70
     1
102
RTVSPropertyOp22
 70
     1
102
RTVSPropertyOp23
 70
     1
102
RTVSPropertyOp24
 70
     1
102
RTVSPropertyOp25
 70
     1
102
RTVSPropertyOp26
 70
     1
102
RTVSPropertyOp27
 70
     1
  0
XRECORD
  5
6D8
102
{ACAD_REACTORS
330
6D7
102
}
330
6D7
100
AcDbXrecord
280
     1
102
RTVSPropertyOp0
 70
     1
102
RTVSPropertyOp1
 70
     1
102
RTVSPropertyOp2
 70
     1
102
RTVSPropertyOp3
 70
     1
102
RTVSPropertyOp4
 70
     1
102
RTVSPropertyOp5
 70
     1
102
RTVSPropertyOp6
 70
     1
102
RTVSPropertyOp7
 70
     1
102
RTVSPropertyOp8
 70
     1
102
RTVSPropertyOp9
 70
     1
102
RTVSPropertyOp10
 70
     1
102
RTVSPropertyOp11
 70
     1
102
RTVSPropertyOp12
 70
     1
102
RTVSPropertyOp13
 70
     1
102
RTVSPropertyOp14
 70
     1
102
RTVSPropertyOp15
 70
     1
102
RTVSPropertyOp16
 70
     1
102
RTVSPropertyOp17
 70
     1
102
RTVSPropertyOp18
 70
     1
102
RTVSPropertyOp19
 70
     1
102
RTVSPropertyOp20
 70
     1
102
RTVSPropertyOp21
 70
     1
102
RTVSPropertyOp22
 70
     1
102
RTVSPropertyOp23
 70
     1
102
RTVSPropertyOp24
 70
     1
102
RTVSPropertyOp25
 70
     1
102
RTVSPropertyOp26
 70
     1
102
RTVSPropertyOp27
 70
     1
  0
XRECORD
  5
6CA
102
{ACAD_REACTORS
330
6C9
102
}
330
6C9
100
AcDbXrecord
280
     1
102
RTVSPropertyOp0
 70
     1
102
RTVSPropertyOp1
 70
     1
102
RTVSPropertyOp2
 70
     1
102
RTVSPropertyOp3
 70
     1
102
RTVSPropertyOp4
 70
     1
102
RTVSPropertyOp5
 70
     1
102
RTVSPropertyOp6
 70
     1
102
RTVSPropertyOp7
 70
     1
102
RTVSPropertyOp8
 70
     1
102
RTVSPropertyOp9
 70
     1
102
RTVSPropertyOp10
 70
     1
102
RTVSPropertyOp11
 70
     1
102
RTVSPropertyOp12
 70
     1
102
RTVSPropertyOp13
 70
     1
102
RTVSPropertyOp14
 70
     1
102
RTVSPropertyOp15
 70
     1
102
RTVSPropertyOp16
 70
     1
102
RTVSPropertyOp17
 70
     1
102
RTVSPropertyOp18
 70
     1
102
RTVSPropertyOp19
 70
     1
102
RTVSPropertyOp20
 70
     1
102
RTVSPropertyOp21
 70
     1
102
RTVSPropertyOp22
 70
     1
102
RTVSPropertyOp23
 70
     1
102
RTVSPropertyOp24
 70
     1
102
RTVSPropertyOp25
 70
     1
102
RTVSPropertyOp26
 70
     1
102
RTVSPropertyOp27
 70
     1
  0
XRECORD
  5
6CE
102
{ACAD_REACTORS
330
6CD
102
}
330
6CD
100
AcDbXrecord
280
     1
102
RTVSPropertyOp0
 70
     1
102
RTVSPropertyOp1
 70
     1
102
RTVSPropertyOp2
 70
     1
102
RTVSPropertyOp3
 70
     1
102
RTVSPropertyOp4
 70
     1
102
RTVSPropertyOp5
 70
     1
102
RTVSPropertyOp6
 70
     1
102
RTVSPropertyOp7
 70
     1
102
RTVSPropertyOp8
 70
     1
102
RTVSPropertyOp9
 70
     1
102
RTVSPropertyOp10
 70
     1
102
RTVSPropertyOp11
 70
     1
102
RTVSPropertyOp12
 70
     1
102
RTVSPropertyOp13
 70
     1
102
RTVSPropertyOp14
 70
     1
102
RTVSPropertyOp15
 70
     1
102
RTVSPropertyOp16
 70
     1
102
RTVSPropertyOp17
 70
     1
102
RTVSPropertyOp18
 70
     1
102
RTVSPropertyOp19
 70
     1
102
RTVSPropertyOp20
 70
     1
102
RTVSPropertyOp21
 70
     1
102
RTVSPropertyOp22
 70
     1
102
RTVSPropertyOp23
 70
     1
102
RTVSPropertyOp24
 70
     1
102
RTVSPropertyOp25
 70
     1
102
RTVSPropertyOp26
 70
     1
102
RTVSPropertyOp27
 70
     1
  0
XRECORD
  5
6DE
102
{ACAD_REACTORS
330
6DD
102
}
330
6DD
100
AcDbXrecord
280
     1
102
RTVSPropertyOp0
 70
     0
102
RTVSPropertyOp1
 70
     0
102
RTVSPropertyOp2
 70
     0
102
RTVSPropertyOp3
 70
     0
102
RTVSPropertyOp4
 70
     0
102
RTVSPropertyOp5
 70
     0
102
RTVSPropertyOp6
 70
     0
102
RTVSPropertyOp7
 70
     0
102
RTVSPropertyOp8
 70
     0
102
RTVSPropertyOp9
 70
     0
102
RTVSPropertyOp10
 70
     0
102
RTVSPropertyOp11
 70
     0
102
RTVSPropertyOp12
 70
     0
102
RTVSPropertyOp13
 70
     0
102
RTVSPropertyOp14
 70
     2
102
RTVSPropertyOp15
 70
     0
102
RTVSPropertyOp16
 70
     0
102
RTVSPropertyOp17
 70
     0
102
RTVSPropertyOp18
 70
     0
102
RTVSPropertyOp19
 70
     0
102
RTVSPropertyOp20
 70
     0
102
RTVSPropertyOp21
 70
     0
102
RTVSPropertyOp22
 70
     0
102
RTVSPropertyOp23
 70
     0
102
RTVSPropertyOp24
 70
     0
102
RTVSPropertyOp25
 70
     0
102
RTVSPropertyOp26
 70
     0
102
RTVSPropertyOp27
 70
     0
  0
XRECORD
  5
6D6
102
{ACAD_REACTORS
330
6D5
102
}
330
6D5
100
AcDbXrecord
280
     1
102
RTVSPropertyOp0
 70
     1
102
RTVSPropertyOp1
 70
     1
102
RTVSPropertyOp2
 70
     1
102
RTVSPropertyOp3
 70
     1
102
RTVSPropertyOp4
 70
     1
102
RTVSPropertyOp5
 70
     1
102
RTVSPropertyOp6
 70
     1
102
RTVSPropertyOp7
 70
     1
102
RTVSPropertyOp8
 70
     1
102
RTVSPropertyOp9
 70
     1
102
RTVSPropertyOp10
 70
     1
102
RTVSPropertyOp11
 70
     1
102
RTVSPropertyOp12
 70
     1
102
RTVSPropertyOp13
 70
     1
102
RTVSPropertyOp14
 70
     1
102
RTVSPropertyOp15
 70
     1
102
RTVSPropertyOp16
 70
     1
102
RTVSPropertyOp17
 70
     1
102
RTVSPropertyOp18
 70
     1
102
RTVSPropertyOp19
 70
     1
102
RTVSPropertyOp20
 70
     1
102
RTVSPropertyOp21
 70
     1
102
RTVSPropertyOp22
 70
     1
102
RTVSPropertyOp23
 70
     1
102
RTVSPropertyOp24
 70
     1
102
RTVSPropertyOp25
 70
     1
102
RTVSPropertyOp26
 70
     1
102
RTVSPropertyOp27
 70
     1
  0
XRECORD
  5
6BA
102
{ACAD_REACTORS
330
6B9
102
}
330
6B9
100
AcDbXrecord
280
     1
102
RTVSPropertyOp0
 70
     1
102
RTVSPropertyOp1
 70
     1
102
RTVSPropertyOp2
 70
     1
102
RTVSPropertyOp3
 70
     1
102
RTVSPropertyOp4
 70
     1
102
RTVSPropertyOp5
 70
     1
102
RTVSPropertyOp6
 70
     1
102
RTVSPropertyOp7
 70
     1
102
RTVSPropertyOp8
 70
     1
102
RTVSPropertyOp9
 70
     1
102
RTVSPropertyOp10
 70
     1
102
RTVSPropertyOp11
 70
     1
102
RTVSPropertyOp12
 70
     1
102
RTVSPropertyOp13
 70
     1
102
RTVSPropertyOp14
 70
     1
102
RTVSPropertyOp15
 70
     1
102
RTVSPropertyOp16
 70
     1
102
RTVSPropertyOp17
 70
     1
102
RTVSPropertyOp18
 70
     1
102
RTVSPropertyOp19
 70
     1
102
RTVSPropertyOp20
 70
     1
102
RTVSPropertyOp21
 70
     1
102
RTVSPropertyOp22
 70
     1
102
RTVSPropertyOp23
 70
     1
102
RTVSPropertyOp24
 70
     1
102
RTVSPropertyOp25
 70
     1
102
RTVSPropertyOp26
 70
     1
102
RTVSPropertyOp27
 70
     1
  0
XRECORD
  5
6BC
102
{ACAD_REACTORS
330
6BB
102
}
330
6BB
100
AcDbXrecord
280
     1
102
RTVSPropertyOp0
 70
     1
102
RTVSPropertyOp1
 70
     1
102
RTVSPropertyOp2
 70
     1
102
RTVSPropertyOp3
 70
     1
102
RTVSPropertyOp4
 70
     1
102
RTVSPropertyOp5
 70
     1
102
RTVSPropertyOp6
 70
     1
102
RTVSPropertyOp7
 70
     1
102
RTVSPropertyOp8
 70
     1
102
RTVSPropertyOp9
 70
     1
102
RTVSPropertyOp10
 70
     1
102
RTVSPropertyOp11
 70
     1
102
RTVSPropertyOp12
 70
     1
102
RTVSPropertyOp13
 70
     1
102
RTVSPropertyOp14
 70
     1
102
RTVSPropertyOp15
 70
     1
102
RTVSPropertyOp16
 70
     1
102
RTVSPropertyOp17
 70
     1
102
RTVSPropertyOp18
 70
     1
102
RTVSPropertyOp19
 70
     1
102
RTVSPropertyOp20
 70
     1
102
RTVSPropertyOp21
 70
     1
102
RTVSPropertyOp22
 70
     1
102
RTVSPropertyOp23
 70
     1
102
RTVSPropertyOp24
 70
     1
102
RTVSPropertyOp25
 70
     1
102
RTVSPropertyOp26
 70
     1
102
RTVSPropertyOp27
 70
     1
  0
XRECORD
  5
6BE
102
{ACAD_REACTORS
330
6BD
102
}
330
6BD
100
AcDbXrecord
280
     1
102
RTVSPropertyOp0
 70
     1
102
RTVSPropertyOp1
 70
     1
102
RTVSPropertyOp2
 70
     1
102
RTVSPropertyOp3
 70
     1
102
RTVSPropertyOp4
 70
     1
102
RTVSPropertyOp5
 70
     1
102
RTVSPropertyOp6
 70
     1
102
RTVSPropertyOp7
 70
     1
102
RTVSPropertyOp8
 70
     1
102
RTVSPropertyOp9
 70
     1
102
RTVSPropertyOp10
 70
     1
102
RTVSPropertyOp11
 70
     1
102
RTVSPropertyOp12
 70
     1
102
RTVSPropertyOp13
 70
     1
102
RTVSPropertyOp14
 70
     1
102
RTVSPropertyOp15
 70
     1
102
RTVSPropertyOp16
 70
     1
102
RTVSPropertyOp17
 70
     1
102
RTVSPropertyOp18
 70
     1
102
RTVSPropertyOp19
 70
     1
102
RTVSPropertyOp20
 70
     1
102
RTVSPropertyOp21
 70
     1
102
RTVSPropertyOp22
 70
     1
102
RTVSPropertyOp23
 70
     1
102
RTVSPropertyOp24
 70
     1
102
RTVSPropertyOp25
 70
     1
102
RTVSPropertyOp26
 70
     1
102
RTVSPropertyOp27
 70
     1
  0
XRECORD
  5
6C0
102
{ACAD_REACTORS
330
6BF
102
}
330
6BF
100
AcDbXrecord
280
     1
102
RTVSPropertyOp0
 70
     1
102
RTVSPropertyOp1
 70
     1
102
RTVSPropertyOp2
 70
     1
102
RTVSPropertyOp3
 70
     1
102
RTVSPropertyOp4
 70
     1
102
RTVSPropertyOp5
 70
     1
102
RTVSPropertyOp6
 70
     1
102
RTVSPropertyOp7
 70
     1
102
RTVSPropertyOp8
 70
     1
102
RTVSPropertyOp9
 70
     1
102
RTVSPropertyOp10
 70
     1
102
RTVSPropertyOp11
 70
     1
102
RTVSPropertyOp12
 70
     1
102
RTVSPropertyOp13
 70
     1
102
RTVSPropertyOp14
 70
     1
102
RTVSPropertyOp15
 70
     1
102
RTVSPropertyOp16
 70
     1
102
RTVSPropertyOp17
 70
     1
102
RTVSPropertyOp18
 70
     1
102
RTVSPropertyOp19
 70
     1
102
RTVSPropertyOp20
 70
     1
102
RTVSPropertyOp21
 70
     1
102
RTVSPropertyOp22
 70
     1
102
RTVSPropertyOp23
 70
     1
102
RTVSPropertyOp24
 70
     1
102
RTVSPropertyOp25
 70
     1
102
RTVSPropertyOp26
 70
     1
102
RTVSPropertyOp27
 70
     1
  0
XRECORD
  5
6DA
102
{ACAD_REACTORS
330
6D9
102
}
330
6D9
100
AcDbXrecord
280
     1
102
RTVSPropertyOp0
 70
     0
102
RTVSPropertyOp1
 70
     0
102
RTVSPropertyOp2
 70
     0
102
RTVSPropertyOp3
 70
     0
102
RTVSPropertyOp4
 70
     0
102
RTVSPropertyOp5
 70
     0
102
RTVSPropertyOp6
 70
     0
102
RTVSPropertyOp7
 70
     0
102
RTVSPropertyOp8
 70
     0
102
RTVSPropertyOp9
 70
     0
102
RTVSPropertyOp10
 70
     0
102
RTVSPropertyOp11
 70
     0
102
RTVSPropertyOp12
 70
     0
102
RTVSPropertyOp13
 70
     0
102
RTVSPropertyOp14
 70
     2
102
RTVSPropertyOp15
 70
     0
102
RTVSPropertyOp16
 70
     0
102
RTVSPropertyOp17
 70
     0
102
RTVSPropertyOp18
 70
     0
102
RTVSPropertyOp19
 70
     0
102
RTVSPropertyOp20
 70
     0
102
RTVSPropertyOp21
 70
     0
102
RTVSPropertyOp22
 70
     0
102
RTVSPropertyOp23
 70
     0
102
RTVSPropertyOp24
 70
     0
102
RTVSPropertyOp25
 70
     0
102
RTVSPropertyOp26
 70
     0
102
RTVSPropertyOp27
 70
     0
  0
XRECORD
  5
6D4
102
{ACAD_REACTORS
330
6D3
102
}
330
6D3
100
AcDbXrecord
280
     1
102
RTVSPropertyOp0
 70
     1
102
RTVSPropertyOp1
 70
     1
102
RTVSPropertyOp2
 70
     1
102
RTVSPropertyOp3
 70
     1
102
RTVSPropertyOp4
 70
     1
102
RTVSPropertyOp5
 70
     1
102
RTVSPropertyOp6
 70
     1
102
RTVSPropertyOp7
 70
     1
102
RTVSPropertyOp8
 70
     1
102
RTVSPropertyOp9
 70
     1
102
RTVSPropertyOp10
 70
     1
102
RTVSPropertyOp11
 70
     1
102
RTVSPropertyOp12
 70
     1
102
RTVSPropertyOp13
 70
     1
102
RTVSPropertyOp14
 70
     1
102
RTVSPropertyOp15
 70
     1
102
RTVSPropertyOp16
 70
     1
102
RTVSPropertyOp17
 70
     1
102
RTVSPropertyOp18
 70
     1
102
RTVSPropertyOp19
 70
     1
102
RTVSPropertyOp20
 70
     1
102
RTVSPropertyOp21
 70
     1
102
RTVSPropertyOp22
 70
     1
102
RTVSPropertyOp23
 70
     1
102
RTVSPropertyOp24
 70
     1
102
RTVSPropertyOp25
 70
     1
102
RTVSPropertyOp26
 70
     1
102
RTVSPropertyOp27
 70
     1
  0
XRECORD
  5
6DC
102
{ACAD_REACTORS
330
6DB
102
}
330
6DB
100
AcDbXrecord
280
     1
102
RTVSPropertyOp0
 70
     0
102
RTVSPropertyOp1
 70
     0
102
RTVSPropertyOp2
 70
     0
102
RTVSPropertyOp3
 70
     0
102
RTVSPropertyOp4
 70
     0
102
RTVSPropertyOp5
 70
     0
102
RTVSPropertyOp6
 70
     0
102
RTVSPropertyOp7
 70
     0
102
RTVSPropertyOp8
 70
     0
102
RTVSPropertyOp9
 70
     0
102
RTVSPropertyOp10
 70
     0
102
RTVSPropertyOp11
 70
     0
102
RTVSPropertyOp12
 70
     0
102
RTVSPropertyOp13
 70
     0
102
RTVSPropertyOp14
 70
     2
102
RTVSPropertyOp15
 70
     0
102
RTVSPropertyOp16
 70
     0
102
RTVSPropertyOp17
 70
     0
102
RTVSPropertyOp18
 70
     0
102
RTVSPropertyOp19
 70
     0
102
RTVSPropertyOp20
 70
     0
102
RTVSPropertyOp21
 70
     0
102
RTVSPropertyOp22
 70
     0
102
RTVSPropertyOp23
 70
     0
102
RTVSPropertyOp24
 70
     0
102
RTVSPropertyOp25
 70
     0
102
RTVSPropertyOp26
 70
     0
102
RTVSPropertyOp27
 70
     0
  0
XRECORD
  5
6CC
102
{ACAD_REACTORS
330
6CB
102
}
330
6CB
100
AcDbXrecord
280
     1
102
RTVSPropertyOp0
 70
     1
102
RTVSPropertyOp1
 70
     1
102
RTVSPropertyOp2
 70
     1
102
RTVSPropertyOp3
 70
     1
102
RTVSPropertyOp4
 70
     1
102
RTVSPropertyOp5
 70
     1
102
RTVSPropertyOp6
 70
     1
102
RTVSPropertyOp7
 70
     1
102
RTVSPropertyOp8
 70
     1
102
RTVSPropertyOp9
 70
     1
102
RTVSPropertyOp10
 70
     1
102
RTVSPropertyOp11
 70
     1
102
RTVSPropertyOp12
 70
     1
102
RTVSPropertyOp13
 70
     1
102
RTVSPropertyOp14
 70
     1
102
RTVSPropertyOp15
 70
     1
102
RTVSPropertyOp16
 70
     1
102
RTVSPropertyOp17
 70
     1
102
RTVSPropertyOp18
 70
     1
102
RTVSPropertyOp19
 70
     1
102
RTVSPropertyOp20
 70
     1
102
RTVSPropertyOp21
 70
     1
102
RTVSPropertyOp22
 70
     1
102
RTVSPropertyOp23
 70
     1
102
RTVSPropertyOp24
 70
     1
102
RTVSPropertyOp25
 70
     1
102
RTVSPropertyOp26
 70
     1
102
RTVSPropertyOp27
 70
     1
  0
XRECORD
  5
6D2
102
{ACAD_REACTORS
330
6D1
102
}
330
6D1
100
AcDbXrecord
280
     1
102
RTVSPropertyOp0
 70
     1
102
RTVSPropertyOp1
 70
     1
102
RTVSPropertyOp2
 70
     1
102
RTVSPropertyOp3
 70
     1
102
RTVSPropertyOp4
 70
     1
102
RTVSPropertyOp5
 70
     1
102
RTVSPropertyOp6
 70
     1
102
RTVSPropertyOp7
 70
     1
102
RTVSPropertyOp8
 70
     1
102
RTVSPropertyOp9
 70
     1
102
RTVSPropertyOp10
 70
     1
102
RTVSPropertyOp11
 70
     1
102
RTVSPropertyOp12
 70
     1
102
RTVSPropertyOp13
 70
     1
102
RTVSPropertyOp14
 70
     1
102
RTVSPropertyOp15
 70
     1
102
RTVSPropertyOp16
 70
     1
102
RTVSPropertyOp17
 70
     1
102
RTVSPropertyOp18
 70
     1
102
RTVSPropertyOp19
 70
     1
102
RTVSPropertyOp20
 70
     1
102
RTVSPropertyOp21
 70
     1
102
RTVSPropertyOp22
 70
     1
102
RTVSPropertyOp23
 70
     1
102
RTVSPropertyOp24
 70
     1
102
RTVSPropertyOp25
 70
     1
102
RTVSPropertyOp26
 70
     1
102
RTVSPropertyOp27
 70
     1
  0
ENDSEC
  0
EOF
