  0
SECTION
  2
HEADER
  9
$ACADVER
  1
AC1018
  9
$ACADMAINTVER
 70
   104
  9
$DWGCODEPAGE
  3
ANSI_1252
  9
$LASTSAVEDBY
  1
a06741
  9
$INSBASE
 10
0.0
 20
0.0
 30
0.0
  9
$EXTMIN
 10
1533.821787398365
 20
878.7880904042621
 30
0.0
  9
$EXTMAX
 10
1672.521487752278
 20
973.7511976939766
 30
0.0
  9
$LIMMIN
 10
0.0
 20
0.0
  9
$LIMMAX
 10
420.0
 20
297.0
  9
$ORTHOMODE
 70
     0
  9
$REGENMODE
 70
     1
  9
$FILLMODE
 70
     1
  9
$QTEXTMODE
 70
     0
  9
$MIRRTEXT
 70
     0
  9
$LTSCALE
 40
1.0
  9
$ATTMODE
 70
     1
  9
$TEXTSIZE
 40
2.5
  9
$TRACEWID
 40
1.0
  9
$TEXTSTYLE
  7
Standard
  9
$CLAYER
  8
0
  9
$CELTYPE
  6
ByLayer
  9
$CECOLOR
 62
   256
  9
$CELTSCALE
 40
1.0
  9
$DISPSILH
 70
     0
  9
$DIMSCALE
 40
1.0
  9
$DIMASZ
 40
2.5
  9
$DIMEXO
 40
0.625
  9
$DIMDLI
 40
3.75
  9
$DIMRND
 40
0.0
  9
$DIMDLE
 40
0.0
  9
$DIMEXE
 40
1.25
  9
$DIMTP
 40
0.0
  9
$DIMTM
 40
0.0
  9
$DIMTXT
 40
2.5
  9
$DIMCEN
 40
2.5
  9
$DIMTSZ
 40
0.0
  9
$DIMTOL
 70
     0
  9
$DIMLIM
 70
     0
  9
$DIMTIH
 70
     0
  9
$DIMTOH
 70
     0
  9
$DIMSE1
 70
     0
  9
$DIMSE2
 70
     0
  9
$DIMTAD
 70
     1
  9
$DIMZIN
 70
     8
  9
$DIMBLK
  1

  9
$DIMASO
 70
     1
  9
$DIMSHO
 70
     1
  9
$DIMPOST
  1

  9
$DIMAPOST
  1

  9
$DIMALT
 70
     0
  9
$DIMALTD
 70
     3
  9
$DIMALTF
 40
0.03937007874016
  9
$DIMLFAC
 40
1.0
  9
$DIMTOFL
 70
     1
  9
$DIMTVP
 40
0.0
  9
$DIMTIX
 70
     0
  9
$DIMSOXD
 70
     0
  9
$DIMSAH
 70
     0
  9
$DIMBLK1
  1

  9
$DIMBLK2
  1

  9
$DIMSTYLE
  2
ISO-25
  9
$DIMCLRD
 70
     0
  9
$DIMCLRE
 70
     0
  9
$DIMCLRT
 70
     0
  9
$DIMTFAC
 40
1.0
  9
$DIMGAP
 40
0.625
  9
$DIMJUST
 70
     0
  9
$DIMSD1
 70
     0
  9
$DIMSD2
 70
     0
  9
$DIMTOLJ
 70
     0
  9
$DIMTZIN
 70
     8
  9
$DIMALTZ
 70
     0
  9
$DIMALTTZ
 70
     0
  9
$DIMUPT
 70
     0
  9
$DIMDEC
 70
     2
  9
$DIMTDEC
 70
     2
  9
$DIMALTU
 70
     2
  9
$DIMALTTD
 70
     3
  9
$DIMTXSTY
  7
Standard
  9
$DIMAUNIT
 70
     0
  9
$DIMADEC
 70
     0
  9
$DIMALTRND
 40
0.0
  9
$DIMAZIN
 70
     0
  9
$DIMDSEP
 70
    44
  9
$DIMATFIT
 70
     3
  9
$DIMFRAC
 70
     0
  9
$DIMLDRBLK
  1

  9
$DIMLUNIT
 70
     2
  9
$DIMLWD
 70
    -2
  9
$DIMLWE
 70
    -2
  9
$DIMTMOVE
 70
     0
  9
$LUNITS
 70
     2
  9
$LUPREC
 70
     4
  9
$SKETCHINC
 40
1.0
  9
$FILLETRAD
 40
0.0
  9
$AUNITS
 70
     0
  9
$AUPREC
 70
     0
  9
$MENU
  1
.
  9
$ELEVATION
 40
0.0
  9
$PELEVATION
 40
0.0
  9
$THICKNESS
 40
0.0
  9
$LIMCHECK
 70
     0
  9
$CHAMFERA
 40
0.0
  9
$CHAMFERB
 40
0.0
  9
$CHAMFERC
 40
0.0
  9
$CHAMFERD
 40
0.0
  9
$SKPOLY
 70
     0
  9
$TDCREATE
 40
2456139.485977222
  9
$TDUCREATE
 40
2456139.402643889
  9
$TDUPDATE
 40
2456139.486669676
  9
$TDUUPDATE
 40
2456139.403336342
  9
$TDINDWG
 40
0.0006929167
  9
$TDUSRTIMER
 40
0.0006928819
  9
$USRTIMER
 70
     1
  9
$ANGBASE
 50
0.0
  9
$ANGDIR
 70
     0
  9
$PDMODE
 70
     0
  9
$PDSIZE
 40
0.0
  9
$PLINEWID
 40
0.0
  9
$SPLFRAME
 70
     0
  9
$SPLINETYPE
 70
     6
  9
$SPLINESEGS
 70
     8
  9
$HANDSEED
  5
452
  9
$SURFTAB1
 70
     6
  9
$SURFTAB2
 70
     6
  9
$SURFTYPE
 70
     6
  9
$SURFU
 70
     6
  9
$SURFV
 70
     6
  9
$UCSBASE
  2

  9
$UCSNAME
  2

  9
$UCSORG
 10
0.0
 20
0.0
 30
0.0
  9
$UCSXDIR
 10
1.0
 20
0.0
 30
0.0
  9
$UCSYDIR
 10
0.0
 20
1.0
 30
0.0
  9
$UCSORTHOREF
  2

  9
$UCSORTHOVIEW
 70
     0
  9
$UCSORGTOP
 10
0.0
 20
0.0
 30
0.0
  9
$UCSORGBOTTOM
 10
0.0
 20
0.0
 30
0.0
  9
$UCSORGLEFT
 10
0.0
 20
0.0
 30
0.0
  9
$UCSORGRIGHT
 10
0.0
 20
0.0
 30
0.0
  9
$UCSORGFRONT
 10
0.0
 20
0.0
 30
0.0
  9
$UCSORGBACK
 10
0.0
 20
0.0
 30
0.0
  9
$PUCSBASE
  2

  9
$PUCSNAME
  2

  9
$PUCSORG
 10
0.0
 20
0.0
 30
0.0
  9
$PUCSXDIR
 10
1.0
 20
0.0
 30
0.0
  9
$PUCSYDIR
 10
0.0
 20
1.0
 30
0.0
  9
$PUCSORTHOREF
  2

  9
$PUCSORTHOVIEW
 70
     0
  9
$PUCSORGTOP
 10
0.0
 20
0.0
 30
0.0
  9
$PUCSORGBOTTOM
 10
0.0
 20
0.0
 30
0.0
  9
$PUCSORGLEFT
 10
0.0
 20
0.0
 30
0.0
  9
$PUCSORGRIGHT
 10
0.0
 20
0.0
 30
0.0
  9
$PUCSORGFRONT
 10
0.0
 20
0.0
 30
0.0
  9
$PUCSORGBACK
 10
0.0
 20
0.0
 30
0.0
  9
$USERI1
 70
     0
  9
$USERI2
 70
     0
  9
$USERI3
 70
     0
  9
$USERI4
 70
     0
  9
$USERI5
 70
     0
  9
$USERR1
 40
0.0
  9
$USERR2
 40
0.0
  9
$USERR3
 40
0.0
  9
$USERR4
 40
0.0
  9
$USERR5
 40
0.0
  9
$WORLDVIEW
 70
     1
  9
$SHADEDGE
 70
     3
  9
$SHADEDIF
 70
    70
  9
$TILEMODE
 70
     1
  9
$MAXACTVP
 70
    64
  9
$PINSBASE
 10
0.0
 20
0.0
 30
0.0
  9
$PLIMCHECK
 70
     0
  9
$PEXTMIN
 10
0.0
 20
0.0
 30
0.0
  9
$PEXTMAX
 10
0.0
 20
0.0
 30
0.0
  9
$PLIMMIN
 10
0.0
 20
0.0
  9
$PLIMMAX
 10
12.0
 20
9.0
  9
$UNITMODE
 70
     0
  9
$VISRETAIN
 70
     1
  9
$PLINEGEN
 70
     0
  9
$PSLTSCALE
 70
     1
  9
$TREEDEPTH
 70
  3020
  9
$CMLSTYLE
  2
Standard
  9
$CMLJUST
 70
     0
  9
$CMLSCALE
 40
20.0
  9
$PROXYGRAPHICS
 70
     1
  9
$MEASUREMENT
 70
     1
  9
$CELWEIGHT
370
    -1
  9
$ENDCAPS
280
     0
  9
$JOINSTYLE
280
     0
  9
$LWDISPLAY
290
     0
  9
$INSUNITS
 70
     4
  9
$HYPERLINKBASE
  1

  9
$STYLESHEET
  1

  9
$XEDIT
290
     1
  9
$CEPSNTYPE
380
     0
  9
$PSTYLEMODE
290
     1
  9
$FINGERPRINTGUID
  2
{632FE4C6-0842-4C9D-91BC-460EAEC7E015}
  9
$VERSIONGUID
  2
{7E2A7B07-BEAD-4B65-A894-E118B9795142}
  9
$EXTNAMES
290
     1
  9
$PSVPSCALE
 40
0.0
  9
$OLESTARTUP
290
     0
  9
$SORTENTS
280
   127
  9
$INDEXCTL
280
     0
  9
$HIDETEXT
280
     1
  9
$XCLIPFRAME
290
     0
  9
$HALOGAP
280
     0
  9
$OBSCOLOR
 70
   257
  9
$OBSLTYPE
280
     0
  9
$INTERSECTIONDISPLAY
280
     0
  9
$INTERSECTIONCOLOR
 70
   257
  9
$DIMASSOC
280
     2
  9
$PROJECTNAME
  1

  0
ENDSEC
  0
SECTION
  2
CLASSES
  0
CLASS
  1
ACDBDICTIONARYWDFLT
  2
AcDbDictionaryWithDefault
  3
ObjectDBX Classes
 90
        0
 91
        1
280
     0
281
     0
  0
CLASS
  1
DICTIONARYVAR
  2
AcDbDictionaryVar
  3
ObjectDBX Classes
 90
        0
 91
       17
280
     0
281
     0
  0
CLASS
  1
TABLESTYLE
  2
AcDbTableStyle
  3
ObjectDBX Classes
 90
     4095
 91
        1
280
     0
281
     0
  0
CLASS
  1
MATERIAL
  2
AcDbMaterial
  3
ObjectDBX Classes
 90
     1153
 91
        3
280
     0
281
     0
  0
CLASS
  1
VISUALSTYLE
  2
AcDbVisualStyle
  3
ObjectDBX Classes
 90
     4095
 91
       19
280
     0
281
     0
  0
CLASS
  1
SCALE
  2
AcDbScale
  3
ObjectDBX Classes
 90
     1153
 91
       17
280
     0
281
     0
  0
CLASS
  1
MLEADERSTYLE
  2
AcDbMLeaderStyle
  3
ACDB_MLEADERSTYLE_CLASS
 90
     4095
 91
        2
280
     0
281
     0
  0
CLASS
  1
CELLSTYLEMAP
  2
AcDbCellStyleMap
  3
ObjectDBX Classes
 90
     1152
 91
        2
280
     0
281
     0
  0
CLASS
  1
EXACXREFPANELOBJECT
  2
ExAcXREFPanelObject
  3
EXAC_ESW
 90
     1025
 91
        0
280
     0
281
     0
  0
CLASS
  1
NPOCOLLECTION
  2
AcDbImpNonPersistentObjectsCollection
  3
ObjectDBX Classes
 90
     1153
 91
        0
280
     0
281
     0
  0
CLASS
  1
LAYER_INDEX
  2
AcDbLayerIndex
  3
ObjectDBX Classes
 90
        0
 91
        0
280
     0
281
     0
  0
CLASS
  1
SPATIAL_INDEX
  2
AcDbSpatialIndex
  3
ObjectDBX Classes
 90
        0
 91
        0
280
     0
281
     0
  0
CLASS
  1
IDBUFFER
  2
AcDbIdBuffer
  3
ObjectDBX Classes
 90
        0
 91
        0
280
     0
281
     0
  0
CLASS
  1
SORTENTSTABLE
  2
AcDbSortentsTable
  3
ObjectDBX Classes
 90
        0
 91
        3
280
     0
281
     0
  0
CLASS
  1
DIMASSOC
  2
AcDbDimAssoc
  3
"AcDbDimAssoc|Product Desc:     AcDim ARX App For Dimension|Company:          Autodesk, Inc.|WEB Address:      www.autodesk.com"
 90
        0
 91
       10
280
     0
281
     0
  0
ENDSEC
  0
SECTION
  2
TABLES
  0
TABLE
  2
VPORT
  5
8
330
0
100
AcDbSymbolTable
 70
     1
  0
VPORT
  5
EA
330
8
100
AcDbSymbolTableRecord
100
AcDbViewportTableRecord
  2
*Active
 70
     0
 10
0.0
 20
0.0
 11
1.0
 21
1.0
 12
1603.171637575321
 22
926.2696440491193
 13
0.0
 23
0.0
 14
10.0
 24
10.0
 15
10.0
 25
10.0
 16
0.0
 26
0.0
 36
1.0
 17
0.0
 27
0.0
 37
0.0
 40
95.72281214803206
 41
2.132176234979973
 42
50.0
 43
0.0
 44
0.0
 50
0.0
 51
0.0
 71
     0
 72
  1000
 73
     1
 74
     3
 75
     0
 76
     0
 77
     0
 78
     0
281
     0
 65
     1
110
0.0
120
0.0
130
0.0
111
1.0
121
0.0
131
0.0
112
0.0
122
1.0
132
0.0
 79
     0
146
0.0
  0
ENDTAB
  0
TABLE
  2
LTYPE
  5
5
330
0
100
AcDbSymbolTable
 70
     1
  0
LTYPE
  5
14
330
5
100
AcDbSymbolTableRecord
100
AcDbLinetypeTableRecord
  2
ByBlock
 70
     0
  3

 72
    65
 73
     0
 40
0.0
  0
LTYPE
  5
15
330
5
100
AcDbSymbolTableRecord
100
AcDbLinetypeTableRecord
  2
ByLayer
 70
     0
  3

 72
    65
 73
     0
 40
0.0
  0
LTYPE
  5
16
330
5
100
AcDbSymbolTableRecord
100
AcDbLinetypeTableRecord
  2
Continuous
 70
     0
  3
Solid line
 72
    65
 73
     0
 40
0.0
  0
ENDTAB
  0
TABLE
  2
LAYER
  5
2
102
{ACAD_XDICTIONARY
360
341
102
}
330
0
100
AcDbSymbolTable
 70
     5
  0
LAYER
  5
10
102
{ACAD_XDICTIONARY
360
13C
102
}
330
2
100
AcDbSymbolTableRecord
100
AcDbLayerTableRecord
  2
0
 70
     0
 62
     7
  6
Continuous
370
    -3
390
F
  0
LAYER
  5
32F
330
2
100
AcDbSymbolTableRecord
100
AcDbLayerTableRecord
  2
Defpoints
 70
     0
 62
     7
  6
Continuous
290
     0
370
    -3
390
F
  0
LAYER
  5
330
102
{ACAD_XDICTIONARY
360
331
102
}
330
2
100
AcDbSymbolTableRecord
100
AcDbLayerTableRecord
  2
S10_Quote
 70
     0
 62
     7
  6
Continuous
370
    -3
390
F
  0
LAYER
  5
332
102
{ACAD_XDICTIONARY
360
333
102
}
330
2
100
AcDbSymbolTableRecord
100
AcDbLayerTableRecord
  2
S08_Retino
 70
     0
 62
   252
  6
Continuous
370
    -3
390
F
  0
LAYER
  5
334
330
2
100
AcDbSymbolTableRecord
100
AcDbLayerTableRecord
  2
Sichtbar (ISO)
 70
     0
 62
     5
  6
Continuous
370
    35
390
F
  0
ENDTAB
  0
TABLE
  2
STYLE
  5
3
330
0
100
AcDbSymbolTable
 70
     5
  0
STYLE
  5
11
330
3
100
AcDbSymbolTableRecord
100
AcDbTextStyleTableRecord
  2
Standard
 70
     0
 40
0.0
 41
1.0
 50
0.0
 71
     0
 42
2.5
  3
ARIAL.TTF
  4

1001
ACAD
1000
Arial
1071
       34
  0
STYLE
  5
132
330
3
100
AcDbSymbolTableRecord
100
AcDbTextStyleTableRecord
  2
Annotativa
 70
     0
 40
0.0
 41
1.0
 50
0.0
 71
     0
 42
2.5
  3
ARIAL.TTF
  4

1001
AcadAnnotative
1000
AnnotativeData
1002
{
1070
     1
1070
     1
1002
}
1001
ACAD
1000
Arial
1071
       34
  0
STYLE
  5
335
330
3
100
AcDbSymbolTableRecord
100
AcDbTextStyleTableRecord
  2
ROMANS
 70
     0
 40
0.0
 41
1.0
 50
0.0
 71
     0
 42
0.21
  3
ROMANS.shx
  4

  0
STYLE
  5
336
330
3
100
AcDbSymbolTableRecord
100
AcDbTextStyleTableRecord
  2
Arial
 70
     0
 40
0.0
 41
1.0
 50
0.0
 71
     0
 42
0.2
  3
arial.ttf
  4

1001
ACAD
1000
Arial
1071
      256
  0
STYLE
  5
337
330
3
100
AcDbSymbolTableRecord
100
AcDbTextStyleTableRecord
  2
wurth
 70
     0
 40
0.0
 41
1.0
 50
0.0
 71
     0
 42
40.0
  3
WuerthBook.ttf
  4

1001
ACAD
1000
Wuerth Book
1071
        2
  0
ENDTAB
  0
TABLE
  2
VIEW
  5
6
330
0
100
AcDbSymbolTable
 70
     0
  0
ENDTAB
  0
TABLE
  2
UCS
  5
7
330
0
100
AcDbSymbolTable
 70
     0
  0
ENDTAB
  0
TABLE
  2
APPID
  5
9
330
0
100
AcDbSymbolTable
 70
    11
  0
APPID
  5
12
330
9
100
AcDbSymbolTableRecord
100
AcDbRegAppTableRecord
  2
ACAD
 70
     0
  0
APPID
  5
9E
330
9
100
AcDbSymbolTableRecord
100
AcDbRegAppTableRecord
  2
ACAD_PSEXT
 70
     0
  0
APPID
  5
133
330
9
100
AcDbSymbolTableRecord
100
AcDbRegAppTableRecord
  2
AcadAnnoPO
 70
     0
  0
APPID
  5
134
330
9
100
AcDbSymbolTableRecord
100
AcDbRegAppTableRecord
  2
AcadAnnotative
 70
     0
  0
APPID
  5
135
330
9
100
AcDbSymbolTableRecord
100
AcDbRegAppTableRecord
  2
ACAD_DSTYLE_DIMJAG
 70
     0
  0
APPID
  5
136
330
9
100
AcDbSymbolTableRecord
100
AcDbRegAppTableRecord
  2
ACAD_DSTYLE_DIMTALN
 70
     0
  0
APPID
  5
165
330
9
100
AcDbSymbolTableRecord
100
AcDbRegAppTableRecord
  2
ACAD_MLEADERVER
 70
     0
  0
APPID
  5
33D
330
9
100
AcDbSymbolTableRecord
100
AcDbRegAppTableRecord
  2
AcDbDynamicBlockGUID
 70
     0
  0
APPID
  5
33E
330
9
100
AcDbSymbolTableRecord
100
AcDbRegAppTableRecord
  2
AcDbBlockRepETag
 70
     0
  0
APPID
  5
33F
330
9
100
AcDbSymbolTableRecord
100
AcDbRegAppTableRecord
  2
ACAD_DSTYLE_DIMBREAK
 70
     0
  0
APPID
  5
340
330
9
100
AcDbSymbolTableRecord
100
AcDbRegAppTableRecord
  2
ACAD_DSTYLE_DIMRADIAL_EXTENSION
 70
     0
  0
ENDTAB
  0
TABLE
  2
DIMSTYLE
  5
A
330
0
100
AcDbSymbolTable
 70
     8
100
AcDbDimStyleTable
 71
     2
340
27
340
137
  0
DIMSTYLE
105
1B0
330
A
100
AcDbSymbolTableRecord
100
AcDbDimStyleTableRecord
  2
Standard
 70
     0
340
11
  0
DIMSTYLE
105
137
330
A
100
AcDbSymbolTableRecord
100
AcDbDimStyleTableRecord
  2
Annotativa
 70
     0
 40
0.0
 41
2.5
 42
0.625
 43
3.75
 44
1.25
 73
     0
 74
     0
 77
     1
 78
     8
140
2.5
141
2.5
143
0.03937007874016
147
0.625
171
     3
172
     1
271
     2
272
     2
274
     3
278
    44
283
     0
284
     8
340
11
1001
AcadAnnotative
1000
AnnotativeData
1002
{
1070
     1
1070
     1
1002
}
1001
ACAD_DSTYLE_DIMJAG
1070
   388
1040
1.5
1001
ACAD_DSTYLE_DIMTALN
1070
   392
1070
     0
  0
DIMSTYLE
105
27
330
A
100
AcDbSymbolTableRecord
100
AcDbDimStyleTableRecord
  2
ISO-25
 70
     0
 41
2.5
 42
0.625
 43
3.75
 44
1.25
 73
     0
 74
     0
 77
     1
 78
     8
140
2.5
141
2.5
143
0.03937007874016
147
0.625
171
     3
172
     1
271
     2
272
     2
274
     3
278
    44
283
     0
284
     8
340
11
  0
DIMSTYLE
105
338
330
A
100
AcDbSymbolTableRecord
100
AcDbDimStyleTableRecord
  2
mm 1_50
 70
     0
 40
50.0
 41
0.015
 42
0.625
 43
1.0
 44
1.25
 73
     0
 74
     0
 75
     1
 76
     1
 77
     1
 78
     8
140
2.0
141
-0.5
143
0.03937007874016
147
0.8
171
     3
172
     1
174
     1
179
     2
271
     1
272
     1
274
     3
283
     0
284
     8
340
335
342
1F4
  0
DIMSTYLE
105
339
330
A
100
AcDbSymbolTableRecord
100
AcDbDimStyleTableRecord
  2
mm 1_20
 70
     0
 40
20.0
 41
0.015
 42
0.625
 43
1.0
 44
1.25
 73
     0
 74
     0
 75
     1
 76
     1
 77
     1
 78
     8
140
2.0
141
0.5
143
0.03937007874016
147
0.8
171
     3
172
     1
174
     1
179
     2
271
     0
272
     0
274
     3
283
     0
284
     8
340
335
342
1F4
1001
ACAD_DSTYLE_DIMJAG
1070
   388
1040
1.5
1001
ACAD_DSTYLE_DIMTALN
1070
   392
1070
     0
  0
DIMSTYLE
105
33A
330
A
100
AcDbSymbolTableRecord
100
AcDbDimStyleTableRecord
  2
mm 1_100
 70
     0
 40
100.0
 41
0.015
 42
0.0
 43
1.0
 44
0.5
 73
     0
 74
     0
 75
     1
 76
     1
 77
     1
 78
     8
140
2.0
141
0.5
143
0.03937007874016
147
0.8
171
     3
172
     1
174
     1
179
     2
271
     1
272
     1
274
     3
283
     0
284
     8
340
335
342
1F4
  0
DIMSTYLE
105
33B
102
{ACAD_REACTORS
330
35E
330
361
330
364
330
367
330
36A
330
393
330
396
330
399
330
39C
330
390
102
}
330
A
100
AcDbSymbolTableRecord
100
AcDbDimStyleTableRecord
  2
mm 1_1
 70
     0
 41
0.015
 42
0.625
 43
1.0
 44
1.25
 73
     0
 74
     0
 77
     1
 78
     8
140
2.0
141
0.5
143
0.03937007874016
147
0.8
171
     3
172
     1
174
     1
179
     2
271
     2
272
     2
274
     3
283
     0
284
     8
340
337
342
1F4
1001
ACAD_DSTYLE_DIMBREAK
1070
   391
1040
3.75
1001
ACAD_DSTYLE_DIMJAG
1070
   388
1040
1.5
1001
ACAD_DSTYLE_DIMTALN
1070
   392
1070
     0
  0
DIMSTYLE
105
33C
330
A
100
AcDbSymbolTableRecord
100
AcDbDimStyleTableRecord
  2
Standard (DIN)
 70
     0
 40
0.5
 41
2.5
 42
0.8
 43
6.0
 44
3.174999999999999
 45
0.00000001
 46
10.0
 73
     0
 74
     0
 77
     1
140
2.200000047683715
143
0.03937
146
0.6818181670401711
147
0.8
171
     3
172
     1
176
   256
177
   256
178
   256
271
     2
272
     2
274
     3
278
    44
340
336
371
    -1
372
    -1
  0
ENDTAB
  0
TABLE
  2
BLOCK_RECORD
  5
1
330
0
100
AcDbSymbolTable
 70
    15
  0
BLOCK_RECORD
  5
1F
102
{ACAD_XDICTIONARY
360
1CE
102
}
330
1
100
AcDbSymbolTableRecord
100
AcDbBlockTableRecord
  2
*Model_Space
340
22
  0
BLOCK_RECORD
  5
D2
330
1
100
AcDbSymbolTableRecord
100
AcDbBlockTableRecord
  2
*Paper_Space
340
D3
  0
BLOCK_RECORD
  5
D6
330
1
100
AcDbSymbolTableRecord
100
AcDbBlockTableRecord
  2
*Paper_Space0
340
D7
  0
BLOCK_RECORD
  5
1F4
102
{ACAD_XDICTIONARY
360
1F5
102
}
330
1
100
AcDbSymbolTableRecord
100
AcDbBlockTableRecord
  2
A$C79C4041D
340
0
102
{BLKREFS
331
304
331
305
331
310
331
311
331
31C
331
31D
331
328
331
329
331
2FA
331
2FB
331
3A5
331
3A6
331
3B1
331
3B2
331
3BD
331
3BE
331
3C9
331
3CA
331
3DE
331
3DF
102
}
1001
AcDbDynamicBlockGUID
1000
{93BD5B1E-816B-4960-B1CC-7C46A00E0667}
1001
AcDbBlockRepETag
1070
     1
1071
        2
  0
BLOCK_RECORD
  5
1FA
102
{ACAD_XDICTIONARY
360
1FB
102
}
330
1
100
AcDbSymbolTableRecord
100
AcDbBlockTableRecord
  2
A$C6401520D
340
0
102
{BLKREFS
331
2F2
331
35D
331
38F
102
}
1001
ACAD
1000
DesignCenter Data
1002
{
1070
     1
1070
     4
1002
}
  0
BLOCK_RECORD
  5
20D
102
{ACAD_XDICTIONARY
360
20E
102
}
330
1
100
AcDbSymbolTableRecord
100
AcDbBlockTableRecord
  2
A$C49BB2E57
340
0
102
{BLKREFS
331
344
331
376
102
}
1001
AcDbDynamicBlockGUID
1000
{E78AD38F-8C58-4E0C-9C67-AE8BD1FA186C}
1001
ACAD
1000
DesignCenter Data
1002
{
1070
     1
1070
     4
1002
}
  0
BLOCK_RECORD
  5
2F4
330
1
100
AcDbSymbolTableRecord
100
AcDbBlockTableRecord
  2
*D4
340
0
  0
BLOCK_RECORD
  5
2FF
330
1
100
AcDbSymbolTableRecord
100
AcDbBlockTableRecord
  2
*D5
340
0
  0
BLOCK_RECORD
  5
30B
330
1
100
AcDbSymbolTableRecord
100
AcDbBlockTableRecord
  2
*D6
340
0
  0
BLOCK_RECORD
  5
317
330
1
100
AcDbSymbolTableRecord
100
AcDbBlockTableRecord
  2
*D7
340
0
  0
BLOCK_RECORD
  5
323
330
1
100
AcDbSymbolTableRecord
100
AcDbBlockTableRecord
  2
*D8
340
0
  0
BLOCK_RECORD
  5
39F
330
1
100
AcDbSymbolTableRecord
100
AcDbBlockTableRecord
  2
*D10
340
0
  0
BLOCK_RECORD
  5
3AB
330
1
100
AcDbSymbolTableRecord
100
AcDbBlockTableRecord
  2
*D11
340
0
  0
BLOCK_RECORD
  5
3B7
330
1
100
AcDbSymbolTableRecord
100
AcDbBlockTableRecord
  2
*D12
340
0
  0
BLOCK_RECORD
  5
3C3
330
1
100
AcDbSymbolTableRecord
100
AcDbBlockTableRecord
  2
*D13
340
0
  0
BLOCK_RECORD
  5
3CF
330
1
100
AcDbSymbolTableRecord
100
AcDbBlockTableRecord
  2
*D14
340
0
  0
ENDTAB
  0
ENDSEC
  0
SECTION
  2
BLOCKS
  0
BLOCK
  5
20
330
1F
100
AcDbEntity
  8
0
100
AcDbBlockBegin
  2
*Model_Space
 70
     0
 10
0.0
 20
0.0
 30
0.0
  3
*Model_Space
  1

  0
ENDBLK
  5
21
330
1F
100
AcDbEntity
  8
0
100
AcDbBlockEnd
  0
BLOCK
  5
D4
330
D2
100
AcDbEntity
 67
     1
  8
0
100
AcDbBlockBegin
  2
*Paper_Space
 70
     0
 10
0.0
 20
0.0
 30
0.0
  3
*Paper_Space
  1

  0
ENDBLK
  5
D5
330
D2
100
AcDbEntity
 67
     1
  8
0
100
AcDbBlockEnd
  0
BLOCK
  5
D8
330
D6
100
AcDbEntity
 67
     1
  8
0
100
AcDbBlockBegin
  2
*Paper_Space0
 70
     0
 10
0.0
 20
0.0
 30
0.0
  3
*Paper_Space0
  1

  0
ENDBLK
  5
D9
330
D6
100
AcDbEntity
 67
     1
  8
0
100
AcDbBlockEnd
  0
BLOCK
  5
1F6
330
1F4
100
AcDbEntity
  8
0
 62
     3
100
AcDbBlockBegin
  2
A$C79C4041D
 70
     0
 10
0.0
 20
0.0
 30
0.0
  3
A$C79C4041D
  1

  0
LINE
  5
1F7
330
1F4
100
AcDbEntity
  8
S10_Quote
 62
     4
100
AcDbLine
 10
-20.0
 20
-50.0
 30
0.0
 11
20.0
 21
50.0
 31
0.0
1001
AcDbBlockRepETag
1070
     1
1071
        0
1005
1F7
  0
LINE
  5
1F8
330
1F4
100
AcDbEntity
  8
S10_Quote
100
AcDbLine
 10
0.0
 20
50.0
 30
0.0
 11
0.0
 21
-50.0
 31
0.0
1001
AcDbBlockRepETag
1070
     1
1071
        1
1005
1F8
  0
ENDBLK
  5
1F9
330
1F4
100
AcDbEntity
  8
0
 62
     3
100
AcDbBlockEnd
  0
BLOCK
  5
1FD
330
1FA
100
AcDbEntity
  8
0
100
AcDbBlockBegin
  2
A$C6401520D
 70
     0
 10
0.0
 20
0.0
 30
0.0
  3
A$C6401520D
  1

  0
LINE
  5
1FE
330
1FA
100
AcDbEntity
  8
S08_Retino
100
AcDbLine
 10
-8.499999999999545
 20
0.0
 30
0.0
 11
8.5
 21
0.0
 31
0.0
  0
LINE
  5
1FF
330
1FA
100
AcDbEntity
  8
S08_Retino
100
AcDbLine
 10
-3.25
 20
-8.0
 30
0.0
 11
0.0
 21
-8.0
 31
0.0
  0
LINE
  5
200
330
1FA
100
AcDbEntity
  8
S08_Retino
100
AcDbLine
 10
-6.5
 20
-2.0
 30
0.0
 11
6.5
 21
-2.0
 31
0.0
  0
LINE
  5
201
330
1FA
100
AcDbEntity
  8
S08_Retino
100
AcDbLine
 10
0.0
 20
-8.0
 30
0.0
 11
0.0
 21
-2.0
 31
0.0
  0
LINE
  5
202
330
1FA
100
AcDbEntity
  8
S08_Retino
100
AcDbLine
 10
-6.5
 20
-7.0
 30
0.0
 11
-6.5
 21
-2.0
 31
0.0
  0
LINE
  5
203
330
1FA
100
AcDbEntity
  8
S08_Retino
100
AcDbLine
 10
6.5
 20
-7.0
 30
0.0
 11
6.5
 21
-2.0
 31
0.0
  0
LINE
  5
204
330
1FA
100
AcDbEntity
  8
S08_Retino
100
AcDbLine
 10
-6.5
 20
-7.0
 30
0.0
 11
6.5
 21
-7.0
 31
0.0
  0
ARC
  5
205
330
1FA
100
AcDbEntity
  8
S08_Retino
100
AcDbCircle
 10
-3.25
 20
-2.218750000000909
 30
0.0
 40
5.781249999999247
100
AcDbArc
 50
235.7945420618882
 51
304.2054579381118
  0
LINE
  5
206
330
1FA
100
AcDbEntity
  8
S08_Retino
100
AcDbLine
 10
3.25
 20
-8.0
 30
0.0
 11
0.0
 21
-8.0
 31
0.0
  0
ARC
  5
207
330
1FA
100
AcDbEntity
  8
S08_Retino
100
AcDbCircle
 10
3.25
 20
-2.218750000000909
 30
0.0
 40
5.781249999999247
100
AcDbArc
 50
235.7945420618882
 51
304.2054579381118
  0
ARC
  5
208
330
1FA
100
AcDbEntity
  8
S08_Retino
100
AcDbCircle
 10
-5.625000000000909
 20
0.874999999998181
 30
0.0
 40
3.005203820040897
100
AcDbArc
 50
196.9275130640852
 51
253.0724869358573
  0
ARC
  5
209
330
1FA
100
AcDbEntity
  8
S08_Retino
100
AcDbCircle
 10
5.625000000000909
 20
0.874999999998181
 30
0.0
 40
3.005203820040897
100
AcDbArc
 50
286.9275130641427
 51
343.0724869359147
  0
ARC
  5
20A
330
1FA
100
AcDbEntity
  8
S08_Retino
100
AcDbCircle
 10
-3.25
 20
-7.78124999999909
 30
0.0
 40
5.781249999999247
100
AcDbArc
 50
55.79454206190977
 51
124.2054579380902
  0
ARC
  5
20B
330
1FA
100
AcDbEntity
  8
S08_Retino
100
AcDbCircle
 10
3.25
 20
-7.78124999999909
 30
0.0
 40
5.781249999999247
100
AcDbArc
 50
55.79454206190977
 51
124.2054579380902
  0
ENDBLK
  5
20C
330
1FA
100
AcDbEntity
  8
0
100
AcDbBlockEnd
  0
BLOCK
  5
210
330
20D
100
AcDbEntity
  8
0
100
AcDbBlockBegin
  2
A$C49BB2E57
 70
     0
 10
0.0
 20
0.0
 30
0.0
  3
A$C49BB2E57
  1

  0
LINE
  5
211
330
20D
100
AcDbEntity
  8
S08_Retino
 62
     5
100
AcDbLine
 10
-14.68511804152285
 20
33.80769230777696
 30
0.0
 11
-13.81488195847669
 21
34.60511675942689
 31
0.0
  0
LINE
  5
212
330
20D
100
AcDbEntity
  8
S08_Retino
 62
     5
100
AcDbLine
 10
-13.81488195847669
 20
32.71535692140242
 30
0.0
 11
-14.68511804152285
 21
33.51278137305235
 31
0.0
  0
ARC
  5
213
330
20D
100
AcDbEntity
  8
S08_Retino
 62
     5
100
AcDbCircle
 10
-14.54999999999972
 20
33.66023684041465
 30
0.0
 40
0.2000000000000016
100
AcDbArc
 50
132.5000000000152
 51
227.5000000000392
  0
ARC
  5
214
330
20D
100
AcDbEntity
  8
S08_Retino
 62
     5
100
AcDbCircle
 10
-13.94999999999982
 20
32.56790145404011
 30
0.0
 40
0.199999999999998
100
AcDbArc
 50
0.0
 51
47.49999999998482
  0
LINE
  5
215
330
20D
100
AcDbEntity
  8
S08_Retino
 62
     5
100
AcDbLine
 10
-14.68511804152285
 20
35.99236308052514
 30
0.0
 11
-13.81488195847669
 21
36.78978753217507
 31
0.0
  0
LINE
  5
216
330
20D
100
AcDbEntity
  8
S08_Retino
 62
     5
100
AcDbLine
 10
-13.81488195847669
 20
34.9000276941506
 30
0.0
 11
-14.68511804152285
 21
35.69745214580053
 31
0.0
  0
ARC
  5
217
330
20D
100
AcDbEntity
  8
S08_Retino
 62
     5
100
AcDbCircle
 10
-14.54999999999972
 20
35.84490761316283
 30
0.0
 40
0.2000000000000016
100
AcDbArc
 50
132.5000000000152
 51
227.5000000000392
  0
ARC
  5
218
330
20D
100
AcDbEntity
  8
S08_Retino
 62
     5
100
AcDbCircle
 10
-13.94999999999982
 20
34.75257222678829
 30
0.0
 40
0.1999999999999958
100
AcDbArc
 50
312.5000000000152
 51
47.49999999998482
  0
LINE
  5
219
330
20D
100
AcDbEntity
  8
S08_Retino
 62
     5
100
AcDbLine
 10
-14.68511804152285
 20
38.17703385327332
 30
0.0
 11
-13.81488195847669
 21
38.97445830492325
 31
0.0
  0
LINE
  5
21A
330
20D
100
AcDbEntity
  8
S08_Retino
 62
     5
100
AcDbLine
 10
-13.81488195847669
 20
37.08469846689877
 30
0.0
 11
-14.68511804152285
 21
37.88212291854961
 31
0.0
  0
ARC
  5
21B
330
20D
100
AcDbEntity
  8
S08_Retino
 62
     5
100
AcDbCircle
 10
-14.54999999999972
 20
38.02957838591101
 30
0.0
 40
0.2000000000000016
100
AcDbArc
 50
132.5000000000152
 51
227.5000000000392
  0
ARC
  5
21C
330
20D
100
AcDbEntity
  8
S08_Retino
 62
     5
100
AcDbCircle
 10
-13.94999999999982
 20
36.93724299953738
 30
0.0
 40
0.1999999999999958
100
AcDbArc
 50
312.5000000000152
 51
47.49999999998482
  0
LINE
  5
21D
330
20D
100
AcDbEntity
  8
S08_Retino
 62
     5
100
AcDbLine
 10
-14.68511804152285
 20
40.36170462602149
 30
0.0
 11
-13.81488195847669
 21
41.15912907767142
 31
0.0
  0
LINE
  5
21E
330
20D
100
AcDbEntity
  8
S08_Retino
 62
     5
100
AcDbLine
 10
-13.81488195847669
 20
39.26936923964695
 30
0.0
 11
-14.68511804152285
 21
40.06679369129779
 31
0.0
  0
ARC
  5
21F
330
20D
100
AcDbEntity
  8
S08_Retino
 62
     5
100
AcDbCircle
 10
-14.54999999999972
 20
40.21424915865918
 30
0.0
 40
0.2000000000000117
100
AcDbArc
 50
132.5000000000152
 51
227.4999999999848
  0
ARC
  5
220
330
20D
100
AcDbEntity
  8
S08_Retino
 62
     5
100
AcDbCircle
 10
-13.94999999999982
 20
39.12191377228555
 30
0.0
 40
0.1999999999999958
100
AcDbArc
 50
312.5000000000152
 51
47.49999999998482
  0
LINE
  5
221
330
20D
100
AcDbEntity
  8
S08_Retino
 62
     5
100
AcDbLine
 10
-14.68511804152285
 20
42.54637539876966
 30
0.0
 11
-13.81488195847669
 21
43.3437998504196
 31
0.0
  0
LINE
  5
222
330
20D
100
AcDbEntity
  8
S08_Retino
 62
     5
100
AcDbLine
 10
-13.81488195847669
 20
41.45404001239604
 30
0.0
 11
-14.68511804152285
 21
42.25146446404596
 31
0.0
  0
ARC
  5
223
330
20D
100
AcDbEntity
  8
S08_Retino
 62
     5
100
AcDbCircle
 10
-14.54999999999972
 20
42.39891993140736
 30
0.0
 40
0.2000000000000117
100
AcDbArc
 50
132.5000000000152
 51
227.4999999999848
  0
ARC
  5
224
330
20D
100
AcDbEntity
  8
S08_Retino
 62
     5
100
AcDbCircle
 10
-13.94999999999982
 20
41.30658454503373
 30
0.0
 40
0.2000000000000021
100
AcDbArc
 50
312.5000000000152
 51
47.50000000003923
  0
LINE
  5
225
330
20D
100
AcDbEntity
  8
S08_Retino
 62
     5
100
AcDbLine
 10
-14.68511804152285
 20
44.73104617151784
 30
0.0
 11
-13.81488195847669
 21
45.52847062316778
 31
0.0
  0
LINE
  5
226
330
20D
100
AcDbEntity
  8
S08_Retino
 62
     5
100
AcDbLine
 10
-13.81488195847669
 20
43.63871078514421
 30
0.0
 11
-14.68511804152285
 21
44.43613523679414
 31
0.0
  0
ARC
  5
227
330
20D
100
AcDbEntity
  8
S08_Retino
 62
     5
100
AcDbCircle
 10
-14.54999999999972
 20
44.58359070415645
 30
0.0
 40
0.2000000000000117
100
AcDbArc
 50
132.5000000000152
 51
227.4999999999848
  0
ARC
  5
228
330
20D
100
AcDbEntity
  8
S08_Retino
 62
     5
100
AcDbCircle
 10
-13.94999999999982
 20
43.49125531778191
 30
0.0
 40
0.2000000000000021
100
AcDbArc
 50
312.5000000000152
 51
47.50000000003923
  0
LINE
  5
229
330
20D
100
AcDbEntity
  8
S08_Retino
 62
     5
100
AcDbLine
 10
-14.68511804152285
 20
46.91571694426602
 30
0.0
 11
-13.81488195847669
 21
47.71314139591686
 31
0.0
  0
LINE
  5
22A
330
20D
100
AcDbEntity
  8
S08_Retino
 62
     5
100
AcDbLine
 10
-13.81488195847669
 20
45.82338155789239
 30
0.0
 11
-14.68511804152285
 21
46.62080600954232
 31
0.0
  0
ARC
  5
22B
330
20D
100
AcDbEntity
  8
S08_Retino
 62
     5
100
AcDbCircle
 10
-14.54999999999972
 20
46.76826147690462
 30
0.0
 40
0.2000000000000117
100
AcDbArc
 50
132.5000000000152
 51
227.4999999999848
  0
ARC
  5
22C
330
20D
100
AcDbEntity
  8
S08_Retino
 62
     5
100
AcDbCircle
 10
-13.94999999999982
 20
45.67592609053008
 30
0.0
 40
0.2000000000000021
100
AcDbArc
 50
312.5000000000152
 51
47.50000000003923
  0
LINE
  5
22D
330
20D
100
AcDbEntity
  8
S08_Retino
 62
     5
100
AcDbLine
 10
-14.68511804152285
 20
49.10038771701511
 30
0.0
 11
-13.81488195847669
 21
49.89781216866504
 31
0.0
  0
LINE
  5
22E
330
20D
100
AcDbEntity
  8
S08_Retino
 62
     5
100
AcDbLine
 10
-13.81488195847669
 20
48.00805233064057
 30
0.0
 11
-14.68511804152285
 21
48.80547678229049
 31
0.0
  0
ARC
  5
22F
330
20D
100
AcDbEntity
  8
S08_Retino
 62
     5
100
AcDbCircle
 10
-14.54999999999972
 20
48.9529322496528
 30
0.0
 40
0.2000000000000117
100
AcDbArc
 50
132.5000000000152
 51
227.4999999999848
  0
ARC
  5
230
330
20D
100
AcDbEntity
  8
S08_Retino
 62
     5
100
AcDbCircle
 10
-13.94999999999982
 20
47.86059686327826
 30
0.0
 40
0.2000000000000021
100
AcDbArc
 50
312.5000000000152
 51
47.50000000003923
  0
LINE
  5
231
330
20D
100
AcDbEntity
  8
S08_Retino
 62
     5
100
AcDbLine
 10
-14.68511804152285
 20
51.28505848976328
 30
0.0
 11
-13.81488195847669
 21
52.08248294141322
 31
0.0
  0
LINE
  5
232
330
20D
100
AcDbEntity
  8
S08_Retino
 62
     5
100
AcDbLine
 10
-13.81488195847669
 20
50.19272310338874
 30
0.0
 11
-14.68511804152285
 21
50.99014755503867
 31
0.0
  0
ARC
  5
233
330
20D
100
AcDbEntity
  8
S08_Retino
 62
     5
100
AcDbCircle
 10
-14.54999999999972
 20
51.13760302240098
 30
0.0
 40
0.2000000000000117
100
AcDbArc
 50
132.5000000000152
 51
227.4999999999848
  0
ARC
  5
234
330
20D
100
AcDbEntity
  8
S08_Retino
 62
     5
100
AcDbCircle
 10
-13.94999999999982
 20
50.04526763602644
 30
0.0
 40
0.2000000000000021
100
AcDbArc
 50
312.5000000000152
 51
47.50000000003923
  0
LINE
  5
235
330
20D
100
AcDbEntity
  8
S08_Retino
 62
     5
100
AcDbLine
 10
-14.68511804152285
 20
53.46972926251146
 30
0.0
 11
-13.81488195847669
 21
54.2671537141614
 31
0.0
  0
LINE
  5
236
330
20D
100
AcDbEntity
  8
S08_Retino
 62
     5
100
AcDbLine
 10
-13.81488195847669
 20
52.37739387613692
 30
0.0
 11
-14.68511804152285
 21
53.17481832778685
 31
0.0
  0
ARC
  5
237
330
20D
100
AcDbEntity
  8
S08_Retino
 62
     5
100
AcDbCircle
 10
-14.54999999999972
 20
53.32227379514915
 30
0.0
 40
0.2000000000000117
100
AcDbArc
 50
132.5000000000152
 51
227.4999999999848
  0
ARC
  5
238
330
20D
100
AcDbEntity
  8
S08_Retino
 62
     5
100
AcDbCircle
 10
-13.94999999999982
 20
52.22993840877553
 30
0.0
 40
0.2000000000000021
100
AcDbArc
 50
312.5000000000152
 51
47.50000000003923
  0
LINE
  5
239
330
20D
100
AcDbEntity
  8
S08_Retino
 62
     5
100
AcDbLine
 10
-14.68511804152285
 20
55.65440003525964
 30
0.0
 11
-13.81488195847669
 21
56.45182448690957
 31
0.0
  0
LINE
  5
23A
330
20D
100
AcDbEntity
  8
S08_Retino
 62
     5
100
AcDbLine
 10
-13.81488195847669
 20
54.56206464888509
 30
0.0
 11
-14.68511804152285
 21
55.35948910053594
 31
0.0
  0
ARC
  5
23B
330
20D
100
AcDbEntity
  8
S08_Retino
 62
     5
100
AcDbCircle
 10
-14.54999999999972
 20
55.50694456789734
 30
0.0
 40
0.2000000000000117
100
AcDbArc
 50
132.5000000000152
 51
227.4999999999848
  0
ARC
  5
23C
330
20D
100
AcDbEntity
  8
S08_Retino
 62
     5
100
AcDbCircle
 10
-13.94999999999982
 20
54.4146091815237
 30
0.0
 40
0.2000000000000021
100
AcDbArc
 50
312.5000000000152
 51
47.50000000003923
  0
LINE
  5
23D
330
20D
100
AcDbEntity
  8
S08_Retino
 62
     5
100
AcDbLine
 10
-14.68511804152285
 20
57.83907080800782
 30
0.0
 11
-13.81488195847669
 21
58.63649525965775
 31
0.0
  0
LINE
  5
23E
330
20D
100
AcDbEntity
  8
S08_Retino
 62
     5
100
AcDbLine
 10
-13.81488195847669
 20
56.74673542163418
 30
0.0
 11
-14.68511804152285
 21
57.54415987328411
 31
0.0
  0
ARC
  5
23F
330
20D
100
AcDbEntity
  8
S08_Retino
 62
     5
100
AcDbCircle
 10
-14.54999999999972
 20
57.69161534064551
 30
0.0
 40
0.2000000000000117
100
AcDbArc
 50
132.5000000000152
 51
227.4999999999848
  0
ARC
  5
240
330
20D
100
AcDbEntity
  8
S08_Retino
 62
     5
100
AcDbCircle
 10
-13.94999999999982
 20
56.59927995427188
 30
0.0
 40
0.2000000000000021
100
AcDbArc
 50
312.5000000000152
 51
47.50000000003923
  0
LINE
  5
241
330
20D
100
AcDbEntity
  8
S08_Retino
 62
     5
100
AcDbLine
 10
-14.68511804152285
 20
60.023741580756
 30
0.0
 11
-13.81488195847669
 21
60.82116603240592
 31
0.0
  0
LINE
  5
242
330
20D
100
AcDbEntity
  8
S08_Retino
 62
     5
100
AcDbLine
 10
-13.81488195847669
 20
58.93140619438236
 30
0.0
 11
-14.68511804152285
 21
59.72883064603229
 31
0.0
  0
ARC
  5
243
330
20D
100
AcDbEntity
  8
S08_Retino
 62
     5
100
AcDbCircle
 10
-14.54999999999972
 20
59.87628611339459
 30
0.0
 40
0.2000000000000117
100
AcDbArc
 50
132.5000000000152
 51
227.4999999999848
  0
ARC
  5
244
330
20D
100
AcDbEntity
  8
S08_Retino
 62
     5
100
AcDbCircle
 10
-13.94999999999982
 20
58.78395072702005
 30
0.0
 40
0.2000000000000021
100
AcDbArc
 50
312.5000000000152
 51
47.50000000003923
  0
LINE
  5
245
330
20D
100
AcDbEntity
  8
S08_Retino
 62
     5
100
AcDbLine
 10
-14.68511804152285
 20
62.20841235350417
 30
0.0
 11
-13.81488195847669
 21
63.00583680515501
 31
0.0
  0
LINE
  5
246
330
20D
100
AcDbEntity
  8
S08_Retino
 62
     5
100
AcDbLine
 10
-13.81488195847669
 20
61.11607696713054
 30
0.0
 11
-14.68511804152285
 21
61.91350141878046
 31
0.0
  0
ARC
  5
247
330
20D
100
AcDbEntity
  8
S08_Retino
 62
     5
100
AcDbCircle
 10
-14.54999999999972
 20
62.06095688614277
 30
0.0
 40
0.2000000000000117
100
AcDbArc
 50
132.5000000000152
 51
227.4999999999848
  0
ARC
  5
248
330
20D
100
AcDbEntity
  8
S08_Retino
 62
     5
100
AcDbCircle
 10
-13.94999999999982
 20
60.96862149976823
 30
0.0
 40
0.2000000000000021
100
AcDbArc
 50
312.5000000000152
 51
47.50000000003923
  0
LINE
  5
249
330
20D
100
AcDbEntity
  8
S08_Retino
 62
     5
100
AcDbLine
 10
-14.68511804152285
 20
64.39308312625235
 30
0.0
 11
-13.81488195847669
 21
65.19050757790319
 31
0.0
  0
LINE
  5
24A
330
20D
100
AcDbEntity
  8
S08_Retino
 62
     5
100
AcDbLine
 10
-13.81488195847669
 20
63.30074773987871
 30
0.0
 11
-14.68511804152285
 21
64.09817219152865
 31
0.0
  0
ARC
  5
24B
330
20D
100
AcDbEntity
  8
S08_Retino
 62
     5
100
AcDbCircle
 10
-14.54999999999972
 20
64.24562765889096
 30
0.0
 40
0.2000000000000117
100
AcDbArc
 50
132.5000000000152
 51
227.4999999999848
  0
ARC
  5
24C
330
20D
100
AcDbEntity
  8
S08_Retino
 62
     5
100
AcDbCircle
 10
-13.94999999999982
 20
63.15329227251641
 30
0.0
 40
0.2000000000000021
100
AcDbArc
 50
312.5000000000152
 51
47.50000000003923
  0
LINE
  5
24D
330
20D
100
AcDbEntity
  8
S08_Retino
 62
     5
100
AcDbLine
 10
-14.68511804152285
 20
66.57775389900144
 30
0.0
 11
-13.81488195847669
 21
67.37517835065137
 31
0.0
  0
LINE
  5
24E
330
20D
100
AcDbEntity
  8
S08_Retino
 62
     5
100
AcDbLine
 10
-13.81488195847669
 20
65.48541851262689
 30
0.0
 11
-14.68511804152285
 21
66.28284296427683
 31
0.0
  0
ARC
  5
24F
330
20D
100
AcDbEntity
  8
S08_Retino
 62
     5
100
AcDbCircle
 10
-14.54999999999972
 20
66.43029843163913
 30
0.0
 40
0.2000000000000117
100
AcDbArc
 50
132.5000000000152
 51
227.4999999999848
  0
ARC
  5
250
330
20D
100
AcDbEntity
  8
S08_Retino
 62
     5
100
AcDbCircle
 10
-13.94999999999982
 20
65.33796304526458
 30
0.0
 40
0.2000000000000021
100
AcDbArc
 50
312.5000000000152
 51
47.50000000003923
  0
LINE
  5
251
330
20D
100
AcDbEntity
  8
S08_Retino
 62
     5
100
AcDbLine
 10
-14.68511804152285
 20
68.76242467174961
 30
0.0
 11
-13.81488195847669
 21
69.55984912339954
 31
0.0
  0
LINE
  5
252
330
20D
100
AcDbEntity
  8
S08_Retino
 62
     5
100
AcDbLine
 10
-13.81488195847669
 20
67.67008928537507
 30
0.0
 11
-14.68511804152285
 21
68.467513737025
 31
0.0
  0
ARC
  5
253
330
20D
100
AcDbEntity
  8
S08_Retino
 62
     5
100
AcDbCircle
 10
-14.54999999999972
 20
68.61496920438731
 30
0.0
 40
0.2000000000000117
100
AcDbArc
 50
132.5000000000152
 51
227.4999999999848
  0
ARC
  5
254
330
20D
100
AcDbEntity
  8
S08_Retino
 62
     5
100
AcDbCircle
 10
-13.94999999999982
 20
67.52263381801367
 30
0.0
 40
0.2000000000000021
100
AcDbArc
 50
312.5000000000152
 51
47.50000000003923
  0
LINE
  5
255
330
20D
100
AcDbEntity
  8
S08_Retino
 62
     5
100
AcDbLine
 10
-14.68511804152285
 20
70.94709544449779
 30
0.0
 11
-13.81488195847669
 21
71.74451989614772
 31
0.0
  0
LINE
  5
256
330
20D
100
AcDbEntity
  8
S08_Retino
 62
     5
100
AcDbLine
 10
-13.81488195847669
 20
69.85476005812325
 30
0.0
 11
-14.68511804152285
 21
70.65218450977408
 31
0.0
  0
ARC
  5
257
330
20D
100
AcDbEntity
  8
S08_Retino
 62
     5
100
AcDbCircle
 10
-14.54999999999972
 20
70.79963997713548
 30
0.0
 40
0.2000000000000117
100
AcDbArc
 50
132.5000000000152
 51
227.4999999999848
  0
ARC
  5
258
330
20D
100
AcDbEntity
  8
S08_Retino
 62
     5
100
AcDbCircle
 10
-13.94999999999982
 20
69.70730459076185
 30
0.0
 40
0.2000000000000021
100
AcDbArc
 50
312.5000000000152
 51
47.50000000003923
  0
LINE
  5
259
330
20D
100
AcDbEntity
  8
S08_Retino
 62
     5
100
AcDbLine
 10
-14.68511804152285
 20
73.13176621724597
 30
0.0
 11
-13.81488195847669
 21
73.92919066889589
 31
0.0
  0
LINE
  5
25A
330
20D
100
AcDbEntity
  8
S08_Retino
 62
     5
100
AcDbLine
 10
-13.81488195847669
 20
72.03943083087233
 30
0.0
 11
-14.68511804152285
 21
72.83685528252227
 31
0.0
  0
ARC
  5
25B
330
20D
100
AcDbEntity
  8
S08_Retino
 62
     5
100
AcDbCircle
 10
-14.54999999999972
 20
72.98431074988366
 30
0.0
 40
0.2000000000000117
100
AcDbArc
 50
132.5000000000152
 51
227.4999999999848
  0
ARC
  5
25C
330
20D
100
AcDbEntity
  8
S08_Retino
 62
     5
100
AcDbCircle
 10
-13.94999999999982
 20
71.89197536351002
 30
0.0
 40
0.2000000000000021
100
AcDbArc
 50
312.5000000000152
 51
47.50000000003923
  0
LINE
  5
25D
330
20D
100
AcDbEntity
  8
S08_Retino
 62
     5
100
AcDbLine
 10
-14.68511804152285
 20
75.31643698999414
 30
0.0
 11
-13.81488195847669
 21
76.11386144164407
 31
0.0
  0
LINE
  5
25E
330
20D
100
AcDbEntity
  8
S08_Retino
 62
     5
100
AcDbLine
 10
-13.81488195847669
 20
74.22410160362051
 30
0.0
 11
-14.68511804152285
 21
75.02152605527044
 31
0.0
  0
ARC
  5
25F
330
20D
100
AcDbEntity
  8
S08_Retino
 62
     5
100
AcDbCircle
 10
-14.54999999999972
 20
75.16898152263275
 30
0.0
 40
0.2000000000000117
100
AcDbArc
 50
132.5000000000152
 51
227.4999999999848
  0
ARC
  5
260
330
20D
100
AcDbEntity
  8
S08_Retino
 62
     5
100
AcDbCircle
 10
-13.94999999999982
 20
74.0766461362582
 30
0.0
 40
0.2000000000000021
100
AcDbArc
 50
312.5000000000152
 51
47.50000000003923
  0
LINE
  5
261
330
20D
100
AcDbEntity
  8
S08_Retino
 62
     5
100
AcDbLine
 10
-14.68511804152285
 20
77.50110776274232
 30
0.0
 11
-13.81488195847669
 21
78.29853221439316
 31
0.0
  0
LINE
  5
262
330
20D
100
AcDbEntity
  8
S08_Retino
 62
     5
100
AcDbLine
 10
-13.81488195847669
 20
76.40877237636868
 30
0.0
 11
-14.68511804152285
 21
77.20619682801862
 31
0.0
  0
ARC
  5
263
330
20D
100
AcDbEntity
  8
S08_Retino
 62
     5
100
AcDbCircle
 10
-14.54999999999972
 20
77.35365229538093
 30
0.0
 40
0.2000000000000117
100
AcDbArc
 50
132.5000000000152
 51
227.4999999999848
  0
ARC
  5
264
330
20D
100
AcDbEntity
  8
S08_Retino
 62
     5
100
AcDbCircle
 10
-13.94999999999982
 20
76.26131690900638
 30
0.0
 40
0.2000000000000021
100
AcDbArc
 50
312.5000000000152
 51
47.50000000003923
  0
LINE
  5
265
330
20D
100
AcDbEntity
  8
S08_Retino
 62
     5
100
AcDbLine
 10
-14.68511804152285
 20
79.68577853549049
 30
0.0
 11
-13.81488195847669
 21
80.48320298714134
 31
0.0
  0
LINE
  5
266
330
20D
100
AcDbEntity
  8
S08_Retino
 62
     5
100
AcDbLine
 10
-13.81488195847669
 20
78.59344314911687
 30
0.0
 11
-14.68511804152285
 21
79.3908676007668
 31
0.0
  0
ARC
  5
267
330
20D
100
AcDbEntity
  8
S08_Retino
 62
     5
100
AcDbCircle
 10
-14.54999999999972
 20
79.5383230681291
 30
0.0
 40
0.2000000000000117
100
AcDbArc
 50
132.5000000000152
 51
227.4999999999848
  0
ARC
  5
268
330
20D
100
AcDbEntity
  8
S08_Retino
 62
     5
100
AcDbCircle
 10
-13.94999999999982
 20
78.44598768175456
 30
0.0
 40
0.2000000000000021
100
AcDbArc
 50
312.5000000000152
 51
47.50000000003923
  0
LINE
  5
269
330
20D
100
AcDbEntity
  8
S08_Retino
 62
     5
100
AcDbLine
 10
-14.68511804152285
 20
81.87044930823958
 30
0.0
 11
-13.81488195847669
 21
82.66787375988952
 31
0.0
  0
LINE
  5
26A
330
20D
100
AcDbEntity
  8
S08_Retino
 62
     5
100
AcDbLine
 10
-13.81488195847669
 20
80.77811392186504
 30
0.0
 11
-14.68511804152285
 21
81.57553837351498
 31
0.0
  0
ARC
  5
26B
330
20D
100
AcDbEntity
  8
S08_Retino
 62
     5
100
AcDbCircle
 10
-14.54999999999972
 20
81.72299384087727
 30
0.0
 40
0.1999999999999812
100
AcDbArc
 50
132.5000000000152
 51
227.5000000000392
  0
ARC
  5
26C
330
20D
100
AcDbEntity
  8
S08_Retino
 62
     5
100
AcDbCircle
 10
-13.94999999999982
 20
80.63065845450273
 30
0.0
 40
0.1999999999999886
100
AcDbArc
 50
312.5000000000152
 51
47.49999999998482
  0
ARC
  5
26D
330
20D
100
AcDbEntity
  8
S08_Retino
 62
     5
100
AcDbCircle
 10
-13.94999999999982
 20
82.81532922725181
 30
0.0
 40
0.1999999999999909
100
AcDbArc
 50
312.4999999999608
 51
47.50000000003923
  0
LINE
  5
26E
330
20D
100
AcDbEntity
  8
S08_Retino
 62
     5
100
AcDbLine
 10
-13.81488195847669
 20
82.96278469461322
 30
0.0
 11
-14.68511804152285
 21
83.76020914626314
 31
0.0
  0
ARC
  5
26F
330
20D
100
AcDbEntity
  8
S08_Retino
 62
     5
100
AcDbCircle
 10
-14.54999999999972
 20
83.90766461362545
 30
0.0
 40
0.1999999999999812
100
AcDbArc
 50
132.5000000000152
 51
227.5000000000392
  0
LINE
  5
270
330
20D
100
AcDbEntity
  8
S08_Retino
 62
     5
100
AcDbLine
 10
-14.68511804152285
 20
84.05512008098776
 30
0.0
 11
-13.81488195847669
 21
84.85254453263769
 31
0.0
  0
ARC
  5
271
330
20D
100
AcDbEntity
  8
S08_Retino
 62
     5
100
AcDbCircle
 10
-13.94999999999982
 20
85.0
 30
0.0
 40
0.2000000000000119
100
AcDbArc
 50
312.5000000000152
 51
0.0
  0
LINE
  5
272
330
20D
100
AcDbEntity
  8
S08_Retino
 62
     5
100
AcDbLine
 10
-20.25
 20
85.0
 30
0.0
 11
-13.75
 21
85.0
 31
0.0
  0
LINE
  5
273
330
20D
100
AcDbEntity
  8
S08_Retino
 62
     5
100
AcDbLine
 10
-20.25
 20
3.0
 30
0.0
 11
-20.25
 21
32.56790145404011
 31
0.0
  0
LINE
  5
274
330
20D
100
AcDbEntity
  8
S08_Retino
 62
     5
100
AcDbLine
 10
17.25
 20
0.0
 30
0.0
 11
-17.25
 21
0.0
 31
0.0
  0
LINE
  5
275
330
20D
100
AcDbEntity
  8
S08_Retino
 62
     5
100
AcDbLine
 10
17.75
 20
7.5
 30
0.0
 11
17.75
 21
0.5
 31
0.0
  0
LINE
  5
276
330
20D
100
AcDbEntity
  8
S08_Retino
 62
     5
100
AcDbLine
 10
-11.60549897028659
 20
8.0
 30
0.0
 11
17.25
 21
8.0
 31
0.0
  0
LINE
  5
277
330
20D
100
AcDbEntity
  8
S08_Retino
 62
     5
100
AcDbLine
 10
-13.75
 20
32.0
 30
0.0
 11
-12.1042809954165
 21
8.465121763128081
 31
0.0
  0
LINE
  5
278
330
20D
100
AcDbEntity
  8
S08_Retino
 62
     5
100
AcDbLine
 10
-13.75
 20
32.56790145404011
 30
0.0
 11
-13.75
 21
32.0
 31
0.0
  0
ARC
  5
279
330
20D
100
AcDbEntity
  8
S08_Retino
 62
     5
100
AcDbCircle
 10
-20.04999999999973
 20
85.0
 30
0.0
 40
0.200000000000008
100
AcDbArc
 50
180.0
 51
227.4999999999848
  0
LINE
  5
27A
330
20D
100
AcDbEntity
  8
S08_Retino
 62
     5
100
AcDbLine
 10
-20.18511804152286
 20
84.85254453263769
 30
0.0
 11
-19.31488195847669
 21
84.05512008098776
 31
0.0
  0
ARC
  5
27B
330
20D
100
AcDbEntity
  8
S08_Retino
 62
     5
100
AcDbCircle
 10
-19.44999999999982
 20
83.90766461362545
 30
0.0
 40
0.1999999999999801
100
AcDbArc
 50
312.4999999999608
 51
47.49999999998482
  0
LINE
  5
27C
330
20D
100
AcDbEntity
  8
S08_Retino
 62
     5
100
AcDbLine
 10
-19.31488195847669
 20
83.76020914626314
 30
0.0
 11
-20.18511804152286
 21
82.96278469461322
 31
0.0
  0
ARC
  5
27D
330
20D
100
AcDbEntity
  8
S08_Retino
 62
     5
100
AcDbCircle
 10
-20.04999999999973
 20
82.81532922725181
 30
0.0
 40
0.1999999999999912
100
AcDbArc
 50
132.5000000000152
 51
227.5000000000392
  0
LINE
  5
27E
330
20D
100
AcDbEntity
  8
S08_Retino
 62
     5
100
AcDbLine
 10
-20.18511804152286
 20
82.66787375988952
 30
0.0
 11
-19.31488195847669
 21
81.87044930823958
 31
0.0
  0
ARC
  5
27F
330
20D
100
AcDbEntity
  8
S08_Retino
 62
     5
100
AcDbCircle
 10
-19.44999999999982
 20
81.72299384087727
 30
0.0
 40
0.1999999999999801
100
AcDbArc
 50
312.4999999999608
 51
47.49999999998482
  0
LINE
  5
280
330
20D
100
AcDbEntity
  8
S08_Retino
 62
     5
100
AcDbLine
 10
-19.31488195847669
 20
81.57553837351498
 30
0.0
 11
-20.18511804152286
 21
80.77811392186504
 31
0.0
  0
ARC
  5
281
330
20D
100
AcDbEntity
  8
S08_Retino
 62
     5
100
AcDbCircle
 10
-20.04999999999973
 20
80.63065845450273
 30
0.0
 40
0.1999999999999912
100
AcDbArc
 50
132.5000000000152
 51
227.5000000000392
  0
LINE
  5
282
330
20D
100
AcDbEntity
  8
S08_Retino
 62
     5
100
AcDbLine
 10
-20.18511804152286
 20
80.48320298714134
 30
0.0
 11
-19.31488195847669
 21
79.68577853549049
 31
0.0
  0
ARC
  5
283
330
20D
100
AcDbEntity
  8
S08_Retino
 62
     5
100
AcDbCircle
 10
-19.44999999999982
 20
79.5383230681291
 30
0.0
 40
0.200000000000004
100
AcDbArc
 50
312.4999999999608
 51
47.49999999998482
  0
LINE
  5
284
330
20D
100
AcDbEntity
  8
S08_Retino
 62
     5
100
AcDbLine
 10
-19.31488195847669
 20
79.3908676007668
 30
0.0
 11
-20.18511804152286
 21
78.59344314911687
 31
0.0
  0
ARC
  5
285
330
20D
100
AcDbEntity
  8
S08_Retino
 62
     5
100
AcDbCircle
 10
-20.04999999999973
 20
78.44598768175456
 30
0.0
 40
0.2000000000000048
100
AcDbArc
 50
132.5000000000152
 51
227.4999999999848
  0
LINE
  5
286
330
20D
100
AcDbEntity
  8
S08_Retino
 62
     5
100
AcDbLine
 10
-20.18511804152286
 20
78.29853221439316
 30
0.0
 11
-19.31488195847669
 21
77.50110776274232
 31
0.0
  0
ARC
  5
287
330
20D
100
AcDbEntity
  8
S08_Retino
 62
     5
100
AcDbCircle
 10
-19.44999999999982
 20
77.35365229538093
 30
0.0
 40
0.200000000000004
100
AcDbArc
 50
312.4999999999608
 51
47.49999999998482
  0
LINE
  5
288
330
20D
100
AcDbEntity
  8
S08_Retino
 62
     5
100
AcDbLine
 10
-19.31488195847669
 20
77.20619682801862
 30
0.0
 11
-20.18511804152286
 21
76.40877237636868
 31
0.0
  0
ARC
  5
289
330
20D
100
AcDbEntity
  8
S08_Retino
 62
     5
100
AcDbCircle
 10
-20.04999999999973
 20
76.26131690900638
 30
0.0
 40
0.2000000000000048
100
AcDbArc
 50
132.5000000000152
 51
227.4999999999848
  0
LINE
  5
28A
330
20D
100
AcDbEntity
  8
S08_Retino
 62
     5
100
AcDbLine
 10
-20.18511804152286
 20
76.11386144164407
 30
0.0
 11
-19.31488195847669
 21
75.31643698999414
 31
0.0
  0
ARC
  5
28B
330
20D
100
AcDbEntity
  8
S08_Retino
 62
     5
100
AcDbCircle
 10
-19.44999999999982
 20
75.16898152263275
 30
0.0
 40
0.200000000000004
100
AcDbArc
 50
312.4999999999608
 51
47.49999999998482
  0
LINE
  5
28C
330
20D
100
AcDbEntity
  8
S08_Retino
 62
     5
100
AcDbLine
 10
-19.31488195847669
 20
75.02152605527044
 30
0.0
 11
-20.18511804152286
 21
74.22410160362051
 31
0.0
  0
ARC
  5
28D
330
20D
100
AcDbEntity
  8
S08_Retino
 62
     5
100
AcDbCircle
 10
-20.04999999999973
 20
74.0766461362582
 30
0.0
 40
0.2000000000000048
100
AcDbArc
 50
132.5000000000152
 51
227.4999999999848
  0
LINE
  5
28E
330
20D
100
AcDbEntity
  8
S08_Retino
 62
     5
100
AcDbLine
 10
-20.18511804152286
 20
73.92919066889589
 30
0.0
 11
-19.31488195847669
 21
73.13176621724597
 31
0.0
  0
ARC
  5
28F
330
20D
100
AcDbEntity
  8
S08_Retino
 62
     5
100
AcDbCircle
 10
-19.44999999999982
 20
72.98431074988366
 30
0.0
 40
0.200000000000004
100
AcDbArc
 50
312.4999999999608
 51
47.49999999998482
  0
LINE
  5
290
330
20D
100
AcDbEntity
  8
S08_Retino
 62
     5
100
AcDbLine
 10
-19.31488195847669
 20
72.83685528252227
 30
0.0
 11
-20.18511804152286
 21
72.03943083087233
 31
0.0
  0
ARC
  5
291
330
20D
100
AcDbEntity
  8
S08_Retino
 62
     5
100
AcDbCircle
 10
-20.04999999999973
 20
71.89197536351002
 30
0.0
 40
0.2000000000000048
100
AcDbArc
 50
132.5000000000152
 51
227.4999999999848
  0
LINE
  5
292
330
20D
100
AcDbEntity
  8
S08_Retino
 62
     5
100
AcDbLine
 10
-20.18511804152286
 20
71.74451989614772
 30
0.0
 11
-19.31488195847669
 21
70.94709544449779
 31
0.0
  0
ARC
  5
293
330
20D
100
AcDbEntity
  8
S08_Retino
 62
     5
100
AcDbCircle
 10
-19.44999999999982
 20
70.79963997713548
 30
0.0
 40
0.200000000000004
100
AcDbArc
 50
312.4999999999608
 51
47.49999999998482
  0
LINE
  5
294
330
20D
100
AcDbEntity
  8
S08_Retino
 62
     5
100
AcDbLine
 10
-19.31488195847669
 20
70.65218450977408
 30
0.0
 11
-20.18511804152286
 21
69.85476005812325
 31
0.0
  0
ARC
  5
295
330
20D
100
AcDbEntity
  8
S08_Retino
 62
     5
100
AcDbCircle
 10
-20.04999999999973
 20
69.70730459076185
 30
0.0
 40
0.2000000000000048
100
AcDbArc
 50
132.5000000000152
 51
227.4999999999848
  0
LINE
  5
296
330
20D
100
AcDbEntity
  8
S08_Retino
 62
     5
100
AcDbLine
 10
-20.18511804152286
 20
69.55984912339954
 30
0.0
 11
-19.31488195847669
 21
68.76242467174961
 31
0.0
  0
ARC
  5
297
330
20D
100
AcDbEntity
  8
S08_Retino
 62
     5
100
AcDbCircle
 10
-19.44999999999982
 20
68.61496920438731
 30
0.0
 40
0.200000000000004
100
AcDbArc
 50
312.4999999999608
 51
47.49999999998482
  0
LINE
  5
298
330
20D
100
AcDbEntity
  8
S08_Retino
 62
     5
100
AcDbLine
 10
-19.31488195847669
 20
68.467513737025
 30
0.0
 11
-20.18511804152286
 21
67.67008928537507
 31
0.0
  0
ARC
  5
299
330
20D
100
AcDbEntity
  8
S08_Retino
 62
     5
100
AcDbCircle
 10
-20.04999999999973
 20
67.52263381801367
 30
0.0
 40
0.2000000000000048
100
AcDbArc
 50
132.5000000000152
 51
227.4999999999848
  0
LINE
  5
29A
330
20D
100
AcDbEntity
  8
S08_Retino
 62
     5
100
AcDbLine
 10
-20.18511804152286
 20
67.37517835065137
 30
0.0
 11
-19.31488195847669
 21
66.57775389900144
 31
0.0
  0
ARC
  5
29B
330
20D
100
AcDbEntity
  8
S08_Retino
 62
     5
100
AcDbCircle
 10
-19.44999999999982
 20
66.43029843163913
 30
0.0
 40
0.200000000000004
100
AcDbArc
 50
312.4999999999608
 51
47.49999999998482
  0
LINE
  5
29C
330
20D
100
AcDbEntity
  8
S08_Retino
 62
     5
100
AcDbLine
 10
-19.31488195847669
 20
66.28284296427683
 30
0.0
 11
-20.18511804152286
 21
65.48541851262689
 31
0.0
  0
ARC
  5
29D
330
20D
100
AcDbEntity
  8
S08_Retino
 62
     5
100
AcDbCircle
 10
-20.04999999999973
 20
65.33796304526458
 30
0.0
 40
0.2000000000000048
100
AcDbArc
 50
132.5000000000152
 51
227.4999999999848
  0
LINE
  5
29E
330
20D
100
AcDbEntity
  8
S08_Retino
 62
     5
100
AcDbLine
 10
-20.18511804152286
 20
65.19050757790319
 30
0.0
 11
-19.31488195847669
 21
64.39308312625235
 31
0.0
  0
ARC
  5
29F
330
20D
100
AcDbEntity
  8
S08_Retino
 62
     5
100
AcDbCircle
 10
-19.44999999999982
 20
64.24562765889096
 30
0.0
 40
0.200000000000004
100
AcDbArc
 50
312.4999999999608
 51
47.49999999998482
  0
LINE
  5
2A0
330
20D
100
AcDbEntity
  8
S08_Retino
 62
     5
100
AcDbLine
 10
-19.31488195847669
 20
64.09817219152865
 30
0.0
 11
-20.18511804152286
 21
63.30074773987871
 31
0.0
  0
ARC
  5
2A1
330
20D
100
AcDbEntity
  8
S08_Retino
 62
     5
100
AcDbCircle
 10
-20.04999999999973
 20
63.15329227251641
 30
0.0
 40
0.2000000000000048
100
AcDbArc
 50
132.5000000000152
 51
227.4999999999848
  0
LINE
  5
2A2
330
20D
100
AcDbEntity
  8
S08_Retino
 62
     5
100
AcDbLine
 10
-20.18511804152286
 20
63.00583680515501
 30
0.0
 11
-19.31488195847669
 21
62.20841235350417
 31
0.0
  0
ARC
  5
2A3
330
20D
100
AcDbEntity
  8
S08_Retino
 62
     5
100
AcDbCircle
 10
-19.44999999999982
 20
62.06095688614277
 30
0.0
 40
0.200000000000004
100
AcDbArc
 50
312.4999999999608
 51
47.49999999998482
  0
LINE
  5
2A4
330
20D
100
AcDbEntity
  8
S08_Retino
 62
     5
100
AcDbLine
 10
-19.31488195847669
 20
61.91350141878046
 30
0.0
 11
-20.18511804152286
 21
61.11607696713054
 31
0.0
  0
ARC
  5
2A5
330
20D
100
AcDbEntity
  8
S08_Retino
 62
     5
100
AcDbCircle
 10
-20.04999999999973
 20
60.96862149976823
 30
0.0
 40
0.2000000000000048
100
AcDbArc
 50
132.5000000000152
 51
227.4999999999848
  0
LINE
  5
2A6
330
20D
100
AcDbEntity
  8
S08_Retino
 62
     5
100
AcDbLine
 10
-20.18511804152286
 20
60.82116603240592
 30
0.0
 11
-19.31488195847669
 21
60.023741580756
 31
0.0
  0
ARC
  5
2A7
330
20D
100
AcDbEntity
  8
S08_Retino
 62
     5
100
AcDbCircle
 10
-19.44999999999982
 20
59.87628611339459
 30
0.0
 40
0.200000000000004
100
AcDbArc
 50
312.4999999999608
 51
47.49999999998482
  0
LINE
  5
2A8
330
20D
100
AcDbEntity
  8
S08_Retino
 62
     5
100
AcDbLine
 10
-19.31488195847669
 20
59.72883064603229
 30
0.0
 11
-20.18511804152286
 21
58.93140619438236
 31
0.0
  0
ARC
  5
2A9
330
20D
100
AcDbEntity
  8
S08_Retino
 62
     5
100
AcDbCircle
 10
-20.04999999999973
 20
58.78395072702005
 30
0.0
 40
0.2000000000000048
100
AcDbArc
 50
132.5000000000152
 51
227.4999999999848
  0
LINE
  5
2AA
330
20D
100
AcDbEntity
  8
S08_Retino
 62
     5
100
AcDbLine
 10
-20.18511804152286
 20
58.63649525965775
 30
0.0
 11
-19.31488195847669
 21
57.83907080800782
 31
0.0
  0
ARC
  5
2AB
330
20D
100
AcDbEntity
  8
S08_Retino
 62
     5
100
AcDbCircle
 10
-19.44999999999982
 20
57.69161534064551
 30
0.0
 40
0.200000000000004
100
AcDbArc
 50
312.4999999999608
 51
47.49999999998482
  0
LINE
  5
2AC
330
20D
100
AcDbEntity
  8
S08_Retino
 62
     5
100
AcDbLine
 10
-19.31488195847669
 20
57.54415987328411
 30
0.0
 11
-20.18511804152286
 21
56.74673542163418
 31
0.0
  0
ARC
  5
2AD
330
20D
100
AcDbEntity
  8
S08_Retino
 62
     5
100
AcDbCircle
 10
-20.04999999999973
 20
56.59927995427188
 30
0.0
 40
0.2000000000000048
100
AcDbArc
 50
132.5000000000152
 51
227.4999999999848
  0
LINE
  5
2AE
330
20D
100
AcDbEntity
  8
S08_Retino
 62
     5
100
AcDbLine
 10
-20.18511804152286
 20
56.45182448690957
 30
0.0
 11
-19.31488195847669
 21
55.65440003525964
 31
0.0
  0
ARC
  5
2AF
330
20D
100
AcDbEntity
  8
S08_Retino
 62
     5
100
AcDbCircle
 10
-19.44999999999982
 20
55.50694456789734
 30
0.0
 40
0.200000000000004
100
AcDbArc
 50
312.4999999999608
 51
47.49999999998482
  0
LINE
  5
2B0
330
20D
100
AcDbEntity
  8
S08_Retino
 62
     5
100
AcDbLine
 10
-19.31488195847669
 20
55.35948910053594
 30
0.0
 11
-20.18511804152286
 21
54.56206464888509
 31
0.0
  0
ARC
  5
2B1
330
20D
100
AcDbEntity
  8
S08_Retino
 62
     5
100
AcDbCircle
 10
-20.04999999999973
 20
54.4146091815237
 30
0.0
 40
0.2000000000000048
100
AcDbArc
 50
132.5000000000152
 51
227.4999999999848
  0
LINE
  5
2B2
330
20D
100
AcDbEntity
  8
S08_Retino
 62
     5
100
AcDbLine
 10
-20.18511804152286
 20
54.2671537141614
 30
0.0
 11
-19.31488195847669
 21
53.46972926251146
 31
0.0
  0
ARC
  5
2B3
330
20D
100
AcDbEntity
  8
S08_Retino
 62
     5
100
AcDbCircle
 10
-19.44999999999982
 20
53.32227379514915
 30
0.0
 40
0.200000000000004
100
AcDbArc
 50
312.4999999999608
 51
47.49999999998482
  0
LINE
  5
2B4
330
20D
100
AcDbEntity
  8
S08_Retino
 62
     5
100
AcDbLine
 10
-19.31488195847669
 20
53.17481832778685
 30
0.0
 11
-20.18511804152286
 21
52.37739387613692
 31
0.0
  0
ARC
  5
2B5
330
20D
100
AcDbEntity
  8
S08_Retino
 62
     5
100
AcDbCircle
 10
-20.04999999999973
 20
52.22993840877553
 30
0.0
 40
0.2000000000000048
100
AcDbArc
 50
132.5000000000152
 51
227.4999999999848
  0
LINE
  5
2B6
330
20D
100
AcDbEntity
  8
S08_Retino
 62
     5
100
AcDbLine
 10
-20.18511804152286
 20
52.08248294141322
 30
0.0
 11
-19.31488195847669
 21
51.28505848976328
 31
0.0
  0
ARC
  5
2B7
330
20D
100
AcDbEntity
  8
S08_Retino
 62
     5
100
AcDbCircle
 10
-19.44999999999982
 20
51.13760302240098
 30
0.0
 40
0.200000000000004
100
AcDbArc
 50
312.4999999999608
 51
47.49999999998482
  0
LINE
  5
2B8
330
20D
100
AcDbEntity
  8
S08_Retino
 62
     5
100
AcDbLine
 10
-19.31488195847669
 20
50.99014755503867
 30
0.0
 11
-20.18511804152286
 21
50.19272310338874
 31
0.0
  0
ARC
  5
2B9
330
20D
100
AcDbEntity
  8
S08_Retino
 62
     5
100
AcDbCircle
 10
-20.04999999999973
 20
50.04526763602644
 30
0.0
 40
0.2000000000000048
100
AcDbArc
 50
132.5000000000152
 51
227.4999999999848
  0
LINE
  5
2BA
330
20D
100
AcDbEntity
  8
S08_Retino
 62
     5
100
AcDbLine
 10
-20.18511804152286
 20
49.89781216866504
 30
0.0
 11
-19.31488195847669
 21
49.10038771701511
 31
0.0
  0
ARC
  5
2BB
330
20D
100
AcDbEntity
  8
S08_Retino
 62
     5
100
AcDbCircle
 10
-19.44999999999982
 20
48.9529322496528
 30
0.0
 40
0.200000000000004
100
AcDbArc
 50
312.4999999999608
 51
47.49999999998482
  0
LINE
  5
2BC
330
20D
100
AcDbEntity
  8
S08_Retino
 62
     5
100
AcDbLine
 10
-19.31488195847669
 20
48.80547678229049
 30
0.0
 11
-20.18511804152286
 21
48.00805233064057
 31
0.0
  0
ARC
  5
2BD
330
20D
100
AcDbEntity
  8
S08_Retino
 62
     5
100
AcDbCircle
 10
-20.04999999999973
 20
47.86059686327826
 30
0.0
 40
0.2000000000000048
100
AcDbArc
 50
132.5000000000152
 51
227.4999999999848
  0
LINE
  5
2BE
330
20D
100
AcDbEntity
  8
S08_Retino
 62
     5
100
AcDbLine
 10
-20.18511804152286
 20
47.71314139591686
 30
0.0
 11
-19.31488195847669
 21
46.91571694426602
 31
0.0
  0
ARC
  5
2BF
330
20D
100
AcDbEntity
  8
S08_Retino
 62
     5
100
AcDbCircle
 10
-19.44999999999982
 20
46.76826147690462
 30
0.0
 40
0.200000000000004
100
AcDbArc
 50
312.4999999999608
 51
47.49999999998482
  0
LINE
  5
2C0
330
20D
100
AcDbEntity
  8
S08_Retino
 62
     5
100
AcDbLine
 10
-19.31488195847669
 20
46.62080600954232
 30
0.0
 11
-20.18511804152286
 21
45.82338155789239
 31
0.0
  0
ARC
  5
2C1
330
20D
100
AcDbEntity
  8
S08_Retino
 62
     5
100
AcDbCircle
 10
-20.04999999999973
 20
45.67592609053008
 30
0.0
 40
0.2000000000000048
100
AcDbArc
 50
132.5000000000152
 51
227.4999999999848
  0
LINE
  5
2C2
330
20D
100
AcDbEntity
  8
S08_Retino
 62
     5
100
AcDbLine
 10
-20.18511804152286
 20
45.52847062316778
 30
0.0
 11
-19.31488195847669
 21
44.73104617151784
 31
0.0
  0
ARC
  5
2C3
330
20D
100
AcDbEntity
  8
S08_Retino
 62
     5
100
AcDbCircle
 10
-19.44999999999982
 20
44.58359070415645
 30
0.0
 40
0.200000000000004
100
AcDbArc
 50
312.4999999999608
 51
47.49999999998482
  0
LINE
  5
2C4
330
20D
100
AcDbEntity
  8
S08_Retino
 62
     5
100
AcDbLine
 10
-19.31488195847669
 20
44.43613523679414
 30
0.0
 11
-20.18511804152286
 21
43.63871078514421
 31
0.0
  0
ARC
  5
2C5
330
20D
100
AcDbEntity
  8
S08_Retino
 62
     5
100
AcDbCircle
 10
-20.04999999999973
 20
43.49125531778191
 30
0.0
 40
0.2000000000000048
100
AcDbArc
 50
132.5000000000152
 51
227.4999999999848
  0
LINE
  5
2C6
330
20D
100
AcDbEntity
  8
S08_Retino
 62
     5
100
AcDbLine
 10
-20.18511804152286
 20
43.3437998504196
 30
0.0
 11
-19.31488195847669
 21
42.54637539876966
 31
0.0
  0
ARC
  5
2C7
330
20D
100
AcDbEntity
  8
S08_Retino
 62
     5
100
AcDbCircle
 10
-19.44999999999982
 20
42.39891993140736
 30
0.0
 40
0.200000000000004
100
AcDbArc
 50
312.4999999999608
 51
47.49999999998482
  0
LINE
  5
2C8
330
20D
100
AcDbEntity
  8
S08_Retino
 62
     5
100
AcDbLine
 10
-19.31488195847669
 20
42.25146446404596
 30
0.0
 11
-20.18511804152286
 21
41.45404001239604
 31
0.0
  0
ARC
  5
2C9
330
20D
100
AcDbEntity
  8
S08_Retino
 62
     5
100
AcDbCircle
 10
-20.04999999999973
 20
41.30658454503373
 30
0.0
 40
0.2000000000000048
100
AcDbArc
 50
132.5000000000152
 51
227.4999999999848
  0
LINE
  5
2CA
330
20D
100
AcDbEntity
  8
S08_Retino
 62
     5
100
AcDbLine
 10
-20.18511804152286
 20
41.15912907767142
 30
0.0
 11
-19.31488195847669
 21
40.36170462602149
 31
0.0
  0
ARC
  5
2CB
330
20D
100
AcDbEntity
  8
S08_Retino
 62
     5
100
AcDbCircle
 10
-19.44999999999982
 20
40.21424915865918
 30
0.0
 40
0.200000000000004
100
AcDbArc
 50
312.4999999999608
 51
47.49999999998482
  0
LINE
  5
2CC
330
20D
100
AcDbEntity
  8
S08_Retino
 62
     5
100
AcDbLine
 10
-19.31488195847669
 20
40.06679369129779
 30
0.0
 11
-20.18511804152286
 21
39.26936923964695
 31
0.0
  0
ARC
  5
2CD
330
20D
100
AcDbEntity
  8
S08_Retino
 62
     5
100
AcDbCircle
 10
-20.04999999999973
 20
39.12191377228555
 30
0.0
 40
0.1999999999999981
100
AcDbArc
 50
132.5000000000152
 51
227.5000000000392
  0
LINE
  5
2CE
330
20D
100
AcDbEntity
  8
S08_Retino
 62
     5
100
AcDbLine
 10
-20.18511804152286
 20
38.97445830492325
 30
0.0
 11
-19.31488195847669
 21
38.17703385327332
 31
0.0
  0
ARC
  5
2CF
330
20D
100
AcDbEntity
  8
S08_Retino
 62
     5
100
AcDbCircle
 10
-19.44999999999982
 20
38.02957838591101
 30
0.0
 40
0.2000000000000004
100
AcDbArc
 50
312.5000000000152
 51
47.50000000003923
  0
LINE
  5
2D0
330
20D
100
AcDbEntity
  8
S08_Retino
 62
     5
100
AcDbLine
 10
-19.31488195847669
 20
37.88212291854961
 30
0.0
 11
-20.18511804152286
 21
37.08469846689877
 31
0.0
  0
ARC
  5
2D1
330
20D
100
AcDbEntity
  8
S08_Retino
 62
     5
100
AcDbCircle
 10
-20.04999999999973
 20
36.93724299953738
 30
0.0
 40
0.1999999999999981
100
AcDbArc
 50
132.5000000000152
 51
227.5000000000392
  0
LINE
  5
2D2
330
20D
100
AcDbEntity
  8
S08_Retino
 62
     5
100
AcDbLine
 10
-20.18511804152286
 20
36.78978753217507
 30
0.0
 11
-19.31488195847669
 21
35.99236308052514
 31
0.0
  0
ARC
  5
2D3
330
20D
100
AcDbEntity
  8
S08_Retino
 62
     5
100
AcDbCircle
 10
-19.44999999999982
 20
35.84490761316283
 30
0.0
 40
0.2000000000000004
100
AcDbArc
 50
312.5000000000152
 51
47.50000000003923
  0
LINE
  5
2D4
330
20D
100
AcDbEntity
  8
S08_Retino
 62
     5
100
AcDbLine
 10
-19.31488195847669
 20
35.69745214580053
 30
0.0
 11
-20.18511804152286
 21
34.9000276941506
 31
0.0
  0
ARC
  5
2D5
330
20D
100
AcDbEntity
  8
S08_Retino
 62
     5
100
AcDbCircle
 10
-20.04999999999973
 20
34.75257222678829
 30
0.0
 40
0.1999999999999981
100
AcDbArc
 50
132.5000000000152
 51
227.5000000000392
  0
LINE
  5
2D6
330
20D
100
AcDbEntity
  8
S08_Retino
 62
     5
100
AcDbLine
 10
-20.18511804152286
 20
34.60511675942689
 30
0.0
 11
-19.31488195847669
 21
33.80769230777696
 31
0.0
  0
ARC
  5
2D7
330
20D
100
AcDbEntity
  8
S08_Retino
 62
     5
100
AcDbCircle
 10
-19.44999999999982
 20
33.66023684041465
 30
0.0
 40
0.2000000000000004
100
AcDbArc
 50
312.5000000000152
 51
47.50000000003923
  0
LINE
  5
2D8
330
20D
100
AcDbEntity
  8
S08_Retino
 62
     5
100
AcDbLine
 10
-19.31488195847669
 20
33.51278137305235
 30
0.0
 11
-20.18511804152286
 21
32.71535692140242
 31
0.0
  0
ARC
  5
2D9
330
20D
100
AcDbEntity
  8
S08_Retino
 62
     5
100
AcDbCircle
 10
-20.04999999999973
 20
32.56790145404011
 30
0.0
 40
0.1999999999999927
100
AcDbArc
 50
132.5000000000152
 51
180.0
  0
ARC
  5
2DA
330
20D
100
AcDbEntity
  8
S08_Retino
 62
     5
100
AcDbCircle
 10
-17.25
 20
3.0
 30
0.0
 40
3.0
100
AcDbArc
 50
180.0
 51
270.0
  0
ARC
  5
2DB
330
20D
100
AcDbEntity
  8
S08_Retino
 62
     5
100
AcDbCircle
 10
17.25
 20
0.5
 30
0.0
 40
0.4999999999999983
100
AcDbArc
 50
270.0
 51
0.0
  0
ARC
  5
2DC
330
20D
100
AcDbEntity
  8
S08_Retino
 62
     5
100
AcDbCircle
 10
17.25
 20
7.5
 30
0.0
 40
0.5000000000000005
100
AcDbArc
 50
0.0
 51
90.0
  0
ARC
  5
2DD
330
20D
100
AcDbEntity
  8
S08_Retino
 62
     5
100
AcDbCircle
 10
-11.60549897028659
 20
8.5
 30
0.0
 40
0.4999999999999992
100
AcDbArc
 50
183.9999999999835
 51
270.0
  0
LINE
  5
2DE
330
20D
100
AcDbEntity
  8
S08_Retino
100
AcDbLine
 10
1.612157047500204
 20
62.28395072702006
 30
0.0
 11
1.612157047500204
 21
55.28395072702005
 31
0.0
  0
LINE
  5
2DF
330
20D
100
AcDbEntity
  8
S08_Retino
100
AcDbLine
 10
1.112157047500204
 20
54.78395072702006
 30
0.0
 11
1.112157047500204
 21
62.78395072702005
 31
0.0
  0
LINE
  5
2E0
330
20D
100
AcDbEntity
  8
S08_Retino
100
AcDbLine
 10
1.612157047500204
 20
55.28395072702005
 30
0.0
 11
1.112157047500204
 21
54.78395072702006
 31
0.0
  0
LINE
  5
2E1
330
20D
100
AcDbEntity
  8
S08_Retino
100
AcDbLine
 10
1.612157047500204
 20
62.28395072702006
 30
0.0
 11
1.112157047500204
 21
62.78395072702005
 31
0.0
  0
LINE
  5
2E2
330
20D
100
AcDbEntity
  8
S08_Retino
100
AcDbLine
 10
-22.8878429524998
 20
53.78395072702005
 30
0.0
 11
-22.38784295249979
 21
53.78395072702005
 31
0.0
  0
LINE
  5
2E3
330
20D
100
AcDbEntity
  8
S08_Retino
100
AcDbLine
 10
-22.8878429524998
 20
63.78395072702005
 30
0.0
 11
-22.38784295249979
 21
63.78395072702005
 31
0.0
  0
LINE
  5
2E4
330
20D
100
AcDbEntity
  8
S08_Retino
100
AcDbLine
 10
-22.38784295249979
 20
53.78395072702005
 30
0.0
 11
-22.38784295249979
 21
63.78395072702005
 31
0.0
  0
LINE
  5
2E5
330
20D
100
AcDbEntity
  8
S08_Retino
100
AcDbLine
 10
-22.8878429524998
 20
63.78395072702005
 30
0.0
 11
-22.8878429524998
 21
70.28395072702005
 31
0.0
  0
LINE
  5
2E6
330
20D
100
AcDbEntity
  8
S08_Retino
100
AcDbLine
 10
-26.68784295249998
 20
47.28395072702006
 30
0.0
 11
-22.8878429524998
 21
47.28395072702006
 31
0.0
  0
LINE
  5
2E7
330
20D
100
AcDbEntity
  8
S08_Retino
100
AcDbLine
 10
-22.8878429524998
 20
51.28395072702005
 30
0.0
 11
-22.8878429524998
 21
47.28395072702006
 31
0.0
  0
LINE
  5
2E8
330
20D
100
AcDbEntity
  8
S08_Retino
100
AcDbLine
 10
-26.68784295249998
 20
47.28395072702006
 30
0.0
 11
-26.68784295249998
 21
51.28395072702005
 31
0.0
  0
LINE
  5
2E9
330
20D
100
AcDbEntity
  8
S08_Retino
100
AcDbLine
 10
-22.8878429524998
 20
51.28395072702005
 30
0.0
 11
-22.8878429524998
 21
53.78395072702005
 31
0.0
  0
LINE
  5
2EA
330
20D
100
AcDbEntity
  8
S08_Retino
100
AcDbLine
 10
-26.68784295249998
 20
70.28395072702005
 30
0.0
 11
-22.8878429524998
 21
70.28395072702005
 31
0.0
  0
LINE
  5
2EB
330
20D
100
AcDbEntity
  8
S08_Retino
100
AcDbLine
 10
-26.68784295249998
 20
70.28395072702005
 30
0.0
 11
-26.68784295249998
 21
51.28395072702005
 31
0.0
  0
LINE
  5
2EC
330
20D
100
AcDbEntity
  8
S08_Retino
100
AcDbLine
 10
-22.38784295249979
 20
62.78395072702005
 30
0.0
 11
1.112157047500204
 21
62.78395072702005
 31
0.0
  0
LINE
  5
2ED
330
20D
100
AcDbEntity
  8
S08_Retino
100
AcDbLine
 10
-22.38784295249979
 20
54.78395072702006
 30
0.0
 11
1.112157047500204
 21
54.78395072702006
 31
0.0
  0
LINE
  5
2EE
330
20D
100
AcDbEntity
  8
S08_Retino
 48
0.9522482752799987
100
AcDbLine
 10
1.612157047500204
 20
62.03995072702037
 30
0.0
 11
1.112157047500204
 21
62.03995072702037
 31
0.0
  0
LINE
  5
2EF
330
20D
100
AcDbEntity
  8
S08_Retino
 48
0.9522482752799987
100
AcDbLine
 10
1.112157047500204
 20
55.52795072702065
 30
0.0
 11
1.612157047500204
 21
55.52795072702065
 31
0.0
  0
LINE
  5
2F0
330
20D
100
AcDbEntity
  8
S08_Retino
100
AcDbLine
 10
1.112157047500204
 20
62.03995072702037
 30
0.0
 11
-22.38784295249979
 21
62.03995072702037
 31
0.0
  0
LINE
  5
2F1
330
20D
100
AcDbEntity
  8
S08_Retino
100
AcDbLine
 10
-22.38784295249979
 20
55.52795072702065
 30
0.0
 11
1.112157047500204
 21
55.52795072702065
 31
0.0
  0
INSERT
  5
2F2
330
20D
100
AcDbEntity
  8
S08_Retino
100
AcDbBlockReference
  2
A$C6401520D
 10
-12.28137996887062
 20
58.78395072702005
 30
0.0
 50
90.0
  0
ENDBLK
  5
2F3
330
20D
100
AcDbEntity
  8
0
100
AcDbBlockEnd
  0
BLOCK
  5
2F5
330
2F4
100
AcDbEntity
  8
0
100
AcDbBlockBegin
  2
*D4
 70
     1
 10
0.0
 20
0.0
 30
0.0
  3
*D4
  1

  0
LINE
  5
2F6
330
2F4
100
AcDbEntity
  8
S10_Quote
 62
     0
370
    -2
100
AcDbLine
 10
2070.077866120223
 20
3822.51316976697
 30
0.0
 11
2066.956321202205
 21
3827.759216434828
 31
0.0
  0
LINE
  5
2F7
330
2F4
100
AcDbEntity
  8
S10_Quote
 62
     0
370
    -2
100
AcDbLine
 10
2060.293423275883
 20
3838.956836325832
 30
0.0
 11
2060.285753017334
 21
3838.969726908976
 31
0.0
  0
MTEXT
  5
2F8
102
{ACAD_XDICTIONARY
360
44E
102
}
330
2F4
100
AcDbEntity
  8
S10_Quote
 62
     0
100
AcDbMText
 10
2070.081019878674
 20
3826.058045767065
 30
0.0
 40
2.0
 41
0.0
 71
     5
 72
     1
  1
\U+220513
  7
wurth
 11
0.5113505699402864
 21
-0.8593722095935754
 31
0.0
 73
     1
 44
1.0
  0
LINE
  5
2F9
330
2F4
100
AcDbEntity
  8
S10_Quote
 62
     0
370
    -2
100
AcDbLine
 10
2060.301093534433
 20
3838.943945742688
 30
0.0
 11
2066.948650943657
 21
3827.772107017972
 31
0.0
  0
INSERT
  5
2FA
330
2F4
100
AcDbEntity
  8
S10_Quote
 62
     0
370
    -2
100
AcDbBlockReference
  2
A$C79C4041D
 10
2060.301093534433
 20
3838.943945742688
 30
0.0
 41
0.015
 42
0.015
 43
0.015
 50
300.7538324688378
  0
INSERT
  5
2FB
330
2F4
100
AcDbEntity
  8
S10_Quote
 62
     0
370
    -2
100
AcDbBlockReference
  2
A$C79C4041D
 10
2066.948650943657
 20
3827.772107017972
 30
0.0
 41
0.015
 42
0.015
 43
0.015
 50
120.7538324688378
  0
POINT
  5
2FC
330
2F4
100
AcDbEntity
  8
Defpoints
 62
     0
100
AcDbPoint
 10
2066.948650943657
 20
3827.772107017972
 30
0.0
  0
POINT
  5
2FD
330
2F4
100
AcDbEntity
  8
Defpoints
 62
     0
100
AcDbPoint
 10
2060.301093534433
 20
3838.943945742688
 30
0.0
  0
ENDBLK
  5
2FE
330
2F4
100
AcDbEntity
  8
0
100
AcDbBlockEnd
  0
BLOCK
  5
300
330
2FF
100
AcDbEntity
  8
0
100
AcDbBlockBegin
  2
*D5
 70
     1
 10
0.0
 20
0.0
 30
0.0
  3
*D5
  1

  0
LINE
  5
301
330
2FF
100
AcDbEntity
  8
S10_Quote
 62
     0
370
    -2
100
AcDbLine
 10
2041.624872239045
 20
3813.73302638033
 30
0.0
 11
2041.624872239045
 21
3804.694919090616
 31
0.0
  0
LINE
  5
302
330
2FF
100
AcDbEntity
  8
S10_Quote
 62
     0
370
    -2
100
AcDbLine
 10
2079.124872239045
 20
3813.73302638033
 30
0.0
 11
2079.124872239045
 21
3804.694919090616
 31
0.0
  0
LINE
  5
303
330
2FF
100
AcDbEntity
  8
S10_Quote
 62
     0
370
    -2
100
AcDbLine
 10
2041.639872239045
 20
3805.944919090615
 30
0.0
 11
2079.109872239045
 21
3805.944919090615
 31
0.0
  0
INSERT
  5
304
330
2FF
100
AcDbEntity
  8
S10_Quote
 62
     0
370
    -2
100
AcDbBlockReference
  2
A$C79C4041D
 10
2041.624872239045
 20
3805.944919090615
 30
0.0
 41
0.015
 42
0.015
 43
0.015
 50
180.0
  0
INSERT
  5
305
330
2FF
100
AcDbEntity
  8
S10_Quote
 62
     0
370
    -2
100
AcDbBlockReference
  2
A$C79C4041D
 10
2079.124872239045
 20
3805.944919090615
 30
0.0
 41
0.015
 42
0.015
 43
0.015
  0
MTEXT
  5
306
330
2FF
100
AcDbEntity
  8
S10_Quote
 62
     0
100
AcDbMText
 10
2060.374872239044
 20
3807.767296712993
 30
0.0
 40
2.0
 41
0.0
 71
     5
 72
     1
  1
37.5
  7
wurth
 73
     1
 44
1.0
  0
POINT
  5
307
330
2FF
100
AcDbEntity
  8
Defpoints
 62
     0
100
AcDbPoint
 10
2041.624872239045
 20
3814.358026380329
 30
0.0
  0
POINT
  5
308
330
2FF
100
AcDbEntity
  8
Defpoints
 62
     0
100
AcDbPoint
 10
2079.124872239045
 20
3814.358026380329
 30
0.0
  0
POINT
  5
309
330
2FF
100
AcDbEntity
  8
Defpoints
 62
     0
100
AcDbPoint
 10
2079.124872239045
 20
3805.944919090615
 30
0.0
  0
ENDBLK
  5
30A
330
2FF
100
AcDbEntity
  8
0
100
AcDbBlockEnd
  0
BLOCK
  5
30C
330
30B
100
AcDbEntity
  8
0
100
AcDbBlockBegin
  2
*D6
 70
     1
 10
0.0
 20
0.0
 30
0.0
  3
*D6
  1

  0
LINE
  5
30D
330
30B
100
AcDbEntity
  8
S10_Quote
 62
     0
370
    -2
100
AcDbLine
 10
2079.749872239045
 20
3814.358026380329
 30
0.0
 11
2088.772620061132
 21
3814.358026380329
 31
0.0
  0
LINE
  5
30E
330
30B
100
AcDbEntity
  8
S10_Quote
 62
     0
370
    -2
100
AcDbLine
 10
2079.749872239045
 20
3864.35802638033
 30
0.0
 11
2088.772620061132
 21
3864.35802638033
 31
0.0
  0
LINE
  5
30F
330
30B
100
AcDbEntity
  8
S10_Quote
 62
     0
370
    -2
100
AcDbLine
 10
2087.522620061132
 20
3814.37302638033
 30
0.0
 11
2087.522620061132
 21
3864.34302638033
 31
0.0
  0
INSERT
  5
310
330
30B
100
AcDbEntity
  8
S10_Quote
 62
     0
370
    -2
100
AcDbBlockReference
  2
A$C79C4041D
 10
2087.522620061132
 20
3814.358026380329
 30
0.0
 41
0.015
 42
0.015
 43
0.015
 50
270.0
  0
INSERT
  5
311
330
30B
100
AcDbEntity
  8
S10_Quote
 62
     0
370
    -2
100
AcDbBlockReference
  2
A$C79C4041D
 10
2087.522620061132
 20
3864.35802638033
 30
0.0
 41
0.015
 42
0.015
 43
0.015
 50
90.0
  0
MTEXT
  5
312
330
30B
100
AcDbEntity
  8
S10_Quote
 62
     0
100
AcDbMText
 10
2085.707235445747
 20
3839.35802638033
 30
0.0
 40
2.0
 41
0.0
 71
     5
 72
     1
  1
50
  7
wurth
 11
0.0000000000000001
 21
1.0
 31
0.0
 73
     1
 44
1.0
  0
POINT
  5
313
330
30B
100
AcDbEntity
  8
Defpoints
 62
     0
100
AcDbPoint
 10
2079.124872239045
 20
3814.358026380329
 30
0.0
  0
POINT
  5
314
330
30B
100
AcDbEntity
  8
Defpoints
 62
     0
100
AcDbPoint
 10
2079.124872239045
 20
3864.35802638033
 30
0.0
  0
POINT
  5
315
330
30B
100
AcDbEntity
  8
Defpoints
 62
     0
100
AcDbPoint
 10
2087.522620061132
 20
3864.35802638033
 30
0.0
  0
ENDBLK
  5
316
330
30B
100
AcDbEntity
  8
0
100
AcDbBlockEnd
  0
BLOCK
  5
318
330
317
100
AcDbEntity
  8
0
100
AcDbBlockBegin
  2
*D7
 70
     1
 10
0.0
 20
0.0
 30
0.0
  3
*D7
  1

  0
LINE
  5
319
330
317
100
AcDbEntity
  8
S10_Quote
 62
     0
370
    -2
100
AcDbLine
 10
1966.554260871742
 20
3899.35802638033
 30
0.0
 11
1952.220122504423
 21
3899.35802638033
 31
0.0
  0
LINE
  5
31A
330
317
100
AcDbEntity
  8
S10_Quote
 62
     0
370
    -2
100
AcDbLine
 10
1966.554260871742
 20
3814.358026380329
 30
0.0
 11
1952.220122504423
 21
3814.358026380329
 31
0.0
  0
LINE
  5
31B
330
317
100
AcDbEntity
  8
S10_Quote
 62
     0
370
    -2
100
AcDbLine
 10
1953.470122504423
 20
3899.34302638033
 30
0.0
 11
1953.470122504423
 21
3814.37302638033
 31
0.0
  0
INSERT
  5
31C
330
317
100
AcDbEntity
  8
S10_Quote
 62
     0
370
    -2
100
AcDbBlockReference
  2
A$C79C4041D
 10
1953.470122504423
 20
3899.35802638033
 30
0.0
 41
0.015
 42
0.015
 43
0.015
 50
90.0
  0
INSERT
  5
31D
330
317
100
AcDbEntity
  8
S10_Quote
 62
     0
370
    -2
100
AcDbBlockReference
  2
A$C79C4041D
 10
1953.470122504423
 20
3814.358026380329
 30
0.0
 41
0.015
 42
0.015
 43
0.015
 50
270.0
  0
MTEXT
  5
31E
330
317
100
AcDbEntity
  8
S10_Quote
 62
     0
100
AcDbMText
 10
1951.654737889037
 20
3856.858026380331
 30
0.0
 40
2.0
 41
0.0
 71
     5
 72
     1
  1
85
  7
wurth
 11
0.0000000000000001
 21
1.0
 31
0.0
 73
     1
 44
1.0
  0
POINT
  5
31F
330
317
100
AcDbEntity
  8
Defpoints
 62
     0
100
AcDbPoint
 10
1967.179260871742
 20
3899.35802638033
 30
0.0
  0
POINT
  5
320
330
317
100
AcDbEntity
  8
Defpoints
 62
     0
100
AcDbPoint
 10
1967.179260871742
 20
3814.358026380329
 30
0.0
  0
POINT
  5
321
330
317
100
AcDbEntity
  8
Defpoints
 62
     0
100
AcDbPoint
 10
1953.470122504423
 20
3814.358026380329
 30
0.0
  0
ENDBLK
  5
322
330
317
100
AcDbEntity
  8
0
100
AcDbBlockEnd
  0
BLOCK
  5
324
330
323
100
AcDbEntity
  8
0
100
AcDbBlockBegin
  2
*D8
 70
     1
 10
0.0
 20
0.0
 30
0.0
  3
*D8
  1

  0
LINE
  5
325
330
323
100
AcDbEntity
  8
S10_Quote
 62
     0
370
    -2
100
AcDbLine
 10
1963.929260871742
 20
3816.73302638033
 30
0.0
 11
1963.929260871742
 21
3807.409961943778
 31
0.0
  0
LINE
  5
326
330
323
100
AcDbEntity
  8
S10_Quote
 62
     0
370
    -2
100
AcDbLine
 10
2001.929260871742
 20
3816.73302638033
 30
0.0
 11
2001.929260871742
 21
3807.409961943778
 31
0.0
  0
LINE
  5
327
330
323
100
AcDbEntity
  8
S10_Quote
 62
     0
370
    -2
100
AcDbLine
 10
1963.944260871742
 20
3808.659961943778
 30
0.0
 11
2001.914260871743
 21
3808.659961943778
 31
0.0
  0
INSERT
  5
328
330
323
100
AcDbEntity
  8
S10_Quote
 62
     0
370
    -2
100
AcDbBlockReference
  2
A$C79C4041D
 10
1963.929260871742
 20
3808.659961943778
 30
0.0
 41
0.015
 42
0.015
 43
0.015
 50
180.0
  0
INSERT
  5
329
330
323
100
AcDbEntity
  8
S10_Quote
 62
     0
370
    -2
100
AcDbBlockReference
  2
A$C79C4041D
 10
2001.929260871742
 20
3808.659961943778
 30
0.0
 41
0.015
 42
0.015
 43
0.015
  0
MTEXT
  5
32A
330
323
100
AcDbEntity
  8
S10_Quote
 62
     0
100
AcDbMText
 10
1982.929260871742
 20
3810.475346559162
 30
0.0
 40
2.0
 41
0.0
 71
     5
 72
     1
  1
38
  7
wurth
 73
     1
 44
1.0
  0
POINT
  5
32B
330
323
100
AcDbEntity
  8
Defpoints
 62
     0
100
AcDbPoint
 10
1963.929260871742
 20
3817.358026380329
 30
0.0
  0
POINT
  5
32C
330
323
100
AcDbEntity
  8
Defpoints
 62
     0
100
AcDbPoint
 10
2001.929260871742
 20
3817.358026380329
 30
0.0
  0
POINT
  5
32D
330
323
100
AcDbEntity
  8
Defpoints
 62
     0
100
AcDbPoint
 10
2001.929260871742
 20
3808.659961943778
 30
0.0
  0
ENDBLK
  5
32E
330
323
100
AcDbEntity
  8
0
100
AcDbBlockEnd
  0
BLOCK
  5
3A0
330
39F
100
AcDbEntity
  8
0
100
AcDbBlockBegin
  2
*D10
 70
     1
 10
0.0
 20
0.0
 30
0.0
  3
*D10
  1

  0
LINE
  5
3A2
330
39F
100
AcDbEntity
  8
S10_Quote
 62
     0
370
    -2
100
AcDbLine
 10
1625.37373993019
 20
887.8261976939766
 30
0.0
 11
1625.37373993019
 21
878.7880904042621
 31
0.0
  0
LINE
  5
3A3
330
39F
100
AcDbEntity
  8
S10_Quote
 62
     0
370
    -2
100
AcDbLine
 10
1662.87373993019
 20
887.8261976939766
 30
0.0
 11
1662.87373993019
 21
878.7880904042621
 31
0.0
  0
LINE
  5
3A4
330
39F
100
AcDbEntity
  8
S10_Quote
 62
     0
370
    -2
100
AcDbLine
 10
1625.38873993019
 20
880.0380904042622
 30
0.0
 11
1662.85873993019
 21
880.0380904042622
 31
0.0
  0
INSERT
  5
3A5
330
39F
100
AcDbEntity
  8
S10_Quote
 62
     0
370
    -2
100
AcDbBlockReference
  2
A$C79C4041D
 10
1625.37373993019
 20
880.0380904042622
 30
0.0
 41
0.015
 42
0.015
 43
0.015
 50
180.0
  0
INSERT
  5
3A6
330
39F
100
AcDbEntity
  8
S10_Quote
 62
     0
370
    -2
100
AcDbBlockReference
  2
A$C79C4041D
 10
1662.87373993019
 20
880.0380904042622
 30
0.0
 41
0.015
 42
0.015
 43
0.015
  0
MTEXT
  5
3A7
330
39F
100
AcDbEntity
  8
S10_Quote
 62
     0
100
AcDbMText
 10
1644.12373993019
 20
881.8604680266398
 30
0.0
 40
2.0
 41
0.0
 71
     5
 72
     1
  1
37.5
  7
wurth
 73
     1
 44
1.0
  0
POINT
  5
3A8
330
39F
100
AcDbEntity
  8
Defpoints
 62
     0
100
AcDbPoint
 10
1625.37373993019
 20
888.4511976939766
 30
0.0
  0
POINT
  5
3A9
330
39F
100
AcDbEntity
  8
Defpoints
 62
     0
100
AcDbPoint
 10
1662.87373993019
 20
888.4511976939766
 30
0.0
  0
POINT
  5
3AA
330
39F
100
AcDbEntity
  8
Defpoints
 62
     0
100
AcDbPoint
 10
1662.87373993019
 20
880.0380904042622
 30
0.0
  0
ENDBLK
  5
3A1
330
39F
100
AcDbEntity
  8
0
100
AcDbBlockEnd
  0
BLOCK
  5
3AC
330
3AB
100
AcDbEntity
  8
0
100
AcDbBlockBegin
  2
*D11
 70
     1
 10
0.0
 20
0.0
 30
0.0
  3
*D11
  1

  0
LINE
  5
3AE
330
3AB
100
AcDbEntity
  8
S10_Quote
 62
     0
370
    -2
100
AcDbLine
 10
1663.49873993019
 20
888.4511976939766
 30
0.0
 11
1672.521487752278
 21
888.4511976939766
 31
0.0
  0
LINE
  5
3AF
330
3AB
100
AcDbEntity
  8
S10_Quote
 62
     0
370
    -2
100
AcDbLine
 10
1663.49873993019
 20
938.451197693976
 30
0.0
 11
1672.521487752278
 21
938.451197693976
 31
0.0
  0
LINE
  5
3B0
330
3AB
100
AcDbEntity
  8
S10_Quote
 62
     0
370
    -2
100
AcDbLine
 10
1671.271487752278
 20
888.4661976939765
 30
0.0
 11
1671.271487752278
 21
938.4361976939761
 31
0.0
  0
INSERT
  5
3B1
330
3AB
100
AcDbEntity
  8
S10_Quote
 62
     0
370
    -2
100
AcDbBlockReference
  2
A$C79C4041D
 10
1671.271487752278
 20
888.4511976939766
 30
0.0
 41
0.015
 42
0.015
 43
0.015
 50
270.0
  0
INSERT
  5
3B2
330
3AB
100
AcDbEntity
  8
S10_Quote
 62
     0
370
    -2
100
AcDbBlockReference
  2
A$C79C4041D
 10
1671.271487752278
 20
938.451197693976
 30
0.0
 41
0.015
 42
0.015
 43
0.015
 50
90.0
  0
MTEXT
  5
3B3
330
3AB
100
AcDbEntity
  8
S10_Quote
 62
     0
100
AcDbMText
 10
1669.456103136893
 20
913.4511976939766
 30
0.0
 40
2.0
 41
0.0
 71
     5
 72
     1
  1
50
  7
wurth
 11
0.0000000000000001
 21
1.0
 31
0.0
 73
     1
 44
1.0
  0
POINT
  5
3B4
330
3AB
100
AcDbEntity
  8
Defpoints
 62
     0
100
AcDbPoint
 10
1662.87373993019
 20
888.4511976939766
 30
0.0
  0
POINT
  5
3B5
330
3AB
100
AcDbEntity
  8
Defpoints
 62
     0
100
AcDbPoint
 10
1662.87373993019
 20
938.451197693976
 30
0.0
  0
POINT
  5
3B6
330
3AB
100
AcDbEntity
  8
Defpoints
 62
     0
100
AcDbPoint
 10
1671.271487752278
 20
938.451197693976
 30
0.0
  0
ENDBLK
  5
3AD
330
3AB
100
AcDbEntity
  8
0
100
AcDbBlockEnd
  0
BLOCK
  5
3B8
330
3B7
100
AcDbEntity
  8
0
100
AcDbBlockBegin
  2
*D12
 70
     1
 10
0.0
 20
0.0
 30
0.0
  3
*D12
  1

  0
LINE
  5
3BA
330
3B7
100
AcDbEntity
  8
S10_Quote
 62
     0
370
    -2
100
AcDbLine
 10
1550.303128562888
 20
973.4511976939765
 30
0.0
 11
1535.968990195568
 21
973.4511976939765
 31
0.0
  0
LINE
  5
3BB
330
3B7
100
AcDbEntity
  8
S10_Quote
 62
     0
370
    -2
100
AcDbLine
 10
1550.303128562888
 20
888.4511976939766
 30
0.0
 11
1535.968990195568
 21
888.4511976939766
 31
0.0
  0
LINE
  5
3BC
330
3B7
100
AcDbEntity
  8
S10_Quote
 62
     0
370
    -2
100
AcDbLine
 10
1537.218990195568
 20
973.4361976939766
 30
0.0
 11
1537.218990195568
 21
888.4661976939765
 31
0.0
  0
INSERT
  5
3BD
330
3B7
100
AcDbEntity
  8
S10_Quote
 62
     0
370
    -2
100
AcDbBlockReference
  2
A$C79C4041D
 10
1537.218990195568
 20
973.4511976939765
 30
0.0
 41
0.015
 42
0.015
 43
0.015
 50
90.0
  0
INSERT
  5
3BE
330
3B7
100
AcDbEntity
  8
S10_Quote
 62
     0
370
    -2
100
AcDbBlockReference
  2
A$C79C4041D
 10
1537.218990195568
 20
888.4511976939766
 30
0.0
 41
0.015
 42
0.015
 43
0.015
 50
270.0
  0
MTEXT
  5
3BF
330
3B7
100
AcDbEntity
  8
S10_Quote
 62
     0
100
AcDbMText
 10
1535.403605580183
 20
930.9511976939768
 30
0.0
 40
2.0
 41
0.0
 71
     5
 72
     1
  1
85
  7
wurth
 11
0.0000000000000001
 21
1.0
 31
0.0
 73
     1
 44
1.0
  0
POINT
  5
3C0
330
3B7
100
AcDbEntity
  8
Defpoints
 62
     0
100
AcDbPoint
 10
1550.928128562888
 20
973.4511976939765
 30
0.0
  0
POINT
  5
3C1
330
3B7
100
AcDbEntity
  8
Defpoints
 62
     0
100
AcDbPoint
 10
1550.928128562888
 20
888.4511976939766
 30
0.0
  0
POINT
  5
3C2
330
3B7
100
AcDbEntity
  8
Defpoints
 62
     0
100
AcDbPoint
 10
1537.218990195568
 20
888.4511976939766
 30
0.0
  0
ENDBLK
  5
3B9
330
3B7
100
AcDbEntity
  8
0
100
AcDbBlockEnd
  0
BLOCK
  5
3C4
330
3C3
100
AcDbEntity
  8
0
100
AcDbBlockBegin
  2
*D13
 70
     1
 10
0.0
 20
0.0
 30
0.0
  3
*D13
  1

  0
LINE
  5
3C6
330
3C3
100
AcDbEntity
  8
S10_Quote
 62
     0
370
    -2
100
AcDbLine
 10
1547.678128562887
 20
890.8261976939765
 30
0.0
 11
1547.678128562887
 21
881.5031332574244
 31
0.0
  0
LINE
  5
3C7
330
3C3
100
AcDbEntity
  8
S10_Quote
 62
     0
370
    -2
100
AcDbLine
 10
1585.678128562888
 20
890.8261976939765
 30
0.0
 11
1585.678128562888
 21
881.5031332574244
 31
0.0
  0
LINE
  5
3C8
330
3C3
100
AcDbEntity
  8
S10_Quote
 62
     0
370
    -2
100
AcDbLine
 10
1547.693128562888
 20
882.7531332574244
 30
0.0
 11
1585.663128562887
 21
882.7531332574244
 31
0.0
  0
INSERT
  5
3C9
330
3C3
100
AcDbEntity
  8
S10_Quote
 62
     0
370
    -2
100
AcDbBlockReference
  2
A$C79C4041D
 10
1547.678128562887
 20
882.7531332574244
 30
0.0
 41
0.015
 42
0.015
 43
0.015
 50
180.0
  0
INSERT
  5
3CA
330
3C3
100
AcDbEntity
  8
S10_Quote
 62
     0
370
    -2
100
AcDbBlockReference
  2
A$C79C4041D
 10
1585.678128562888
 20
882.7531332574244
 30
0.0
 41
0.015
 42
0.015
 43
0.015
  0
MTEXT
  5
3CB
330
3C3
100
AcDbEntity
  8
S10_Quote
 62
     0
100
AcDbMText
 10
1566.678128562888
 20
884.5685178728089
 30
0.0
 40
2.0
 41
0.0
 71
     5
 72
     1
  1
38
  7
wurth
 73
     1
 44
1.0
  0
POINT
  5
3CC
330
3C3
100
AcDbEntity
  8
Defpoints
 62
     0
100
AcDbPoint
 10
1547.678128562887
 20
891.4511976939765
 30
0.0
  0
POINT
  5
3CD
330
3C3
100
AcDbEntity
  8
Defpoints
 62
     0
100
AcDbPoint
 10
1585.678128562888
 20
891.4511976939765
 30
0.0
  0
POINT
  5
3CE
330
3C3
100
AcDbEntity
  8
Defpoints
 62
     0
100
AcDbPoint
 10
1585.678128562888
 20
882.7531332574244
 30
0.0
  0
ENDBLK
  5
3C5
330
3C3
100
AcDbEntity
  8
0
100
AcDbBlockEnd
  0
BLOCK
  5
3D0
330
3CF
100
AcDbEntity
  8
0
100
AcDbBlockBegin
  2
*D14
 70
     1
 10
0.0
 20
0.0
 30
0.0
  3
*D14
  1

  0
LINE
  5
3DA
330
3CF
100
AcDbEntity
  8
S10_Quote
 62
     0
370
    -2
100
AcDbLine
 10
1653.826733811368
 20
896.6063410806169
 30
0.0
 11
1650.705188893351
 21
901.8523877484746
 31
0.0
  0
LINE
  5
3DB
330
3CF
100
AcDbEntity
  8
S10_Quote
 62
     0
370
    -2
100
AcDbLine
 10
1644.042290967029
 20
913.0500076394783
 30
0.0
 11
1644.034620708479
 21
913.0628982226223
 31
0.0
  0
MTEXT
  5
3DC
102
{ACAD_XDICTIONARY
360
450
102
}
330
3CF
100
AcDbEntity
  8
S10_Quote
 62
     0
100
AcDbMText
 10
1653.829887569819
 20
900.1512170807115
 30
0.0
 40
2.0
 41
0.0
 71
     5
 72
     1
  1
\U+220513
  7
wurth
 11
0.5113505699403016
 21
-0.8593722095935664
 31
0.0
 73
     1
 44
1.0
  0
LINE
  5
3DD
330
3CF
100
AcDbEntity
  8
S10_Quote
 62
     0
370
    -2
100
AcDbLine
 10
1644.049961225578
 20
913.0371170563345
 30
0.0
 11
1650.697518634801
 21
901.8652783316184
 31
0.0
  0
INSERT
  5
3DE
330
3CF
100
AcDbEntity
  8
S10_Quote
 62
     0
370
    -2
100
AcDbBlockReference
  2
A$C79C4041D
 10
1644.049961225578
 20
913.0371170563345
 30
0.0
 41
0.015
 42
0.015
 43
0.015
 50
300.7538324688388
  0
INSERT
  5
3DF
330
3CF
100
AcDbEntity
  8
S10_Quote
 62
     0
370
    -2
100
AcDbBlockReference
  2
A$C79C4041D
 10
1650.697518634801
 20
901.8652783316184
 30
0.0
 41
0.015
 42
0.015
 43
0.015
 50
120.7538324688388
  0
POINT
  5
3E0
330
3CF
100
AcDbEntity
  8
Defpoints
 62
     0
100
AcDbPoint
 10
1650.697518634801
 20
901.8652783316184
 30
0.0
  0
POINT
  5
3E1
330
3CF
100
AcDbEntity
  8
Defpoints
 62
     0
100
AcDbPoint
 10
1644.049961225578
 20
913.0371170563345
 30
0.0
  0
ENDBLK
  5
3D1
330
3CF
100
AcDbEntity
  8
0
100
AcDbBlockEnd
  0
ENDSEC
  0
SECTION
  2
ENTITIES
  0
INSERT
  5
376
102
{ACAD_REACTORS
330
39B
330
39E
102
}
330
1F
100
AcDbEntity
  8
S08_Retino
100
AcDbBlockReference
  2
A$C49BB2E57
 10
1567.928128562887
 20
888.4511976939766
 30
0.0
  0
LWPOLYLINE
  5
377
102
{ACAD_REACTORS
330
395
102
}
330
1F
100
AcDbEntity
  8
Sichtbar (ISO)
100
AcDbPolyline
 90
        4
 70
     1
 43
0.0
 10
1625.37373993019
 20
938.4511976939766
 10
1662.87373993019
 20
938.4511976939766
 10
1662.87373993019
 20
888.4511976939766
 10
1625.37373993019
 20
888.4511976939766
  0
LWPOLYLINE
  5
378
102
{ACAD_REACTORS
330
395
102
}
330
1F
100
AcDbEntity
  8
Sichtbar (ISO)
100
AcDbPolyline
 90
        4
 70
     1
 43
0.0
 10
1625.37373993019
 20
938.4511976939766
 10
1631.87373993019
 20
938.4511976939766
 10
1631.87373993019
 20
888.4511976939766
 10
1625.37373993019
 20
888.4511976939766
  0
LINE
  5
379
102
{ACAD_REACTORS
330
398
102
}
330
1F
100
AcDbEntity
  8
Sichtbar (ISO)
100
AcDbLine
 10
1631.87373993019
 20
938.4511976939766
 30
0.0
 11
1662.87373993019
 21
938.4511976939766
 31
0.0
  0
CIRCLE
  5
37A
102
{ACAD_REACTORS
330
392
102
}
330
1F
100
AcDbEntity
  8
Sichtbar (ISO)
100
AcDbCircle
 10
1647.37373993019
 20
907.4511976939765
 30
0.0
 40
6.5
  0
LINE
  5
37B
330
1F
100
AcDbEntity
  8
S08_Retino
100
AcDbLine
 10
1647.43589697769
 20
927.9511976939765
 30
0.0
 11
1647.43589697769
 21
920.9511976939765
 31
0.0
  0
LINE
  5
37C
330
1F
100
AcDbEntity
  8
S08_Retino
100
AcDbLine
 10
1646.93589697769
 20
920.4511976939766
 30
0.0
 11
1646.93589697769
 21
928.4511976939766
 31
0.0
  0
LINE
  5
37D
330
1F
100
AcDbEntity
  8
S08_Retino
100
AcDbLine
 10
1647.43589697769
 20
920.9511976939765
 30
0.0
 11
1646.93589697769
 21
920.4511976939766
 31
0.0
  0
LINE
  5
37E
330
1F
100
AcDbEntity
  8
S08_Retino
100
AcDbLine
 10
1647.43589697769
 20
927.9511976939765
 30
0.0
 11
1646.93589697769
 21
928.4511976939766
 31
0.0
  0
LINE
  5
37F
330
1F
100
AcDbEntity
  8
S08_Retino
100
AcDbLine
 10
1622.93589697769
 20
919.4511976939766
 30
0.0
 11
1623.43589697769
 21
919.4511976939766
 31
0.0
  0
LINE
  5
380
330
1F
100
AcDbEntity
  8
S08_Retino
100
AcDbLine
 10
1622.93589697769
 20
929.4511976939766
 30
0.0
 11
1623.43589697769
 21
929.4511976939766
 31
0.0
  0
LINE
  5
381
330
1F
100
AcDbEntity
  8
S08_Retino
100
AcDbLine
 10
1623.43589697769
 20
919.4511976939766
 30
0.0
 11
1623.43589697769
 21
929.4511976939766
 31
0.0
  0
LINE
  5
382
330
1F
100
AcDbEntity
  8
S08_Retino
100
AcDbLine
 10
1622.93589697769
 20
929.4511976939766
 30
0.0
 11
1622.93589697769
 21
935.9511976939765
 31
0.0
  0
LINE
  5
383
330
1F
100
AcDbEntity
  8
S08_Retino
100
AcDbLine
 10
1619.135896977689
 20
912.9511976939765
 30
0.0
 11
1622.93589697769
 21
912.9511976939765
 31
0.0
  0
LINE
  5
384
330
1F
100
AcDbEntity
  8
S08_Retino
100
AcDbLine
 10
1622.93589697769
 20
916.9511976939766
 30
0.0
 11
1622.93589697769
 21
912.9511976939765
 31
0.0
  0
LINE
  5
385
330
1F
100
AcDbEntity
  8
S08_Retino
100
AcDbLine
 10
1619.135896977689
 20
912.9511976939765
 30
0.0
 11
1619.135896977689
 21
916.9511976939766
 31
0.0
  0
LINE
  5
386
330
1F
100
AcDbEntity
  8
S08_Retino
100
AcDbLine
 10
1622.93589697769
 20
916.9511976939766
 30
0.0
 11
1622.93589697769
 21
919.4511976939766
 31
0.0
  0
LINE
  5
387
330
1F
100
AcDbEntity
  8
S08_Retino
100
AcDbLine
 10
1619.135896977689
 20
935.9511976939765
 30
0.0
 11
1622.93589697769
 21
935.9511976939765
 31
0.0
  0
LINE
  5
388
330
1F
100
AcDbEntity
  8
S08_Retino
100
AcDbLine
 10
1619.135896977689
 20
935.9511976939765
 30
0.0
 11
1619.135896977689
 21
916.9511976939766
 31
0.0
  0
LINE
  5
389
330
1F
100
AcDbEntity
  8
S08_Retino
100
AcDbLine
 10
1623.43589697769
 20
928.4511976939766
 30
0.0
 11
1646.93589697769
 21
928.4511976939766
 31
0.0
  0
LINE
  5
38A
330
1F
100
AcDbEntity
  8
S08_Retino
100
AcDbLine
 10
1623.43589697769
 20
920.4511976939766
 30
0.0
 11
1646.93589697769
 21
920.4511976939766
 31
0.0
  0
LINE
  5
38B
330
1F
100
AcDbEntity
  8
S08_Retino
 48
0.9522482752799987
100
AcDbLine
 10
1647.43589697769
 20
927.7071976939769
 30
0.0
 11
1646.93589697769
 21
927.7071976939769
 31
0.0
  0
LINE
  5
38C
330
1F
100
AcDbEntity
  8
S08_Retino
 48
0.9522482752799987
100
AcDbLine
 10
1646.93589697769
 20
921.1951976939772
 30
0.0
 11
1647.43589697769
 21
921.1951976939772
 31
0.0
  0
LINE
  5
38D
330
1F
100
AcDbEntity
  8
S08_Retino
100
AcDbLine
 10
1646.93589697769
 20
927.7071976939769
 30
0.0
 11
1623.43589697769
 21
927.7071976939769
 31
0.0
  0
LINE
  5
38E
330
1F
100
AcDbEntity
  8
S08_Retino
100
AcDbLine
 10
1623.43589697769
 20
921.1951976939772
 30
0.0
 11
1646.93589697769
 21
921.1951976939772
 31
0.0
  0
INSERT
  5
38F
330
1F
100
AcDbEntity
  8
S08_Retino
100
AcDbBlockReference
  2
A$C6401520D
 10
1633.542359961319
 20
924.4511976939765
 30
0.0
 50
90.0
  0
DIMENSION
  5
390
102
{ACAD_XDICTIONARY
360
391
102
}
102
{ACAD_REACTORS
330
392
102
}
330
1F
100
AcDbEntity
  8
S10_Quote
100
AcDbDimension
  2
*D14
 10
1644.049961225578
 20
913.0371170563345
 30
0.0
 11
1653.829887569819
 21
900.1512170807115
 31
0.0
 70
    35
 71
     5
 42
12.99999999999966
  3
mm 1_1
100
AcDbDiametricDimension
 15
1650.697518634801
 25
901.8652783316184
 35
0.0
 40
0.0
1001
ACAD_DSTYLE_DIMRADIAL_EXTENSION
1070
   387
1070
     1
1070
   388
1040
0.0
1070
   390
1040
0.0
  0
DIMENSION
  5
393
102
{ACAD_XDICTIONARY
360
394
102
}
102
{ACAD_REACTORS
330
395
102
}
330
1F
100
AcDbEntity
  8
S10_Quote
100
AcDbDimension
  2
*D10
 10
1662.87373993019
 20
880.0380904042622
 30
0.0
 11
1644.12373993019
 21
881.8604680266398
 31
0.0
 70
    32
 71
     5
 42
37.5
  3
mm 1_1
100
AcDbAlignedDimension
 13
1625.37373993019
 23
888.4511976939766
 33
0.0
 14
1662.87373993019
 24
888.4511976939766
 34
0.0
100
AcDbRotatedDimension
  0
DIMENSION
  5
396
102
{ACAD_XDICTIONARY
360
397
102
}
102
{ACAD_REACTORS
330
398
102
}
330
1F
100
AcDbEntity
  8
S10_Quote
100
AcDbDimension
  2
*D11
 10
1671.271487752278
 20
938.451197693976
 30
0.0
 11
1669.456103136893
 21
913.4511976939766
 31
0.0
 70
    32
 71
     5
 42
49.99999999999954
  3
mm 1_1
100
AcDbAlignedDimension
 13
1662.87373993019
 23
888.4511976939766
 33
0.0
 14
1662.87373993019
 24
938.451197693976
 34
0.0
 50
90.0
100
AcDbRotatedDimension
  0
DIMENSION
  5
399
102
{ACAD_XDICTIONARY
360
39A
102
}
102
{ACAD_REACTORS
330
39B
102
}
330
1F
100
AcDbEntity
  8
S10_Quote
100
AcDbDimension
  2
*D12
 10
1537.218990195568
 20
888.4511976939766
 30
0.0
 11
1535.403605580183
 21
930.9511976939768
 31
0.0
 70
    32
 71
     5
 42
85.0
  3
mm 1_1
100
AcDbAlignedDimension
 13
1550.928128562888
 23
973.4511976939765
 33
0.0
 14
1550.928128562888
 24
888.4511976939766
 34
0.0
 50
90.0
100
AcDbRotatedDimension
  0
DIMENSION
  5
39C
102
{ACAD_XDICTIONARY
360
39D
102
}
102
{ACAD_REACTORS
330
39E
102
}
330
1F
100
AcDbEntity
  8
S10_Quote
100
AcDbDimension
  2
*D13
 10
1585.678128562888
 20
882.7531332574244
 30
0.0
 11
1566.678128562888
 21
884.5685178728089
 31
0.0
 70
    32
 71
     5
 42
38.0
  3
mm 1_1
100
AcDbAlignedDimension
 13
1547.678128562887
 23
891.4511976939765
 33
0.0
 14
1585.678128562888
 24
891.4511976939765
 34
0.0
100
AcDbRotatedDimension
  0
ENDSEC
  0
SECTION
  2
OBJECTS
  0
DICTIONARY
  5
C
330
0
100
AcDbDictionary
281
     1
  3
ACAD_COLOR
350
6B
  3
ACAD_GROUP
350
D
  3
ACAD_LAYOUT
350
1A
  3
ACAD_MATERIAL
350
6A
  3
ACAD_MLEADERSTYLE
350
12D
  3
ACAD_MLINESTYLE
350
17
  3
ACAD_PLOTSETTINGS
350
19
  3
ACAD_PLOTSTYLENAME
350
E
  3
ACAD_SCALELIST
350
10C
  3
ACAD_TABLESTYLE
350
7E
  3
ACAD_VISUALSTYLE
350
EF
  3
ACDB_RECOMPOSE_DATA
350
421
  3
AcDbVariableDictionary
350
5E
  0
DICTIONARY
  5
341
330
2
100
AcDbDictionary
280
     1
281
     1
  3
ACAD_LAYERSTATES
360
342
  0
DICTIONARY
  5
13C
330
10
100
AcDbDictionary
280
     1
281
     1
  0
DICTIONARY
  5
331
330
330
100
AcDbDictionary
280
     1
281
     1
  0
DICTIONARY
  5
333
330
332
100
AcDbDictionary
280
     1
281
     1
  0
DICTIONARY
  5
1CE
330
1F
100
AcDbDictionary
280
     1
281
     1
  0
DICTIONARY
  5
1F5
330
1F4
100
AcDbDictionary
280
     1
281
     1
  0
DICTIONARY
  5
1FB
330
1FA
100
AcDbDictionary
280
     1
281
     1
  3
ACAD_SORTENTS
360
1FC
  0
DICTIONARY
  5
20E
330
20D
100
AcDbDictionary
280
     1
281
     1
  3
ACAD_SORTENTS
360
20F
  0
DICTIONARY
  5
44E
330
2F8
100
AcDbDictionary
280
     1
281
     1
  3
ACAD_MTEXT_2008_RT
360
44F
  0
DICTIONARY
  5
450
330
3DC
100
AcDbDictionary
280
     1
281
     1
  3
ACAD_MTEXT_2008_RT
360
451
  0
DICTIONARY
  5
391
330
390
100
AcDbDictionary
280
     1
281
     1
  3
ACAD_DIMASSOC
360
392
  0
DICTIONARY
  5
394
330
393
100
AcDbDictionary
280
     1
281
     1
  3
ACAD_DIMASSOC
360
395
  0
DICTIONARY
  5
397
330
396
100
AcDbDictionary
280
     1
281
     1
  3
ACAD_DIMASSOC
360
398
  0
DICTIONARY
  5
39A
330
399
100
AcDbDictionary
280
     1
281
     1
  3
ACAD_DIMASSOC
360
39B
  0
DICTIONARY
  5
39D
330
39C
100
AcDbDictionary
280
     1
281
     1
  3
ACAD_DIMASSOC
360
39E
  0
DICTIONARY
  5
6B
102
{ACAD_REACTORS
330
C
102
}
330
C
100
AcDbDictionary
281
     1
  0
DICTIONARY
  5
D
102
{ACAD_REACTORS
330
C
102
}
330
C
100
AcDbDictionary
281
     1
  0
DICTIONARY
  5
1A
102
{ACAD_REACTORS
330
C
102
}
330
C
100
AcDbDictionary
281
     1
  3
Layout1
350
D3
  3
Layout2
350
D7
  3
Model
350
22
  0
DICTIONARY
  5
6A
102
{ACAD_REACTORS
330
C
102
}
330
C
100
AcDbDictionary
281
     1
  3
ByBlock
350
ED
  3
ByLayer
350
EC
  3
Global
350
EE
  0
DICTIONARY
  5
12D
102
{ACAD_REACTORS
330
C
102
}
330
C
100
AcDbDictionary
281
     1
  3
Annotativa
350
13B
  3
Standard
350
12E
  0
DICTIONARY
  5
17
102
{ACAD_REACTORS
330
C
102
}
330
C
100
AcDbDictionary
281
     1
  3
Standard
350
18
  0
DICTIONARY
  5
19
102
{ACAD_REACTORS
330
C
102
}
330
C
100
AcDbDictionary
281
     1
  0
ACDBDICTIONARYWDFLT
  5
E
102
{ACAD_REACTORS
330
C
102
}
330
C
100
AcDbDictionary
281
     1
  3
Normal
350
F
100
AcDbDictionaryWithDefault
340
F
  0
DICTIONARY
  5
10C
102
{ACAD_REACTORS
330
C
102
}
330
C
100
AcDbDictionary
281
     1
  3
A0
350
10D
  3
A1
350
1BE
  3
A2
350
1BF
  3
A3
350
1C0
  3
A4
350
1C1
  3
A5
350
1C2
  3
A6
350
1C3
  3
A7
350
1C4
  3
A8
350
1C5
  3
A9
350
1C6
  3
B0
350
1C7
  3
B1
350
1C8
  3
B2
350
1C9
  3
B3
350
1CA
  3
B4
350
1CB
  3
B5
350
1CC
  3
B6
350
1CD
  0
DICTIONARY
  5
7E
102
{ACAD_REACTORS
330
C
102
}
330
C
100
AcDbDictionary
281
     1
  3
Standard
350
7F
  0
DICTIONARY
  5
EF
102
{ACAD_REACTORS
330
C
102
}
330
C
100
AcDbDictionary
281
     1
  3
2dWireframe
350
F5
  3
3D Hidden
350
F7
  3
3dWireframe
350
F6
  3
Basic
350
F4
  3
Brighten
350
FB
  3
ColorChange
350
FF
  3
Conceptual
350
F8
  3
Dim
350
FA
  3
EdgeColorOff
350
1E6
  3
Facepattern
350
FE
  3
Flat
350
F0
  3
FlatWithEdges
350
F1
  3
Gouraud
350
F2
  3
GouraudWithEdges
350
F3
  3
JitterOff
350
1E4
  3
Linepattern
350
FD
  3
OverhangOff
350
1E5
  3
Realistic
350
F9
  3
Thicken
350
FC
  0
XRECORD
  5
421
102
{ACAD_REACTORS
330
C
102
}
330
C
100
AcDbXrecord
280
     1
 90
        1
330
7F
  0
DICTIONARY
  5
5E
102
{ACAD_REACTORS
330
C
102
}
330
C
100
AcDbDictionary
281
     1
  3
CANNOSCALE
350
146
  3
CMLEADERSTYLE
350
145
  3
CTABLESTYLE
350
84
  3
DIMASSOC
350
5F
  3
HIDETEXT
350
63
  3
LAYEREVAL
350
1AE
  3
LAYERNOTIFY
350
1AF
  3
LIGHTINGUNITS
350
41C
  3
MSLTSCALE
350
41B
  3
PSOLHEIGHT
350
41E
  3
PSOLWIDTH
350
41D
  3
XCLIPFRAME
350
41F
  0
DICTIONARY
  5
342
102
{ACAD_REACTORS
330
341
102
}
330
341
100
AcDbDictionary
281
     1
  0
SORTENTSTABLE
  5
1FC
102
{ACAD_REACTORS
330
1FB
102
}
330
1FB
100
AcDbSortentsTable
330
1FA
  0
SORTENTSTABLE
  5
20F
102
{ACAD_REACTORS
330
20E
102
}
330
20E
100
AcDbSortentsTable
330
20D
  0
XRECORD
  5
44F
102
{ACAD_REACTORS
330
44E
102
}
330
44E
100
AcDbXrecord
280
     1
 40
2351.0
  1
\U+220513
  0
XRECORD
  5
451
102
{ACAD_REACTORS
330
450
102
}
330
450
100
AcDbXrecord
280
     1
 40
2351.0
  1
\U+220513
  0
DIMASSOC
  5
392
102
{ACAD_REACTORS
330
391
102
}
330
391
100
AcDbDimAssoc
330
390
 90
        2
 70
     0
 71
     0
  1
AcDbOsnapPointRef
 72
     3
331
37A
 73
     2
 91
        0
 40
0.0
 10
0.0
 20
0.0
 30
0.0
 75
     0
  0
DIMASSOC
  5
395
102
{ACAD_REACTORS
330
394
102
}
330
394
100
AcDbDimAssoc
330
393
 90
        3
 70
     0
 71
     0
  1
AcDbOsnapPointRef
 72
     1
331
378
 73
     2
 91
        3
 40
1.0
 10
0.0
 20
0.0
 30
2.000000000000000E+50
 75
     0
  1
AcDbOsnapPointRef
 72
     1
331
377
 73
     2
 91
        2
 40
1.0
 10
0.0
 20
0.0
 30
2.000000000000000E+50
 75
     0
  0
DIMASSOC
  5
398
102
{ACAD_REACTORS
330
397
102
}
330
397
100
AcDbDimAssoc
330
396
 90
        2
 70
     0
 71
     0
  1
AcDbOsnapPointRef
 72
     8
331
379
 73
     2
 91
        0
 40
1.0
 10
0.0
 20
0.0
 30
0.0
 75
     1
  1
AcDbOsnapPointRef
 72
     0
 40
0.0
 10
2311.720314544207
 20
3856.604467217046
 30
0.0
 75
     0
  0
DIMASSOC
  5
39B
102
{ACAD_REACTORS
330
39A
102
}
330
39A
100
AcDbDimAssoc
330
399
 90
        3
 70
     0
 71
     0
  1
AcDbOsnapPointRef
 72
     2
331
376
331
272
 73
     2
 91
        0
 40
0.5
 10
0.0
 20
0.0
 30
0.0
 75
     0
  1
AcDbOsnapPointRef
 72
     8
331
376
331
274
 73
     2
 91
        0
 40
0.9927536231884058
 10
0.0
 20
0.0
 30
0.0
 75
     1
  1
AcDbOsnapPointRef
 72
     2
331
376
331
272
 73
     2
 91
        0
 40
0.5
 10
0.0
 20
0.0
 30
0.0
 75
     0
  0
DIMASSOC
  5
39E
102
{ACAD_REACTORS
330
39D
102
}
330
39D
100
AcDbDimAssoc
330
39C
 90
        3
 70
     0
 71
     0
  1
AcDbOsnapPointRef
 72
    13
331
376
331
273
 73
     2
 91
        0
 40
0.0
 10
0.0
 20
0.0
 30
2.000000000000000E+50
 75
     0
  1
AcDbOsnapPointRef
 72
     8
331
376
331
275
 73
     2
 91
        0
 40
0.6428571428571429
 10
0.0
 20
0.0
 30
0.0
 75
     1
  1
AcDbOsnapPointRef
 72
    13
331
376
331
273
 73
     2
 91
        0
 40
0.0
 10
0.0
 20
0.0
 30
2.000000000000000E+50
 75
     0
  0
LAYOUT
  5
D3
102
{ACAD_REACTORS
330
1A
102
}
330
1A
100
AcDbPlotSettings
  1

  2
C:\Documents and Settings\basas\Application Data\Autodesk\AutoCAD 2005\R16.1\enu\plotters\Default Windows System Printer.pc3
  4

  6

 40
0.0
 41
0.0
 42
0.0
 43
0.0
 44
0.0
 45
0.0
 46
0.0
 47
0.0
 48
0.0
 49
0.0
140
0.0
141
0.0
142
1.0
143
1.0
 70
   688
 72
     0
 73
     0
 74
     5
  7

 75
    16
147
1.0
 76
     0
 77
     2
 78
   300
148
0.0
149
0.0
100
AcDbLayout
  1
Layout1
 70
     1
 71
     1
 10
0.0
 20
0.0
 11
12.0
 21
9.0
 12
0.0
 22
0.0
 32
0.0
 14
0.0
 24
0.0
 34
0.0
 15
0.0
 25
0.0
 35
0.0
146
0.0
 13
0.0
 23
0.0
 33
0.0
 16
1.0
 26
0.0
 36
0.0
 17
0.0
 27
1.0
 37
0.0
 76
     0
330
D2
  0
LAYOUT
  5
D7
102
{ACAD_REACTORS
330
1A
102
}
330
1A
100
AcDbPlotSettings
  1

  2
C:\Documents and Settings\basas\Application Data\Autodesk\AutoCAD 2005\R16.1\enu\plotters\Default Windows System Printer.pc3
  4

  6

 40
0.0
 41
0.0
 42
0.0
 43
0.0
 44
0.0
 45
0.0
 46
0.0
 47
0.0
 48
0.0
 49
0.0
140
0.0
141
0.0
142
1.0
143
1.0
 70
   688
 72
     0
 73
     0
 74
     5
  7

 75
    16
147
1.0
 76
     0
 77
     2
 78
   300
148
0.0
149
0.0
100
AcDbLayout
  1
Layout2
 70
     1
 71
     2
 10
0.0
 20
0.0
 11
12.0
 21
9.0
 12
0.0
 22
0.0
 32
0.0
 14
0.0
 24
0.0
 34
0.0
 15
0.0
 25
0.0
 35
0.0
146
0.0
 13
0.0
 23
0.0
 33
0.0
 16
1.0
 26
0.0
 36
0.0
 17
0.0
 27
1.0
 37
0.0
 76
     0
330
D6
  0
LAYOUT
  5
22
102
{ACAD_REACTORS
330
1A
102
}
330
1A
100
AcDbPlotSettings
  1

  2
none_device
  4
ISO_A4_(210.00_x_297.00_MM)
  6

 40
7.5
 41
20.0
 42
7.5
 43
20.0
 44
210.0
 45
297.0
 46
11.54999923706054
 47
-13.65000009536743
 48
0.0
 49
0.0
140
0.0
141
0.0
142
1.0
143
8.704084754739808
 70
 11952
 72
     1
 73
     0
 74
     0
  7

 75
     0
147
0.1148885871608098
 76
     0
 77
     2
 78
   300
148
0.0
149
0.0
100
AcDbLayout
  1
Model
 70
     1
 71
     0
 10
0.0
 20
0.0
 11
12.0
 21
9.0
 12
0.0
 22
0.0
 32
0.0
 14
0.0
 24
0.0
 34
0.0
 15
0.0
 25
0.0
 35
0.0
146
0.0
 13
0.0
 23
0.0
 33
0.0
 16
1.0
 26
0.0
 36
0.0
 17
0.0
 27
1.0
 37
0.0
 76
     0
330
1F
331
EA
1001
ACAD_PSEXT
1000
None
1000
None
1000
Not applicable
1000
The layout will not be plotted unless a new plotter configuration name is selected.
1070
     0
  0
MATERIAL
  5
ED
102
{ACAD_XDICTIONARY
360
425
102
}
102
{ACAD_REACTORS
330
6A
102
}
330
6A
100
AcDbMaterial
  1
ByBlock
  0
MATERIAL
  5
EC
102
{ACAD_XDICTIONARY
360
423
102
}
102
{ACAD_REACTORS
330
6A
102
}
330
6A
100
AcDbMaterial
  1
ByLayer
  0
MATERIAL
  5
EE
102
{ACAD_XDICTIONARY
360
173
102
}
102
{ACAD_REACTORS
330
6A
102
}
330
6A
100
AcDbMaterial
  1
Global
 43
0.0007999999797903
 43
0.0
 43
0.0
 43
0.0
 43
0.0
 43
0.0007999999797903
 43
0.0
 43
0.0
 43
0.0
 43
0.0
 43
1.0
 43
0.0
 43
0.0
 43
0.0
 43
0.0
 43
1.0
 49
0.0007999999797903
 49
0.0
 49
0.0
 49
0.0
 49
0.0
 49
0.0007999999797903
 49
0.0
 49
0.0
 49
0.0
 49
0.0
 49
1.0
 49
0.0
 49
0.0
 49
0.0
 49
0.0
 49
1.0
142
0.0007999999797903
142
0.0
142
0.0
142
0.0
142
0.0
142
0.0007999999797903
142
0.0
142
0.0
142
0.0
142
0.0
142
1.0
142
0.0
142
0.0
142
0.0
142
0.0
142
1.0
144
0.0007999999797903
144
0.0
144
0.0
144
0.0
144
0.0
144
0.0007999999797903
144
0.0
144
0.0
144
0.0
144
0.0
144
1.0
144
0.0
144
0.0
144
0.0
144
0.0
144
1.0
1001
ACAD
1070
    -1
1070
     3
1070
     0
1000

1071
        0
1070
     0
  0
MLEADERSTYLE
  5
13B
102
{ACAD_REACTORS
330
12D
102
}
330
12D
100
AcDbMLeaderStyle
170
     2
171
     1
172
     0
 90
        2
 40
0.0
 41
0.0
173
     1
 91
-1056964608
340
14
 92
       -2
290
     1
 42
2.0
291
     1
 43
8.0
  3
Standard
 44
4.0
300

342
11
174
     1
178
     1
175
     1
176
     0
 93
-1056964608
 45
4.0
292
     0
297
     0
 46
4.0
 94
-1056964608
 47
1.0
 49
1.0
140
1.0
293
     1
141
0.0
294
     1
177
     0
142
1.0
295
     0
296
     1
143
3.75
1001
ACAD_MLEADERVER
1070
     2
  0
MLEADERSTYLE
  5
12E
102
{ACAD_REACTORS
330
12D
102
}
330
12D
100
AcDbMLeaderStyle
170
     2
171
     1
172
     0
 90
        2
 40
0.0
 41
0.0
173
     1
 91
-1056964608
340
14
 92
       -2
290
     1
 42
2.0
291
     1
 43
8.0
  3
Standard
 44
4.0
300

342
11
174
     1
178
     1
175
     1
176
     0
 93
-1056964608
 45
4.0
292
     0
297
     0
 46
4.0
 94
-1056964608
 47
1.0
 49
1.0
140
1.0
293
     1
141
0.0
294
     1
177
     0
142
1.0
295
     0
296
     0
143
3.75
1001
ACAD_MLEADERVER
1070
     2
  0
MLINESTYLE
  5
18
102
{ACAD_REACTORS
330
17
102
}
330
17
100
AcDbMlineStyle
  2
STANDARD
 70
     0
  3

 62
   256
 51
90.0
 52
90.0
 71
     2
 49
0.5
 62
   256
  6
BYLAYER
 49
-0.5
 62
   256
  6
BYLAYER
  0
ACDBPLACEHOLDER
  5
F
102
{ACAD_REACTORS
330
E
102
}
330
E
  0
SCALE
  5
10D
102
{ACAD_REACTORS
330
10C
102
}
330
10C
100
AcDbScale
 70
     0
300
1:1
140
1.0
141
1.0
290
     1
  0
SCALE
  5
1BE
102
{ACAD_REACTORS
330
10C
102
}
330
10C
100
AcDbScale
 70
     0
300
1:2
140
1.0
141
2.0
290
     0
  0
SCALE
  5
1BF
102
{ACAD_REACTORS
330
10C
102
}
330
10C
100
AcDbScale
 70
     0
300
1:4
140
1.0
141
4.0
290
     0
  0
SCALE
  5
1C0
102
{ACAD_REACTORS
330
10C
102
}
330
10C
100
AcDbScale
 70
     0
300
1:5
140
1.0
141
5.0
290
     0
  0
SCALE
  5
1C1
102
{ACAD_REACTORS
330
10C
102
}
330
10C
100
AcDbScale
 70
     0
300
1:8
140
1.0
141
8.0
290
     0
  0
SCALE
  5
1C2
102
{ACAD_REACTORS
330
10C
102
}
330
10C
100
AcDbScale
 70
     0
300
1:10
140
1.0
141
10.0
290
     0
  0
SCALE
  5
1C3
102
{ACAD_REACTORS
330
10C
102
}
330
10C
100
AcDbScale
 70
     0
300
1:16
140
1.0
141
16.0
290
     0
  0
SCALE
  5
1C4
102
{ACAD_REACTORS
330
10C
102
}
330
10C
100
AcDbScale
 70
     0
300
1:20
140
1.0
141
20.0
290
     0
  0
SCALE
  5
1C5
102
{ACAD_REACTORS
330
10C
102
}
330
10C
100
AcDbScale
 70
     0
300
1:30
140
1.0
141
30.0
290
     0
  0
SCALE
  5
1C6
102
{ACAD_REACTORS
330
10C
102
}
330
10C
100
AcDbScale
 70
     0
300
1:40
140
1.0
141
40.0
290
     0
  0
SCALE
  5
1C7
102
{ACAD_REACTORS
330
10C
102
}
330
10C
100
AcDbScale
 70
     0
300
1:50
140
1.0
141
50.0
290
     0
  0
SCALE
  5
1C8
102
{ACAD_REACTORS
330
10C
102
}
330
10C
100
AcDbScale
 70
     0
300
1:100
140
1.0
141
100.0
290
     0
  0
SCALE
  5
1C9
102
{ACAD_REACTORS
330
10C
102
}
330
10C
100
AcDbScale
 70
     0
300
2:1
140
2.0
141
1.0
290
     0
  0
SCALE
  5
1CA
102
{ACAD_REACTORS
330
10C
102
}
330
10C
100
AcDbScale
 70
     0
300
4:1
140
4.0
141
1.0
290
     0
  0
SCALE
  5
1CB
102
{ACAD_REACTORS
330
10C
102
}
330
10C
100
AcDbScale
 70
     0
300
8:1
140
8.0
141
1.0
290
     0
  0
SCALE
  5
1CC
102
{ACAD_REACTORS
330
10C
102
}
330
10C
100
AcDbScale
 70
     0
300
10:1
140
10.0
141
1.0
290
     0
  0
SCALE
  5
1CD
102
{ACAD_REACTORS
330
10C
102
}
330
10C
100
AcDbScale
 70
     0
300
100:1
140
100.0
141
1.0
290
     0
  0
TABLESTYLE
  5
7F
102
{ACAD_XDICTIONARY
360
162
102
}
102
{ACAD_REACTORS
330
7E
102
}
330
7E
100
AcDbTableStyle
  3
Standard
 70
     0
 71
     0
 40
1.5
 41
1.5
280
     0
281
     0
  7
Standard
140
4.5
170
     2
 62
     0
 63
     7
283
     0
274
    -2
284
     1
 64
     0
275
    -2
285
     1
 65
     0
276
    -2
286
     1
 66
     0
277
    -2
287
     1
 67
     0
278
    -2
288
     1
 68
     0
279
    -2
289
     1
 69
     0
  7
Standard
140
6.0
170
     5
 62
     0
 63
     7
283
     0
274
    -2
284
     1
 64
     0
275
    -2
285
     1
 65
     0
276
    -2
286
     1
 66
     0
277
    -2
287
     1
 67
     0
278
    -2
288
     1
 68
     0
279
    -2
289
     1
 69
     0
  7
Standard
140
4.5
170
     5
 62
     0
 63
     7
283
     0
274
    -2
284
     1
 64
     0
275
    -2
285
     1
 65
     0
276
    -2
286
     1
 66
     0
277
    -2
287
     1
 67
     0
278
    -2
288
     1
 68
     0
279
    -2
289
     1
 69
     0
  0
VISUALSTYLE
  5
F5
102
{ACAD_XDICTIONARY
360
432
102
}
102
{ACAD_REACTORS
330
EF
102
}
330
EF
100
AcDbVisualStyle
  2
2dWireframe
 70
     4
 71
     0
 72
     2
 73
     1
 90
        0
 40
-0.6
 41
-30.0
 62
     5
 63
     7
421
 16777215
 74
     1
 91
        4
 64
     7
 65
   257
 75
     1
175
     1
 42
1.0
 92
        0
 66
   257
 43
1.0
 76
     1
 77
     6
 78
     2
 67
     7
 79
     5
170
     0
171
     0
290
     0
174
     0
 93
        1
 44
0.0
173
     0
291
     0
 45
0.0
1001
ACAD
1000
AcDbSavedByObjectVersion
1070
     0
  0
VISUALSTYLE
  5
F7
102
{ACAD_XDICTIONARY
360
436
102
}
102
{ACAD_REACTORS
330
EF
102
}
330
EF
100
AcDbVisualStyle
  2
3D Hidden
 70
     6
 71
     1
 72
     2
 73
     2
 90
        0
 40
-0.6
 41
-30.0
 62
     5
 63
     7
421
 16777215
 74
     2
 91
        2
 64
     7
 65
   257
 75
     2
175
     1
 42
40.0
 92
        0
 66
   257
 43
1.0
 76
     1
 77
     6
 78
     2
 67
     7
 79
     3
170
     0
171
     0
290
     0
174
     0
 93
        1
 44
0.0
173
     0
291
     0
 45
0.0
1001
ACAD
1000
AcDbSavedByObjectVersion
1070
     0
  0
VISUALSTYLE
  5
F6
102
{ACAD_XDICTIONARY
360
434
102
}
102
{ACAD_REACTORS
330
EF
102
}
330
EF
100
AcDbVisualStyle
  2
3dWireframe
 70
     5
 71
     0
 72
     2
 73
     1
 90
        0
 40
-0.6
 41
-30.0
 62
     5
 63
     7
421
 16777215
 74
     1
 91
        4
 64
     7
 65
   257
 75
     1
175
     1
 42
1.0
 92
        0
 66
   257
 43
1.0
 76
     1
 77
     6
 78
     2
 67
     7
 79
     5
170
     0
171
     0
290
     0
174
     0
 93
        1
 44
0.0
173
     0
291
     0
 45
0.0
1001
ACAD
1000
AcDbSavedByObjectVersion
1070
     0
  0
VISUALSTYLE
  5
F4
102
{ACAD_XDICTIONARY
360
430
102
}
102
{ACAD_REACTORS
330
EF
102
}
330
EF
100
AcDbVisualStyle
  2
Basic
 70
     7
 71
     1
 72
     0
 73
     1
 90
        0
 40
-0.6
 41
-30.0
 62
     5
 63
     7
421
 16777215
 74
     0
 91
        4
 64
     7
 65
   257
 75
     1
175
     1
 42
1.0
 92
        8
 66
     7
 43
1.0
 76
     1
 77
     6
 78
     2
 67
     7
 79
     5
170
     0
171
     0
290
     0
174
     0
 93
        1
 44
0.0
173
     0
291
     1
 45
0.0
1001
ACAD
1000
AcDbSavedByObjectVersion
1070
     0
  0
VISUALSTYLE
  5
FB
102
{ACAD_XDICTIONARY
360
43E
102
}
102
{ACAD_REACTORS
330
EF
102
}
330
EF
100
AcDbVisualStyle
  2
Brighten
 70
    12
 71
     2
 72
     2
 73
     1
 90
        0
 40
-0.6
 41
-30.0
 62
     5
 63
     7
421
 16777215
 74
     1
 91
        4
 64
     7
 65
   257
 75
     1
175
     1
 42
1.0
 92
        8
 66
     7
 43
1.0
 76
     1
 77
     6
 78
     2
 67
     7
 79
     5
170
     0
171
     0
290
     0
174
     0
 93
        1
 44
50.0
173
     0
291
     1
 45
0.0
1001
ACAD
1000
AcDbSavedByObjectVersion
1070
     0
  0
VISUALSTYLE
  5
FF
102
{ACAD_XDICTIONARY
360
446
102
}
102
{ACAD_REACTORS
330
EF
102
}
330
EF
100
AcDbVisualStyle
  2
ColorChange
 70
    16
 71
     2
 72
     2
 73
     3
 90
        0
 40
-0.6
 41
-30.0
 62
     5
 63
     8
421
  8421504
 74
     1
 91
        4
 64
     7
 65
   257
 75
     1
175
     1
 42
1.0
 92
        8
 66
     8
424
  8421504
 43
1.0
 76
     1
 77
     6
 78
     2
 67
     7
 79
     5
170
     0
171
     0
290
     0
174
     0
 93
        1
 44
0.0
173
     0
291
     1
 45
0.0
1001
ACAD
1000
AcDbSavedByObjectVersion
1070
     0
  0
VISUALSTYLE
  5
F8
102
{ACAD_XDICTIONARY
360
438
102
}
102
{ACAD_REACTORS
330
EF
102
}
330
EF
100
AcDbVisualStyle
  2
Conceptual
 70
     9
 71
     3
 72
     2
 73
     1
 90
        0
 40
-0.6
 41
-30.0
 62
     5
 63
     7
421
 16777215
 74
     2
 91
        2
 64
     7
 65
   257
 75
     1
175
     1
 42
40.0
 92
        8
 66
     7
 43
1.0
 76
     1
 77
     6
 78
     2
 67
     7
 79
     3
170
     0
171
     0
290
     0
174
     0
 93
        1
 44
0.0
173
     0
291
     0
 45
0.0
1001
ACAD
1000
AcDbSavedByObjectVersion
1070
     0
  0
VISUALSTYLE
  5
FA
102
{ACAD_XDICTIONARY
360
43C
102
}
102
{ACAD_REACTORS
330
EF
102
}
330
EF
100
AcDbVisualStyle
  2
Dim
 70
    11
 71
     2
 72
     2
 73
     1
 90
        0
 40
-0.6
 41
-30.0
 62
     5
 63
     7
421
 16777215
 74
     1
 91
        4
 64
     7
 65
   257
 75
     1
175
     1
 42
1.0
 92
        8
 66
     7
 43
1.0
 76
     1
 77
     6
 78
     2
 67
     7
 79
     5
170
     0
171
     0
290
     0
174
     0
 93
        1
 44
-50.0
173
     0
291
     1
 45
0.0
1001
ACAD
1000
AcDbSavedByObjectVersion
1070
     0
  0
VISUALSTYLE
  5
1E6
102
{ACAD_XDICTIONARY
360
44C
102
}
102
{ACAD_REACTORS
330
EF
102
}
330
EF
100
AcDbVisualStyle
  2
EdgeColorOff
 70
    22
 71
     2
 72
     2
 73
     0
 90
        0
 40
-0.6
 41
-30.0
 62
     5
 63
     7
421
 16777215
 74
     1
 91
        4
 64
     7
 65
   257
 75
     1
175
     1
 42
1.0
 92
        8
 66
     7
 43
1.0
 76
     1
 77
     6
 78
     2
 67
     7
 79
     5
170
     0
171
     0
290
     0
174
     0
 93
        1
 44
0.0
173
     0
291
     1
 45
0.0
1001
ACAD
1000
AcDbSavedByObjectVersion
1070
     0
  0
VISUALSTYLE
  5
FE
102
{ACAD_XDICTIONARY
360
444
102
}
102
{ACAD_REACTORS
330
EF
102
}
330
EF
100
AcDbVisualStyle
  2
Facepattern
 70
    15
 71
     2
 72
     2
 73
     1
 90
        0
 40
-0.6
 41
-30.0
 62
     5
 63
     7
421
 16777215
 74
     1
 91
        4
 64
     7
 65
   257
 75
     1
175
     1
 42
1.0
 92
        8
 66
     7
 43
1.0
 76
     1
 77
     6
 78
     2
 67
     7
 79
     5
170
     0
171
     0
290
     0
174
     0
 93
        1
 44
0.0
173
     0
291
     1
 45
0.0
1001
ACAD
1000
AcDbSavedByObjectVersion
1070
     0
  0
VISUALSTYLE
  5
F0
102
{ACAD_XDICTIONARY
360
428
102
}
102
{ACAD_REACTORS
330
EF
102
}
330
EF
100
AcDbVisualStyle
  2
Flat
 70
     0
 71
     2
 72
     1
 73
     1
 90
        2
 40
-0.6
 41
30.0
 62
     5
 63
     7
421
 16777215
 74
     0
 91
        4
 64
     7
 65
   257
 75
     1
175
     1
 42
1.0
 92
        8
 66
     7
 43
1.0
 76
     1
 77
     6
 78
     2
 67
     7
 79
     5
170
     0
171
     0
290
     0
174
     0
 93
        1
 44
0.0
173
     0
291
     1
 45
0.0
1001
ACAD
1000
AcDbSavedByObjectVersion
1070
     0
  0
VISUALSTYLE
  5
F1
102
{ACAD_XDICTIONARY
360
42A
102
}
102
{ACAD_REACTORS
330
EF
102
}
330
EF
100
AcDbVisualStyle
  2
FlatWithEdges
 70
     1
 71
     2
 72
     1
 73
     1
 90
        2
 40
-0.6
 41
30.0
 62
     5
 63
     7
421
 16777215
 74
     1
 91
        4
 64
     7
 65
   257
 75
     1
175
     1
 42
1.0
 92
        0
 66
   257
 43
1.0
 76
     1
 77
     6
 78
     2
 67
     7
 79
     5
170
     0
171
     0
290
     0
174
     0
 93
        1
 44
0.0
173
     0
291
     1
 45
0.0
1001
ACAD
1000
AcDbSavedByObjectVersion
1070
     0
  0
VISUALSTYLE
  5
F2
102
{ACAD_XDICTIONARY
360
42C
102
}
102
{ACAD_REACTORS
330
EF
102
}
330
EF
100
AcDbVisualStyle
  2
Gouraud
 70
     2
 71
     2
 72
     2
 73
     1
 90
        2
 40
-0.6
 41
30.0
 62
     5
 63
     7
421
 16777215
 74
     0
 91
        4
 64
     7
 65
   257
 75
     1
175
     1
 42
1.0
 92
        0
 66
     7
 43
1.0
 76
     1
 77
     6
 78
     2
 67
     7
 79
     5
170
     0
171
     0
290
     0
174
     0
 93
        1
 44
0.0
173
     0
291
     1
 45
0.0
1001
ACAD
1000
AcDbSavedByObjectVersion
1070
     0
  0
VISUALSTYLE
  5
F3
102
{ACAD_XDICTIONARY
360
42E
102
}
102
{ACAD_REACTORS
330
EF
102
}
330
EF
100
AcDbVisualStyle
  2
GouraudWithEdges
 70
     3
 71
     2
 72
     2
 73
     1
 90
        2
 40
-0.6
 41
30.0
 62
     5
 63
     7
421
 16777215
 74
     1
 91
        4
 64
     7
 65
   257
 75
     1
175
     1
 42
1.0
 92
        0
 66
   257
 43
1.0
 76
     1
 77
     6
 78
     2
 67
     7
 79
     5
170
     0
171
     0
290
     0
174
     0
 93
        1
 44
0.0
173
     0
291
     1
 45
0.0
1001
ACAD
1000
AcDbSavedByObjectVersion
1070
     0
  0
VISUALSTYLE
  5
1E4
102
{ACAD_XDICTIONARY
360
448
102
}
102
{ACAD_REACTORS
330
EF
102
}
330
EF
100
AcDbVisualStyle
  2
JitterOff
 70
    20
 71
     2
 72
     2
 73
     0
 90
        0
 40
-0.6
 41
-30.0
 62
     5
 63
     7
421
 16777215
 74
     1
 91
        4
 64
     7
 65
   257
 75
     1
175
     1
 42
1.0
 92
       10
 66
     7
 43
1.0
 76
     1
 77
     6
 78
     2
 67
     7
 79
     5
170
     0
171
     0
290
     0
174
     0
 93
        1
 44
0.0
173
     0
291
     1
 45
0.0
1001
ACAD
1000
AcDbSavedByObjectVersion
1070
     0
  0
VISUALSTYLE
  5
FD
102
{ACAD_XDICTIONARY
360
442
102
}
102
{ACAD_REACTORS
330
EF
102
}
330
EF
100
AcDbVisualStyle
  2
Linepattern
 70
    14
 71
     2
 72
     2
 73
     1
 90
        0
 40
-0.6
 41
-30.0
 62
     5
 63
     7
421
 16777215
 74
     1
 91
        4
 64
     7
 65
   257
 75
     7
175
     7
 42
1.0
 92
        8
 66
     7
 43
1.0
 76
     1
 77
     6
 78
     2
 67
     7
 79
     5
170
     0
171
     0
290
     0
174
     0
 93
        1
 44
0.0
173
     0
291
     1
 45
0.0
1001
ACAD
1000
AcDbSavedByObjectVersion
1070
     0
  0
VISUALSTYLE
  5
1E5
102
{ACAD_XDICTIONARY
360
44A
102
}
102
{ACAD_REACTORS
330
EF
102
}
330
EF
100
AcDbVisualStyle
  2
OverhangOff
 70
    21
 71
     2
 72
     2
 73
     0
 90
        0
 40
-0.6
 41
-30.0
 62
     5
 63
     7
421
 16777215
 74
     1
 91
        4
 64
     7
 65
   257
 75
     1
175
     1
 42
1.0
 92
        9
 66
     7
 43
1.0
 76
     1
 77
     6
 78
     2
 67
     7
 79
     5
170
     0
171
     0
290
     0
174
     0
 93
        1
 44
0.0
173
     0
291
     1
 45
0.0
1001
ACAD
1000
AcDbSavedByObjectVersion
1070
     0
  0
VISUALSTYLE
  5
F9
102
{ACAD_XDICTIONARY
360
43A
102
}
102
{ACAD_REACTORS
330
EF
102
}
330
EF
100
AcDbVisualStyle
  2
Realistic
 70
     8
 71
     2
 72
     2
 73
     1
 90
        0
 40
-0.6
 41
-30.0
 62
     5
 63
     7
421
 16777215
 74
     1
 91
        0
 64
     7
 65
   257
 75
     1
175
     1
 42
1.0
 92
        8
 66
     8
424
  7895160
 43
1.0
 76
     1
 77
     6
 78
     2
 67
     7
 79
     5
170
     0
171
     0
290
     0
174
     0
 93
       13
 44
0.0
173
     0
291
     0
 45
0.0
1001
ACAD
1000
AcDbSavedByObjectVersion
1070
     0
  0
VISUALSTYLE
  5
FC
102
{ACAD_XDICTIONARY
360
440
102
}
102
{ACAD_REACTORS
330
EF
102
}
330
EF
100
AcDbVisualStyle
  2
Thicken
 70
    13
 71
     2
 72
     2
 73
     1
 90
        0
 40
-0.6
 41
-30.0
 62
     5
 63
     7
421
 16777215
 74
     1
 91
        4
 64
     7
 65
   257
 75
     1
175
     1
 42
1.0
 92
       12
 66
     7
 43
1.0
 76
     1
 77
     6
 78
     2
 67
     7
 79
     5
170
     0
171
     0
290
     0
174
     0
 93
        1
 44
0.0
173
     0
291
     1
 45
0.0
1001
ACAD
1000
AcDbSavedByObjectVersion
1070
     0
  0
DICTIONARYVAR
  5
146
102
{ACAD_REACTORS
330
5E
102
}
330
5E
100
DictionaryVariables
280
     0
  1
1:1
  0
DICTIONARYVAR
  5
145
102
{ACAD_REACTORS
330
5E
102
}
330
5E
100
DictionaryVariables
280
     0
  1
STANDARD
  0
DICTIONARYVAR
  5
84
102
{ACAD_REACTORS
330
5E
102
}
330
5E
100
DictionaryVariables
280
     0
  1
STANDARD
  0
DICTIONARYVAR
  5
5F
102
{ACAD_REACTORS
330
5E
102
}
330
5E
100
DictionaryVariables
280
     0
  1
2
  0
DICTIONARYVAR
  5
63
102
{ACAD_REACTORS
330
5E
102
}
330
5E
100
DictionaryVariables
280
     0
  1
1
  0
DICTIONARYVAR
  5
1AE
102
{ACAD_REACTORS
330
5E
102
}
330
5E
100
DictionaryVariables
280
     0
  1
0
  0
DICTIONARYVAR
  5
1AF
102
{ACAD_REACTORS
330
5E
102
}
330
5E
100
DictionaryVariables
280
     0
  1
0
  0
DICTIONARYVAR
  5
41C
102
{ACAD_REACTORS
330
5E
102
}
330
5E
100
DictionaryVariables
280
     0
  1
2
  0
DICTIONARYVAR
  5
41B
102
{ACAD_REACTORS
330
5E
102
}
330
5E
100
DictionaryVariables
280
     0
  1
1
  0
DICTIONARYVAR
  5
41E
102
{ACAD_REACTORS
330
5E
102
}
330
5E
100
DictionaryVariables
280
     0
  1
80.000000
  0
DICTIONARYVAR
  5
41D
102
{ACAD_REACTORS
330
5E
102
}
330
5E
100
DictionaryVariables
280
     0
  1
5.000000
  0
DICTIONARYVAR
  5
41F
102
{ACAD_REACTORS
330
5E
102
}
330
5E
100
DictionaryVariables
280
     0
  1
2
  0
DICTIONARY
  5
425
330
ED
100
AcDbDictionary
280
     1
281
     1
  3
ACAD_XREC_ROUNDTRIP
360
426
  0
DICTIONARY
  5
423
330
EC
100
AcDbDictionary
280
     1
281
     1
  3
ACAD_XREC_ROUNDTRIP
360
424
  0
DICTIONARY
  5
173
330
EE
100
AcDbDictionary
280
     1
281
     1
  3
ACAD_XREC_ROUNDTRIP
360
427
  3
BUMPTILE
360
175
  3
DIFFUSETILE
360
174
  3
OPACITYTILE
360
176
  3
REFLECTIONTILE
360
177
  0
DICTIONARY
  5
162
330
7F
100
AcDbDictionary
280
     1
281
     1
  3
ACAD_ROUNDTRIP_2008_TABLESTYLE_CELLSTYLEMAP
360
420
  3
ACAD_XREC_ROUNDTRIP
360
422
  0
DICTIONARY
  5
432
330
F5
100
AcDbDictionary
280
     1
281
     1
  3
ACAD_XREC_ROUNDTRIP
360
433
  0
DICTIONARY
  5
436
330
F7
100
AcDbDictionary
280
     1
281
     1
  3
ACAD_XREC_ROUNDTRIP
360
437
  0
DICTIONARY
  5
434
330
F6
100
AcDbDictionary
280
     1
281
     1
  3
ACAD_XREC_ROUNDTRIP
360
435
  0
DICTIONARY
  5
430
330
F4
100
AcDbDictionary
280
     1
281
     1
  3
ACAD_XREC_ROUNDTRIP
360
431
  0
DICTIONARY
  5
43E
330
FB
100
AcDbDictionary
280
     1
281
     1
  3
ACAD_XREC_ROUNDTRIP
360
43F
  0
DICTIONARY
  5
446
330
FF
100
AcDbDictionary
280
     1
281
     1
  3
ACAD_XREC_ROUNDTRIP
360
447
  0
DICTIONARY
  5
438
330
F8
100
AcDbDictionary
280
     1
281
     1
  3
ACAD_XREC_ROUNDTRIP
360
439
  0
DICTIONARY
  5
43C
330
FA
100
AcDbDictionary
280
     1
281
     1
  3
ACAD_XREC_ROUNDTRIP
360
43D
  0
DICTIONARY
  5
44C
330
1E6
100
AcDbDictionary
280
     1
281
     1
  3
ACAD_XREC_ROUNDTRIP
360
44D
  0
DICTIONARY
  5
444
330
FE
100
AcDbDictionary
280
     1
281
     1
  3
ACAD_XREC_ROUNDTRIP
360
445
  0
DICTIONARY
  5
428
330
F0
100
AcDbDictionary
280
     1
281
     1
  3
ACAD_XREC_ROUNDTRIP
360
429
  0
DICTIONARY
  5
42A
330
F1
100
AcDbDictionary
280
     1
281
     1
  3
ACAD_XREC_ROUNDTRIP
360
42B
  0
DICTIONARY
  5
42C
330
F2
100
AcDbDictionary
280
     1
281
     1
  3
ACAD_XREC_ROUNDTRIP
360
42D
  0
DICTIONARY
  5
42E
330
F3
100
AcDbDictionary
280
     1
281
     1
  3
ACAD_XREC_ROUNDTRIP
360
42F
  0
DICTIONARY
  5
448
330
1E4
100
AcDbDictionary
280
     1
281
     1
  3
ACAD_XREC_ROUNDTRIP
360
449
  0
DICTIONARY
  5
442
330
FD
100
AcDbDictionary
280
     1
281
     1
  3
ACAD_XREC_ROUNDTRIP
360
443
  0
DICTIONARY
  5
44A
330
1E5
100
AcDbDictionary
280
     1
281
     1
  3
ACAD_XREC_ROUNDTRIP
360
44B
  0
DICTIONARY
  5
43A
330
F9
100
AcDbDictionary
280
     1
281
     1
  3
ACAD_XREC_ROUNDTRIP
360
43B
  0
DICTIONARY
  5
440
330
FC
100
AcDbDictionary
280
     1
281
     1
  3
ACAD_XREC_ROUNDTRIP
360
441
  0
XRECORD
  5
426
102
{ACAD_REACTORS
330
425
102
}
330
425
100
AcDbXrecord
280
     1
102
MATERIAL
148
0.0
149
0.0
149
0.0
 93
        0
 94
       63
282
     0
 72
     1
 77
     1
171
     1
175
     1
179
     1
273
     0
  0
XRECORD
  5
424
102
{ACAD_REACTORS
330
423
102
}
330
423
100
AcDbXrecord
280
     1
102
MATERIAL
148
0.0
149
0.0
149
0.0
 93
        0
 94
       63
282
     0
 72
     1
 77
     1
171
     1
175
     1
179
     1
273
     0
  0
XRECORD
  5
427
102
{ACAD_REACTORS
330
173
102
}
330
173
100
AcDbXrecord
280
     1
102
MATERIAL
148
0.0
149
0.0
149
0.0
 93
        0
 94
       63
282
     0
 72
     1
 77
     1
171
     1
175
     1
179
     1
273
     0
  0
XRECORD
  5
175
102
{ACAD_REACTORS
330
173
102
}
330
173
100
AcDbXrecord
280
     1
270
     1
271
     1
  0
XRECORD
  5
174
102
{ACAD_REACTORS
330
173
102
}
330
173
100
AcDbXrecord
280
     1
270
     1
271
     1
  0
XRECORD
  5
176
102
{ACAD_REACTORS
330
173
102
}
330
173
100
AcDbXrecord
280
     1
270
     1
271
     1
  0
XRECORD
  5
177
102
{ACAD_REACTORS
330
173
102
}
330
173
100
AcDbXrecord
280
     1
270
     1
271
     1
  0
CELLSTYLEMAP
  5
420
102
{ACAD_REACTORS
330
162
102
}
330
162
100
AcDbCellStyleMap
 90
        3
300
CELLSTYLE
  1
TABLEFORMAT_BEGIN
 90
        5
170
     1
 91
        0
 92
    32768
 62
   257
 93
        1
300
CONTENTFORMAT
  1
CONTENTFORMAT_BEGIN
 90
        0
 91
        0
 92
      512
 93
        0
300

 40
0.0
140
1.0
 94
        5
 62
     0
340
11
144
6.0
309
CONTENTFORMAT_END
171
     1
301
MARGIN
  1
CELLMARGIN_BEGIN
 40
1.5
 40
1.5
 40
1.5
 40
1.5
 40
4.5
 40
4.5
309
CELLMARGIN_END
 94
        6
 95
        1
302
GRIDFORMAT
  1
GRIDFORMAT_BEGIN
 90
        0
 91
        1
 62
     0
 92
       -2
340
14
 93
        0
 40
1.125
309
GRIDFORMAT_END
 95
        2
302
GRIDFORMAT
  1
GRIDFORMAT_BEGIN
 90
        0
 91
        1
 62
     0
 92
       -2
340
14
 93
        0
 40
1.125
309
GRIDFORMAT_END
 95
        4
302
GRIDFORMAT
  1
GRIDFORMAT_BEGIN
 90
        0
 91
        1
 62
     0
 92
       -2
340
14
 93
        0
 40
1.125
309
GRIDFORMAT_END
 95
        8
302
GRIDFORMAT
  1
GRIDFORMAT_BEGIN
 90
        0
 91
        1
 62
     0
 92
       -2
340
14
 93
        0
 40
1.125
309
GRIDFORMAT_END
 95
       16
302
GRIDFORMAT
  1
GRIDFORMAT_BEGIN
 90
        0
 91
        1
 62
     0
 92
       -2
340
14
 93
        0
 40
1.125
309
GRIDFORMAT_END
 95
       32
302
GRIDFORMAT
  1
GRIDFORMAT_BEGIN
 90
        0
 91
        1
 62
     0
 92
       -2
340
14
 93
        0
 40
1.125
309
GRIDFORMAT_END
309
TABLEFORMAT_END
  1
CELLSTYLE_BEGIN
 90
        1
 91
        1
300
_TITLE
309
CELLSTYLE_END
300
CELLSTYLE
  1
TABLEFORMAT_BEGIN
 90
        5
170
     1
 91
        0
 92
        0
 62
   257
 93
        1
300
CONTENTFORMAT
  1
CONTENTFORMAT_BEGIN
 90
        0
 91
        0
 92
      512
 93
        0
300

 40
0.0
140
1.0
 94
        5
 62
     0
340
11
144
4.5
309
CONTENTFORMAT_END
171
     1
301
MARGIN
  1
CELLMARGIN_BEGIN
 40
1.5
 40
1.5
 40
1.5
 40
1.5
 40
4.5
 40
4.5
309
CELLMARGIN_END
 94
        6
 95
        1
302
GRIDFORMAT
  1
GRIDFORMAT_BEGIN
 90
        0
 91
        1
 62
     0
 92
       -2
340
14
 93
        0
 40
1.125
309
GRIDFORMAT_END
 95
        2
302
GRIDFORMAT
  1
GRIDFORMAT_BEGIN
 90
        0
 91
        1
 62
     0
 92
       -2
340
14
 93
        0
 40
1.125
309
GRIDFORMAT_END
 95
        4
302
GRIDFORMAT
  1
GRIDFORMAT_BEGIN
 90
        0
 91
        1
 62
     0
 92
       -2
340
14
 93
        0
 40
1.125
309
GRIDFORMAT_END
 95
        8
302
GRIDFORMAT
  1
GRIDFORMAT_BEGIN
 90
        0
 91
        1
 62
     0
 92
       -2
340
14
 93
        0
 40
1.125
309
GRIDFORMAT_END
 95
       16
302
GRIDFORMAT
  1
GRIDFORMAT_BEGIN
 90
        0
 91
        1
 62
     0
 92
       -2
340
14
 93
        0
 40
1.125
309
GRIDFORMAT_END
 95
       32
302
GRIDFORMAT
  1
GRIDFORMAT_BEGIN
 90
        0
 91
        1
 62
     0
 92
       -2
340
14
 93
        0
 40
1.125
309
GRIDFORMAT_END
309
TABLEFORMAT_END
  1
CELLSTYLE_BEGIN
 90
        2
 91
        1
300
_HEADER
309
CELLSTYLE_END
300
CELLSTYLE
  1
TABLEFORMAT_BEGIN
 90
        5
170
     1
 91
        0
 92
        0
 62
   257
 93
        1
300
CONTENTFORMAT
  1
CONTENTFORMAT_BEGIN
 90
        0
 91
        0
 92
      512
 93
        0
300

 40
0.0
140
1.0
 94
        2
 62
     0
340
11
144
4.5
309
CONTENTFORMAT_END
171
     1
301
MARGIN
  1
CELLMARGIN_BEGIN
 40
1.5
 40
1.5
 40
1.5
 40
1.5
 40
4.5
 40
4.5
309
CELLMARGIN_END
 94
        6
 95
        1
302
GRIDFORMAT
  1
GRIDFORMAT_BEGIN
 90
        0
 91
        1
 62
     0
 92
       -2
340
14
 93
        0
 40
1.125
309
GRIDFORMAT_END
 95
        2
302
GRIDFORMAT
  1
GRIDFORMAT_BEGIN
 90
        0
 91
        1
 62
     0
 92
       -2
340
14
 93
        0
 40
1.125
309
GRIDFORMAT_END
 95
        4
302
GRIDFORMAT
  1
GRIDFORMAT_BEGIN
 90
        0
 91
        1
 62
     0
 92
       -2
340
14
 93
        0
 40
1.125
309
GRIDFORMAT_END
 95
        8
302
GRIDFORMAT
  1
GRIDFORMAT_BEGIN
 90
        0
 91
        1
 62
     0
 92
       -2
340
14
 93
        0
 40
1.125
309
GRIDFORMAT_END
 95
       16
302
GRIDFORMAT
  1
GRIDFORMAT_BEGIN
 90
        0
 91
        1
 62
     0
 92
       -2
340
14
 93
        0
 40
1.125
309
GRIDFORMAT_END
 95
       32
302
GRIDFORMAT
  1
GRIDFORMAT_BEGIN
 90
        0
 91
        1
 62
     0
 92
       -2
340
14
 93
        0
 40
1.125
309
GRIDFORMAT_END
309
TABLEFORMAT_END
  1
CELLSTYLE_BEGIN
 90
        3
 91
        2
300
_DATA
309
CELLSTYLE_END
  0
XRECORD
  5
422
102
{ACAD_REACTORS
330
162
102
}
330
162
100
AcDbXrecord
280
     1
102
ACAD_ROUNDTRIP_PRE2007_TABLESTYLE
 90
      512
 91
        0
  1

 92
      512
 93
        0
  2

 94
      512
 95
        0
  3

  0
XRECORD
  5
433
102
{ACAD_REACTORS
330
432
102
}
330
432
100
AcDbXrecord
280
     1
102
RTVSPropertyOp0
 70
     1
102
RTVSPropertyOp1
 70
     1
102
RTVSPropertyOp2
 70
     1
102
RTVSPropertyOp3
 70
     1
102
RTVSPropertyOp4
 70
     1
102
RTVSPropertyOp5
 70
     1
102
RTVSPropertyOp6
 70
     1
102
RTVSPropertyOp7
 70
     1
102
RTVSPropertyOp8
 70
     1
102
RTVSPropertyOp9
 70
     1
102
RTVSPropertyOp10
 70
     1
102
RTVSPropertyOp11
 70
     1
102
RTVSPropertyOp12
 70
     1
102
RTVSPropertyOp13
 70
     1
102
RTVSPropertyOp14
 70
     1
102
RTVSPropertyOp15
 70
     1
102
RTVSPropertyOp16
 70
     1
102
RTVSPropertyOp17
 70
     1
102
RTVSPropertyOp18
 70
     1
102
RTVSPropertyOp19
 70
     1
102
RTVSPropertyOp20
 70
     1
102
RTVSPropertyOp21
 70
     1
102
RTVSPropertyOp22
 70
     1
102
RTVSPropertyOp23
 70
     1
102
RTVSPropertyOp24
 70
     1
102
RTVSPropertyOp25
 70
     1
102
RTVSPropertyOp26
 70
     1
102
RTVSPropertyOp27
 70
     1
  0
XRECORD
  5
437
102
{ACAD_REACTORS
330
436
102
}
330
436
100
AcDbXrecord
280
     1
102
RTVSPropertyOp0
 70
     1
102
RTVSPropertyOp1
 70
     1
102
RTVSPropertyOp2
 70
     1
102
RTVSPropertyOp3
 70
     1
102
RTVSPropertyOp4
 70
     1
102
RTVSPropertyOp5
 70
     1
102
RTVSPropertyOp6
 70
     1
102
RTVSPropertyOp7
 70
     1
102
RTVSPropertyOp8
 70
     1
102
RTVSPropertyOp9
 70
     1
102
RTVSPropertyOp10
 70
     1
102
RTVSPropertyOp11
 70
     1
102
RTVSPropertyOp12
 70
     1
102
RTVSPropertyOp13
 70
     1
102
RTVSPropertyOp14
 70
     1
102
RTVSPropertyOp15
 70
     1
102
RTVSPropertyOp16
 70
     1
102
RTVSPropertyOp17
 70
     1
102
RTVSPropertyOp18
 70
     1
102
RTVSPropertyOp19
 70
     1
102
RTVSPropertyOp20
 70
     1
102
RTVSPropertyOp21
 70
     1
102
RTVSPropertyOp22
 70
     1
102
RTVSPropertyOp23
 70
     1
102
RTVSPropertyOp24
 70
     1
102
RTVSPropertyOp25
 70
     1
102
RTVSPropertyOp26
 70
     1
102
RTVSPropertyOp27
 70
     1
  0
XRECORD
  5
435
102
{ACAD_REACTORS
330
434
102
}
330
434
100
AcDbXrecord
280
     1
102
RTVSPropertyOp0
 70
     1
102
RTVSPropertyOp1
 70
     1
102
RTVSPropertyOp2
 70
     1
102
RTVSPropertyOp3
 70
     1
102
RTVSPropertyOp4
 70
     1
102
RTVSPropertyOp5
 70
     1
102
RTVSPropertyOp6
 70
     1
102
RTVSPropertyOp7
 70
     1
102
RTVSPropertyOp8
 70
     1
102
RTVSPropertyOp9
 70
     1
102
RTVSPropertyOp10
 70
     1
102
RTVSPropertyOp11
 70
     1
102
RTVSPropertyOp12
 70
     1
102
RTVSPropertyOp13
 70
     1
102
RTVSPropertyOp14
 70
     1
102
RTVSPropertyOp15
 70
     1
102
RTVSPropertyOp16
 70
     1
102
RTVSPropertyOp17
 70
     1
102
RTVSPropertyOp18
 70
     1
102
RTVSPropertyOp19
 70
     1
102
RTVSPropertyOp20
 70
     1
102
RTVSPropertyOp21
 70
     1
102
RTVSPropertyOp22
 70
     1
102
RTVSPropertyOp23
 70
     1
102
RTVSPropertyOp24
 70
     1
102
RTVSPropertyOp25
 70
     1
102
RTVSPropertyOp26
 70
     1
102
RTVSPropertyOp27
 70
     1
  0
XRECORD
  5
431
102
{ACAD_REACTORS
330
430
102
}
330
430
100
AcDbXrecord
280
     1
102
RTVSPropertyOp0
 70
     1
102
RTVSPropertyOp1
 70
     1
102
RTVSPropertyOp2
 70
     1
102
RTVSPropertyOp3
 70
     1
102
RTVSPropertyOp4
 70
     1
102
RTVSPropertyOp5
 70
     1
102
RTVSPropertyOp6
 70
     1
102
RTVSPropertyOp7
 70
     1
102
RTVSPropertyOp8
 70
     1
102
RTVSPropertyOp9
 70
     1
102
RTVSPropertyOp10
 70
     1
102
RTVSPropertyOp11
 70
     1
102
RTVSPropertyOp12
 70
     1
102
RTVSPropertyOp13
 70
     1
102
RTVSPropertyOp14
 70
     1
102
RTVSPropertyOp15
 70
     1
102
RTVSPropertyOp16
 70
     1
102
RTVSPropertyOp17
 70
     1
102
RTVSPropertyOp18
 70
     1
102
RTVSPropertyOp19
 70
     1
102
RTVSPropertyOp20
 70
     1
102
RTVSPropertyOp21
 70
     1
102
RTVSPropertyOp22
 70
     1
102
RTVSPropertyOp23
 70
     1
102
RTVSPropertyOp24
 70
     1
102
RTVSPropertyOp25
 70
     1
102
RTVSPropertyOp26
 70
     1
102
RTVSPropertyOp27
 70
     1
  0
XRECORD
  5
43F
102
{ACAD_REACTORS
330
43E
102
}
330
43E
100
AcDbXrecord
280
     1
102
RTVSPropertyOp0
 70
     1
102
RTVSPropertyOp1
 70
     1
102
RTVSPropertyOp2
 70
     1
102
RTVSPropertyOp3
 70
     1
102
RTVSPropertyOp4
 70
     1
102
RTVSPropertyOp5
 70
     1
102
RTVSPropertyOp6
 70
     1
102
RTVSPropertyOp7
 70
     1
102
RTVSPropertyOp8
 70
     1
102
RTVSPropertyOp9
 70
     1
102
RTVSPropertyOp10
 70
     1
102
RTVSPropertyOp11
 70
     1
102
RTVSPropertyOp12
 70
     1
102
RTVSPropertyOp13
 70
     1
102
RTVSPropertyOp14
 70
     1
102
RTVSPropertyOp15
 70
     1
102
RTVSPropertyOp16
 70
     1
102
RTVSPropertyOp17
 70
     1
102
RTVSPropertyOp18
 70
     1
102
RTVSPropertyOp19
 70
     1
102
RTVSPropertyOp20
 70
     1
102
RTVSPropertyOp21
 70
     1
102
RTVSPropertyOp22
 70
     1
102
RTVSPropertyOp23
 70
     1
102
RTVSPropertyOp24
 70
     1
102
RTVSPropertyOp25
 70
     1
102
RTVSPropertyOp26
 70
     1
102
RTVSPropertyOp27
 70
     1
  0
XRECORD
  5
447
102
{ACAD_REACTORS
330
446
102
}
330
446
100
AcDbXrecord
280
     1
102
RTVSPropertyOp0
 70
     1
102
RTVSPropertyOp1
 70
     1
102
RTVSPropertyOp2
 70
     1
102
RTVSPropertyOp3
 70
     1
102
RTVSPropertyOp4
 70
     1
102
RTVSPropertyOp5
 70
     1
102
RTVSPropertyOp6
 70
     1
102
RTVSPropertyOp7
 70
     1
102
RTVSPropertyOp8
 70
     1
102
RTVSPropertyOp9
 70
     1
102
RTVSPropertyOp10
 70
     1
102
RTVSPropertyOp11
 70
     1
102
RTVSPropertyOp12
 70
     1
102
RTVSPropertyOp13
 70
     1
102
RTVSPropertyOp14
 70
     1
102
RTVSPropertyOp15
 70
     1
102
RTVSPropertyOp16
 70
     1
102
RTVSPropertyOp17
 70
     1
102
RTVSPropertyOp18
 70
     1
102
RTVSPropertyOp19
 70
     1
102
RTVSPropertyOp20
 70
     1
102
RTVSPropertyOp21
 70
     1
102
RTVSPropertyOp22
 70
     1
102
RTVSPropertyOp23
 70
     1
102
RTVSPropertyOp24
 70
     1
102
RTVSPropertyOp25
 70
     1
102
RTVSPropertyOp26
 70
     1
102
RTVSPropertyOp27
 70
     1
  0
XRECORD
  5
439
102
{ACAD_REACTORS
330
438
102
}
330
438
100
AcDbXrecord
280
     1
102
RTVSPropertyOp0
 70
     1
102
RTVSPropertyOp1
 70
     1
102
RTVSPropertyOp2
 70
     1
102
RTVSPropertyOp3
 70
     1
102
RTVSPropertyOp4
 70
     1
102
RTVSPropertyOp5
 70
     1
102
RTVSPropertyOp6
 70
     1
102
RTVSPropertyOp7
 70
     1
102
RTVSPropertyOp8
 70
     1
102
RTVSPropertyOp9
 70
     1
102
RTVSPropertyOp10
 70
     1
102
RTVSPropertyOp11
 70
     1
102
RTVSPropertyOp12
 70
     1
102
RTVSPropertyOp13
 70
     1
102
RTVSPropertyOp14
 70
     1
102
RTVSPropertyOp15
 70
     1
102
RTVSPropertyOp16
 70
     1
102
RTVSPropertyOp17
 70
     1
102
RTVSPropertyOp18
 70
     1
102
RTVSPropertyOp19
 70
     1
102
RTVSPropertyOp20
 70
     1
102
RTVSPropertyOp21
 70
     1
102
RTVSPropertyOp22
 70
     1
102
RTVSPropertyOp23
 70
     1
102
RTVSPropertyOp24
 70
     1
102
RTVSPropertyOp25
 70
     1
102
RTVSPropertyOp26
 70
     1
102
RTVSPropertyOp27
 70
     1
  0
XRECORD
  5
43D
102
{ACAD_REACTORS
330
43C
102
}
330
43C
100
AcDbXrecord
280
     1
102
RTVSPropertyOp0
 70
     1
102
RTVSPropertyOp1
 70
     1
102
RTVSPropertyOp2
 70
     1
102
RTVSPropertyOp3
 70
     1
102
RTVSPropertyOp4
 70
     1
102
RTVSPropertyOp5
 70
     1
102
RTVSPropertyOp6
 70
     1
102
RTVSPropertyOp7
 70
     1
102
RTVSPropertyOp8
 70
     1
102
RTVSPropertyOp9
 70
     1
102
RTVSPropertyOp10
 70
     1
102
RTVSPropertyOp11
 70
     1
102
RTVSPropertyOp12
 70
     1
102
RTVSPropertyOp13
 70
     1
102
RTVSPropertyOp14
 70
     1
102
RTVSPropertyOp15
 70
     1
102
RTVSPropertyOp16
 70
     1
102
RTVSPropertyOp17
 70
     1
102
RTVSPropertyOp18
 70
     1
102
RTVSPropertyOp19
 70
     1
102
RTVSPropertyOp20
 70
     1
102
RTVSPropertyOp21
 70
     1
102
RTVSPropertyOp22
 70
     1
102
RTVSPropertyOp23
 70
     1
102
RTVSPropertyOp24
 70
     1
102
RTVSPropertyOp25
 70
     1
102
RTVSPropertyOp26
 70
     1
102
RTVSPropertyOp27
 70
     1
  0
XRECORD
  5
44D
102
{ACAD_REACTORS
330
44C
102
}
330
44C
100
AcDbXrecord
280
     1
102
RTVSPropertyOp0
 70
     0
102
RTVSPropertyOp1
 70
     0
102
RTVSPropertyOp2
 70
     0
102
RTVSPropertyOp3
 70
     0
102
RTVSPropertyOp4
 70
     0
102
RTVSPropertyOp5
 70
     0
102
RTVSPropertyOp6
 70
     0
102
RTVSPropertyOp7
 70
     0
102
RTVSPropertyOp8
 70
     0
102
RTVSPropertyOp9
 70
     0
102
RTVSPropertyOp10
 70
     0
102
RTVSPropertyOp11
 70
     0
102
RTVSPropertyOp12
 70
     0
102
RTVSPropertyOp13
 70
     0
102
RTVSPropertyOp14
 70
     2
102
RTVSPropertyOp15
 70
     0
102
RTVSPropertyOp16
 70
     0
102
RTVSPropertyOp17
 70
     0
102
RTVSPropertyOp18
 70
     0
102
RTVSPropertyOp19
 70
     0
102
RTVSPropertyOp20
 70
     0
102
RTVSPropertyOp21
 70
     0
102
RTVSPropertyOp22
 70
     0
102
RTVSPropertyOp23
 70
     0
102
RTVSPropertyOp24
 70
     0
102
RTVSPropertyOp25
 70
     0
102
RTVSPropertyOp26
 70
     0
102
RTVSPropertyOp27
 70
     0
  0
XRECORD
  5
445
102
{ACAD_REACTORS
330
444
102
}
330
444
100
AcDbXrecord
280
     1
102
RTVSPropertyOp0
 70
     1
102
RTVSPropertyOp1
 70
     1
102
RTVSPropertyOp2
 70
     1
102
RTVSPropertyOp3
 70
     1
102
RTVSPropertyOp4
 70
     1
102
RTVSPropertyOp5
 70
     1
102
RTVSPropertyOp6
 70
     1
102
RTVSPropertyOp7
 70
     1
102
RTVSPropertyOp8
 70
     1
102
RTVSPropertyOp9
 70
     1
102
RTVSPropertyOp10
 70
     1
102
RTVSPropertyOp11
 70
     1
102
RTVSPropertyOp12
 70
     1
102
RTVSPropertyOp13
 70
     1
102
RTVSPropertyOp14
 70
     1
102
RTVSPropertyOp15
 70
     1
102
RTVSPropertyOp16
 70
     1
102
RTVSPropertyOp17
 70
     1
102
RTVSPropertyOp18
 70
     1
102
RTVSPropertyOp19
 70
     1
102
RTVSPropertyOp20
 70
     1
102
RTVSPropertyOp21
 70
     1
102
RTVSPropertyOp22
 70
     1
102
RTVSPropertyOp23
 70
     1
102
RTVSPropertyOp24
 70
     1
102
RTVSPropertyOp25
 70
     1
102
RTVSPropertyOp26
 70
     1
102
RTVSPropertyOp27
 70
     1
  0
XRECORD
  5
429
102
{ACAD_REACTORS
330
428
102
}
330
428
100
AcDbXrecord
280
     1
102
RTVSPropertyOp0
 70
     1
102
RTVSPropertyOp1
 70
     1
102
RTVSPropertyOp2
 70
     1
102
RTVSPropertyOp3
 70
     1
102
RTVSPropertyOp4
 70
     1
102
RTVSPropertyOp5
 70
     1
102
RTVSPropertyOp6
 70
     1
102
RTVSPropertyOp7
 70
     1
102
RTVSPropertyOp8
 70
     1
102
RTVSPropertyOp9
 70
     1
102
RTVSPropertyOp10
 70
     1
102
RTVSPropertyOp11
 70
     1
102
RTVSPropertyOp12
 70
     1
102
RTVSPropertyOp13
 70
     1
102
RTVSPropertyOp14
 70
     1
102
RTVSPropertyOp15
 70
     1
102
RTVSPropertyOp16
 70
     1
102
RTVSPropertyOp17
 70
     1
102
RTVSPropertyOp18
 70
     1
102
RTVSPropertyOp19
 70
     1
102
RTVSPropertyOp20
 70
     1
102
RTVSPropertyOp21
 70
     1
102
RTVSPropertyOp22
 70
     1
102
RTVSPropertyOp23
 70
     1
102
RTVSPropertyOp24
 70
     1
102
RTVSPropertyOp25
 70
     1
102
RTVSPropertyOp26
 70
     1
102
RTVSPropertyOp27
 70
     1
  0
XRECORD
  5
42B
102
{ACAD_REACTORS
330
42A
102
}
330
42A
100
AcDbXrecord
280
     1
102
RTVSPropertyOp0
 70
     1
102
RTVSPropertyOp1
 70
     1
102
RTVSPropertyOp2
 70
     1
102
RTVSPropertyOp3
 70
     1
102
RTVSPropertyOp4
 70
     1
102
RTVSPropertyOp5
 70
     1
102
RTVSPropertyOp6
 70
     1
102
RTVSPropertyOp7
 70
     1
102
RTVSPropertyOp8
 70
     1
102
RTVSPropertyOp9
 70
     1
102
RTVSPropertyOp10
 70
     1
102
RTVSPropertyOp11
 70
     1
102
RTVSPropertyOp12
 70
     1
102
RTVSPropertyOp13
 70
     1
102
RTVSPropertyOp14
 70
     1
102
RTVSPropertyOp15
 70
     1
102
RTVSPropertyOp16
 70
     1
102
RTVSPropertyOp17
 70
     1
102
RTVSPropertyOp18
 70
     1
102
RTVSPropertyOp19
 70
     1
102
RTVSPropertyOp20
 70
     1
102
RTVSPropertyOp21
 70
     1
102
RTVSPropertyOp22
 70
     1
102
RTVSPropertyOp23
 70
     1
102
RTVSPropertyOp24
 70
     1
102
RTVSPropertyOp25
 70
     1
102
RTVSPropertyOp26
 70
     1
102
RTVSPropertyOp27
 70
     1
  0
XRECORD
  5
42D
102
{ACAD_REACTORS
330
42C
102
}
330
42C
100
AcDbXrecord
280
     1
102
RTVSPropertyOp0
 70
     1
102
RTVSPropertyOp1
 70
     1
102
RTVSPropertyOp2
 70
     1
102
RTVSPropertyOp3
 70
     1
102
RTVSPropertyOp4
 70
     1
102
RTVSPropertyOp5
 70
     1
102
RTVSPropertyOp6
 70
     1
102
RTVSPropertyOp7
 70
     1
102
RTVSPropertyOp8
 70
     1
102
RTVSPropertyOp9
 70
     1
102
RTVSPropertyOp10
 70
     1
102
RTVSPropertyOp11
 70
     1
102
RTVSPropertyOp12
 70
     1
102
RTVSPropertyOp13
 70
     1
102
RTVSPropertyOp14
 70
     1
102
RTVSPropertyOp15
 70
     1
102
RTVSPropertyOp16
 70
     1
102
RTVSPropertyOp17
 70
     1
102
RTVSPropertyOp18
 70
     1
102
RTVSPropertyOp19
 70
     1
102
RTVSPropertyOp20
 70
     1
102
RTVSPropertyOp21
 70
     1
102
RTVSPropertyOp22
 70
     1
102
RTVSPropertyOp23
 70
     1
102
RTVSPropertyOp24
 70
     1
102
RTVSPropertyOp25
 70
     1
102
RTVSPropertyOp26
 70
     1
102
RTVSPropertyOp27
 70
     1
  0
XRECORD
  5
42F
102
{ACAD_REACTORS
330
42E
102
}
330
42E
100
AcDbXrecord
280
     1
102
RTVSPropertyOp0
 70
     1
102
RTVSPropertyOp1
 70
     1
102
RTVSPropertyOp2
 70
     1
102
RTVSPropertyOp3
 70
     1
102
RTVSPropertyOp4
 70
     1
102
RTVSPropertyOp5
 70
     1
102
RTVSPropertyOp6
 70
     1
102
RTVSPropertyOp7
 70
     1
102
RTVSPropertyOp8
 70
     1
102
RTVSPropertyOp9
 70
     1
102
RTVSPropertyOp10
 70
     1
102
RTVSPropertyOp11
 70
     1
102
RTVSPropertyOp12
 70
     1
102
RTVSPropertyOp13
 70
     1
102
RTVSPropertyOp14
 70
     1
102
RTVSPropertyOp15
 70
     1
102
RTVSPropertyOp16
 70
     1
102
RTVSPropertyOp17
 70
     1
102
RTVSPropertyOp18
 70
     1
102
RTVSPropertyOp19
 70
     1
102
RTVSPropertyOp20
 70
     1
102
RTVSPropertyOp21
 70
     1
102
RTVSPropertyOp22
 70
     1
102
RTVSPropertyOp23
 70
     1
102
RTVSPropertyOp24
 70
     1
102
RTVSPropertyOp25
 70
     1
102
RTVSPropertyOp26
 70
     1
102
RTVSPropertyOp27
 70
     1
  0
XRECORD
  5
449
102
{ACAD_REACTORS
330
448
102
}
330
448
100
AcDbXrecord
280
     1
102
RTVSPropertyOp0
 70
     0
102
RTVSPropertyOp1
 70
     0
102
RTVSPropertyOp2
 70
     0
102
RTVSPropertyOp3
 70
     0
102
RTVSPropertyOp4
 70
     0
102
RTVSPropertyOp5
 70
     0
102
RTVSPropertyOp6
 70
     0
102
RTVSPropertyOp7
 70
     0
102
RTVSPropertyOp8
 70
     0
102
RTVSPropertyOp9
 70
     0
102
RTVSPropertyOp10
 70
     0
102
RTVSPropertyOp11
 70
     0
102
RTVSPropertyOp12
 70
     0
102
RTVSPropertyOp13
 70
     0
102
RTVSPropertyOp14
 70
     2
102
RTVSPropertyOp15
 70
     0
102
RTVSPropertyOp16
 70
     0
102
RTVSPropertyOp17
 70
     0
102
RTVSPropertyOp18
 70
     0
102
RTVSPropertyOp19
 70
     0
102
RTVSPropertyOp20
 70
     0
102
RTVSPropertyOp21
 70
     0
102
RTVSPropertyOp22
 70
     0
102
RTVSPropertyOp23
 70
     0
102
RTVSPropertyOp24
 70
     0
102
RTVSPropertyOp25
 70
     0
102
RTVSPropertyOp26
 70
     0
102
RTVSPropertyOp27
 70
     0
  0
XRECORD
  5
443
102
{ACAD_REACTORS
330
442
102
}
330
442
100
AcDbXrecord
280
     1
102
RTVSPropertyOp0
 70
     1
102
RTVSPropertyOp1
 70
     1
102
RTVSPropertyOp2
 70
     1
102
RTVSPropertyOp3
 70
     1
102
RTVSPropertyOp4
 70
     1
102
RTVSPropertyOp5
 70
     1
102
RTVSPropertyOp6
 70
     1
102
RTVSPropertyOp7
 70
     1
102
RTVSPropertyOp8
 70
     1
102
RTVSPropertyOp9
 70
     1
102
RTVSPropertyOp10
 70
     1
102
RTVSPropertyOp11
 70
     1
102
RTVSPropertyOp12
 70
     1
102
RTVSPropertyOp13
 70
     1
102
RTVSPropertyOp14
 70
     1
102
RTVSPropertyOp15
 70
     1
102
RTVSPropertyOp16
 70
     1
102
RTVSPropertyOp17
 70
     1
102
RTVSPropertyOp18
 70
     1
102
RTVSPropertyOp19
 70
     1
102
RTVSPropertyOp20
 70
     1
102
RTVSPropertyOp21
 70
     1
102
RTVSPropertyOp22
 70
     1
102
RTVSPropertyOp23
 70
     1
102
RTVSPropertyOp24
 70
     1
102
RTVSPropertyOp25
 70
     1
102
RTVSPropertyOp26
 70
     1
102
RTVSPropertyOp27
 70
     1
  0
XRECORD
  5
44B
102
{ACAD_REACTORS
330
44A
102
}
330
44A
100
AcDbXrecord
280
     1
102
RTVSPropertyOp0
 70
     0
102
RTVSPropertyOp1
 70
     0
102
RTVSPropertyOp2
 70
     0
102
RTVSPropertyOp3
 70
     0
102
RTVSPropertyOp4
 70
     0
102
RTVSPropertyOp5
 70
     0
102
RTVSPropertyOp6
 70
     0
102
RTVSPropertyOp7
 70
     0
102
RTVSPropertyOp8
 70
     0
102
RTVSPropertyOp9
 70
     0
102
RTVSPropertyOp10
 70
     0
102
RTVSPropertyOp11
 70
     0
102
RTVSPropertyOp12
 70
     0
102
RTVSPropertyOp13
 70
     0
102
RTVSPropertyOp14
 70
     2
102
RTVSPropertyOp15
 70
     0
102
RTVSPropertyOp16
 70
     0
102
RTVSPropertyOp17
 70
     0
102
RTVSPropertyOp18
 70
     0
102
RTVSPropertyOp19
 70
     0
102
RTVSPropertyOp20
 70
     0
102
RTVSPropertyOp21
 70
     0
102
RTVSPropertyOp22
 70
     0
102
RTVSPropertyOp23
 70
     0
102
RTVSPropertyOp24
 70
     0
102
RTVSPropertyOp25
 70
     0
102
RTVSPropertyOp26
 70
     0
102
RTVSPropertyOp27
 70
     0
  0
XRECORD
  5
43B
102
{ACAD_REACTORS
330
43A
102
}
330
43A
100
AcDbXrecord
280
     1
102
RTVSPropertyOp0
 70
     1
102
RTVSPropertyOp1
 70
     1
102
RTVSPropertyOp2
 70
     1
102
RTVSPropertyOp3
 70
     1
102
RTVSPropertyOp4
 70
     1
102
RTVSPropertyOp5
 70
     1
102
RTVSPropertyOp6
 70
     1
102
RTVSPropertyOp7
 70
     1
102
RTVSPropertyOp8
 70
     1
102
RTVSPropertyOp9
 70
     1
102
RTVSPropertyOp10
 70
     1
102
RTVSPropertyOp11
 70
     1
102
RTVSPropertyOp12
 70
     1
102
RTVSPropertyOp13
 70
     1
102
RTVSPropertyOp14
 70
     1
102
RTVSPropertyOp15
 70
     1
102
RTVSPropertyOp16
 70
     1
102
RTVSPropertyOp17
 70
     1
102
RTVSPropertyOp18
 70
     1
102
RTVSPropertyOp19
 70
     1
102
RTVSPropertyOp20
 70
     1
102
RTVSPropertyOp21
 70
     1
102
RTVSPropertyOp22
 70
     1
102
RTVSPropertyOp23
 70
     1
102
RTVSPropertyOp24
 70
     1
102
RTVSPropertyOp25
 70
     1
102
RTVSPropertyOp26
 70
     1
102
RTVSPropertyOp27
 70
     1
  0
XRECORD
  5
441
102
{ACAD_REACTORS
330
440
102
}
330
440
100
AcDbXrecord
280
     1
102
RTVSPropertyOp0
 70
     1
102
RTVSPropertyOp1
 70
     1
102
RTVSPropertyOp2
 70
     1
102
RTVSPropertyOp3
 70
     1
102
RTVSPropertyOp4
 70
     1
102
RTVSPropertyOp5
 70
     1
102
RTVSPropertyOp6
 70
     1
102
RTVSPropertyOp7
 70
     1
102
RTVSPropertyOp8
 70
     1
102
RTVSPropertyOp9
 70
     1
102
RTVSPropertyOp10
 70
     1
102
RTVSPropertyOp11
 70
     1
102
RTVSPropertyOp12
 70
     1
102
RTVSPropertyOp13
 70
     1
102
RTVSPropertyOp14
 70
     1
102
RTVSPropertyOp15
 70
     1
102
RTVSPropertyOp16
 70
     1
102
RTVSPropertyOp17
 70
     1
102
RTVSPropertyOp18
 70
     1
102
RTVSPropertyOp19
 70
     1
102
RTVSPropertyOp20
 70
     1
102
RTVSPropertyOp21
 70
     1
102
RTVSPropertyOp22
 70
     1
102
RTVSPropertyOp23
 70
     1
102
RTVSPropertyOp24
 70
     1
102
RTVSPropertyOp25
 70
     1
102
RTVSPropertyOp26
 70
     1
102
RTVSPropertyOp27
 70
     1
  0
ENDSEC
  0
EOF
