  0
SECTION
  2
HEADER
  9
$ACADVER
  1
AC1018
  9
$ACADMAINTVER
 70
   104
  9
$DWGCODEPAGE
  3
ANSI_1252
  9
$LASTSAVEDBY
  1
a06741
  9
$INSBASE
 10
0.0
 20
0.0
 30
0.0
  9
$EXTMIN
 10
1511.135456386965
 20
609.5784517661586
 30
0.0
  9
$EXTMAX
 10
1647.383895873806
 20
765.6361740969417
 30
0.0
  9
$LIMMIN
 10
0.0
 20
0.0
  9
$LIMMAX
 10
420.0
 20
297.0
  9
$ORTHOMODE
 70
     0
  9
$REGENMODE
 70
     1
  9
$FILLMODE
 70
     1
  9
$QTEXTMODE
 70
     0
  9
$MIRRTEXT
 70
     0
  9
$LTSCALE
 40
1.0
  9
$ATTMODE
 70
     1
  9
$TEXTSIZE
 40
2.5
  9
$TRACEWID
 40
1.0
  9
$TEXTSTYLE
  7
Standard
  9
$CLAYER
  8
0
  9
$CELTYPE
  6
ByLayer
  9
$CECOLOR
 62
   256
  9
$CELTSCALE
 40
1.0
  9
$DISPSILH
 70
     0
  9
$DIMSCALE
 40
1.0
  9
$DIMASZ
 40
2.5
  9
$DIMEXO
 40
0.625
  9
$DIMDLI
 40
3.75
  9
$DIMRND
 40
0.0
  9
$DIMDLE
 40
0.0
  9
$DIMEXE
 40
1.25
  9
$DIMTP
 40
0.0
  9
$DIMTM
 40
0.0
  9
$DIMTXT
 40
2.5
  9
$DIMCEN
 40
2.5
  9
$DIMTSZ
 40
0.0
  9
$DIMTOL
 70
     0
  9
$DIMLIM
 70
     0
  9
$DIMTIH
 70
     0
  9
$DIMTOH
 70
     0
  9
$DIMSE1
 70
     0
  9
$DIMSE2
 70
     0
  9
$DIMTAD
 70
     1
  9
$DIMZIN
 70
     8
  9
$DIMBLK
  1

  9
$DIMASO
 70
     1
  9
$DIMSHO
 70
     1
  9
$DIMPOST
  1

  9
$DIMAPOST
  1

  9
$DIMALT
 70
     0
  9
$DIMALTD
 70
     3
  9
$DIMALTF
 40
0.03937007874016
  9
$DIMLFAC
 40
1.0
  9
$DIMTOFL
 70
     1
  9
$DIMTVP
 40
0.0
  9
$DIMTIX
 70
     0
  9
$DIMSOXD
 70
     0
  9
$DIMSAH
 70
     0
  9
$DIMBLK1
  1

  9
$DIMBLK2
  1

  9
$DIMSTYLE
  2
ISO-25
  9
$DIMCLRD
 70
     0
  9
$DIMCLRE
 70
     0
  9
$DIMCLRT
 70
     0
  9
$DIMTFAC
 40
1.0
  9
$DIMGAP
 40
0.625
  9
$DIMJUST
 70
     0
  9
$DIMSD1
 70
     0
  9
$DIMSD2
 70
     0
  9
$DIMTOLJ
 70
     0
  9
$DIMTZIN
 70
     8
  9
$DIMALTZ
 70
     0
  9
$DIMALTTZ
 70
     0
  9
$DIMUPT
 70
     0
  9
$DIMDEC
 70
     2
  9
$DIMTDEC
 70
     2
  9
$DIMALTU
 70
     2
  9
$DIMALTTD
 70
     3
  9
$DIMTXSTY
  7
Standard
  9
$DIMAUNIT
 70
     0
  9
$DIMADEC
 70
     0
  9
$DIMALTRND
 40
0.0
  9
$DIMAZIN
 70
     0
  9
$DIMDSEP
 70
    44
  9
$DIMATFIT
 70
     3
  9
$DIMFRAC
 70
     0
  9
$DIMLDRBLK
  1

  9
$DIMLUNIT
 70
     2
  9
$DIMLWD
 70
    -2
  9
$DIMLWE
 70
    -2
  9
$DIMTMOVE
 70
     0
  9
$LUNITS
 70
     2
  9
$LUPREC
 70
     4
  9
$SKETCHINC
 40
1.0
  9
$FILLETRAD
 40
0.0
  9
$AUNITS
 70
     0
  9
$AUPREC
 70
     0
  9
$MENU
  1
.
  9
$ELEVATION
 40
0.0
  9
$PELEVATION
 40
0.0
  9
$THICKNESS
 40
0.0
  9
$LIMCHECK
 70
     0
  9
$CHAMFERA
 40
0.0
  9
$CHAMFERB
 40
0.0
  9
$CHAMFERC
 40
0.0
  9
$CHAMFERD
 40
0.0
  9
$SKPOLY
 70
     0
  9
$TDCREATE
 40
2456139.562789236
  9
$TDUCREATE
 40
2456139.479455903
  9
$TDUPDATE
 40
2456139.563013947
  9
$TDUUPDATE
 40
2456139.479680614
  9
$TDINDWG
 40
0.0002251620
  9
$TDUSRTIMER
 40
0.0002251273
  9
$USRTIMER
 70
     1
  9
$ANGBASE
 50
0.0
  9
$ANGDIR
 70
     0
  9
$PDMODE
 70
     0
  9
$PDSIZE
 40
0.0
  9
$PLINEWID
 40
0.0
  9
$SPLFRAME
 70
     0
  9
$SPLINETYPE
 70
     6
  9
$SPLINESEGS
 70
     8
  9
$HANDSEED
  5
54E
  9
$SURFTAB1
 70
     6
  9
$SURFTAB2
 70
     6
  9
$SURFTYPE
 70
     6
  9
$SURFU
 70
     6
  9
$SURFV
 70
     6
  9
$UCSBASE
  2

  9
$UCSNAME
  2

  9
$UCSORG
 10
0.0
 20
0.0
 30
0.0
  9
$UCSXDIR
 10
1.0
 20
0.0
 30
0.0
  9
$UCSYDIR
 10
0.0
 20
1.0
 30
0.0
  9
$UCSORTHOREF
  2

  9
$UCSORTHOVIEW
 70
     0
  9
$UCSORGTOP
 10
0.0
 20
0.0
 30
0.0
  9
$UCSORGBOTTOM
 10
0.0
 20
0.0
 30
0.0
  9
$UCSORGLEFT
 10
0.0
 20
0.0
 30
0.0
  9
$UCSORGRIGHT
 10
0.0
 20
0.0
 30
0.0
  9
$UCSORGFRONT
 10
0.0
 20
0.0
 30
0.0
  9
$UCSORGBACK
 10
0.0
 20
0.0
 30
0.0
  9
$PUCSBASE
  2

  9
$PUCSNAME
  2

  9
$PUCSORG
 10
0.0
 20
0.0
 30
0.0
  9
$PUCSXDIR
 10
1.0
 20
0.0
 30
0.0
  9
$PUCSYDIR
 10
0.0
 20
1.0
 30
0.0
  9
$PUCSORTHOREF
  2

  9
$PUCSORTHOVIEW
 70
     0
  9
$PUCSORGTOP
 10
0.0
 20
0.0
 30
0.0
  9
$PUCSORGBOTTOM
 10
0.0
 20
0.0
 30
0.0
  9
$PUCSORGLEFT
 10
0.0
 20
0.0
 30
0.0
  9
$PUCSORGRIGHT
 10
0.0
 20
0.0
 30
0.0
  9
$PUCSORGFRONT
 10
0.0
 20
0.0
 30
0.0
  9
$PUCSORGBACK
 10
0.0
 20
0.0
 30
0.0
  9
$USERI1
 70
     0
  9
$USERI2
 70
     0
  9
$USERI3
 70
     0
  9
$USERI4
 70
     0
  9
$USERI5
 70
     0
  9
$USERR1
 40
0.0
  9
$USERR2
 40
0.0
  9
$USERR3
 40
0.0
  9
$USERR4
 40
0.0
  9
$USERR5
 40
0.0
  9
$WORLDVIEW
 70
     1
  9
$SHADEDGE
 70
     3
  9
$SHADEDIF
 70
    70
  9
$TILEMODE
 70
     1
  9
$MAXACTVP
 70
    64
  9
$PINSBASE
 10
0.0
 20
0.0
 30
0.0
  9
$PLIMCHECK
 70
     0
  9
$PEXTMIN
 10
0.0
 20
0.0
 30
0.0
  9
$PEXTMAX
 10
0.0
 20
0.0
 30
0.0
  9
$PLIMMIN
 10
0.0
 20
0.0
  9
$PLIMMAX
 10
12.0
 20
9.0
  9
$UNITMODE
 70
     0
  9
$VISRETAIN
 70
     1
  9
$PLINEGEN
 70
     0
  9
$PSLTSCALE
 70
     1
  9
$TREEDEPTH
 70
  3020
  9
$CMLSTYLE
  2
Standard
  9
$CMLJUST
 70
     0
  9
$CMLSCALE
 40
20.0
  9
$PROXYGRAPHICS
 70
     1
  9
$MEASUREMENT
 70
     1
  9
$CELWEIGHT
370
    -1
  9
$ENDCAPS
280
     0
  9
$JOINSTYLE
280
     0
  9
$LWDISPLAY
290
     0
  9
$INSUNITS
 70
     4
  9
$HYPERLINKBASE
  1

  9
$STYLESHEET
  1

  9
$XEDIT
290
     1
  9
$CEPSNTYPE
380
     0
  9
$PSTYLEMODE
290
     1
  9
$FINGERPRINTGUID
  2
{D449576F-7367-4BAB-ACAF-23D4DD5899BF}
  9
$VERSIONGUID
  2
{8D66A587-F58B-435D-8D5E-3A616DE19530}
  9
$EXTNAMES
290
     1
  9
$PSVPSCALE
 40
0.0
  9
$OLESTARTUP
290
     0
  9
$SORTENTS
280
   127
  9
$INDEXCTL
280
     0
  9
$HIDETEXT
280
     1
  9
$XCLIPFRAME
290
     0
  9
$HALOGAP
280
     0
  9
$OBSCOLOR
 70
   257
  9
$OBSLTYPE
280
     0
  9
$INTERSECTIONDISPLAY
280
     0
  9
$INTERSECTIONCOLOR
 70
   257
  9
$DIMASSOC
280
     2
  9
$PROJECTNAME
  1

  0
ENDSEC
  0
SECTION
  2
CLASSES
  0
CLASS
  1
ACDBDICTIONARYWDFLT
  2
AcDbDictionaryWithDefault
  3
ObjectDBX Classes
 90
        0
 91
        1
280
     0
281
     0
  0
CLASS
  1
DICTIONARYVAR
  2
AcDbDictionaryVar
  3
ObjectDBX Classes
 90
        0
 91
       12
280
     0
281
     0
  0
CLASS
  1
TABLESTYLE
  2
AcDbTableStyle
  3
ObjectDBX Classes
 90
     4095
 91
        1
280
     0
281
     0
  0
CLASS
  1
MATERIAL
  2
AcDbMaterial
  3
ObjectDBX Classes
 90
     1153
 91
        3
280
     0
281
     0
  0
CLASS
  1
VISUALSTYLE
  2
AcDbVisualStyle
  3
ObjectDBX Classes
 90
     4095
 91
       19
280
     0
281
     0
  0
CLASS
  1
SCALE
  2
AcDbScale
  3
ObjectDBX Classes
 90
     1153
 91
       17
280
     0
281
     0
  0
CLASS
  1
MLEADERSTYLE
  2
AcDbMLeaderStyle
  3
ACDB_MLEADERSTYLE_CLASS
 90
     4095
 91
        2
280
     0
281
     0
  0
CLASS
  1
CELLSTYLEMAP
  2
AcDbCellStyleMap
  3
ObjectDBX Classes
 90
     1152
 91
        1
280
     0
281
     0
  0
CLASS
  1
EXACXREFPANELOBJECT
  2
ExAcXREFPanelObject
  3
EXAC_ESW
 90
     1025
 91
        0
280
     0
281
     0
  0
CLASS
  1
NPOCOLLECTION
  2
AcDbImpNonPersistentObjectsCollection
  3
ObjectDBX Classes
 90
     1153
 91
        0
280
     0
281
     0
  0
CLASS
  1
LAYER_INDEX
  2
AcDbLayerIndex
  3
ObjectDBX Classes
 90
        0
 91
        0
280
     0
281
     0
  0
CLASS
  1
SPATIAL_INDEX
  2
AcDbSpatialIndex
  3
ObjectDBX Classes
 90
        0
 91
        0
280
     0
281
     0
  0
CLASS
  1
IDBUFFER
  2
AcDbIdBuffer
  3
ObjectDBX Classes
 90
        0
 91
        0
280
     0
281
     0
  0
CLASS
  1
DIMASSOC
  2
AcDbDimAssoc
  3
"AcDbDimAssoc|Product Desc:     AcDim ARX App For Dimension|Company:          Autodesk, Inc.|WEB Address:      www.autodesk.com"
 90
        0
 91
        8
280
     0
281
     0
  0
CLASS
  1
SORTENTSTABLE
  2
AcDbSortentsTable
  3
ObjectDBX Classes
 90
        0
 91
        1
280
     0
281
     0
  0
ENDSEC
  0
SECTION
  2
TABLES
  0
TABLE
  2
VPORT
  5
8
330
0
100
AcDbSymbolTable
 70
     1
  0
VPORT
  5
EA
330
8
100
AcDbSymbolTableRecord
100
AcDbViewportTableRecord
  2
*Active
 70
     0
 10
0.0
 20
0.0
 11
1.0
 21
1.0
 12
1579.259676130386
 22
687.6073129315503
 13
0.0
 23
0.0
 14
10.0
 24
10.0
 15
10.0
 25
10.0
 16
0.0
 26
0.0
 36
1.0
 17
0.0
 27
0.0
 37
0.0
 40
157.3061841094294
 41
2.132176234979973
 42
50.0
 43
0.0
 44
0.0
 50
0.0
 51
0.0
 71
     0
 72
  1000
 73
     1
 74
     3
 75
     0
 76
     0
 77
     0
 78
     0
281
     0
 65
     1
110
0.0
120
0.0
130
0.0
111
1.0
121
0.0
131
0.0
112
0.0
122
1.0
132
0.0
 79
     0
146
0.0
  0
ENDTAB
  0
TABLE
  2
LTYPE
  5
5
330
0
100
AcDbSymbolTable
 70
     1
  0
LTYPE
  5
14
330
5
100
AcDbSymbolTableRecord
100
AcDbLinetypeTableRecord
  2
ByBlock
 70
     0
  3

 72
    65
 73
     0
 40
0.0
  0
LTYPE
  5
15
330
5
100
AcDbSymbolTableRecord
100
AcDbLinetypeTableRecord
  2
ByLayer
 70
     0
  3

 72
    65
 73
     0
 40
0.0
  0
LTYPE
  5
16
330
5
100
AcDbSymbolTableRecord
100
AcDbLinetypeTableRecord
  2
Continuous
 70
     0
  3
Solid line
 72
    65
 73
     0
 40
0.0
  0
ENDTAB
  0
TABLE
  2
LAYER
  5
2
102
{ACAD_XDICTIONARY
360
23C
102
}
330
0
100
AcDbSymbolTable
 70
     7
  0
LAYER
  5
10
102
{ACAD_XDICTIONARY
360
13C
102
}
330
2
100
AcDbSymbolTableRecord
100
AcDbLayerTableRecord
  2
0
 70
     0
 62
     7
  6
Continuous
370
    -3
390
F
  0
LAYER
  5
22A
330
2
100
AcDbSymbolTableRecord
100
AcDbLayerTableRecord
  2
Defpoints
 70
     0
 62
     7
  6
Continuous
290
     0
370
    -3
390
F
  0
LAYER
  5
22B
102
{ACAD_XDICTIONARY
360
22C
102
}
330
2
100
AcDbSymbolTableRecord
100
AcDbLayerTableRecord
  2
S10_Quote
 70
     0
 62
     7
  6
Continuous
370
    -3
390
F
  0
LAYER
  5
22D
102
{ACAD_XDICTIONARY
360
22E
102
}
330
2
100
AcDbSymbolTableRecord
100
AcDbLayerTableRecord
  2
S09_Testo
 70
     0
 62
     7
  6
Continuous
370
    -3
390
F
1001
AcAecLayerStandard
1000

1000

  0
LAYER
  5
22F
102
{ACAD_XDICTIONARY
360
230
102
}
330
2
100
AcDbSymbolTableRecord
100
AcDbLayerTableRecord
  2
S08_Retino
 70
     0
 62
   252
  6
Continuous
370
    -3
390
F
  0
LAYER
  5
231
330
2
100
AcDbSymbolTableRecord
100
AcDbLayerTableRecord
  2
Sichtbar (ISO)
 70
     0
 62
     5
  6
Continuous
370
    35
390
F
  0
LAYER
  5
232
330
2
100
AcDbSymbolTableRecord
100
AcDbLayerTableRecord
  2
Sichtbar schmal (ISO)
 70
     0
 62
     7
  6
Continuous
370
     9
390
F
  0
ENDTAB
  0
TABLE
  2
STYLE
  5
3
330
0
100
AcDbSymbolTable
 70
     4
  0
STYLE
  5
11
330
3
100
AcDbSymbolTableRecord
100
AcDbTextStyleTableRecord
  2
Standard
 70
     0
 40
0.0
 41
1.0
 50
0.0
 71
     0
 42
2.5
  3
ARIAL.TTF
  4

1001
ACAD
1000
Arial
1071
       34
  0
STYLE
  5
132
330
3
100
AcDbSymbolTableRecord
100
AcDbTextStyleTableRecord
  2
Annotativa
 70
     0
 40
0.0
 41
1.0
 50
0.0
 71
     0
 42
2.5
  3
ARIAL.TTF
  4

1001
AcadAnnotative
1000
AnnotativeData
1002
{
1070
     1
1070
     1
1002
}
1001
ACAD
1000
Arial
1071
       34
  0
STYLE
  5
233
330
3
100
AcDbSymbolTableRecord
100
AcDbTextStyleTableRecord
  2
ROMANS
 70
     0
 40
0.0
 41
1.0
 50
0.0
 71
     0
 42
0.21
  3
ROMANS.shx
  4

  0
STYLE
  5
234
330
3
100
AcDbSymbolTableRecord
100
AcDbTextStyleTableRecord
  2
wurth
 70
     0
 40
0.0
 41
1.0
 50
0.0
 71
     0
 42
40.0
  3
WuerthBook.ttf
  4

1001
ACAD
1000
Wuerth Book
1071
        2
  0
ENDTAB
  0
TABLE
  2
VIEW
  5
6
330
0
100
AcDbSymbolTable
 70
     0
  0
ENDTAB
  0
TABLE
  2
UCS
  5
7
330
0
100
AcDbSymbolTable
 70
     0
  0
ENDTAB
  0
TABLE
  2
APPID
  5
9
330
0
100
AcDbSymbolTable
 70
    11
  0
APPID
  5
12
330
9
100
AcDbSymbolTableRecord
100
AcDbRegAppTableRecord
  2
ACAD
 70
     0
  0
APPID
  5
9E
330
9
100
AcDbSymbolTableRecord
100
AcDbRegAppTableRecord
  2
ACAD_PSEXT
 70
     0
  0
APPID
  5
133
330
9
100
AcDbSymbolTableRecord
100
AcDbRegAppTableRecord
  2
AcadAnnoPO
 70
     0
  0
APPID
  5
134
330
9
100
AcDbSymbolTableRecord
100
AcDbRegAppTableRecord
  2
AcadAnnotative
 70
     0
  0
APPID
  5
135
330
9
100
AcDbSymbolTableRecord
100
AcDbRegAppTableRecord
  2
ACAD_DSTYLE_DIMJAG
 70
     0
  0
APPID
  5
136
330
9
100
AcDbSymbolTableRecord
100
AcDbRegAppTableRecord
  2
ACAD_DSTYLE_DIMTALN
 70
     0
  0
APPID
  5
165
330
9
100
AcDbSymbolTableRecord
100
AcDbRegAppTableRecord
  2
ACAD_MLEADERVER
 70
     0
  0
APPID
  5
238
330
9
100
AcDbSymbolTableRecord
100
AcDbRegAppTableRecord
  2
AcAecLayerStandard
 70
     0
  0
APPID
  5
239
330
9
100
AcDbSymbolTableRecord
100
AcDbRegAppTableRecord
  2
AcDbDynamicBlockGUID
 70
     0
  0
APPID
  5
23A
330
9
100
AcDbSymbolTableRecord
100
AcDbRegAppTableRecord
  2
AcDbBlockRepETag
 70
     0
  0
APPID
  5
23B
330
9
100
AcDbSymbolTableRecord
100
AcDbRegAppTableRecord
  2
ACAD_DSTYLE_DIMBREAK
 70
     0
  0
ENDTAB
  0
TABLE
  2
DIMSTYLE
  5
A
330
0
100
AcDbSymbolTable
 70
     6
100
AcDbDimStyleTable
 71
     2
340
27
340
137
  0
DIMSTYLE
105
1B0
330
A
100
AcDbSymbolTableRecord
100
AcDbDimStyleTableRecord
  2
Standard
 70
     0
340
11
  0
DIMSTYLE
105
137
330
A
100
AcDbSymbolTableRecord
100
AcDbDimStyleTableRecord
  2
Annotativa
 70
     0
 40
0.0
 41
2.5
 42
0.625
 43
3.75
 44
1.25
 73
     0
 74
     0
 77
     1
 78
     8
140
2.5
141
2.5
143
0.03937007874016
147
0.625
171
     3
172
     1
271
     2
272
     2
274
     3
278
    44
283
     0
284
     8
340
11
1001
AcadAnnotative
1000
AnnotativeData
1002
{
1070
     1
1070
     1
1002
}
1001
ACAD_DSTYLE_DIMJAG
1070
   388
1040
1.5
1001
ACAD_DSTYLE_DIMTALN
1070
   392
1070
     0
  0
DIMSTYLE
105
27
330
A
100
AcDbSymbolTableRecord
100
AcDbDimStyleTableRecord
  2
ISO-25
 70
     0
 41
2.5
 42
0.625
 43
3.75
 44
1.25
 73
     0
 74
     0
 77
     1
 78
     8
140
2.5
141
2.5
143
0.03937007874016
147
0.625
171
     3
172
     1
271
     2
272
     2
274
     3
278
    44
283
     0
284
     8
340
11
  0
DIMSTYLE
105
235
330
A
100
AcDbSymbolTableRecord
100
AcDbDimStyleTableRecord
  2
mm 1_5
 70
     0
 40
5.0
 41
0.015
 42
0.625
 43
1.0
 44
1.25
 73
     0
 74
     0
 75
     1
 76
     1
 77
     1
 78
     8
140
2.0
141
0.5
143
0.03937007874016
147
0.8
171
     3
172
     1
174
     1
179
     2
271
     1
272
     1
274
     3
283
     0
284
     8
340
233
342
1F4
  0
DIMSTYLE
105
236
102
{ACAD_REACTORS
330
29C
330
29F
330
38B
330
38E
330
3F6
330
3F9
330
4E5
330
4E8
102
}
330
A
100
AcDbSymbolTableRecord
100
AcDbDimStyleTableRecord
  2
mm 1_1
 70
     0
 41
0.015
 42
0.625
 43
1.0
 44
1.25
 73
     0
 74
     0
 77
     1
 78
     8
140
2.0
141
0.5
143
0.03937007874016
147
0.8
171
     3
172
     1
174
     1
179
     2
271
     2
272
     2
274
     3
283
     0
284
     8
340
234
342
1F4
1001
ACAD_DSTYLE_DIMBREAK
1070
   391
1040
3.75
1001
ACAD_DSTYLE_DIMJAG
1070
   388
1040
1.5
1001
ACAD_DSTYLE_DIMTALN
1070
   392
1070
     0
  0
DIMSTYLE
105
237
330
A
100
AcDbSymbolTableRecord
100
AcDbDimStyleTableRecord
  2
mm 1_1 x4
 70
     0
 41
0.015
 42
0.625
 43
1.0
 44
1.25
 73
     0
 74
     0
 77
     1
 78
     8
140
2.0
141
0.5
143
0.03937007874016
144
0.25
147
0.8
171
     3
172
     1
174
     1
179
     2
271
     2
272
     2
274
     3
283
     0
284
     8
340
234
342
1F4
1001
ACAD_DSTYLE_DIMBREAK
1070
   391
1040
3.75
1001
ACAD_DSTYLE_DIMJAG
1070
   388
1040
1.5
1001
ACAD_DSTYLE_DIMTALN
1070
   392
1070
     0
  0
ENDTAB
  0
TABLE
  2
BLOCK_RECORD
  5
1
330
0
100
AcDbSymbolTable
 70
    11
  0
BLOCK_RECORD
  5
1F
102
{ACAD_XDICTIONARY
360
1CE
102
}
330
1
100
AcDbSymbolTableRecord
100
AcDbBlockTableRecord
  2
*Model_Space
340
22
  0
BLOCK_RECORD
  5
D2
330
1
100
AcDbSymbolTableRecord
100
AcDbBlockTableRecord
  2
*Paper_Space
340
D3
  0
BLOCK_RECORD
  5
D6
330
1
100
AcDbSymbolTableRecord
100
AcDbBlockTableRecord
  2
*Paper_Space0
340
D7
  0
BLOCK_RECORD
  5
1F4
102
{ACAD_XDICTIONARY
360
1F5
102
}
330
1
100
AcDbSymbolTableRecord
100
AcDbBlockTableRecord
  2
A$C79C4041D
340
0
102
{BLKREFS
331
1FF
331
200
331
20B
331
20C
331
217
331
218
331
223
331
224
331
4F1
331
4F2
331
4FD
331
4FE
331
509
331
50A
331
515
331
516
102
}
1001
AcDbDynamicBlockGUID
1000
{93BD5B1E-816B-4960-B1CC-7C46A00E0667}
1001
AcDbBlockRepETag
1070
     1
1071
        2
  0
BLOCK_RECORD
  5
1FA
330
1
100
AcDbSymbolTableRecord
100
AcDbBlockTableRecord
  2
*D2
340
0
  0
BLOCK_RECORD
  5
206
330
1
100
AcDbSymbolTableRecord
100
AcDbBlockTableRecord
  2
*D3
340
0
  0
BLOCK_RECORD
  5
212
330
1
100
AcDbSymbolTableRecord
100
AcDbBlockTableRecord
  2
*D4
340
0
  0
BLOCK_RECORD
  5
21E
330
1
100
AcDbSymbolTableRecord
100
AcDbBlockTableRecord
  2
*D5
340
0
  0
BLOCK_RECORD
  5
4EB
330
1
100
AcDbSymbolTableRecord
100
AcDbBlockTableRecord
  2
*D7
340
0
  0
BLOCK_RECORD
  5
4F7
330
1
100
AcDbSymbolTableRecord
100
AcDbBlockTableRecord
  2
*D8
340
0
  0
BLOCK_RECORD
  5
503
330
1
100
AcDbSymbolTableRecord
100
AcDbBlockTableRecord
  2
*D9
340
0
  0
BLOCK_RECORD
  5
50F
330
1
100
AcDbSymbolTableRecord
100
AcDbBlockTableRecord
  2
*D10
340
0
  0
ENDTAB
  0
ENDSEC
  0
SECTION
  2
BLOCKS
  0
BLOCK
  5
20
330
1F
100
AcDbEntity
  8
0
100
AcDbBlockBegin
  2
*Model_Space
 70
     0
 10
0.0
 20
0.0
 30
0.0
  3
*Model_Space
  1

  0
ENDBLK
  5
21
330
1F
100
AcDbEntity
  8
0
100
AcDbBlockEnd
  0
BLOCK
  5
D4
330
D2
100
AcDbEntity
 67
     1
  8
0
100
AcDbBlockBegin
  2
*Paper_Space
 70
     0
 10
0.0
 20
0.0
 30
0.0
  3
*Paper_Space
  1

  0
ENDBLK
  5
D5
330
D2
100
AcDbEntity
 67
     1
  8
0
100
AcDbBlockEnd
  0
BLOCK
  5
D8
330
D6
100
AcDbEntity
 67
     1
  8
0
100
AcDbBlockBegin
  2
*Paper_Space0
 70
     0
 10
0.0
 20
0.0
 30
0.0
  3
*Paper_Space0
  1

  0
ENDBLK
  5
D9
330
D6
100
AcDbEntity
 67
     1
  8
0
100
AcDbBlockEnd
  0
BLOCK
  5
1F6
330
1F4
100
AcDbEntity
  8
0
 62
     3
100
AcDbBlockBegin
  2
A$C79C4041D
 70
     0
 10
0.0
 20
0.0
 30
0.0
  3
A$C79C4041D
  1

  0
LINE
  5
1F7
330
1F4
100
AcDbEntity
  8
S10_Quote
 62
     4
100
AcDbLine
 10
-20.0
 20
-50.0
 30
0.0
 11
20.0
 21
50.0
 31
0.0
1001
AcDbBlockRepETag
1070
     1
1071
        0
1005
1F7
  0
LINE
  5
1F8
330
1F4
100
AcDbEntity
  8
S10_Quote
100
AcDbLine
 10
0.0
 20
50.0
 30
0.0
 11
0.0
 21
-50.0
 31
0.0
1001
AcDbBlockRepETag
1070
     1
1071
        1
1005
1F8
  0
ENDBLK
  5
1F9
330
1F4
100
AcDbEntity
  8
0
 62
     3
100
AcDbBlockEnd
  0
BLOCK
  5
1FB
330
1FA
100
AcDbEntity
  8
0
100
AcDbBlockBegin
  2
*D2
 70
     1
 10
0.0
 20
0.0
 30
0.0
  3
*D2
  1

  0
LINE
  5
1FC
330
1FA
100
AcDbEntity
  8
S10_Quote
 62
     0
370
    -2
100
AcDbLine
 10
1256.788484759981
 20
4549.164813996688
 30
0.0
 11
1256.788484759981
 21
4541.274154442561
 31
0.0
  0
LINE
  5
1FD
330
1FA
100
AcDbEntity
  8
S10_Quote
 62
     0
370
    -2
100
AcDbLine
 10
1297.788484759981
 20
4549.164813996685
 30
0.0
 11
1297.788484759981
 21
4541.274154442561
 31
0.0
  0
LINE
  5
1FE
330
1FA
100
AcDbEntity
  8
S10_Quote
 62
     0
370
    -2
100
AcDbLine
 10
1256.803484759981
 20
4542.524154442562
 30
0.0
 11
1297.773484759981
 21
4542.524154442562
 31
0.0
  0
INSERT
  5
1FF
330
1FA
100
AcDbEntity
  8
S10_Quote
 62
     0
370
    -2
100
AcDbBlockReference
  2
A$C79C4041D
 10
1256.788484759981
 20
4542.524154442562
 30
0.0
 41
0.015
 42
0.015
 43
0.015
 50
180.0
  0
INSERT
  5
200
330
1FA
100
AcDbEntity
  8
S10_Quote
 62
     0
370
    -2
100
AcDbBlockReference
  2
A$C79C4041D
 10
1297.788484759981
 20
4542.524154442562
 30
0.0
 41
0.015
 42
0.015
 43
0.015
  0
MTEXT
  5
201
330
1FA
100
AcDbEntity
  8
S10_Quote
 62
     0
100
AcDbMText
 10
1277.288484759981
 20
4544.331846750254
 30
0.0
 40
2.0
 41
0.0
 71
     5
 72
     1
  1
41
  7
wurth
 73
     1
 44
1.0
  0
POINT
  5
202
330
1FA
100
AcDbEntity
  8
Defpoints
 62
     0
100
AcDbPoint
 10
1256.788484759981
 20
4549.789813996687
 30
0.0
  0
POINT
  5
203
330
1FA
100
AcDbEntity
  8
Defpoints
 62
     0
100
AcDbPoint
 10
1297.788484759981
 20
4549.789813996685
 30
0.0
  0
POINT
  5
204
330
1FA
100
AcDbEntity
  8
Defpoints
 62
     0
100
AcDbPoint
 10
1297.788484759981
 20
4542.524154442562
 30
0.0
  0
ENDBLK
  5
205
330
1FA
100
AcDbEntity
  8
0
100
AcDbBlockEnd
  0
BLOCK
  5
207
330
206
100
AcDbEntity
  8
0
100
AcDbBlockBegin
  2
*D3
 70
     1
 10
0.0
 20
0.0
 30
0.0
  3
*D3
  1

  0
LINE
  5
208
330
206
100
AcDbEntity
  8
S10_Quote
 62
     0
370
    -2
100
AcDbLine
 10
1260.163484759981
 20
4589.789813996687
 30
0.0
 11
1249.136321193307
 21
4589.789813996687
 31
0.0
  0
LINE
  5
209
330
206
100
AcDbEntity
  8
S10_Quote
 62
     0
370
    -2
100
AcDbLine
 10
1256.163484759981
 20
4549.164813996688
 30
0.0
 11
1249.136321193307
 21
4549.164813996688
 31
0.0
  0
LINE
  5
20A
330
206
100
AcDbEntity
  8
S10_Quote
 62
     0
370
    -2
100
AcDbLine
 10
1250.386321193307
 20
4589.774813996687
 30
0.0
 11
1250.386321193307
 21
4549.179813996687
 31
0.0
  0
INSERT
  5
20B
330
206
100
AcDbEntity
  8
S10_Quote
 62
     0
370
    -2
100
AcDbBlockReference
  2
A$C79C4041D
 10
1250.386321193307
 20
4589.789813996687
 30
0.0
 41
0.015
 42
0.015
 43
0.015
 50
90.0
  0
INSERT
  5
20C
330
206
100
AcDbEntity
  8
S10_Quote
 62
     0
370
    -2
100
AcDbBlockReference
  2
A$C79C4041D
 10
1250.386321193307
 20
4549.164813996688
 30
0.0
 41
0.015
 42
0.015
 43
0.015
 50
270.0
  0
MTEXT
  5
20D
330
206
100
AcDbEntity
  8
S10_Quote
 62
     0
100
AcDbMText
 10
1248.56324427023
 20
4569.477313996688
 30
0.0
 40
2.0
 41
0.0
 71
     5
 72
     1
  1
40.63
  7
wurth
 11
0.0000000000000001
 21
1.0
 31
0.0
 73
     1
 44
1.0
  0
POINT
  5
20E
330
206
100
AcDbEntity
  8
Defpoints
 62
     0
100
AcDbPoint
 10
1260.788484759981
 20
4589.789813996687
 30
0.0
  0
POINT
  5
20F
330
206
100
AcDbEntity
  8
Defpoints
 62
     0
100
AcDbPoint
 10
1256.788484759981
 20
4549.164813996688
 30
0.0
  0
POINT
  5
210
330
206
100
AcDbEntity
  8
Defpoints
 62
     0
100
AcDbPoint
 10
1250.386321193307
 20
4549.164813996688
 30
0.0
  0
ENDBLK
  5
211
330
206
100
AcDbEntity
  8
0
100
AcDbBlockEnd
  0
BLOCK
  5
213
330
212
100
AcDbEntity
  8
0
 62
     0
100
AcDbBlockBegin
  2
*D4
 70
     1
 10
0.0
 20
0.0
 30
0.0
  3
*D4
  1

  0
LINE
  5
214
330
212
100
AcDbEntity
  8
S10_Quote
 62
     0
370
    -2
100
AcDbLine
 10
1343.359053289031
 20
4618.952361399276
 30
0.0
 11
1343.359053289031
 21
4613.403483309446
 31
0.0
  0
LINE
  5
215
330
212
100
AcDbEntity
  8
S10_Quote
 62
     0
370
    -2
100
AcDbLine
 10
1359.359053289031
 20
4618.952361399276
 30
0.0
 11
1359.359053289031
 21
4613.403483309446
 31
0.0
  0
LINE
  5
216
330
212
100
AcDbEntity
  8
S10_Quote
 62
     0
370
    -2
100
AcDbLine
 10
1343.374053289031
 20
4614.653483309446
 30
0.0
 11
1359.344053289031
 21
4614.653483309446
 31
0.0
  0
INSERT
  5
217
330
212
100
AcDbEntity
  8
S10_Quote
 62
     0
370
    -2
100
AcDbBlockReference
  2
A$C79C4041D
 10
1343.359053289031
 20
4614.653483309446
 30
0.0
 41
0.015
 42
0.015
 43
0.015
 50
180.0
  0
INSERT
  5
218
330
212
100
AcDbEntity
  8
S10_Quote
 62
     0
370
    -2
100
AcDbBlockReference
  2
A$C79C4041D
 10
1359.359053289031
 20
4614.653483309446
 30
0.0
 41
0.015
 42
0.015
 43
0.015
  0
MTEXT
  5
219
330
212
100
AcDbEntity
  8
S10_Quote
 62
     0
100
AcDbMText
 10
1351.359053289031
 20
4616.468867924831
 30
0.0
 40
2.0
 41
0.0
 71
     5
 72
     1
  1
16
  7
wurth
 73
     1
 44
1.0
  0
POINT
  5
21A
330
212
100
AcDbEntity
  8
Defpoints
 62
     0
100
AcDbPoint
 10
1343.359053289031
 20
4619.577361399276
 30
0.0
  0
POINT
  5
21B
330
212
100
AcDbEntity
  8
Defpoints
 62
     0
100
AcDbPoint
 10
1359.359053289031
 20
4619.577361399276
 30
0.0
  0
POINT
  5
21C
330
212
100
AcDbEntity
  8
Defpoints
 62
     0
100
AcDbPoint
 10
1359.359053289031
 20
4614.653483309446
 30
0.0
  0
ENDBLK
  5
21D
330
212
100
AcDbEntity
  8
0
 62
     0
100
AcDbBlockEnd
  0
BLOCK
  5
21F
330
21E
100
AcDbEntity
  8
0
 62
     0
100
AcDbBlockBegin
  2
*D5
 70
     1
 10
0.0
 20
0.0
 30
0.0
  3
*D5
  1

  0
LINE
  5
220
330
21E
100
AcDbEntity
  8
S10_Quote
 62
     0
370
    -2
100
AcDbLine
 10
1341.859053289029
 20
4675.002361399275
 30
0.0
 11
1341.859053289029
 21
4668.131058583114
 31
0.0
  0
LINE
  5
221
330
21E
100
AcDbEntity
  8
S10_Quote
 62
     0
370
    -2
100
AcDbLine
 10
1360.85905328903
 20
4675.002361399275
 30
0.0
 11
1360.85905328903
 21
4668.131058583114
 31
0.0
  0
LINE
  5
222
330
21E
100
AcDbEntity
  8
S10_Quote
 62
     0
370
    -2
100
AcDbLine
 10
1341.87405328903
 20
4669.381058583114
 30
0.0
 11
1360.84405328903
 21
4669.381058583114
 31
0.0
  0
INSERT
  5
223
330
21E
100
AcDbEntity
  8
S10_Quote
 62
     0
370
    -2
100
AcDbBlockReference
  2
A$C79C4041D
 10
1341.859053289029
 20
4669.381058583114
 30
0.0
 41
0.015
 42
0.015
 43
0.015
 50
180.0
  0
INSERT
  5
224
330
21E
100
AcDbEntity
  8
S10_Quote
 62
     0
370
    -2
100
AcDbBlockReference
  2
A$C79C4041D
 10
1360.85905328903
 20
4669.381058583114
 30
0.0
 41
0.015
 42
0.015
 43
0.015
  0
MTEXT
  5
225
330
21E
100
AcDbEntity
  8
S10_Quote
 62
     0
100
AcDbMText
 10
1351.35905328903
 20
4671.204135506191
 30
0.0
 40
2.0
 41
0.0
 71
     5
 72
     1
  1
19
  7
wurth
 73
     1
 44
1.0
  0
POINT
  5
226
330
21E
100
AcDbEntity
  8
Defpoints
 62
     0
100
AcDbPoint
 10
1341.859053289029
 20
4675.627361399276
 30
0.0
  0
POINT
  5
227
330
21E
100
AcDbEntity
  8
Defpoints
 62
     0
100
AcDbPoint
 10
1360.85905328903
 20
4675.627361399276
 30
0.0
  0
POINT
  5
228
330
21E
100
AcDbEntity
  8
Defpoints
 62
     0
100
AcDbPoint
 10
1360.85905328903
 20
4669.381058583114
 30
0.0
  0
ENDBLK
  5
229
330
21E
100
AcDbEntity
  8
0
 62
     0
100
AcDbBlockEnd
  0
BLOCK
  5
4EC
330
4EB
100
AcDbEntity
  8
0
100
AcDbBlockBegin
  2
*D7
 70
     1
 10
0.0
 20
0.0
 30
0.0
  3
*D7
  1

  0
LINE
  5
4EE
330
4EB
100
AcDbEntity
  8
S10_Quote
 62
     0
370
    -2
100
AcDbLine
 10
1520.934822750841
 20
623.6458521823124
 30
0.0
 11
1520.934822750841
 21
615.7551926281866
 31
0.0
  0
LINE
  5
4EF
330
4EB
100
AcDbEntity
  8
S10_Quote
 62
     0
370
    -2
100
AcDbLine
 10
1561.934822750841
 20
623.6458521823106
 30
0.0
 11
1561.934822750841
 21
615.7551926281866
 31
0.0
  0
LINE
  5
4F0
330
4EB
100
AcDbEntity
  8
S10_Quote
 62
     0
370
    -2
100
AcDbLine
 10
1520.949822750841
 20
617.0051926281867
 30
0.0
 11
1561.919822750841
 21
617.0051926281867
 31
0.0
  0
INSERT
  5
4F1
330
4EB
100
AcDbEntity
  8
S10_Quote
 62
     0
370
    -2
100
AcDbBlockReference
  2
A$C79C4041D
 10
1520.934822750841
 20
617.0051926281867
 30
0.0
 41
0.015
 42
0.015
 43
0.015
 50
180.0
  0
INSERT
  5
4F2
330
4EB
100
AcDbEntity
  8
S10_Quote
 62
     0
370
    -2
100
AcDbBlockReference
  2
A$C79C4041D
 10
1561.934822750841
 20
617.0051926281867
 30
0.0
 41
0.015
 42
0.015
 43
0.015
  0
MTEXT
  5
4F3
330
4EB
100
AcDbEntity
  8
S10_Quote
 62
     0
100
AcDbMText
 10
1541.434822750841
 20
618.812884935879
 30
0.0
 40
2.0
 41
0.0
 71
     5
 72
     1
  1
41
  7
wurth
 73
     1
 44
1.0
  0
POINT
  5
4F4
330
4EB
100
AcDbEntity
  8
Defpoints
 62
     0
100
AcDbPoint
 10
1520.934822750841
 20
624.2708521823124
 30
0.0
  0
POINT
  5
4F5
330
4EB
100
AcDbEntity
  8
Defpoints
 62
     0
100
AcDbPoint
 10
1561.934822750841
 20
624.2708521823105
 30
0.0
  0
POINT
  5
4F6
330
4EB
100
AcDbEntity
  8
Defpoints
 62
     0
100
AcDbPoint
 10
1561.934822750841
 20
617.0051926281867
 30
0.0
  0
ENDBLK
  5
4ED
330
4EB
100
AcDbEntity
  8
0
100
AcDbBlockEnd
  0
BLOCK
  5
4F8
330
4F7
100
AcDbEntity
  8
0
100
AcDbBlockBegin
  2
*D8
 70
     1
 10
0.0
 20
0.0
 30
0.0
  3
*D8
  1

  0
LINE
  5
4FA
330
4F7
100
AcDbEntity
  8
S10_Quote
 62
     0
370
    -2
100
AcDbLine
 10
1524.309822750841
 20
664.2708521823124
 30
0.0
 11
1513.282659184168
 21
664.2708521823124
 31
0.0
  0
LINE
  5
4FB
330
4F7
100
AcDbEntity
  8
S10_Quote
 62
     0
370
    -2
100
AcDbLine
 10
1520.309822750841
 20
623.6458521823124
 30
0.0
 11
1513.282659184168
 21
623.6458521823124
 31
0.0
  0
LINE
  5
4FC
330
4F7
100
AcDbEntity
  8
S10_Quote
 62
     0
370
    -2
100
AcDbLine
 10
1514.532659184167
 20
664.2558521823124
 30
0.0
 11
1514.532659184167
 21
623.6608521823123
 31
0.0
  0
INSERT
  5
4FD
330
4F7
100
AcDbEntity
  8
S10_Quote
 62
     0
370
    -2
100
AcDbBlockReference
  2
A$C79C4041D
 10
1514.532659184167
 20
664.2708521823124
 30
0.0
 41
0.015
 42
0.015
 43
0.015
 50
90.0
  0
INSERT
  5
4FE
330
4F7
100
AcDbEntity
  8
S10_Quote
 62
     0
370
    -2
100
AcDbBlockReference
  2
A$C79C4041D
 10
1514.532659184167
 20
623.6458521823124
 30
0.0
 41
0.015
 42
0.015
 43
0.015
 50
270.0
  0
MTEXT
  5
4FF
330
4F7
100
AcDbEntity
  8
S10_Quote
 62
     0
100
AcDbMText
 10
1512.70958226109
 20
643.9583521823126
 30
0.0
 40
2.0
 41
0.0
 71
     5
 72
     1
  1
40.63
  7
wurth
 11
0.0000000000000001
 21
1.0
 31
0.0
 73
     1
 44
1.0
  0
POINT
  5
500
330
4F7
100
AcDbEntity
  8
Defpoints
 62
     0
100
AcDbPoint
 10
1524.934822750841
 20
664.2708521823124
 30
0.0
  0
POINT
  5
501
330
4F7
100
AcDbEntity
  8
Defpoints
 62
     0
100
AcDbPoint
 10
1520.934822750841
 20
623.6458521823124
 30
0.0
  0
POINT
  5
502
330
4F7
100
AcDbEntity
  8
Defpoints
 62
     0
100
AcDbPoint
 10
1514.532659184167
 20
623.6458521823124
 30
0.0
  0
ENDBLK
  5
4F9
330
4F7
100
AcDbEntity
  8
0
100
AcDbBlockEnd
  0
BLOCK
  5
504
330
503
100
AcDbEntity
  8
0
100
AcDbBlockBegin
  2
*D9
 70
     1
 10
0.0
 20
0.0
 30
0.0
  3
*D9
  1

  0
LINE
  5
506
330
503
100
AcDbEntity
  8
S10_Quote
 62
     0
370
    -2
100
AcDbLine
 10
1607.505391279891
 20
693.433399584901
 30
0.0
 11
1607.505391279891
 21
687.8845214950715
 31
0.0
  0
LINE
  5
507
330
503
100
AcDbEntity
  8
S10_Quote
 62
     0
370
    -2
100
AcDbLine
 10
1623.505391279891
 20
693.433399584901
 30
0.0
 11
1623.505391279891
 21
687.8845214950715
 31
0.0
  0
LINE
  5
508
330
503
100
AcDbEntity
  8
S10_Quote
 62
     0
370
    -2
100
AcDbLine
 10
1607.520391279891
 20
689.1345214950716
 30
0.0
 11
1623.490391279891
 21
689.1345214950716
 31
0.0
  0
INSERT
  5
509
330
503
100
AcDbEntity
  8
S10_Quote
 62
     0
370
    -2
100
AcDbBlockReference
  2
A$C79C4041D
 10
1607.505391279891
 20
689.1345214950716
 30
0.0
 41
0.015
 42
0.015
 43
0.015
 50
180.0
  0
INSERT
  5
50A
330
503
100
AcDbEntity
  8
S10_Quote
 62
     0
370
    -2
100
AcDbBlockReference
  2
A$C79C4041D
 10
1623.505391279891
 20
689.1345214950716
 30
0.0
 41
0.015
 42
0.015
 43
0.015
  0
MTEXT
  5
50B
330
503
100
AcDbEntity
  8
S10_Quote
 62
     0
100
AcDbMText
 10
1615.505391279891
 20
690.9499061104561
 30
0.0
 40
2.0
 41
0.0
 71
     5
 72
     1
  1
16
  7
wurth
 73
     1
 44
1.0
  0
POINT
  5
50C
330
503
100
AcDbEntity
  8
Defpoints
 62
     0
100
AcDbPoint
 10
1607.505391279891
 20
694.058399584901
 30
0.0
  0
POINT
  5
50D
330
503
100
AcDbEntity
  8
Defpoints
 62
     0
100
AcDbPoint
 10
1623.505391279891
 20
694.058399584901
 30
0.0
  0
POINT
  5
50E
330
503
100
AcDbEntity
  8
Defpoints
 62
     0
100
AcDbPoint
 10
1623.505391279891
 20
689.1345214950716
 30
0.0
  0
ENDBLK
  5
505
330
503
100
AcDbEntity
  8
0
100
AcDbBlockEnd
  0
BLOCK
  5
510
330
50F
100
AcDbEntity
  8
0
100
AcDbBlockBegin
  2
*D10
 70
     1
 10
0.0
 20
0.0
 30
0.0
  3
*D10
  1

  0
LINE
  5
512
330
50F
100
AcDbEntity
  8
S10_Quote
 62
     0
370
    -2
100
AcDbLine
 10
1606.005391279889
 20
749.4833995849012
 30
0.0
 11
1606.005391279889
 21
742.6120967687393
 31
0.0
  0
LINE
  5
513
330
50F
100
AcDbEntity
  8
S10_Quote
 62
     0
370
    -2
100
AcDbLine
 10
1625.00539127989
 20
749.4833995849012
 30
0.0
 11
1625.00539127989
 21
742.6120967687393
 31
0.0
  0
LINE
  5
514
330
50F
100
AcDbEntity
  8
S10_Quote
 62
     0
370
    -2
100
AcDbLine
 10
1606.02039127989
 20
743.8620967687393
 30
0.0
 11
1624.99039127989
 21
743.8620967687393
 31
0.0
  0
INSERT
  5
515
330
50F
100
AcDbEntity
  8
S10_Quote
 62
     0
370
    -2
100
AcDbBlockReference
  2
A$C79C4041D
 10
1606.005391279889
 20
743.8620967687393
 30
0.0
 41
0.015
 42
0.015
 43
0.015
 50
180.0
  0
INSERT
  5
516
330
50F
100
AcDbEntity
  8
S10_Quote
 62
     0
370
    -2
100
AcDbBlockReference
  2
A$C79C4041D
 10
1625.00539127989
 20
743.8620967687393
 30
0.0
 41
0.015
 42
0.015
 43
0.015
  0
MTEXT
  5
517
330
50F
100
AcDbEntity
  8
S10_Quote
 62
     0
100
AcDbMText
 10
1615.50539127989
 20
745.6851736918162
 30
0.0
 40
2.0
 41
0.0
 71
     5
 72
     1
  1
19
  7
wurth
 73
     1
 44
1.0
  0
POINT
  5
518
330
50F
100
AcDbEntity
  8
Defpoints
 62
     0
100
AcDbPoint
 10
1606.005391279889
 20
750.1083995849012
 30
0.0
  0
POINT
  5
519
330
50F
100
AcDbEntity
  8
Defpoints
 62
     0
100
AcDbPoint
 10
1625.00539127989
 20
750.1083995849012
 30
0.0
  0
POINT
  5
51A
330
50F
100
AcDbEntity
  8
Defpoints
 62
     0
100
AcDbPoint
 10
1625.00539127989
 20
743.8620967687393
 30
0.0
  0
ENDBLK
  5
511
330
50F
100
AcDbEntity
  8
0
100
AcDbBlockEnd
  0
ENDSEC
  0
SECTION
  2
ENTITIES
  0
LINE
  5
399
330
1F
100
AcDbEntity
  8
Sichtbar (ISO)
100
AcDbLine
 10
1550.00784773047
 20
725.1083995849012
 30
0.0
 11
1559.935821237405
 21
701.8431226040256
 31
0.0
  0
LINE
  5
39A
330
1F
100
AcDbEntity
  8
Sichtbar (ISO)
100
AcDbLine
 10
1559.935821237405
 20
701.8431226040256
 30
0.0
 11
1559.935821237405
 21
696.184697701582
 31
0.0
  0
LINE
  5
39B
330
1F
100
AcDbEntity
  8
Sichtbar (ISO)
100
AcDbLine
 10
1559.935821237405
 20
696.184697701582
 30
0.0
 11
1558.420621838315
 21
694.0583995849001
 31
0.0
  0
LINE
  5
39C
330
1F
100
AcDbEntity
  8
Sichtbar (ISO)
100
AcDbLine
 10
1558.420621838315
 20
694.0583995849001
 30
0.0
 11
1556.934768740845
 21
694.0583995849001
 31
0.0
  0
LINE
  5
39D
330
1F
100
AcDbEntity
  8
Sichtbar (ISO)
100
AcDbLine
 10
1556.934768740845
 20
694.0583995849001
 30
0.0
 11
1554.935821237406
 21
696.05734708834
 31
0.0
  0
LINE
  5
39E
330
1F
100
AcDbEntity
  8
Sichtbar (ISO)
100
AcDbLine
 10
1554.935821237406
 20
696.05734708834
 30
0.0
 11
1554.935821237406
 21
698.3383995849008
 31
0.0
  0
ARC
  5
39F
330
1F
100
AcDbEntity
  8
Sichtbar (ISO)
100
AcDbCircle
 10
1555.235819366023
 20
698.3383995849008
 30
0.0
 40
0.3000000000000003
100
AcDbArc
 50
45.0014105722525
 51
180.0
  0
LINE
  5
3A0
330
1F
100
AcDbEntity
  8
Sichtbar (ISO)
100
AcDbLine
 10
1555.447946177809
 20
698.5505368416989
 30
0.0
 11
1556.385643187341
 21
697.6128398321661
 31
0.0
  0
ARC
  5
3A1
330
1F
100
AcDbEntity
  8
Sichtbar (ISO)
100
AcDbCircle
 10
1556.635823059182
 20
697.7783995849013
 30
0.0
 40
0.3
100
AcDbArc
 50
213.4951119557677
 51
0.0
  0
LINE
  5
3A2
330
1F
100
AcDbEntity
  8
Sichtbar (ISO)
100
AcDbLine
 10
1556.935821237406
 20
697.7783995849013
 30
0.0
 11
1556.935821237406
 21
702.6083995849012
 31
0.0
  0
LINE
  5
3A3
330
1F
100
AcDbEntity
  8
Sichtbar (ISO)
100
AcDbLine
 10
1556.935821237406
 20
702.6083995849012
 30
0.0
 11
1556.722456627238
 21
703.1083995849012
 31
0.0
  0
LINE
  5
3A4
330
1F
100
AcDbEntity
  8
Sichtbar (ISO)
100
AcDbLine
 10
1556.722456627238
 20
703.1083995849012
 30
0.0
 11
1553.225821237405
 21
703.1083995849012
 31
0.0
  0
LINE
  5
3A5
330
1F
100
AcDbEntity
  8
Sichtbar (ISO)
100
AcDbLine
 10
1553.225821237405
 20
703.1083995849012
 30
0.0
 11
1553.225821237405
 21
704.6083995849012
 31
0.0
  0
LINE
  5
3A6
330
1F
100
AcDbEntity
  8
Sichtbar (ISO)
100
AcDbLine
 10
1553.225821237405
 20
704.6083995849012
 30
0.0
 11
1555.577543767399
 21
706.9606325342893
 31
0.0
  0
LINE
  5
3A7
330
1F
100
AcDbEntity
  8
Sichtbar (ISO)
100
AcDbLine
 10
1555.577543767399
 20
706.9606325342893
 30
0.0
 11
1551.161627531504
 21
717.3089190482159
 31
0.0
  0
LINE
  5
3A8
330
1F
100
AcDbEntity
  8
Sichtbar (ISO)
100
AcDbLine
 10
1551.161627531504
 20
717.3089190482159
 30
0.0
 11
1545.935821237406
 21
717.3089190482159
 31
0.0
  0
LINE
  5
3A9
330
1F
100
AcDbEntity
  8
Sichtbar (ISO)
100
AcDbLine
 10
1545.935821237406
 20
717.3089190482159
 30
0.0
 11
1545.935821237406
 21
718.990832985065
 31
0.0
  0
ARC
  5
3AA
330
1F
100
AcDbEntity
  8
Sichtbar (ISO)
100
AcDbCircle
 10
1546.458121103301
 20
717.8894349482152
 30
0.0
 40
1.218964636684496
100
AcDbArc
 50
66.92784383372885
 51
115.3710264101317
  0
LINE
  5
3AB
330
1F
100
AcDbEntity
  8
Sichtbar (ISO)
100
AcDbLine
 10
1546.935821237406
 20
719.0108971042272
 30
0.0
 11
1546.935821237406
 21
718.5089190482167
 31
0.0
  0
LINE
  5
3AC
330
1F
100
AcDbEntity
  8
Sichtbar (ISO)
100
AcDbLine
 10
1546.935821237406
 20
718.5089190482167
 30
0.0
 11
1550.649552467102
 21
718.5089190482167
 31
0.0
  0
LINE
  5
3AD
330
1F
100
AcDbEntity
  8
Sichtbar (ISO)
100
AcDbLine
 10
1550.649552467102
 20
718.5089190482167
 30
0.0
 11
1548.686819723735
 21
723.1083995849012
 31
0.0
  0
LINE
  5
3AE
330
1F
100
AcDbEntity
  8
Sichtbar (ISO)
100
AcDbLine
 10
1548.686819723735
 20
723.1083995849012
 30
0.0
 11
1534.184822751076
 21
723.1083995849012
 31
0.0
  0
LINE
  5
3AF
330
1F
100
AcDbEntity
  8
Sichtbar (ISO)
100
AcDbLine
 10
1534.184822751076
 20
723.1083995849012
 30
0.0
 11
1532.222090007709
 21
718.5089190482167
 31
0.0
  0
LINE
  5
3B0
330
1F
100
AcDbEntity
  8
Sichtbar (ISO)
100
AcDbLine
 10
1532.222090007709
 20
718.5089190482167
 30
0.0
 11
1535.935821237405
 21
718.5089190482167
 31
0.0
  0
LINE
  5
3B1
330
1F
100
AcDbEntity
  8
Sichtbar (ISO)
100
AcDbLine
 10
1535.935821237405
 20
718.5089190482167
 30
0.0
 11
1535.935821237405
 21
719.0108971042272
 31
0.0
  0
ARC
  5
3B2
330
1F
100
AcDbEntity
  8
Sichtbar (ISO)
100
AcDbCircle
 10
1536.41352137151
 20
717.8894349482152
 30
0.0
 40
1.21896463668449
100
AcDbArc
 50
64.62897358986826
 51
113.0721561662711
  0
LINE
  5
3B3
330
1F
100
AcDbEntity
  8
Sichtbar (ISO)
100
AcDbLine
 10
1536.935821237405
 20
718.990832985065
 30
0.0
 11
1536.935821237405
 21
717.3089190482159
 31
0.0
  0
LINE
  5
3B4
330
1F
100
AcDbEntity
  8
Sichtbar (ISO)
100
AcDbLine
 10
1536.935821237405
 20
717.3089190482159
 30
0.0
 11
1531.710014943306
 21
717.3089190482159
 31
0.0
  0
LINE
  5
3B5
330
1F
100
AcDbEntity
  8
Sichtbar (ISO)
100
AcDbLine
 10
1531.710014943306
 20
717.3089190482159
 30
0.0
 11
1527.294098707412
 21
706.9606325342893
 31
0.0
  0
LINE
  5
3B6
330
1F
100
AcDbEntity
  8
Sichtbar (ISO)
100
AcDbLine
 10
1527.294098707412
 20
706.9606325342893
 30
0.0
 11
1529.645821237406
 21
704.6083995849012
 31
0.0
  0
LINE
  5
3B7
330
1F
100
AcDbEntity
  8
Sichtbar (ISO)
100
AcDbLine
 10
1529.645821237406
 20
704.6083995849012
 30
0.0
 11
1529.645821237406
 21
703.1083995849012
 31
0.0
  0
LINE
  5
3B8
330
1F
100
AcDbEntity
  8
Sichtbar (ISO)
100
AcDbLine
 10
1529.645821237406
 20
703.1083995849012
 30
0.0
 11
1526.149185847573
 21
703.1083995849012
 31
0.0
  0
LINE
  5
3B9
330
1F
100
AcDbEntity
  8
Sichtbar (ISO)
100
AcDbLine
 10
1526.149185847573
 20
703.1083995849012
 30
0.0
 11
1525.935821237405
 21
702.6083995849012
 31
0.0
  0
LINE
  5
3BA
330
1F
100
AcDbEntity
  8
Sichtbar (ISO)
100
AcDbLine
 10
1525.935821237405
 20
702.6083995849012
 30
0.0
 11
1525.935821237405
 21
697.7783995849013
 31
0.0
  0
ARC
  5
3BB
330
1F
100
AcDbEntity
  8
Sichtbar (ISO)
100
AcDbCircle
 10
1526.235819415629
 20
697.7783995849013
 30
0.0
 40
0.3000000000000003
100
AcDbArc
 50
180.0
 51
326.5048880442324
  0
LINE
  5
3BC
330
1F
100
AcDbEntity
  8
Sichtbar (ISO)
100
AcDbLine
 10
1526.48599928747
 20
697.6128398321661
 30
0.0
 11
1527.423696297002
 21
698.5505368416989
 31
0.0
  0
ARC
  5
3BD
330
1F
100
AcDbEntity
  8
Sichtbar (ISO)
100
AcDbCircle
 10
1527.635823108788
 20
698.3383995849008
 30
0.0
 40
0.2999999999999987
100
AcDbArc
 50
0.0
 51
134.9985894277475
  0
LINE
  5
3BE
330
1F
100
AcDbEntity
  8
Sichtbar (ISO)
100
AcDbLine
 10
1527.935821237405
 20
698.3383995849008
 30
0.0
 11
1527.935821237405
 21
696.05734708834
 31
0.0
  0
LINE
  5
3BF
330
1F
100
AcDbEntity
  8
Sichtbar (ISO)
100
AcDbLine
 10
1527.935821237405
 20
696.05734708834
 30
0.0
 11
1525.936873733966
 21
694.0583995849001
 31
0.0
  0
LINE
  5
3C0
330
1F
100
AcDbEntity
  8
Sichtbar (ISO)
100
AcDbLine
 10
1525.936873733966
 20
694.0583995849001
 30
0.0
 11
1524.451020636496
 21
694.0583995849001
 31
0.0
  0
LINE
  5
3C1
330
1F
100
AcDbEntity
  8
Sichtbar (ISO)
100
AcDbLine
 10
1524.451020636496
 20
694.0583995849001
 30
0.0
 11
1522.935821237406
 21
696.184697701582
 31
0.0
  0
LINE
  5
3C2
330
1F
100
AcDbEntity
  8
Sichtbar (ISO)
100
AcDbLine
 10
1522.935821237406
 20
696.184697701582
 30
0.0
 11
1522.935821237406
 21
701.8431226040256
 31
0.0
  0
LINE
  5
3C3
330
1F
100
AcDbEntity
  8
Sichtbar (ISO)
100
AcDbLine
 10
1522.935821237406
 20
701.8431226040256
 30
0.0
 11
1532.863794744341
 21
725.1083995849012
 31
0.0
  0
LINE
  5
3C4
330
1F
100
AcDbEntity
  8
Sichtbar (ISO)
100
AcDbLine
 10
1532.863794744341
 20
725.1083995849012
 30
0.0
 11
1550.00784773047
 21
725.1083995849012
 31
0.0
  0
LINE
  5
3C5
330
1F
100
AcDbEntity
  8
Sichtbar (ISO)
100
AcDbLine
 10
1561.434822750841
 20
750.1083995849012
 30
0.0
 11
1561.434822750841
 21
754.1083995849012
 31
0.0
  0
LINE
  5
3C6
330
1F
100
AcDbEntity
  8
Sichtbar (ISO)
100
AcDbLine
 10
1561.434822750841
 20
754.6083995849012
 30
0.0
 11
1561.434822750841
 21
757.1083995849012
 31
0.0
  0
LINE
  5
3C7
330
1F
100
AcDbEntity
  8
Sichtbar (ISO)
100
AcDbLine
 10
1561.434822750841
 20
754.1083995849012
 30
0.0
 11
1561.434822750841
 21
754.6083995849012
 31
0.0
  0
LINE
  5
3C8
330
1F
100
AcDbEntity
  8
Sichtbar (ISO)
100
AcDbLine
 10
1521.434822750841
 20
750.1083995849012
 30
0.0
 11
1561.434822750841
 21
750.1083995849012
 31
0.0
  0
LINE
  5
3C9
330
1F
100
AcDbEntity
  8
Sichtbar (ISO)
100
AcDbLine
 10
1521.434822750841
 20
757.1083995849012
 30
0.0
 11
1561.434822750841
 21
757.1083995849012
 31
0.0
  0
LINE
  5
3CA
330
1F
100
AcDbEntity
  8
Sichtbar (ISO)
100
AcDbLine
 10
1521.434822750841
 20
757.1083995849012
 30
0.0
 11
1521.434822750841
 21
754.6083995849012
 31
0.0
  0
LINE
  5
3CB
330
1F
100
AcDbEntity
  8
Sichtbar (ISO)
100
AcDbLine
 10
1521.434822750841
 20
754.6083995849012
 30
0.0
 11
1561.434822750841
 21
754.6083995849012
 31
0.0
  0
LINE
  5
3CC
330
1F
100
AcDbEntity
  8
Sichtbar (ISO)
100
AcDbLine
 10
1521.434822750841
 20
754.6083995849012
 30
0.0
 11
1521.434822750841
 21
754.1083995849012
 31
0.0
  0
LINE
  5
3CD
330
1F
100
AcDbEntity
  8
Sichtbar (ISO)
100
AcDbLine
 10
1521.434822750841
 20
754.1083995849012
 30
0.0
 11
1561.434822750841
 21
754.1083995849012
 31
0.0
  0
LINE
  5
3CE
330
1F
100
AcDbEntity
  8
Sichtbar (ISO)
100
AcDbLine
 10
1521.434822750841
 20
754.1083995849012
 30
0.0
 11
1521.434822750841
 21
750.1083995849012
 31
0.0
  0
LINE
  5
3CF
330
1F
100
AcDbEntity
  8
Sichtbar (ISO)
100
AcDbLine
 10
1547.934822750841
 20
719.1083995849012
 30
0.0
 11
1534.934822750841
 21
719.1083995849012
 31
0.0
  0
LINE
  5
3D0
330
1F
100
AcDbEntity
  8
Sichtbar (ISO)
100
AcDbLine
 10
1547.934822750841
 20
719.1083995849012
 30
0.0
 11
1547.934822750841
 21
723.1083995849012
 31
0.0
  0
LINE
  5
3D1
330
1F
100
AcDbEntity
  8
Sichtbar (ISO)
100
AcDbLine
 10
1534.934822750841
 20
719.1083995849012
 30
0.0
 11
1534.934822750841
 21
723.1083995849012
 31
0.0
  0
LINE
  5
3D2
330
1F
100
AcDbEntity
  8
Sichtbar (ISO)
100
AcDbLine
 10
1537.784822750841
 20
758.5083995849008
 30
0.0
 11
1545.084822750841
 21
758.5083995849008
 31
0.0
  0
ARC
  5
3D3
330
1F
100
AcDbEntity
  8
Sichtbar (ISO)
100
AcDbCircle
 10
1537.784822750841
 20
755.1583995849004
 30
0.0
 40
3.349999999999997
100
AcDbArc
 50
90.0
 51
144.4023547850807
  0
ARC
  5
3D4
330
1F
100
AcDbEntity
  8
Sichtbar (ISO)
100
AcDbCircle
 10
1545.084822750841
 20
755.1583995849004
 30
0.0
 40
3.350000000000001
100
AcDbArc
 50
35.59764521491922
 51
90.0
  0
LINE
  5
3D5
330
1F
100
AcDbEntity
  8
Sichtbar (ISO)
100
AcDbLine
 10
1545.434822750841
 20
750.1083995849012
 30
0.0
 11
1545.434822750841
 21
725.1083995849012
 31
0.0
  0
LINE
  5
3D6
330
1F
100
AcDbEntity
  8
Sichtbar (ISO)
100
AcDbLine
 10
1537.434822750841
 20
750.1083995849012
 30
0.0
 11
1537.434822750841
 21
725.1083995849012
 31
0.0
  0
LWPOLYLINE
  5
3D7
102
{ACAD_REACTORS
330
3F8
330
3FB
102
}
330
1F
100
AcDbEntity
  8
Sichtbar (ISO)
100
AcDbPolyline
 90
        5
 70
     0
 43
0.0
 10
1520.934822750841
 20
664.2708521823124
 10
1520.934822750841
 20
624.2708521823124
 10
1561.934822750841
 20
624.2708521823124
 10
1561.934822750842
 20
664.2708521823124
 10
1520.934822750841
 20
664.2708521823124
  0
CIRCLE
  5
3D8
330
1F
100
AcDbEntity
  8
Sichtbar (ISO)
100
AcDbCircle
 10
1541.434822750841
 20
644.2708521823123
 30
0.0
 40
3.2331875
  0
CIRCLE
  5
3D9
330
1F
100
AcDbEntity
  8
Sichtbar (ISO)
100
AcDbCircle
 10
1541.434822750832
 20
644.2708521823215
 30
0.0
 40
4.000000000000001
  0
CIRCLE
  5
3DA
330
1F
100
AcDbEntity
  8
Sichtbar (ISO)
100
AcDbCircle
 10
1541.434822750832
 20
644.2708521823215
 30
0.0
 40
7.000000000000001
  0
LINE
  5
3DB
330
1F
100
AcDbEntity
  8
Sichtbar (ISO)
100
AcDbLine
 10
1543.934822750831
 20
645.7142278552955
 30
0.0
 11
1543.934822750831
 21
642.8274765093474
 31
0.0
  0
LINE
  5
3DC
330
1F
100
AcDbEntity
  8
Sichtbar (ISO)
100
AcDbLine
 10
1543.934822750831
 20
642.8274765093474
 30
0.0
 11
1541.434822750831
 21
641.3841008363733
 31
0.0
  0
LINE
  5
3DD
330
1F
100
AcDbEntity
  8
Sichtbar (ISO)
100
AcDbLine
 10
1541.434822750831
 20
641.3841008363733
 30
0.0
 11
1538.934822750831
 21
642.8274765093474
 31
0.0
  0
LINE
  5
3DE
330
1F
100
AcDbEntity
  8
Sichtbar (ISO)
100
AcDbLine
 10
1538.934822750831
 20
642.8274765093474
 30
0.0
 11
1538.934822750831
 21
645.7142278552955
 31
0.0
  0
LINE
  5
3DF
330
1F
100
AcDbEntity
  8
Sichtbar (ISO)
100
AcDbLine
 10
1538.934822750831
 20
645.7142278552955
 30
0.0
 11
1541.434822750831
 21
647.1576035282696
 31
0.0
  0
LINE
  5
3E0
330
1F
100
AcDbEntity
  8
Sichtbar (ISO)
100
AcDbLine
 10
1541.434822750831
 20
647.1576035282696
 30
0.0
 11
1543.934822750831
 21
645.7142278552955
 31
0.0
  0
ARC
  5
3E1
330
1F
100
AcDbEntity
  8
Sichtbar (ISO)
100
AcDbCircle
 10
1541.434822750833
 20
644.2708521823196
 30
0.0
 40
3.255999999999999
100
AcDbArc
 50
100.0000000000574
 51
10.00000000000615
  0
LINE
  5
3E2
330
1F
100
AcDbEntity
  8
Sichtbar (ISO)
100
AcDbLine
 10
1533.934822750841
 20
664.2708521823124
 30
0.0
 11
1533.934822750841
 21
624.2708521823124
 31
0.0
  0
LINE
  5
3E3
330
1F
100
AcDbEntity
  8
Sichtbar (ISO)
100
AcDbLine
 10
1548.934822750842
 20
664.2708521823124
 30
0.0
 11
1548.934822750842
 21
624.2708521823124
 31
0.0
  0
LINE
  5
3E4
102
{ACAD_REACTORS
330
3FB
102
}
330
1F
100
AcDbEntity
  8
Sichtbar (ISO)
100
AcDbLine
 10
1524.934822750841
 20
664.2708521823124
 30
0.0
 11
1524.934822750841
 21
624.2708521823124
 31
0.0
  0
LINE
  5
3E5
330
1F
100
AcDbEntity
  8
Sichtbar (ISO)
100
AcDbLine
 10
1557.934822750842
 20
664.2708521823124
 30
0.0
 11
1557.934822750842
 21
624.2708521823124
 31
0.0
  0
HATCH
  5
3E6
330
1F
100
AcDbEntity
  8
S08_Retino
100
AcDbHatch
 10
0.0
 20
0.0
 30
0.0
210
0.0
220
0.0
230
1.0
  2
ANSI31
 70
     0
 71
     0
 91
        1
 92
        7
 72
     0
 73
     1
 93
        5
 10
1619.50539127989
 20
750.1083995849012
 10
1611.50539127989
 20
750.1083995849012
 10
1611.50539127989
 20
725.1083995849012
 10
1615.50539127989
 20
725.1083995849012
 10
1619.50539127989
 20
725.1083995849012
 97
        0
 75
     0
 76
     1
 52
340.0
 41
0.4
 77
     0
 78
     1
 53
24.99999999999999
 43
72.55696283153702
 44
-3156.613274112645
 45
-0.5367251924106885
 46
1.151010889536545
 79
     0
 47
0.188340134519744
 98
        1
 10
1618.506608676669
 20
744.1328483641901
1001
ACAD
1010
0.0
1020
0.0
1030
0.0
  0
LWPOLYLINE
  5
3E7
102
{ACAD_REACTORS
330
4EA
102
}
330
1F
100
AcDbEntity
  8
Sichtbar (ISO)
100
AcDbPolyline
 90
       13
 70
     0
 43
0.0
 10
1595.00539127989
 20
754.1083995849012
 10
1599.005391279889
 20
757.1083995849012
 10
1608.005391279889
 20
757.1083995849012
 10
1608.005391279889
 20
754.1083995849012
 10
1623.00539127989
 20
754.1083995849012
 10
1623.00539127989
 20
757.1083995849012
 10
1632.00539127989
 20
757.1083995849012
 10
1636.00539127989
 20
754.1083995849012
 10
1625.00539127989
 20
754.1083995849012
 10
1625.00539127989
 20
750.1083995849012
 10
1606.005391279889
 20
750.1083995849012
 10
1606.005391279889
 20
754.1083995849012
 10
1595.00539127989
 20
754.1083995849012
  0
LINE
  5
3E8
330
1F
100
AcDbEntity
  8
Sichtbar (ISO)
100
AcDbLine
 10
1611.85539127989
 20
758.5083995849008
 30
0.0
 11
1619.15539127989
 21
758.5083995849008
 31
0.0
  0
ARC
  5
3E9
330
1F
100
AcDbEntity
  8
Sichtbar (ISO)
100
AcDbCircle
 10
1611.85539127989
 20
755.1583995849004
 30
0.0
 40
3.349999999999997
100
AcDbArc
 50
90.0
 51
144.4023547850807
  0
ARC
  5
3EA
330
1F
100
AcDbEntity
  8
Sichtbar (ISO)
100
AcDbCircle
 10
1619.15539127989
 20
755.1583995849004
 30
0.0
 40
3.350000000000001
100
AcDbArc
 50
35.59764521491922
 51
90.0
  0
LINE
  5
3EB
330
1F
100
AcDbEntity
  8
Sichtbar (ISO)
100
AcDbLine
 10
1611.85539127989
 20
758.5083995849008
 30
0.0
 11
1619.15539127989
 21
758.5083995849008
 31
0.0
  0
ARC
  5
3EC
330
1F
100
AcDbEntity
  8
Sichtbar (ISO)
100
AcDbCircle
 10
1611.85539127989
 20
755.1583995849004
 30
0.0
 40
3.35
100
AcDbArc
 50
90.0
 51
180.0
  0
ARC
  5
3ED
330
1F
100
AcDbEntity
  8
Sichtbar (ISO)
100
AcDbCircle
 10
1619.15539127989
 20
755.1583995849004
 30
0.0
 40
3.35
100
AcDbArc
 50
0.0
 51
90.0
  0
LINE
  5
3EE
330
1F
100
AcDbEntity
  8
Sichtbar (ISO)
100
AcDbLine
 10
1622.50539127989
 20
755.1583995849004
 30
0.0
 11
1622.50539127989
 21
754.1083995849012
 31
0.0
  0
LINE
  5
3EF
330
1F
100
AcDbEntity
  8
Sichtbar (ISO)
100
AcDbLine
 10
1608.50539127989
 20
755.1583995849004
 30
0.0
 11
1608.50539127989
 21
754.1083995849012
 31
0.0
  0
LINE
  5
3F0
330
1F
100
AcDbEntity
  8
Sichtbar (ISO)
100
AcDbLine
 10
1619.50539127989
 20
750.1083995849012
 30
0.0
 11
1619.50539127989
 21
725.1083995849012
 31
0.0
  0
LINE
  5
3F1
330
1F
100
AcDbEntity
  8
Sichtbar (ISO)
100
AcDbLine
 10
1611.50539127989
 20
750.1083995849012
 30
0.0
 11
1611.50539127989
 21
725.1083995849012
 31
0.0
  0
LWPOLYLINE
  5
3F2
102
{ACAD_REACTORS
330
4E7
102
}
330
1F
100
AcDbEntity
  8
Sichtbar (ISO)
100
AcDbPolyline
 90
        6
 70
     0
 43
0.0
 10
1615.50539127989
 20
725.1083995849012
 10
1607.505391279891
 20
725.1083995849012
 10
1607.505391279891
 20
694.058399584901
 10
1623.505391279891
 20
694.058399584901
 10
1623.505391279891
 20
725.1083995849012
 10
1615.50539127989
 20
725.1083995849012
  0
LINE
  5
3F3
330
1F
100
AcDbEntity
  8
Sichtbar (ISO)
100
AcDbLine
 10
1607.505391279891
 20
696.184697701582
 30
0.0
 11
1623.505391279891
 21
696.184697701582
 31
0.0
  0
LINE
  5
3F4
330
1F
100
AcDbEntity
  8
Sichtbar (ISO)
100
AcDbLine
 10
1607.505391279891
 20
701.8431226040256
 30
0.0
 11
1623.505391279891
 21
701.8431226040256
 31
0.0
  0
LINE
  5
3F5
330
1F
100
AcDbEntity
  8
Sichtbar (ISO)
 62
   252
100
AcDbLine
 10
1607.505391279891
 20
703.1083995849012
 30
0.0
 11
1623.505391279891
 21
703.1083995849012
 31
0.0
  0
DIMENSION
  5
3F6
102
{ACAD_XDICTIONARY
360
3F7
102
}
102
{ACAD_REACTORS
330
3F8
102
}
330
1F
100
AcDbEntity
  8
S10_Quote
100
AcDbDimension
  2
*D7
 10
1561.934822750841
 20
617.0051926281867
 30
0.0
 11
1541.434822750841
 21
618.812884935879
 31
0.0
 70
    32
 71
     5
 42
41.0
  3
mm 1_1
100
AcDbAlignedDimension
 13
1520.934822750841
 23
624.2708521823124
 33
0.0
 14
1561.934822750841
 24
624.2708521823105
 34
0.0
100
AcDbRotatedDimension
  0
DIMENSION
  5
3F9
102
{ACAD_XDICTIONARY
360
3FA
102
}
102
{ACAD_REACTORS
330
3FB
102
}
330
1F
100
AcDbEntity
  8
S10_Quote
100
AcDbDimension
  2
*D8
 10
1514.532659184167
 20
623.6458521823124
 30
0.0
 11
1512.70958226109
 21
643.9583521823126
 31
0.0
 70
    32
 71
     5
 42
40.625
  3
mm 1_1
100
AcDbAlignedDimension
 13
1524.934822750841
 23
664.2708521823124
 33
0.0
 14
1520.934822750841
 24
623.6458521823124
 34
0.0
 50
90.0
100
AcDbRotatedDimension
  0
MTEXT
  5
3FC
330
1F
100
AcDbEntity
  8
S09_Testo
100
AcDbMText
 10
1532.013999812381
 20
764.9281321388998
 30
0.0
 40
2.5
 41
48.50000000000012
 71
     1
 72
     5
  1
{\fWuerth Book|b0|i0|c0|p2;VISTA LATERALE} 
  7
ROMANS
 73
     1
 44
1.0
  0
MTEXT
  5
3FD
330
1F
100
AcDbEntity
  8
S09_Testo
100
AcDbMText
 10
1604.64075262345
 20
764.9281321388998
 30
0.0
 40
2.5
 41
48.50000000000012
 71
     1
 72
     5
  1
{\fWuerth Book|b0|i0|c0|p2;VISTA FRONTALE} 
  7
ROMANS
 73
     1
 44
1.0
  0
MTEXT
  5
3FE
330
1F
100
AcDbEntity
  8
S09_Testo
100
AcDbMText
 10
1529.877885544061
 20
673.6148865421391
 30
0.0
 40
2.5
 41
48.50000000000012
 71
     1
 72
     5
  1
{\fWuerth Book|b0|i0|c0|p2;VISTA SUPERIORE} 
  7
ROMANS
 73
     1
 44
1.0
  0
ELLIPSE
  5
3FF
330
1F
100
AcDbEntity
  8
Sichtbar (ISO)
100
AcDbEllipse
 10
1618.746071235809
 20
643.2978950211472
 30
0.0
 11
4.249999999939086
 21
-0.0000000000000008
 31
0.0
210
0.0
220
0.0
230
1.0
 40
0.5758617009853118
 41
0.3405924132334231
 42
0.3447011797986447
  0
ELLIPSE
  5
400
330
1F
100
AcDbEntity
  8
Sichtbar (ISO)
100
AcDbEllipse
 10
1618.746071235671
 20
643.2978950211518
 30
0.0
 11
-4.249999999914226
 21
0.0000000000000008
 31
0.0
210
0.0
220
0.0
230
1.0
 40
0.5758617009853118
 41
5.938484127380892
 42
5.94259289394617
  0
ELLIPSE
  5
401
330
1F
100
AcDbEntity
  8
Sichtbar (ISO)
100
AcDbEllipse
 10
1618.746071235752
 20
644.9329892708201
 30
0.0
 11
4.25
 21
-0.000000000000001
 31
0.0
210
0.0
220
0.0
230
1.0
 40
0.5758617009853121
 41
2.796891473791134
 42
6.627886486978221
  0
LINE
  5
402
330
1F
100
AcDbEntity
  8
Sichtbar (ISO)
100
AcDbLine
 10
1630.111416193028
 20
644.9627247295238
 30
0.0
 11
1637.131553583223
 21
629.9848926838112
 31
0.0
  0
LINE
  5
403
330
1F
100
AcDbEntity
  8
Sichtbar (ISO)
100
AcDbLine
 10
1622.746071235752
 20
649.2041448049658
 30
0.0
 11
1630.111416193028
 21
644.9627247295238
 31
0.0
  0
LINE
  5
404
330
1F
100
AcDbEntity
  8
Sichtbar (ISO)
100
AcDbLine
 10
1637.131553583223
 20
629.9848926838112
 30
0.0
 11
1637.131553583223
 21
625.3588636736813
 31
0.0
  0
LINE
  5
405
330
1F
100
AcDbEntity
  8
Sichtbar (ISO)
100
AcDbLine
 10
1637.131553583223
 20
625.3588636736813
 30
0.0
 11
1636.060145813277
 21
623.0035320609804
 31
0.0
  0
LINE
  5
406
330
1F
100
AcDbEntity
  8
Sichtbar (ISO)
100
AcDbLine
 10
1636.060145813277
 20
623.0035320609804
 30
0.0
 11
1635.009489012208
 21
622.398499048365
 31
0.0
  0
LINE
  5
407
330
1F
100
AcDbEntity
  8
Sichtbar (ISO)
100
AcDbLine
 10
1623.695780513225
 20
628.9136304690437
 30
0.0
 11
1635.009489012208
 21
622.398499048365
 31
0.0
  0
LINE
  5
408
330
1F
100
AcDbEntity
  8
Sichtbar (ISO)
100
AcDbLine
 10
1635.009489012208
 20
622.398499048365
 30
0.0
 11
1633.59601967729
 21
623.2187699770174
 31
0.0
  0
LINE
  5
409
330
1F
100
AcDbEntity
  8
Sichtbar (ISO)
100
AcDbLine
 10
1622.282311178307
 20
629.7339013976952
 30
0.0
 11
1633.59601967729
 21
623.2187699770174
 31
0.0
  0
LINE
  5
40A
330
1F
100
AcDbEntity
  8
Sichtbar (ISO)
100
AcDbLine
 10
1622.282311178307
 20
629.7339013976952
 30
0.0
 11
1623.695780513225
 21
628.9136304690437
 31
0.0
  0
LINE
  5
40B
330
1F
100
AcDbEntity
  8
Sichtbar (ISO)
100
AcDbLine
 10
1633.59601967729
 20
623.2187699770174
 30
0.0
 11
1633.59601967729
 21
625.0836378871954
 31
0.0
  0
LINE
  5
40C
330
1F
100
AcDbEntity
  8
Sichtbar (ISO)
100
AcDbLine
 10
1622.282311178307
 20
631.5987693078741
 30
0.0
 11
1633.59601967729
 21
625.0836378871954
 31
0.0
  0
LINE
  5
40D
330
1F
100
AcDbEntity
  8
Sichtbar (ISO)
100
AcDbLine
 10
1622.282311178307
 20
631.5987693078741
 30
0.0
 11
1622.282311178307
 21
629.7339013976952
 31
0.0
  0
ELLIPSE
  5
40E
330
1F
100
AcDbEntity
  8
Sichtbar (ISO)
100
AcDbEllipse
 10
1633.808150388379
 20
625.2057958393143
 30
0.0
 11
0.1497096634753371
 21
0.2599750308435437
 31
0.0
210
0.0
220
0.0
230
1.0
 40
0.5780931159158105
 41
6.281276217886652
 42
8.637446088949232
  0
ELLIPSE
  5
40F
330
1F
100
AcDbEntity
  8
Sichtbar (ISO)
100
AcDbEllipse
 10
1622.494441889396
 20
631.720927259993
 30
0.0
 11
0.1497096634753207
 21
0.2599750308435529
 31
0.0
210
0.0
220
0.0
230
1.0
 40
0.5780931159158104
 41
0.0
 42
2.354260781769323
  0
LINE
  5
410
330
1F
100
AcDbEntity
  8
Sichtbar (ISO)
100
AcDbLine
 10
1633.958146695464
 20
625.4656051722204
 30
0.0
 11
1634.621198609603
 21
625.0808198812219
 31
0.0
  0
ELLIPSE
  5
411
330
1F
100
AcDbEntity
  8
Sichtbar (ISO)
100
AcDbEllipse
 10
1634.798102493498
 20
625.3180449525507
 30
0.0
 11
-0.1497096634753214
 21
-0.2599750308435524
 31
0.0
210
0.0
220
0.0
230
1.0
 40
0.5780931159158105
 41
6.080453422311847
 42
8.637446088949062
  0
LINE
  5
412
330
1F
100
AcDbEntity
  8
Sichtbar (ISO)
100
AcDbLine
 10
1623.69652474068
 20
631.9553343455464
 30
0.0
 11
1635.010233239664
 21
625.4402029248677
 31
0.0
  0
ELLIPSE
  5
413
330
1F
100
AcDbEntity
  8
Sichtbar (ISO)
100
AcDbEllipse
 10
1623.484393994515
 20
631.8331763732285
 30
0.0
 11
-0.1497096634753382
 21
-0.2599750308435457
 31
0.0
210
0.0
220
0.0
230
1.0
 40
0.5780931159158105
 41
0.2415402467891674
 42
2.354260781769719
  0
LINE
  5
414
330
1F
100
AcDbEntity
  8
Sichtbar (ISO)
100
AcDbLine
 10
1635.010233239664
 20
625.4402029248677
 30
0.0
 11
1635.010233239664
 21
629.3889555378573
 31
0.0
  0
LINE
  5
415
330
1F
100
AcDbEntity
  8
Sichtbar (ISO)
100
AcDbLine
 10
1634.655309859864
 20
629.5933423190681
 30
0.0
 11
1635.010233239664
 21
629.3889555378573
 31
0.0
  0
LINE
  5
416
330
1F
100
AcDbEntity
  8
Sichtbar (ISO)
100
AcDbLine
 10
1623.69652474068
 20
633.2914683246172
 30
0.0
 11
1623.69652474068
 21
631.9553343455464
 31
0.0
  0
LINE
  5
417
330
1F
100
AcDbEntity
  8
Sichtbar (ISO)
100
AcDbLine
 10
1635.010233239664
 20
629.3889555378573
 30
0.0
 11
1634.859361676949
 21
629.7108479455437
 31
0.0
  0
LINE
  5
418
330
1F
100
AcDbEntity
  8
Sichtbar (ISO)
100
AcDbLine
 10
1634.859361676949
 20
629.7108479455437
 30
0.0
 11
1632.386867081461
 21
628.2870330021096
 31
0.0
  0
LINE
  5
419
330
1F
100
AcDbEntity
  8
Sichtbar (ISO)
100
AcDbLine
 10
1621.221651006524
 20
634.7166533228929
 30
0.0
 11
1632.386867081461
 21
628.2870330021096
 31
0.0
  0
LINE
  5
41A
330
1F
100
AcDbEntity
  8
Sichtbar (ISO)
100
AcDbLine
 10
1632.386867081461
 20
628.2870330021096
 30
0.0
 11
1632.386867081461
 21
629.5133536893727
 31
0.0
  0
LINE
  5
41B
330
1F
100
AcDbEntity
  8
Sichtbar (ISO)
100
AcDbLine
 10
1621.073158582478
 20
636.0284851100514
 30
0.0
 11
1632.386867081461
 21
629.5133536893727
 31
0.0
  0
LINE
  5
41C
330
1F
100
AcDbEntity
  8
Sichtbar (ISO)
100
AcDbLine
 10
1621.073158582478
 20
636.0284851100514
 30
0.0
 11
1621.073158582478
 21
634.9275615430315
 31
0.0
  0
LINE
  5
41D
330
1F
100
AcDbEntity
  8
Sichtbar (ISO)
100
AcDbLine
 10
1632.386867081461
 20
629.5133536893727
 30
0.0
 11
1634.049786029889
 21
632.3940263083486
 31
0.0
  0
LINE
  5
41E
330
1F
100
AcDbEntity
  8
Sichtbar (ISO)
100
AcDbLine
 10
1624.366072780876
 20
637.9705058917798
 30
0.0
 11
1634.049786029889
 21
632.3940263083486
 31
0.0
  0
LINE
  5
41F
330
1F
100
AcDbEntity
  8
Sichtbar (ISO)
100
AcDbLine
 10
1621.112726326735
 20
636.097028268804
 30
0.0
 11
1621.073158582478
 21
636.0284851100514
 31
0.0
  0
LINE
  5
420
330
1F
100
AcDbEntity
  8
Sichtbar (ISO)
100
AcDbLine
 10
1634.049786029889
 20
632.3940263083486
 30
0.0
 11
1630.927261714336
 21
639.0560960311331
 31
0.0
  0
LINE
  5
421
330
1F
100
AcDbEntity
  8
Sichtbar (ISO)
100
AcDbLine
 10
1630.927261714336
 20
639.0560960311331
 30
0.0
 11
1627.585612037204
 21
637.1317679639641
 31
0.0
  0
LINE
  5
422
330
1F
100
AcDbEntity
  8
Sichtbar (ISO)
100
AcDbLine
 10
1625.247596437498
 20
638.4781416041414
 30
0.0
 11
1627.585612037204
 21
637.1317679639641
 31
0.0
  0
LINE
  5
423
330
1F
100
AcDbEntity
  8
Sichtbar (ISO)
100
AcDbLine
 10
1627.585612037204
 20
637.1317679639641
 30
0.0
 11
1627.585612037204
 21
638.506811867267
 31
0.0
  0
LINE
  5
424
330
1F
100
AcDbEntity
  8
Sichtbar (ISO)
100
AcDbLine
 10
1626.441497595493
 20
639.1656635557929
 30
0.0
 11
1627.585612037204
 21
638.506811867267
 31
0.0
  0
ELLIPSE
  5
425
330
1F
100
AcDbEntity
  8
Sichtbar (ISO)
100
AcDbEllipse
 10
1627.954933814191
 20
637.819045335641
 30
0.0
 11
0.6083026184878442
 21
1.056334563397505
 31
0.0
210
0.0
220
0.0
230
1.0
 40
0.5780931159158105
 41
0.3807793643388137
 42
1.22627240044173
  0
LINE
  5
426
330
1F
100
AcDbEntity
  8
Sichtbar (ISO)
100
AcDbLine
 10
1627.162846826651
 20
639.5810609510508
 30
0.0
 11
1628.29271881839
 21
638.9304109439926
 31
0.0
  0
LINE
  5
427
330
1F
100
AcDbEntity
  8
Sichtbar (ISO)
100
AcDbLine
 10
1628.29271881839
 20
638.9304109439926
 30
0.0
 11
1628.29271881839
 21
638.5200202275673
 31
0.0
  0
LINE
  5
428
330
1F
100
AcDbEntity
  8
Sichtbar (ISO)
100
AcDbLine
 10
1628.29271881839
 20
638.5200202275673
 30
0.0
 11
1630.56516996382
 21
639.8286378095799
 31
0.0
  0
LINE
  5
429
330
1F
100
AcDbEntity
  8
Sichtbar (ISO)
100
AcDbLine
 10
1627.938459391177
 20
641.3412598279383
 30
0.0
 11
1630.56516996382
 21
639.8286378095799
 31
0.0
  0
LINE
  5
42A
330
1F
100
AcDbEntity
  8
Sichtbar (ISO)
100
AcDbLine
 10
1630.56516996382
 20
639.8286378095799
 30
0.0
 11
1629.177308331328
 21
642.789713537697
 31
0.0
  0
LINE
  5
42B
330
1F
100
AcDbEntity
  8
Sichtbar (ISO)
100
AcDbLine
 10
1607.382138351717
 20
644.9040669710147
 30
0.0
 11
1600.362000961521
 21
621.8409784079677
 31
0.0
  0
LINE
  5
42C
330
1F
100
AcDbEntity
  8
Sichtbar (ISO)
100
AcDbLine
 10
1614.746071235751
 20
649.1446738875565
 30
0.0
 11
1607.382138351717
 21
644.9040669710147
 31
0.0
  0
LINE
  5
42D
330
1F
100
AcDbEntity
  8
Sichtbar (ISO)
100
AcDbLine
 10
1600.362000961521
 20
617.2149493978377
 30
0.0
 11
1601.433408731467
 21
616.0935831868373
 31
0.0
  0
LINE
  5
42E
330
1F
100
AcDbEntity
  8
Sichtbar (ISO)
100
AcDbLine
 10
1600.362000961521
 20
621.8409784079677
 30
0.0
 11
1600.362000961521
 21
617.2149493978377
 31
0.0
  0
LINE
  5
42F
330
1F
100
AcDbEntity
  8
Sichtbar (ISO)
100
AcDbLine
 10
1629.177308331328
 20
642.789713537697
 30
0.0
 11
1619.629954712399
 21
637.2917582427935
 31
0.0
  0
LINE
  5
430
330
1F
100
AcDbEntity
  8
Sichtbar (ISO)
100
AcDbLine
 10
1619.629954712399
 20
637.2917582427935
 30
0.0
 11
1618.242093079907
 21
632.7322497938394
 31
0.0
  0
LINE
  5
431
330
1F
100
AcDbEntity
  8
Sichtbar (ISO)
100
AcDbLine
 10
1618.242093079907
 20
632.7322497938394
 30
0.0
 11
1620.514544225337
 21
634.0408673758529
 31
0.0
  0
LINE
  5
432
330
1F
100
AcDbEntity
  8
Sichtbar (ISO)
100
AcDbLine
 10
1619.028344737149
 20
634.8967127411242
 30
0.0
 11
1620.514544225337
 21
634.0408673758529
 31
0.0
  0
LINE
  5
433
330
1F
100
AcDbEntity
  8
Sichtbar (ISO)
100
AcDbLine
 10
1620.514544225337
 20
634.0408673758529
 30
0.0
 11
1620.514544225337
 21
634.4512580922773
 31
0.0
  0
LINE
  5
434
330
1F
100
AcDbEntity
  8
Sichtbar (ISO)
100
AcDbLine
 10
1619.384672233598
 20
635.1019080993364
 30
0.0
 11
1620.514544225337
 21
634.4512580922773
 31
0.0
  0
ELLIPSE
  5
435
330
1F
100
AcDbEntity
  8
Sichtbar (ISO)
100
AcDbEllipse
 10
1620.852329229536
 20
633.728927378097
 30
0.0
 11
0.6083026184878414
 21
1.0563345633975
 31
0.0
210
0.0
220
0.0
230
1.0
 40
0.5780931159158104
 41
0.3406565095073475
 42
1.186149545610348
  0
LINE
  5
436
330
1F
100
AcDbEntity
  8
Sichtbar (ISO)
100
AcDbLine
 10
1620.077536564813
 20
635.5009021316618
 30
0.0
 11
1621.221651006524
 21
634.8420504431369
 31
0.0
  0
LINE
  5
437
330
1F
100
AcDbEntity
  8
Sichtbar (ISO)
100
AcDbLine
 10
1621.221651006524
 20
634.8420504431369
 30
0.0
 11
1621.221651006524
 21
633.467006539834
 31
0.0
  0
LINE
  5
438
330
1F
100
AcDbEntity
  8
Sichtbar (ISO)
100
AcDbLine
 10
1621.221651006524
 20
633.467006539834
 30
0.0
 11
1617.880001329392
 21
631.5426784726642
 31
0.0
  0
LINE
  5
439
330
1F
100
AcDbEntity
  8
Sichtbar (ISO)
100
AcDbLine
 10
1617.880001329392
 20
631.5426784726642
 30
0.0
 11
1614.757477013838
 21
621.2843244224341
 31
0.0
  0
LINE
  5
43A
330
1F
100
AcDbEntity
  8
Sichtbar (ISO)
100
AcDbLine
 10
1614.757477013838
 20
621.2843244224341
 30
0.0
 11
1616.420395962266
 21
620.3188744719437
 31
0.0
  0
LINE
  5
43B
330
1F
100
AcDbEntity
  8
Sichtbar (ISO)
100
AcDbLine
 10
1616.420395962266
 20
620.3188744719437
 30
0.0
 11
1616.420395962266
 21
619.0925537846806
 31
0.0
  0
LINE
  5
43C
330
1F
100
AcDbEntity
  8
Sichtbar (ISO)
100
AcDbLine
 10
1616.420395962266
 20
619.0925537846806
 30
0.0
 11
1613.947901366779
 21
617.6687388412456
 31
0.0
  0
LINE
  5
43D
330
1F
100
AcDbEntity
  8
Sichtbar (ISO)
100
AcDbLine
 10
1613.947901366779
 20
617.6687388412456
 30
0.0
 11
1613.797029804064
 21
617.1730841240887
 31
0.0
  0
LINE
  5
43E
330
1F
100
AcDbEntity
  8
Sichtbar (ISO)
100
AcDbLine
 10
1613.797029804064
 20
617.1730841240887
 30
0.0
 11
1613.797029804064
 21
613.2243315111
 31
0.0
  0
ELLIPSE
  5
43F
330
1F
100
AcDbEntity
  8
Sichtbar (ISO)
100
AcDbEllipse
 10
1614.009160550229
 20
613.3464894834178
 30
0.0
 11
-0.1497096634753215
 21
-0.2599750308435527
 31
0.0
210
0.0
220
0.0
230
0.9999999999999996
 40
0.5780931159158105
 41
5.495853435359352
 42
8.052846101996497
  0
LINE
  5
440
330
1F
100
AcDbEntity
  8
Sichtbar (ISO)
100
AcDbLine
 10
1613.797029804064
 20
613.5370388988803
 30
0.0
 11
1614.186064434125
 21
613.3130087550707
 31
0.0
  0
LINE
  5
441
330
1F
100
AcDbEntity
  8
Sichtbar (ISO)
100
AcDbLine
 10
1614.186064434125
 20
613.3130087550707
 30
0.0
 11
1614.849116348263
 21
614.4614464523047
 31
0.0
  0
LINE
  5
442
330
1F
100
AcDbEntity
  8
Sichtbar (ISO)
100
AcDbLine
 10
1613.797029804064
 20
615.0673027992316
 30
0.0
 11
1614.849116348263
 21
614.4614464523047
 31
0.0
  0
ELLIPSE
  5
443
330
1F
100
AcDbEntity
  8
Sichtbar (ISO)
100
AcDbEllipse
 10
1614.999112655348
 20
614.3743913764774
 30
0.0
 11
0.1497096634753207
 21
0.2599750308435513
 31
0.0
210
0.0
220
0.0
230
1.0
 40
0.5780931159158106
 41
5.495853435359206
 42
7.852023306421845
  0
LINE
  5
444
330
1F
100
AcDbEntity
  8
Sichtbar (ISO)
100
AcDbLine
 10
1615.211243366437
 20
614.4965493285963
 30
0.0
 11
1615.211243366437
 21
612.6316814184183
 31
0.0
  0
LINE
  5
445
330
1F
100
AcDbEntity
  8
Sichtbar (ISO)
100
AcDbLine
 10
1615.211243366437
 20
612.6316814184183
 30
0.0
 11
1613.797774031519
 21
610.1834847787731
 31
0.0
  0
LINE
  5
446
330
1F
100
AcDbEntity
  8
Sichtbar (ISO)
100
AcDbLine
 10
1613.797774031519
 20
610.1834847787731
 30
0.0
 11
1612.747117230451
 21
609.5784517661586
 31
0.0
  0
LINE
  5
447
330
1F
100
AcDbEntity
  8
Sichtbar (ISO)
100
AcDbLine
 10
1601.433408731467
 20
616.0935831868373
 30
0.0
 11
1612.747117230451
 21
609.5784517661586
 31
0.0
  0
LINE
  5
448
330
1F
100
AcDbEntity
  8
Sichtbar (ISO)
100
AcDbLine
 10
1612.747117230451
 20
609.5784517661586
 30
0.0
 11
1611.675709460504
 21
610.699817977159
 31
0.0
  0
LINE
  5
449
330
1F
100
AcDbEntity
  8
Sichtbar (ISO)
100
AcDbLine
 10
1600.362000961521
 20
617.2149493978377
 30
0.0
 11
1611.675709460504
 21
610.699817977159
 31
0.0
  0
LINE
  5
44A
330
1F
100
AcDbEntity
  8
Sichtbar (ISO)
100
AcDbLine
 10
1611.675709460504
 20
610.699817977159
 30
0.0
 11
1611.675709460504
 21
615.3258469872898
 31
0.0
  0
LINE
  5
44B
330
1F
100
AcDbEntity
  8
Sichtbar (ISO)
100
AcDbLine
 10
1600.362000961521
 20
621.8409784079677
 30
0.0
 11
1611.675709460504
 21
615.3258469872898
 31
0.0
  0
LINE
  5
44C
330
1F
100
AcDbEntity
  8
Sichtbar (ISO)
100
AcDbLine
 10
1611.675709460504
 20
615.3258469872898
 30
0.0
 11
1618.6958468507
 21
638.388935550337
 31
0.0
  0
LINE
  5
44D
330
1F
100
AcDbEntity
  8
Sichtbar (ISO)
100
AcDbLine
 10
1607.382138351717
 20
644.9040669710147
 30
0.0
 11
1618.6958468507
 21
638.388935550337
 31
0.0
  0
LINE
  5
44E
330
1F
100
AcDbEntity
  8
Sichtbar (ISO)
100
AcDbLine
 10
1618.6958468507
 20
638.388935550337
 30
0.0
 11
1630.111416193028
 21
644.9627247295238
 31
0.0
  0
LINE
  5
44F
330
1F
100
AcDbEntity
  8
Sichtbar (ISO)
100
AcDbLine
 10
1622.644151552871
 20
631.9809022908366
 30
0.0
 11
1633.957860051854
 21
625.4657708701579
 31
0.0
  0
LINE
  5
450
330
1F
100
AcDbEntity
  8
Sichtbar (ISO)
100
AcDbLine
 10
1613.797029804064
 20
615.4128119442494
 30
0.0
 11
1615.148822318824
 21
614.634366407321
 31
0.0
  0
LINE
  5
451
330
1F
100
AcDbEntity
  8
Sichtbar (ISO)
100
AcDbLine
 10
1621.454380023641
 20
685.8227145120899
 30
0.0
 11
1618.392517845163
 21
685.5420558622654
 31
0.0
  0
LINE
  5
452
330
1F
100
AcDbEntity
  8
Sichtbar (ISO)
100
AcDbLine
 10
1627.584906000586
 20
682.2923793950703
 30
0.0
 11
1621.454380023641
 21
685.8227145120899
 31
0.0
  0
LINE
  5
453
330
1F
100
AcDbEntity
  8
Sichtbar (ISO)
100
AcDbLine
 10
1627.584906000586
 20
679.8397380205424
 30
0.0
 11
1627.584906000586
 21
682.2923793950703
 31
0.0
  0
LINE
  5
454
330
1F
100
AcDbEntity
  8
Sichtbar (ISO)
100
AcDbLine
 10
1636.061967439587
 20
674.9581230009207
 30
0.0
 11
1627.584906000586
 21
679.8397380205424
 31
0.0
  0
LINE
  5
455
330
1F
100
AcDbEntity
  8
Sichtbar (ISO)
100
AcDbLine
 10
1644.322033695328
 20
672.6541085711651
 30
0.0
 11
1638.191507718383
 21
676.1844436881847
 31
0.0
  0
LINE
  5
456
330
1F
100
AcDbEntity
  8
Sichtbar (ISO)
100
AcDbLine
 10
1647.383895873806
 20
668.8470315967769
 30
0.0
 11
1644.322033695328
 21
672.6541085711651
 31
0.0
  0
LINE
  5
457
330
1F
100
AcDbEntity
  8
Sichtbar (ISO)
100
AcDbLine
 10
1647.383895873806
 20
668.4382580343553
 30
0.0
 11
1647.383895873806
 21
668.8470315967769
 31
0.0
  0
LINE
  5
458
330
1F
100
AcDbEntity
  8
Sichtbar (ISO)
100
AcDbLine
 10
1611.32145003329
 20
653.3593938350104
 30
0.0
 11
1597.886421190747
 21
661.0961123970664
 31
0.0
  0
LINE
  5
459
330
1F
100
AcDbEntity
  8
Sichtbar (ISO)
100
AcDbLine
 10
1611.32145003329
 20
653.3593938350104
 30
0.0
 11
1614.160837071683
 21
654.9944880846951
 31
0.0
  0
LINE
  5
45A
330
1F
100
AcDbEntity
  8
Sichtbar (ISO)
100
AcDbLine
 10
1597.886421190747
 20
661.0961123970664
 30
0.0
 11
1597.886421190747
 21
664.3663008964368
 31
0.0
  0
LINE
  5
45B
330
1F
100
AcDbEntity
  8
Sichtbar (ISO)
100
AcDbLine
 10
1597.886421190747
 20
664.3663008964368
 30
0.0
 11
1590.108246597696
 21
668.8454537481529
 31
0.0
  0
LINE
  5
45C
330
1F
100
AcDbEntity
  8
Sichtbar (ISO)
100
AcDbLine
 10
1590.108246597696
 20
668.8454537481529
 30
0.0
 11
1590.108246597696
 21
669.2542273105746
 31
0.0
  0
LINE
  5
45D
330
1F
100
AcDbEntity
  8
Sichtbar (ISO)
100
AcDbLine
 10
1590.108246597696
 20
669.2542273105746
 30
0.0
 11
1618.392517845163
 21
685.5420558622654
 31
0.0
  0
LINE
  5
45E
330
1F
100
AcDbEntity
  8
Sichtbar (ISO)
100
AcDbLine
 10
1590.108246597696
 20
669.2542273105746
 30
0.0
 11
1593.170108776175
 21
669.5348859603991
 31
0.0
  0
LINE
  5
45F
330
1F
100
AcDbEntity
  8
Sichtbar (ISO)
100
AcDbLine
 10
1593.170108776175
 20
669.5348859603991
 30
0.0
 11
1621.454380023641
 21
685.8227145120899
 31
0.0
  0
LINE
  5
460
330
1F
100
AcDbEntity
  8
Sichtbar (ISO)
100
AcDbLine
 10
1593.170108776175
 20
669.5348859603991
 30
0.0
 11
1599.30063475312
 21
666.0045508433786
 31
0.0
  0
LINE
  5
461
330
1F
100
AcDbEntity
  8
Sichtbar (ISO)
100
AcDbLine
 10
1599.30063475312
 20
666.0045508433786
 30
0.0
 11
1627.584906000586
 21
682.2923793950703
 31
0.0
  0
LINE
  5
462
330
1F
100
AcDbEntity
  8
Sichtbar (ISO)
100
AcDbLine
 10
1599.30063475312
 20
666.0045508433786
 30
0.0
 11
1599.30063475312
 21
663.5519094688516
 31
0.0
  0
LINE
  5
463
330
1F
100
AcDbEntity
  8
Sichtbar (ISO)
100
AcDbLine
 10
1599.30063475312
 20
663.5519094688516
 30
0.0
 11
1611.944310430682
 21
670.8329180512365
 31
0.0
  0
LINE
  5
464
330
1F
100
AcDbEntity
  8
Sichtbar (ISO)
100
AcDbLine
 10
1619.087087175364
 20
674.9461696171866
 30
0.0
 11
1627.584906000586
 21
679.8397380205424
 31
0.0
  0
LINE
  5
465
330
1F
100
AcDbEntity
  8
Sichtbar (ISO)
100
AcDbLine
 10
1599.30063475312
 20
663.5519094688516
 30
0.0
 11
1609.907236470917
 21
657.4439737619659
 31
0.0
  0
LINE
  5
466
330
1F
100
AcDbEntity
  8
Sichtbar (ISO)
100
AcDbLine
 10
1609.907236470917
 20
657.4439737619659
 30
0.0
 11
1609.907236470917
 21
659.8966151364939
 31
0.0
  0
LINE
  5
467
330
1F
100
AcDbEntity
  8
Sichtbar (ISO)
100
AcDbLine
 10
1609.907236470917
 20
659.8966151364939
 30
0.0
 11
1638.191507718383
 21
676.1844436881847
 31
0.0
  0
LINE
  5
468
330
1F
100
AcDbEntity
  8
Sichtbar (ISO)
100
AcDbLine
 10
1609.907236470917
 20
659.8966151364939
 30
0.0
 11
1616.037762447862
 21
656.3662800194734
 31
0.0
  0
LINE
  5
469
330
1F
100
AcDbEntity
  8
Sichtbar (ISO)
100
AcDbLine
 10
1616.037762447862
 20
656.3662800194734
 30
0.0
 11
1644.322033695328
 21
672.6541085711651
 31
0.0
  0
LINE
  5
46A
330
1F
100
AcDbEntity
  8
Sichtbar (ISO)
100
AcDbLine
 10
1616.037762447862
 20
656.3662800194734
 30
0.0
 11
1619.09962462634
 21
652.5592030450853
 31
0.0
  0
LINE
  5
46B
330
1F
100
AcDbEntity
  8
Sichtbar (ISO)
100
AcDbLine
 10
1619.09962462634
 20
652.5592030450861
 30
0.0
 11
1647.383895873806
 21
668.8470315967769
 31
0.0
  0
LINE
  5
46C
330
1F
100
AcDbEntity
  8
Sichtbar (ISO)
100
AcDbLine
 10
1619.09962462634
 20
652.5592030450861
 30
0.0
 11
1619.09962462634
 21
652.1504294826645
 31
0.0
  0
LINE
  5
46D
330
1F
100
AcDbEntity
  8
Sichtbar (ISO)
100
AcDbLine
 10
1619.09962462634
 20
652.1504294826645
 30
0.0
 11
1647.383895873806
 21
668.4382580343553
 31
0.0
  0
LINE
  5
46E
330
1F
100
AcDbEntity
  8
Sichtbar (ISO)
100
AcDbLine
 10
1619.09962462634
 20
652.1504294826645
 30
0.0
 11
1611.32145003329
 21
656.6295823343807
 31
0.0
  0
LINE
  5
46F
330
1F
100
AcDbEntity
  8
Sichtbar (ISO)
100
AcDbLine
 10
1611.32145003329
 20
656.6295823343807
 30
0.0
 11
1611.32145003329
 21
653.3593938350104
 31
0.0
  0
LINE
  5
470
330
1F
100
AcDbEntity
  8
Sichtbar (ISO)
100
AcDbLine
 10
1627.938459391177
 20
640.0277065217642
 30
0.0
 11
1618.873849825309
 21
634.807745038398
 31
0.0
  0
LINE
  5
471
330
1F
100
AcDbEntity
  8
Sichtbar (ISO)
100
AcDbLine
 10
1627.938459391177
 20
640.0277065217642
 30
0.0
 11
1627.938459391177
 21
642.0763078797581
 31
0.0
  0
ELLIPSE
  5
472
330
1F
100
AcDbEntity
  8
Sichtbar (ISO)
100
AcDbEllipse
 10
1618.746071235752
 20
672.2390632405613
 30
0.0
 11
-3.649999999999996
 21
0.0000000000000008
 31
0.0
210
0.0
220
0.0
230
1.0
 40
0.5758617009853105
 41
0.0000000000000005
 42
6.283185307179586
  0
ELLIPSE
  5
473
330
1F
100
AcDbEntity
  8
Sichtbar schmal (ISO)
100
AcDbEllipse
 10
1618.746071235752
 20
669.5002803723391
 30
0.0
 11
7.000000000000094
 21
-0.0000000000000019
 31
0.0
210
0.0
220
0.0
230
1.0
 40
0.5758617009853106
 41
6.15486953391881
 42
6.283185307179587
  0
ELLIPSE
  5
474
330
1F
100
AcDbEntity
  8
Sichtbar (ISO)
100
AcDbEllipse
 10
1618.746071235752
 20
669.5002803723391
 30
0.0
 11
-6.999999999999992
 21
-0.0000000000000023
 31
0.0
210
0.0
220
0.0
230
1.0
 40
0.5758617009853106
 41
0.0
 42
1.699112100055376
  0
POLYLINE
  5
475
330
1F
100
AcDbEntity
  8
Sichtbar (ISO)
100
AcDb2dPolyline
 66
     1
 10
0.0
 20
0.0
 30
0.0
 70
   128
  0
VERTEX
  5
476
330
475
100
AcDbEntity
  8
Sichtbar (ISO)
100
AcDbVertex
100
AcDb2dVertex
 10
1611.746071260657
 20
669.5002803311881
 30
0.0
  0
VERTEX
  5
477
330
475
100
AcDbEntity
  8
Sichtbar (ISO)
100
AcDbVertex
100
AcDb2dVertex
 10
1611.762926062313
 20
669.8879335474657
 30
0.0
  0
VERTEX
  5
478
330
475
100
AcDbEntity
  8
Sichtbar (ISO)
100
AcDbVertex
100
AcDb2dVertex
 10
1611.812160292621
 20
670.2706026418609
 30
0.0
  0
VERTEX
  5
479
330
475
100
AcDbEntity
  8
Sichtbar (ISO)
100
AcDbVertex
100
AcDb2dVertex
 10
1611.891776873502
 20
670.6440596083121
 30
0.0
  0
VERTEX
  5
47A
330
475
100
AcDbEntity
  8
Sichtbar (ISO)
100
AcDbVertex
100
AcDb2dVertex
 10
1611.99978131158
 20
671.0040760836554
 30
0.0
  0
VERTEX
  5
47B
330
475
100
AcDbEntity
  8
Sichtbar (ISO)
100
AcDbVertex
100
AcDb2dVertex
 10
1612.133409112541
 20
671.3468817758375
 30
0.0
  0
VERTEX
  5
47C
330
475
100
AcDbEntity
  8
Sichtbar (ISO)
100
AcDbVertex
100
AcDb2dVertex
 10
1612.289123817782
 20
671.6710567042564
 30
0.0
  0
VERTEX
  5
47D
330
475
100
AcDbEntity
  8
Sichtbar (ISO)
100
AcDbVertex
100
AcDb2dVertex
 10
1612.463805967085
 20
671.9759084226625
 30
0.0
  0
VERTEX
  5
47E
330
475
100
AcDbEntity
  8
Sichtbar (ISO)
100
AcDbVertex
100
AcDb2dVertex
 10
1612.654339300446
 20
672.2607433129041
 30
0.0
  0
VERTEX
  5
47F
330
475
100
AcDbEntity
  8
Sichtbar (ISO)
100
AcDbVertex
100
AcDb2dVertex
 10
1612.85759770782
 20
672.5251213652427
 30
0.0
  0
VERTEX
  5
480
330
475
100
AcDbEntity
  8
Sichtbar (ISO)
100
AcDbVertex
100
AcDb2dVertex
 10
1613.071212017111
 20
672.7699973697199
 30
0.0
  0
VERTEX
  5
481
330
475
100
AcDbEntity
  8
Sichtbar (ISO)
100
AcDbVertex
100
AcDb2dVertex
 10
1613.523694806907
 20
673.2055721350498
 30
0.0
  0
VERTEX
  5
482
330
475
100
AcDbEntity
  8
Sichtbar (ISO)
100
AcDbVertex
100
AcDb2dVertex
 10
1614.000359172977
 20
673.5759761264553
 30
0.0
  0
VERTEX
  5
483
330
475
100
AcDbEntity
  8
Sichtbar (ISO)
100
AcDbVertex
100
AcDb2dVertex
 10
1614.493001159798
 20
673.8900797895612
 30
0.0
  0
VERTEX
  5
484
330
475
100
AcDbEntity
  8
Sichtbar (ISO)
100
AcDbVertex
100
AcDb2dVertex
 10
1614.99876245201
 20
674.1544064186773
 30
0.0
  0
VERTEX
  5
485
330
475
100
AcDbEntity
  8
Sichtbar (ISO)
100
AcDbVertex
100
AcDb2dVertex
 10
1615.515165567083
 20
674.3745617665426
 30
0.0
  0
VERTEX
  5
486
330
475
100
AcDbEntity
  8
Sichtbar (ISO)
100
AcDbVertex
100
AcDb2dVertex
 10
1616.03997105142
 20
674.5558854223008
 30
0.0
  0
VERTEX
  5
487
330
475
100
AcDbEntity
  8
Sichtbar (ISO)
100
AcDbVertex
100
AcDb2dVertex
 10
1616.572063130813
 20
674.7012128257566
 30
0.0
  0
VERTEX
  5
488
330
475
100
AcDbEntity
  8
Sichtbar (ISO)
100
AcDbVertex
100
AcDb2dVertex
 10
1617.110121042893
 20
674.8121021041124
 30
0.0
  0
VERTEX
  5
489
330
475
100
AcDbEntity
  8
Sichtbar (ISO)
100
AcDbVertex
100
AcDb2dVertex
 10
1617.652768369056
 20
674.8901100186885
 30
0.0
  0
VERTEX
  5
48A
330
475
100
AcDbEntity
  8
Sichtbar (ISO)
100
AcDbVertex
100
AcDb2dVertex
 10
1618.198608373479
 20
674.9367233029233
 30
0.0
  0
VERTEX
  5
48B
330
475
100
AcDbEntity
  8
Sichtbar (ISO)
100
AcDbVertex
100
AcDb2dVertex
 10
1618.746056149146
 20
674.952398047113
 30
0.0
  0
VERTEX
  5
48C
330
475
100
AcDbEntity
  8
Sichtbar (ISO)
100
AcDbVertex
100
AcDb2dVertex
 10
1619.293508758894
 20
674.9369269111002
 30
0.0
  0
VERTEX
  5
48D
330
475
100
AcDbEntity
  8
Sichtbar (ISO)
100
AcDbVertex
100
AcDb2dVertex
 10
1619.839377619755
 20
674.8901057528519
 30
0.0
  0
VERTEX
  5
48E
330
475
100
AcDbEntity
  8
Sichtbar (ISO)
100
AcDbVertex
100
AcDb2dVertex
 10
1620.382077103436
 20
674.8117492304209
 30
0.0
  0
VERTEX
  5
48F
330
475
100
AcDbEntity
  8
Sichtbar (ISO)
100
AcDbVertex
100
AcDb2dVertex
 10
1620.920137677585
 20
674.7012580359205
 30
0.0
  0
VERTEX
  5
490
330
475
100
AcDbEntity
  8
Sichtbar (ISO)
100
AcDbVertex
100
AcDb2dVertex
 10
1621.45221005884
 20
674.5564245766691
 30
0.0
  0
VERTEX
  5
491
330
475
100
AcDbEntity
  8
Sichtbar (ISO)
100
AcDbVertex
100
AcDb2dVertex
 10
1621.976949175138
 20
674.3747862597911
 30
0.0
  0
VERTEX
  5
492
330
475
100
AcDbEntity
  8
Sichtbar (ISO)
100
AcDbVertex
100
AcDb2dVertex
 10
1622.49304155562
 20
674.1538825124707
 30
0.0
  0
VERTEX
  5
493
330
475
100
AcDbEntity
  8
Sichtbar (ISO)
100
AcDbVertex
100
AcDb2dVertex
 10
1622.999915177694
 20
673.8902134688278
 30
0.0
  0
VERTEX
  5
494
330
475
100
AcDbEntity
  8
Sichtbar (ISO)
100
AcDbVertex
100
AcDb2dVertex
 10
1623.493653947494
 20
673.5768043772796
 30
0.0
  0
VERTEX
  5
495
330
475
100
AcDbEntity
  8
Sichtbar (ISO)
100
AcDbVertex
100
AcDb2dVertex
 10
1623.968935054956
 20
673.2059957968113
 30
0.0
  0
VERTEX
  5
496
330
475
100
AcDbEntity
  8
Sichtbar (ISO)
100
AcDbVertex
100
AcDb2dVertex
 10
1624.420430197211
 20
672.7700863663567
 30
0.0
  0
VERTEX
  5
497
330
475
100
AcDbEntity
  8
Sichtbar (ISO)
100
AcDbVertex
100
AcDb2dVertex
 10
1624.63489585924
 20
672.5244579391646
 30
0.0
  0
VERTEX
  5
498
330
475
100
AcDbEntity
  8
Sichtbar (ISO)
100
AcDbVertex
100
AcDb2dVertex
 10
1624.8387471635
 20
672.2592687457709
 30
0.0
  0
VERTEX
  5
499
330
475
100
AcDbEntity
  8
Sichtbar (ISO)
100
AcDbVertex
100
AcDb2dVertex
 10
1625.029204063569
 20
671.9745730033573
 30
0.0
  0
VERTEX
  5
49A
330
475
100
AcDbEntity
  8
Sichtbar (ISO)
100
AcDbVertex
100
AcDb2dVertex
 10
1625.203485096004
 20
671.670424091556
 30
0.0
  0
VERTEX
  5
49B
330
475
100
AcDbEntity
  8
Sichtbar (ISO)
100
AcDbVertex
100
AcDb2dVertex
 10
1625.358809612745
 20
671.346875634912
 30
0.0
  0
VERTEX
  5
49C
330
475
100
AcDbEntity
  8
Sichtbar (ISO)
100
AcDbVertex
100
AcDb2dVertex
 10
1625.492320837616
 20
671.0040301472499
 30
0.0
  0
VERTEX
  5
49D
330
475
100
AcDbEntity
  8
Sichtbar (ISO)
100
AcDbVertex
100
AcDb2dVertex
 10
1625.600191956236
 20
670.6438671370224
 30
0.0
  0
VERTEX
  5
49E
330
475
100
AcDbEntity
  8
Sichtbar (ISO)
100
AcDbVertex
100
AcDb2dVertex
 10
1625.679838344918
 20
670.2704430750473
 30
0.0
  0
VERTEX
  5
49F
330
475
100
AcDbEntity
  8
Sichtbar (ISO)
100
AcDbVertex
100
AcDb2dVertex
 10
1625.729163686064
 20
669.8878751373122
 30
0.0
  0
VERTEX
  5
4A0
330
475
100
AcDbEntity
  8
Sichtbar (ISO)
100
AcDbVertex
100
AcDb2dVertex
 10
1625.746071210846
 20
669.5002803598872
 30
0.0
  0
SEQEND
  5
4A1
330
475
100
AcDbEntity
  8
Sichtbar (ISO)
  0
LINE
  5
4A2
330
1F
100
AcDbEntity
  8
Sichtbar (ISO)
100
AcDbLine
 10
1618.730412450132
 20
670.5767181568798
 30
0.0
 11
1616.238278622847
 21
671.4156999051965
 31
0.0
  0
LINE
  5
4A3
330
1F
100
AcDbEntity
  8
Sichtbar (ISO)
100
AcDbLine
 10
1616.238278622847
 20
671.4156999051965
 30
0.0
 11
1616.253937408467
 21
673.0780449888779
 31
0.0
  0
LINE
  5
4A4
330
1F
100
AcDbEntity
  8
Sichtbar (ISO)
100
AcDbLine
 10
1616.253937408467
 20
673.0780449888779
 30
0.0
 11
1618.761730021371
 21
673.9014083242428
 31
0.0
  0
LINE
  5
4A5
330
1F
100
AcDbEntity
  8
Sichtbar (ISO)
100
AcDbLine
 10
1618.761730021371
 20
673.9014083242428
 30
0.0
 11
1621.253863848656
 21
673.0624265759261
 31
0.0
  0
LINE
  5
4A6
330
1F
100
AcDbEntity
  8
Sichtbar (ISO)
100
AcDbLine
 10
1621.253863848656
 20
673.0624265759261
 30
0.0
 11
1621.238205063036
 21
671.4000814922447
 31
0.0
  0
LINE
  5
4A7
330
1F
100
AcDbEntity
  8
Sichtbar (ISO)
100
AcDbLine
 10
1621.238205063036
 20
671.4000814922447
 30
0.0
 11
1618.730412450132
 21
670.5767181568798
 31
0.0
  0
LINE
  5
4A8
330
1F
100
AcDbEntity
  8
Sichtbar (ISO)
100
AcDbLine
 10
1616.253937408467
 20
673.0780449888779
 30
0.0
 11
1616.253937408467
 21
671.4104283442584
 31
0.0
  0
POLYLINE
  5
4A9
330
1F
100
AcDbEntity
  8
Sichtbar (ISO)
100
AcDb2dPolyline
 66
     1
 10
0.0
 20
0.0
 30
0.0
 70
   128
  0
VERTEX
  5
4AA
330
4A9
100
AcDbEntity
  8
Sichtbar (ISO)
100
AcDbVertex
100
AcDb2dVertex
 10
1620.290032887516
 20
671.0887757946293
 30
0.0
  0
VERTEX
  5
4AB
330
4A9
100
AcDbEntity
  8
Sichtbar (ISO)
100
AcDbVertex
100
AcDb2dVertex
 10
1620.229516602627
 20
671.1053121171089
 30
0.0
  0
VERTEX
  5
4AC
330
4A9
100
AcDbEntity
  8
Sichtbar (ISO)
100
AcDbVertex
100
AcDb2dVertex
 10
1620.169258180218
 20
671.1226852993595
 30
0.0
  0
VERTEX
  5
4AD
330
4A9
100
AcDbEntity
  8
Sichtbar (ISO)
100
AcDbVertex
100
AcDb2dVertex
 10
1620.109186987904
 20
671.1409122977674
 30
0.0
  0
VERTEX
  5
4AE
330
4A9
100
AcDbEntity
  8
Sichtbar (ISO)
100
AcDbVertex
100
AcDb2dVertex
 10
1620.049233141029
 20
671.1600118880023
 30
0.0
  0
VERTEX
  5
4AF
330
4A9
100
AcDbEntity
  8
Sichtbar (ISO)
100
AcDbVertex
100
AcDb2dVertex
 10
1619.989327199152
 20
671.180005132669
 30
0.0
  0
VERTEX
  5
4B0
330
4A9
100
AcDbEntity
  8
Sichtbar (ISO)
100
AcDbVertex
100
AcDb2dVertex
 10
1619.929399906758
 20
671.200914737652
 30
0.0
  0
VERTEX
  5
4B1
330
4A9
100
AcDbEntity
  8
Sichtbar (ISO)
100
AcDbVertex
100
AcDb2dVertex
 10
1619.869381931947
 20
671.2227659928567
 30
0.0
  0
VERTEX
  5
4B2
330
4A9
100
AcDbEntity
  8
Sichtbar (ISO)
100
AcDbVertex
100
AcDb2dVertex
 10
1619.809203572976
 20
671.2455858964067
 30
0.0
  0
VERTEX
  5
4B3
330
4A9
100
AcDbEntity
  8
Sichtbar (ISO)
100
AcDbVertex
100
AcDb2dVertex
 10
1619.748794543184
 20
671.2694043234714
 30
0.0
  0
VERTEX
  5
4B4
330
4A9
100
AcDbEntity
  8
Sichtbar (ISO)
100
AcDbVertex
100
AcDb2dVertex
 10
1619.688083639337
 20
671.2942531633188
 30
0.0
  0
VERTEX
  5
4B5
330
4A9
100
AcDbEntity
  8
Sichtbar (ISO)
100
AcDbVertex
100
AcDb2dVertex
 10
1619.626998468264
 20
671.3201672641189
 30
0.0
  0
VERTEX
  5
4B6
330
4A9
100
AcDbEntity
  8
Sichtbar (ISO)
100
AcDbVertex
100
AcDb2dVertex
 10
1619.565465141333
 20
671.3471840484971
 30
0.0
  0
VERTEX
  5
4B7
330
4A9
100
AcDbEntity
  8
Sichtbar (ISO)
100
AcDbVertex
100
AcDb2dVertex
 10
1619.503408113649
 20
671.3753438113208
 30
0.0
  0
VERTEX
  5
4B8
330
4A9
100
AcDbEntity
  8
Sichtbar (ISO)
100
AcDbVertex
100
AcDb2dVertex
 10
1619.440749556925
 20
671.4046904181177
 30
0.0
  0
VERTEX
  5
4B9
330
4A9
100
AcDbEntity
  8
Sichtbar (ISO)
100
AcDbVertex
100
AcDb2dVertex
 10
1619.377409359482
 20
671.4352705741321
 30
0.0
  0
VERTEX
  5
4BA
330
4A9
100
AcDbEntity
  8
Sichtbar (ISO)
100
AcDbVertex
100
AcDb2dVertex
 10
1619.313304579523
 20
671.4671348611509
 30
0.0
  0
VERTEX
  5
4BB
330
4A9
100
AcDbEntity
  8
Sichtbar (ISO)
100
AcDbVertex
100
AcDb2dVertex
 10
1619.248349091364
 20
671.5003378565953
 30
0.0
  0
VERTEX
  5
4BC
330
4A9
100
AcDbEntity
  8
Sichtbar (ISO)
100
AcDbVertex
100
AcDb2dVertex
 10
1619.182453103032
 20
671.534938174108
 30
0.0
  0
VERTEX
  5
4BD
330
4A9
100
AcDbEntity
  8
Sichtbar (ISO)
100
AcDbVertex
100
AcDb2dVertex
 10
1619.115522898979
 20
671.5709989156311
 30
0.0
  0
VERTEX
  5
4BE
330
4A9
100
AcDbEntity
  8
Sichtbar (ISO)
100
AcDbVertex
100
AcDb2dVertex
 10
1619.047460196872
 20
671.6085880097734
 30
0.0
  0
VERTEX
  5
4BF
330
4A9
100
AcDbEntity
  8
Sichtbar (ISO)
100
AcDbVertex
100
AcDb2dVertex
 10
1618.978161633027
 20
671.6477789941572
 30
0.0
  0
VERTEX
  5
4C0
330
4A9
100
AcDbEntity
  8
Sichtbar (ISO)
100
AcDbVertex
100
AcDb2dVertex
 10
1618.907518376484
 20
671.6886509016976
 30
0.0
  0
VERTEX
  5
4C1
330
4A9
100
AcDbEntity
  8
Sichtbar (ISO)
100
AcDbVertex
100
AcDb2dVertex
 10
1618.835415292837
 20
671.7312890293933
 30
0.0
  0
VERTEX
  5
4C2
330
4A9
100
AcDbEntity
  8
Sichtbar (ISO)
100
AcDbVertex
100
AcDb2dVertex
 10
1618.761730043736
 20
671.7757858505983
 30
0.0
  0
SEQEND
  5
4C3
330
4A9
100
AcDbEntity
  8
Sichtbar (ISO)
  0
LINE
  5
4C4
330
1F
100
AcDbEntity
  8
Sichtbar (ISO)
100
AcDbLine
 10
1618.761730021371
 20
671.7757857996521
 30
0.0
 11
1618.761730021371
 21
673.9014083242428
 31
0.0
  0
POLYLINE
  5
4C5
330
1F
100
AcDbEntity
  8
Sichtbar (ISO)
100
AcDb2dPolyline
 66
     1
 10
0.0
 20
0.0
 30
0.0
 70
   128
  0
VERTEX
  5
4C6
330
4C5
100
AcDbEntity
  8
Sichtbar (ISO)
100
AcDbVertex
100
AcDb2dVertex
 10
1618.761730043736
 20
671.7757858505983
 30
0.0
  0
VERTEX
  5
4C7
330
4C5
100
AcDbEntity
  8
Sichtbar (ISO)
100
AcDbVertex
100
AcDb2dVertex
 10
1618.686361711279
 20
671.7310340457161
 30
0.0
  0
VERTEX
  5
4C8
330
4C5
100
AcDbEntity
  8
Sichtbar (ISO)
100
AcDbVertex
100
AcDb2dVertex
 10
1618.612636647141
 20
671.6881911563951
 30
0.0
  0
VERTEX
  5
4C9
330
4C5
100
AcDbEntity
  8
Sichtbar (ISO)
100
AcDbVertex
100
AcDb2dVertex
 10
1618.54042585437
 20
671.6471615251257
 30
0.0
  0
VERTEX
  5
4CA
330
4C5
100
AcDbEntity
  8
Sichtbar (ISO)
100
AcDbVertex
100
AcDb2dVertex
 10
1618.469608040614
 20
671.6078563458859
 30
0.0
  0
VERTEX
  5
4CB
330
4C5
100
AcDbEntity
  8
Sichtbar (ISO)
100
AcDbVertex
100
AcDb2dVertex
 10
1618.400068074411
 20
671.5701935747111
 30
0.0
  0
VERTEX
  5
4CC
330
4C5
100
AcDbEntity
  8
Sichtbar (ISO)
100
AcDbVertex
100
AcDb2dVertex
 10
1618.331697359255
 20
671.5340971079795
 30
0.0
  0
VERTEX
  5
4CD
330
4C5
100
AcDbEntity
  8
Sichtbar (ISO)
100
AcDbVertex
100
AcDb2dVertex
 10
1618.264392343331
 20
671.4994966974264
 30
0.0
  0
VERTEX
  5
4CE
330
4C5
100
AcDbEntity
  8
Sichtbar (ISO)
100
AcDbVertex
100
AcDb2dVertex
 10
1618.198054379003
 20
671.466327301654
 30
0.0
  0
VERTEX
  5
4CF
330
4C5
100
AcDbEntity
  8
Sichtbar (ISO)
100
AcDbVertex
100
AcDb2dVertex
 10
1618.13258911128
 20
671.4345282628755
 30
0.0
  0
VERTEX
  5
4D0
330
4C5
100
AcDbEntity
  8
Sichtbar (ISO)
100
AcDbVertex
100
AcDb2dVertex
 10
1618.067905888041
 20
671.4040436497098
 30
0.0
  0
VERTEX
  5
4D1
330
4C5
100
AcDbEntity
  8
Sichtbar (ISO)
100
AcDbVertex
100
AcDb2dVertex
 10
1618.003917619527
 20
671.3748212432338
 30
0.0
  0
VERTEX
  5
4D2
330
4C5
100
AcDbEntity
  8
Sichtbar (ISO)
100
AcDbVertex
100
AcDb2dVertex
 10
1617.940539899617
 20
671.3468131534173
 30
0.0
  0
VERTEX
  5
4D3
330
4C5
100
AcDbEntity
  8
Sichtbar (ISO)
100
AcDbVertex
100
AcDb2dVertex
 10
1617.877691144373
 20
671.3199746663812
 30
0.0
  0
VERTEX
  5
4D4
330
4C5
100
AcDbEntity
  8
Sichtbar (ISO)
100
AcDbVertex
100
AcDb2dVertex
 10
1617.815291701449
 20
671.294264412696
 30
0.0
  0
VERTEX
  5
4D5
330
4C5
100
AcDbEntity
  8
Sichtbar (ISO)
100
AcDbVertex
100
AcDb2dVertex
 10
1617.75326389362
 20
671.2696442630231
 30
0.0
  0
VERTEX
  5
4D6
330
4C5
100
AcDbEntity
  8
Sichtbar (ISO)
100
AcDbVertex
100
AcDb2dVertex
 10
1617.691531266746
 20
671.2460787091349
 30
0.0
  0
VERTEX
  5
4D7
330
4C5
100
AcDbEntity
  8
Sichtbar (ISO)
100
AcDbVertex
100
AcDb2dVertex
 10
1617.630019169633
 20
671.2235353869191
 30
0.0
  0
VERTEX
  5
4D8
330
4C5
100
AcDbEntity
  8
Sichtbar (ISO)
100
AcDbVertex
100
AcDb2dVertex
 10
1617.568653305343
 20
671.2019841821993
 30
0.0
  0
VERTEX
  5
4D9
330
4C5
100
AcDbEntity
  8
Sichtbar (ISO)
100
AcDbVertex
100
AcDb2dVertex
 10
1617.507360047849
 20
671.1813977381061
 30
0.0
  0
VERTEX
  5
4DA
330
4C5
100
AcDbEntity
  8
Sichtbar (ISO)
100
AcDbVertex
100
AcDb2dVertex
 10
1617.446066398496
 20
671.1617508284916
 30
0.0
  0
VERTEX
  5
4DB
330
4C5
100
AcDbEntity
  8
Sichtbar (ISO)
100
AcDbVertex
100
AcDb2dVertex
 10
1617.384698768859
 20
671.1430203973677
 30
0.0
  0
VERTEX
  5
4DC
330
4C5
100
AcDbEntity
  8
Sichtbar (ISO)
100
AcDbVertex
100
AcDb2dVertex
 10
1617.323183827797
 20
671.1251858604327
 30
0.0
  0
VERTEX
  5
4DD
330
4C5
100
AcDbEntity
  8
Sichtbar (ISO)
100
AcDbVertex
100
AcDb2dVertex
 10
1617.261447315973
 20
671.1082285920092
 30
0.0
  0
VERTEX
  5
4DE
330
4C5
100
AcDbEntity
  8
Sichtbar (ISO)
100
AcDbVertex
100
AcDb2dVertex
 10
1617.199414265542
 20
671.0921316795657
 30
0.0
  0
SEQEND
  5
4DF
330
4C5
100
AcDbEntity
  8
Sichtbar (ISO)
  0
ELLIPSE
  5
4E0
330
1F
100
AcDbEntity
  8
Sichtbar (ISO)
100
AcDbEllipse
 10
1618.746071235752
 20
668.6418558912546
 30
0.0
 11
-6.999999999999992
 21
0.0000000000000017
 31
0.0
210
0.0
220
0.0
230
1.0
 40
0.5758617009853105
 41
0.0
 42
1.481454577961651
  0
LINE
  5
4E1
330
1F
100
AcDbEntity
  8
Sichtbar (ISO)
100
AcDbLine
 10
1622.746071235752
 20
654.2502784297112
 30
0.0
 11
1622.746071235752
 21
644.105970866557
 31
0.0
  0
LINE
  5
4E2
330
1F
100
AcDbEntity
  8
Sichtbar (ISO)
100
AcDbLine
 10
1614.746071235751
 20
654.6574741435006
 30
0.0
 11
1614.746071235751
 21
644.105970866557
 31
0.0
  0
LINE
  5
4E3
330
1F
100
AcDbEntity
  8
Sichtbar (ISO)
100
AcDbLine
 10
1625.746071235752
 20
669.5002803723391
 30
0.0
 11
1625.746071235752
 21
669.0175934657936
 31
0.0
  0
LINE
  5
4E4
330
1F
100
AcDbEntity
  8
Sichtbar (ISO)
100
AcDbLine
 10
1611.746071235751
 20
669.5002803723391
 30
0.0
 11
1611.746071235751
 21
668.6418558912546
 31
0.0
  0
DIMENSION
  5
4E5
102
{ACAD_XDICTIONARY
360
4E6
102
}
102
{ACAD_REACTORS
330
4E7
102
}
330
1F
100
AcDbEntity
  8
S10_Quote
 62
     0
100
AcDbDimension
  2
*D9
 10
1623.505391279891
 20
689.1345214950716
 30
0.0
 11
1615.505391279891
 21
690.9499061104561
 31
0.0
 70
    32
 71
     5
 42
16.0
  3
mm 1_1
100
AcDbAlignedDimension
 13
1607.505391279891
 23
694.058399584901
 33
0.0
 14
1623.505391279891
 24
694.058399584901
 34
0.0
100
AcDbRotatedDimension
1001
ACAD
1000
DSTYLE
1002
{
1070
    49
1040
500.0
1070
   290
1070
     1
1070
   345
1005
15
1070
   346
1005
15
1070
   347
1005
15
1002
}
  0
DIMENSION
  5
4E8
102
{ACAD_XDICTIONARY
360
4E9
102
}
102
{ACAD_REACTORS
330
4EA
102
}
330
1F
100
AcDbEntity
  8
S10_Quote
 62
     0
100
AcDbDimension
  2
*D10
 10
1625.00539127989
 20
743.8620967687393
 30
0.0
 11
1615.50539127989
 21
745.6851736918162
 31
0.0
 70
    32
 71
     5
 42
19.00000000000091
  3
mm 1_1
100
AcDbAlignedDimension
 13
1606.005391279889
 23
750.1083995849012
 33
0.0
 14
1625.00539127989
 24
750.1083995849012
 34
0.0
100
AcDbRotatedDimension
1001
ACAD
1000
DSTYLE
1002
{
1070
    49
1040
500.0
1070
   290
1070
     1
1070
   345
1005
15
1070
   346
1005
15
1070
   347
1005
15
1002
}
  0
ENDSEC
  0
SECTION
  2
OBJECTS
  0
DICTIONARY
  5
C
330
0
100
AcDbDictionary
281
     1
  3
ACAD_COLOR
350
6B
  3
ACAD_GROUP
350
D
  3
ACAD_LAYOUT
350
1A
  3
ACAD_MATERIAL
350
6A
  3
ACAD_MLEADERSTYLE
350
12D
  3
ACAD_MLINESTYLE
350
17
  3
ACAD_PLOTSETTINGS
350
19
  3
ACAD_PLOTSTYLENAME
350
E
  3
ACAD_SCALELIST
350
10C
  3
ACAD_TABLESTYLE
350
7E
  3
ACAD_VISUALSTYLE
350
EF
  3
ACDB_RECOMPOSE_DATA
350
521
  3
AcDbVariableDictionary
350
5E
  0
DICTIONARY
  5
23C
330
2
100
AcDbDictionary
280
     1
281
     1
  3
ACAD_LAYERSTATES
360
23D
  0
DICTIONARY
  5
13C
330
10
100
AcDbDictionary
280
     1
281
     1
  0
DICTIONARY
  5
22C
330
22B
100
AcDbDictionary
280
     1
281
     1
  0
DICTIONARY
  5
22E
330
22D
100
AcDbDictionary
280
     1
281
     1
  0
DICTIONARY
  5
230
330
22F
100
AcDbDictionary
280
     1
281
     1
  0
DICTIONARY
  5
1CE
330
1F
100
AcDbDictionary
280
     1
281
     1
  0
DICTIONARY
  5
1F5
330
1F4
100
AcDbDictionary
280
     1
281
     1
  0
DICTIONARY
  5
3F7
330
3F6
100
AcDbDictionary
280
     1
281
     1
  3
ACAD_DIMASSOC
360
3F8
  0
DICTIONARY
  5
3FA
330
3F9
100
AcDbDictionary
280
     1
281
     1
  3
ACAD_DIMASSOC
360
3FB
  0
DICTIONARY
  5
4E6
330
4E5
100
AcDbDictionary
280
     1
281
     1
  3
ACAD_DIMASSOC
360
4E7
  0
DICTIONARY
  5
4E9
330
4E8
100
AcDbDictionary
280
     1
281
     1
  3
ACAD_DIMASSOC
360
4EA
  0
DICTIONARY
  5
6B
102
{ACAD_REACTORS
330
C
102
}
330
C
100
AcDbDictionary
281
     1
  0
DICTIONARY
  5
D
102
{ACAD_REACTORS
330
C
102
}
330
C
100
AcDbDictionary
281
     1
  0
DICTIONARY
  5
1A
102
{ACAD_REACTORS
330
C
102
}
330
C
100
AcDbDictionary
281
     1
  3
Layout1
350
D3
  3
Layout2
350
D7
  3
Model
350
22
  0
DICTIONARY
  5
6A
102
{ACAD_REACTORS
330
C
102
}
330
C
100
AcDbDictionary
281
     1
  3
ByBlock
350
ED
  3
ByLayer
350
EC
  3
Global
350
EE
  0
DICTIONARY
  5
12D
102
{ACAD_REACTORS
330
C
102
}
330
C
100
AcDbDictionary
281
     1
  3
Annotativa
350
13B
  3
Standard
350
12E
  0
DICTIONARY
  5
17
102
{ACAD_REACTORS
330
C
102
}
330
C
100
AcDbDictionary
281
     1
  3
Standard
350
18
  0
DICTIONARY
  5
19
102
{ACAD_REACTORS
330
C
102
}
330
C
100
AcDbDictionary
281
     1
  0
ACDBDICTIONARYWDFLT
  5
E
102
{ACAD_REACTORS
330
C
102
}
330
C
100
AcDbDictionary
281
     1
  3
Normal
350
F
100
AcDbDictionaryWithDefault
340
F
  0
DICTIONARY
  5
10C
102
{ACAD_REACTORS
330
C
102
}
330
C
100
AcDbDictionary
281
     1
  3
A0
350
10D
  3
A1
350
1BE
  3
A2
350
1BF
  3
A3
350
1C0
  3
A4
350
1C1
  3
A5
350
1C2
  3
A6
350
1C3
  3
A7
350
1C4
  3
A8
350
1C5
  3
A9
350
1C6
  3
B0
350
1C7
  3
B1
350
1C8
  3
B2
350
1C9
  3
B3
350
1CA
  3
B4
350
1CB
  3
B5
350
1CC
  3
B6
350
1CD
  0
DICTIONARY
  5
7E
102
{ACAD_REACTORS
330
C
102
}
330
C
100
AcDbDictionary
281
     1
  3
Standard
350
7F
  0
DICTIONARY
  5
EF
102
{ACAD_REACTORS
330
C
102
}
330
C
100
AcDbDictionary
281
     1
  3
2dWireframe
350
F5
  3
3D Hidden
350
F7
  3
3dWireframe
350
F6
  3
Basic
350
F4
  3
Brighten
350
FB
  3
ColorChange
350
FF
  3
Conceptual
350
F8
  3
Dim
350
FA
  3
EdgeColorOff
350
1E6
  3
Facepattern
350
FE
  3
Flat
350
F0
  3
FlatWithEdges
350
F1
  3
Gouraud
350
F2
  3
GouraudWithEdges
350
F3
  3
JitterOff
350
1E4
  3
Linepattern
350
FD
  3
OverhangOff
350
1E5
  3
Realistic
350
F9
  3
Thicken
350
FC
  0
XRECORD
  5
521
102
{ACAD_REACTORS
330
C
102
}
330
C
100
AcDbXrecord
280
     1
 90
        1
330
7F
  0
DICTIONARY
  5
5E
102
{ACAD_REACTORS
330
C
102
}
330
C
100
AcDbDictionary
281
     1
  3
CANNOSCALE
350
146
  3
CMLEADERSTYLE
350
145
  3
CTABLESTYLE
350
84
  3
DIMASSOC
350
5F
  3
HIDETEXT
350
63
  3
LAYEREVAL
350
1AE
  3
LAYERNOTIFY
350
1AF
  3
LIGHTINGUNITS
350
51C
  3
MSLTSCALE
350
51B
  3
PSOLHEIGHT
350
51E
  3
PSOLWIDTH
350
51D
  3
XCLIPFRAME
350
51F
  0
DICTIONARY
  5
23D
102
{ACAD_REACTORS
330
23C
102
}
330
23C
100
AcDbDictionary
281
     1
  0
DIMASSOC
  5
3F8
102
{ACAD_REACTORS
330
3F7
102
}
330
3F7
100
AcDbDimAssoc
330
3F6
 90
        3
 70
     0
 71
     0
  1
AcDbOsnapPointRef
 72
     1
331
3D7
 73
     2
 91
        1
 40
1.0
 10
0.0
 20
0.0
 30
2.000000000000000E+50
 75
     0
  1
AcDbOsnapPointRef
 72
     8
331
3D7
 73
     2
 91
        3
 40
0.0
 10
0.0
 20
0.0
 30
0.0
 75
     1
  1
AcDbOsnapPointRef
 72
     1
331
3D7
 73
     2
 91
        1
 40
1.0
 10
0.0
 20
0.0
 30
2.000000000000000E+50
 75
     0
  0
DIMASSOC
  5
3FB
102
{ACAD_REACTORS
330
3FA
102
}
330
3FA
100
AcDbDimAssoc
330
3F9
 90
        1
 70
     0
 71
     0
  1
AcDbOsnapPointRef
 72
     6
331
3D7
 73
     2
 91
        4
 40
0.9024390243902571
 10
0.0
 20
0.0
 30
0.0
332
3E4
 74
     2
 92
        0
 75
     0
  0
DIMASSOC
  5
4E7
102
{ACAD_REACTORS
330
4E6
102
}
330
4E6
100
AcDbDimAssoc
330
4E5
 90
        3
 70
     0
 71
     0
  1
AcDbOsnapPointRef
 72
     1
331
3F2
 73
     2
 91
        2
 40
1.0
 10
0.0
 20
0.0
 30
2.000000000000000E+50
 75
     0
  1
AcDbOsnapPointRef
 72
     1
331
3F2
 73
     2
 91
        3
 40
1.0
 10
0.0
 20
0.0
 30
2.000000000000000E+50
 75
     0
  0
DIMASSOC
  5
4EA
102
{ACAD_REACTORS
330
4E9
102
}
330
4E9
100
AcDbDimAssoc
330
4E8
 90
        3
 70
     0
 71
     0
  1
AcDbOsnapPointRef
 72
     1
331
3E7
 73
     2
 91
       10
 40
1.0
 10
0.0
 20
0.0
 30
2.000000000000000E+50
 75
     0
  1
AcDbOsnapPointRef
 72
     1
331
3E7
 73
     2
 91
        9
 40
1.0
 10
0.0
 20
0.0
 30
2.000000000000000E+50
 75
     0
  0
LAYOUT
  5
D3
102
{ACAD_REACTORS
330
1A
102
}
330
1A
100
AcDbPlotSettings
  1

  2
C:\Documents and Settings\basas\Application Data\Autodesk\AutoCAD 2005\R16.1\enu\plotters\Default Windows System Printer.pc3
  4

  6

 40
0.0
 41
0.0
 42
0.0
 43
0.0
 44
0.0
 45
0.0
 46
0.0
 47
0.0
 48
0.0
 49
0.0
140
0.0
141
0.0
142
1.0
143
1.0
 70
   688
 72
     0
 73
     0
 74
     5
  7

 75
    16
147
1.0
 76
     0
 77
     2
 78
   300
148
0.0
149
0.0
100
AcDbLayout
  1
Layout1
 70
     1
 71
     1
 10
0.0
 20
0.0
 11
12.0
 21
9.0
 12
0.0
 22
0.0
 32
0.0
 14
0.0
 24
0.0
 34
0.0
 15
0.0
 25
0.0
 35
0.0
146
0.0
 13
0.0
 23
0.0
 33
0.0
 16
1.0
 26
0.0
 36
0.0
 17
0.0
 27
1.0
 37
0.0
 76
     0
330
D2
  0
LAYOUT
  5
D7
102
{ACAD_REACTORS
330
1A
102
}
330
1A
100
AcDbPlotSettings
  1

  2
C:\Documents and Settings\basas\Application Data\Autodesk\AutoCAD 2005\R16.1\enu\plotters\Default Windows System Printer.pc3
  4

  6

 40
0.0
 41
0.0
 42
0.0
 43
0.0
 44
0.0
 45
0.0
 46
0.0
 47
0.0
 48
0.0
 49
0.0
140
0.0
141
0.0
142
1.0
143
1.0
 70
   688
 72
     0
 73
     0
 74
     5
  7

 75
    16
147
1.0
 76
     0
 77
     2
 78
   300
148
0.0
149
0.0
100
AcDbLayout
  1
Layout2
 70
     1
 71
     2
 10
0.0
 20
0.0
 11
12.0
 21
9.0
 12
0.0
 22
0.0
 32
0.0
 14
0.0
 24
0.0
 34
0.0
 15
0.0
 25
0.0
 35
0.0
146
0.0
 13
0.0
 23
0.0
 33
0.0
 16
1.0
 26
0.0
 36
0.0
 17
0.0
 27
1.0
 37
0.0
 76
     0
330
D6
  0
LAYOUT
  5
22
102
{ACAD_REACTORS
330
1A
102
}
330
1A
100
AcDbPlotSettings
  1

  2
none_device
  4
ISO_A4_(210.00_x_297.00_MM)
  6

 40
7.5
 41
20.0
 42
7.5
 43
20.0
 44
210.0
 45
297.0
 46
11.54999923706054
 47
-13.65000009536743
 48
0.0
 49
0.0
140
0.0
141
0.0
142
1.0
143
8.704084754739808
 70
 11952
 72
     1
 73
     0
 74
     0
  7

 75
     0
147
0.1148885871608098
 76
     0
 77
     2
 78
   300
148
0.0
149
0.0
100
AcDbLayout
  1
Model
 70
     1
 71
     0
 10
0.0
 20
0.0
 11
12.0
 21
9.0
 12
0.0
 22
0.0
 32
0.0
 14
0.0
 24
0.0
 34
0.0
 15
0.0
 25
0.0
 35
0.0
146
0.0
 13
0.0
 23
0.0
 33
0.0
 16
1.0
 26
0.0
 36
0.0
 17
0.0
 27
1.0
 37
0.0
 76
     0
330
1F
331
EA
1001
ACAD_PSEXT
1000
None
1000
None
1000
Not applicable
1000
The layout will not be plotted unless a new plotter configuration name is selected.
1070
     0
  0
MATERIAL
  5
ED
102
{ACAD_XDICTIONARY
360
525
102
}
102
{ACAD_REACTORS
330
6A
102
}
330
6A
100
AcDbMaterial
  1
ByBlock
  0
MATERIAL
  5
EC
102
{ACAD_XDICTIONARY
360
523
102
}
102
{ACAD_REACTORS
330
6A
102
}
330
6A
100
AcDbMaterial
  1
ByLayer
  0
MATERIAL
  5
EE
102
{ACAD_XDICTIONARY
360
173
102
}
102
{ACAD_REACTORS
330
6A
102
}
330
6A
100
AcDbMaterial
  1
Global
 43
0.0007999999797903
 43
0.0
 43
0.0
 43
0.0
 43
0.0
 43
0.0007999999797903
 43
0.0
 43
0.0
 43
0.0
 43
0.0
 43
1.0
 43
0.0
 43
0.0
 43
0.0
 43
0.0
 43
1.0
 49
0.0007999999797903
 49
0.0
 49
0.0
 49
0.0
 49
0.0
 49
0.0007999999797903
 49
0.0
 49
0.0
 49
0.0
 49
0.0
 49
1.0
 49
0.0
 49
0.0
 49
0.0
 49
0.0
 49
1.0
142
0.0007999999797903
142
0.0
142
0.0
142
0.0
142
0.0
142
0.0007999999797903
142
0.0
142
0.0
142
0.0
142
0.0
142
1.0
142
0.0
142
0.0
142
0.0
142
0.0
142
1.0
144
0.0007999999797903
144
0.0
144
0.0
144
0.0
144
0.0
144
0.0007999999797903
144
0.0
144
0.0
144
0.0
144
0.0
144
1.0
144
0.0
144
0.0
144
0.0
144
0.0
144
1.0
1001
ACAD
1070
    -1
1070
     3
1070
     0
1000

1071
        0
1070
     0
  0
MLEADERSTYLE
  5
13B
102
{ACAD_REACTORS
330
12D
102
}
330
12D
100
AcDbMLeaderStyle
170
     2
171
     1
172
     0
 90
        2
 40
0.0
 41
0.0
173
     1
 91
-1056964608
340
14
 92
       -2
290
     1
 42
2.0
291
     1
 43
8.0
  3
Standard
 44
4.0
300

342
11
174
     1
178
     1
175
     1
176
     0
 93
-1056964608
 45
4.0
292
     0
297
     0
 46
4.0
 94
-1056964608
 47
1.0
 49
1.0
140
1.0
293
     1
141
0.0
294
     1
177
     0
142
1.0
295
     0
296
     1
143
3.75
1001
ACAD_MLEADERVER
1070
     2
  0
MLEADERSTYLE
  5
12E
102
{ACAD_REACTORS
330
12D
102
}
330
12D
100
AcDbMLeaderStyle
170
     2
171
     1
172
     0
 90
        2
 40
0.0
 41
0.0
173
     1
 91
-1056964608
340
14
 92
       -2
290
     1
 42
2.0
291
     1
 43
8.0
  3
Standard
 44
4.0
300

342
11
174
     1
178
     1
175
     1
176
     0
 93
-1056964608
 45
4.0
292
     0
297
     0
 46
4.0
 94
-1056964608
 47
1.0
 49
1.0
140
1.0
293
     1
141
0.0
294
     1
177
     0
142
1.0
295
     0
296
     0
143
3.75
1001
ACAD_MLEADERVER
1070
     2
  0
MLINESTYLE
  5
18
102
{ACAD_REACTORS
330
17
102
}
330
17
100
AcDbMlineStyle
  2
STANDARD
 70
     0
  3

 62
   256
 51
90.0
 52
90.0
 71
     2
 49
0.5
 62
   256
  6
BYLAYER
 49
-0.5
 62
   256
  6
BYLAYER
  0
ACDBPLACEHOLDER
  5
F
102
{ACAD_REACTORS
330
E
102
}
330
E
  0
SCALE
  5
10D
102
{ACAD_REACTORS
330
10C
102
}
330
10C
100
AcDbScale
 70
     0
300
1:1
140
1.0
141
1.0
290
     1
  0
SCALE
  5
1BE
102
{ACAD_REACTORS
330
10C
102
}
330
10C
100
AcDbScale
 70
     0
300
1:2
140
1.0
141
2.0
290
     0
  0
SCALE
  5
1BF
102
{ACAD_REACTORS
330
10C
102
}
330
10C
100
AcDbScale
 70
     0
300
1:4
140
1.0
141
4.0
290
     0
  0
SCALE
  5
1C0
102
{ACAD_REACTORS
330
10C
102
}
330
10C
100
AcDbScale
 70
     0
300
1:5
140
1.0
141
5.0
290
     0
  0
SCALE
  5
1C1
102
{ACAD_REACTORS
330
10C
102
}
330
10C
100
AcDbScale
 70
     0
300
1:8
140
1.0
141
8.0
290
     0
  0
SCALE
  5
1C2
102
{ACAD_REACTORS
330
10C
102
}
330
10C
100
AcDbScale
 70
     0
300
1:10
140
1.0
141
10.0
290
     0
  0
SCALE
  5
1C3
102
{ACAD_REACTORS
330
10C
102
}
330
10C
100
AcDbScale
 70
     0
300
1:16
140
1.0
141
16.0
290
     0
  0
SCALE
  5
1C4
102
{ACAD_REACTORS
330
10C
102
}
330
10C
100
AcDbScale
 70
     0
300
1:20
140
1.0
141
20.0
290
     0
  0
SCALE
  5
1C5
102
{ACAD_REACTORS
330
10C
102
}
330
10C
100
AcDbScale
 70
     0
300
1:30
140
1.0
141
30.0
290
     0
  0
SCALE
  5
1C6
102
{ACAD_REACTORS
330
10C
102
}
330
10C
100
AcDbScale
 70
     0
300
1:40
140
1.0
141
40.0
290
     0
  0
SCALE
  5
1C7
102
{ACAD_REACTORS
330
10C
102
}
330
10C
100
AcDbScale
 70
     0
300
1:50
140
1.0
141
50.0
290
     0
  0
SCALE
  5
1C8
102
{ACAD_REACTORS
330
10C
102
}
330
10C
100
AcDbScale
 70
     0
300
1:100
140
1.0
141
100.0
290
     0
  0
SCALE
  5
1C9
102
{ACAD_REACTORS
330
10C
102
}
330
10C
100
AcDbScale
 70
     0
300
2:1
140
2.0
141
1.0
290
     0
  0
SCALE
  5
1CA
102
{ACAD_REACTORS
330
10C
102
}
330
10C
100
AcDbScale
 70
     0
300
4:1
140
4.0
141
1.0
290
     0
  0
SCALE
  5
1CB
102
{ACAD_REACTORS
330
10C
102
}
330
10C
100
AcDbScale
 70
     0
300
8:1
140
8.0
141
1.0
290
     0
  0
SCALE
  5
1CC
102
{ACAD_REACTORS
330
10C
102
}
330
10C
100
AcDbScale
 70
     0
300
10:1
140
10.0
141
1.0
290
     0
  0
SCALE
  5
1CD
102
{ACAD_REACTORS
330
10C
102
}
330
10C
100
AcDbScale
 70
     0
300
100:1
140
100.0
141
1.0
290
     0
  0
TABLESTYLE
  5
7F
102
{ACAD_XDICTIONARY
360
162
102
}
102
{ACAD_REACTORS
330
7E
102
}
330
7E
100
AcDbTableStyle
  3
Standard
 70
     0
 71
     0
 40
1.5
 41
1.5
280
     0
281
     0
  7
Standard
140
4.5
170
     2
 62
     0
 63
     7
283
     0
274
    -2
284
     1
 64
     0
275
    -2
285
     1
 65
     0
276
    -2
286
     1
 66
     0
277
    -2
287
     1
 67
     0
278
    -2
288
     1
 68
     0
279
    -2
289
     1
 69
     0
  7
Standard
140
6.0
170
     5
 62
     0
 63
     7
283
     0
274
    -2
284
     1
 64
     0
275
    -2
285
     1
 65
     0
276
    -2
286
     1
 66
     0
277
    -2
287
     1
 67
     0
278
    -2
288
     1
 68
     0
279
    -2
289
     1
 69
     0
  7
Standard
140
4.5
170
     5
 62
     0
 63
     7
283
     0
274
    -2
284
     1
 64
     0
275
    -2
285
     1
 65
     0
276
    -2
286
     1
 66
     0
277
    -2
287
     1
 67
     0
278
    -2
288
     1
 68
     0
279
    -2
289
     1
 69
     0
  0
VISUALSTYLE
  5
F5
102
{ACAD_XDICTIONARY
360
532
102
}
102
{ACAD_REACTORS
330
EF
102
}
330
EF
100
AcDbVisualStyle
  2
2dWireframe
 70
     4
 71
     0
 72
     2
 73
     1
 90
        0
 40
-0.6
 41
-30.0
 62
     5
 63
     7
421
 16777215
 74
     1
 91
        4
 64
     7
 65
   257
 75
     1
175
     1
 42
1.0
 92
        0
 66
   257
 43
1.0
 76
     1
 77
     6
 78
     2
 67
     7
 79
     5
170
     0
171
     0
290
     0
174
     0
 93
        1
 44
0.0
173
     0
291
     0
 45
0.0
1001
ACAD
1000
AcDbSavedByObjectVersion
1070
     0
  0
VISUALSTYLE
  5
F7
102
{ACAD_XDICTIONARY
360
536
102
}
102
{ACAD_REACTORS
330
EF
102
}
330
EF
100
AcDbVisualStyle
  2
3D Hidden
 70
     6
 71
     1
 72
     2
 73
     2
 90
        0
 40
-0.6
 41
-30.0
 62
     5
 63
     7
421
 16777215
 74
     2
 91
        2
 64
     7
 65
   257
 75
     2
175
     1
 42
40.0
 92
        0
 66
   257
 43
1.0
 76
     1
 77
     6
 78
     2
 67
     7
 79
     3
170
     0
171
     0
290
     0
174
     0
 93
        1
 44
0.0
173
     0
291
     0
 45
0.0
1001
ACAD
1000
AcDbSavedByObjectVersion
1070
     0
  0
VISUALSTYLE
  5
F6
102
{ACAD_XDICTIONARY
360
534
102
}
102
{ACAD_REACTORS
330
EF
102
}
330
EF
100
AcDbVisualStyle
  2
3dWireframe
 70
     5
 71
     0
 72
     2
 73
     1
 90
        0
 40
-0.6
 41
-30.0
 62
     5
 63
     7
421
 16777215
 74
     1
 91
        4
 64
     7
 65
   257
 75
     1
175
     1
 42
1.0
 92
        0
 66
   257
 43
1.0
 76
     1
 77
     6
 78
     2
 67
     7
 79
     5
170
     0
171
     0
290
     0
174
     0
 93
        1
 44
0.0
173
     0
291
     0
 45
0.0
1001
ACAD
1000
AcDbSavedByObjectVersion
1070
     0
  0
VISUALSTYLE
  5
F4
102
{ACAD_XDICTIONARY
360
530
102
}
102
{ACAD_REACTORS
330
EF
102
}
330
EF
100
AcDbVisualStyle
  2
Basic
 70
     7
 71
     1
 72
     0
 73
     1
 90
        0
 40
-0.6
 41
-30.0
 62
     5
 63
     7
421
 16777215
 74
     0
 91
        4
 64
     7
 65
   257
 75
     1
175
     1
 42
1.0
 92
        8
 66
     7
 43
1.0
 76
     1
 77
     6
 78
     2
 67
     7
 79
     5
170
     0
171
     0
290
     0
174
     0
 93
        1
 44
0.0
173
     0
291
     1
 45
0.0
1001
ACAD
1000
AcDbSavedByObjectVersion
1070
     0
  0
VISUALSTYLE
  5
FB
102
{ACAD_XDICTIONARY
360
53E
102
}
102
{ACAD_REACTORS
330
EF
102
}
330
EF
100
AcDbVisualStyle
  2
Brighten
 70
    12
 71
     2
 72
     2
 73
     1
 90
        0
 40
-0.6
 41
-30.0
 62
     5
 63
     7
421
 16777215
 74
     1
 91
        4
 64
     7
 65
   257
 75
     1
175
     1
 42
1.0
 92
        8
 66
     7
 43
1.0
 76
     1
 77
     6
 78
     2
 67
     7
 79
     5
170
     0
171
     0
290
     0
174
     0
 93
        1
 44
50.0
173
     0
291
     1
 45
0.0
1001
ACAD
1000
AcDbSavedByObjectVersion
1070
     0
  0
VISUALSTYLE
  5
FF
102
{ACAD_XDICTIONARY
360
546
102
}
102
{ACAD_REACTORS
330
EF
102
}
330
EF
100
AcDbVisualStyle
  2
ColorChange
 70
    16
 71
     2
 72
     2
 73
     3
 90
        0
 40
-0.6
 41
-30.0
 62
     5
 63
     8
421
  8421504
 74
     1
 91
        4
 64
     7
 65
   257
 75
     1
175
     1
 42
1.0
 92
        8
 66
     8
424
  8421504
 43
1.0
 76
     1
 77
     6
 78
     2
 67
     7
 79
     5
170
     0
171
     0
290
     0
174
     0
 93
        1
 44
0.0
173
     0
291
     1
 45
0.0
1001
ACAD
1000
AcDbSavedByObjectVersion
1070
     0
  0
VISUALSTYLE
  5
F8
102
{ACAD_XDICTIONARY
360
538
102
}
102
{ACAD_REACTORS
330
EF
102
}
330
EF
100
AcDbVisualStyle
  2
Conceptual
 70
     9
 71
     3
 72
     2
 73
     1
 90
        0
 40
-0.6
 41
-30.0
 62
     5
 63
     7
421
 16777215
 74
     2
 91
        2
 64
     7
 65
   257
 75
     1
175
     1
 42
40.0
 92
        8
 66
     7
 43
1.0
 76
     1
 77
     6
 78
     2
 67
     7
 79
     3
170
     0
171
     0
290
     0
174
     0
 93
        1
 44
0.0
173
     0
291
     0
 45
0.0
1001
ACAD
1000
AcDbSavedByObjectVersion
1070
     0
  0
VISUALSTYLE
  5
FA
102
{ACAD_XDICTIONARY
360
53C
102
}
102
{ACAD_REACTORS
330
EF
102
}
330
EF
100
AcDbVisualStyle
  2
Dim
 70
    11
 71
     2
 72
     2
 73
     1
 90
        0
 40
-0.6
 41
-30.0
 62
     5
 63
     7
421
 16777215
 74
     1
 91
        4
 64
     7
 65
   257
 75
     1
175
     1
 42
1.0
 92
        8
 66
     7
 43
1.0
 76
     1
 77
     6
 78
     2
 67
     7
 79
     5
170
     0
171
     0
290
     0
174
     0
 93
        1
 44
-50.0
173
     0
291
     1
 45
0.0
1001
ACAD
1000
AcDbSavedByObjectVersion
1070
     0
  0
VISUALSTYLE
  5
1E6
102
{ACAD_XDICTIONARY
360
54C
102
}
102
{ACAD_REACTORS
330
EF
102
}
330
EF
100
AcDbVisualStyle
  2
EdgeColorOff
 70
    22
 71
     2
 72
     2
 73
     0
 90
        0
 40
-0.6
 41
-30.0
 62
     5
 63
     7
421
 16777215
 74
     1
 91
        4
 64
     7
 65
   257
 75
     1
175
     1
 42
1.0
 92
        8
 66
     7
 43
1.0
 76
     1
 77
     6
 78
     2
 67
     7
 79
     5
170
     0
171
     0
290
     0
174
     0
 93
        1
 44
0.0
173
     0
291
     1
 45
0.0
1001
ACAD
1000
AcDbSavedByObjectVersion
1070
     0
  0
VISUALSTYLE
  5
FE
102
{ACAD_XDICTIONARY
360
544
102
}
102
{ACAD_REACTORS
330
EF
102
}
330
EF
100
AcDbVisualStyle
  2
Facepattern
 70
    15
 71
     2
 72
     2
 73
     1
 90
        0
 40
-0.6
 41
-30.0
 62
     5
 63
     7
421
 16777215
 74
     1
 91
        4
 64
     7
 65
   257
 75
     1
175
     1
 42
1.0
 92
        8
 66
     7
 43
1.0
 76
     1
 77
     6
 78
     2
 67
     7
 79
     5
170
     0
171
     0
290
     0
174
     0
 93
        1
 44
0.0
173
     0
291
     1
 45
0.0
1001
ACAD
1000
AcDbSavedByObjectVersion
1070
     0
  0
VISUALSTYLE
  5
F0
102
{ACAD_XDICTIONARY
360
528
102
}
102
{ACAD_REACTORS
330
EF
102
}
330
EF
100
AcDbVisualStyle
  2
Flat
 70
     0
 71
     2
 72
     1
 73
     1
 90
        2
 40
-0.6
 41
30.0
 62
     5
 63
     7
421
 16777215
 74
     0
 91
        4
 64
     7
 65
   257
 75
     1
175
     1
 42
1.0
 92
        8
 66
     7
 43
1.0
 76
     1
 77
     6
 78
     2
 67
     7
 79
     5
170
     0
171
     0
290
     0
174
     0
 93
        1
 44
0.0
173
     0
291
     1
 45
0.0
1001
ACAD
1000
AcDbSavedByObjectVersion
1070
     0
  0
VISUALSTYLE
  5
F1
102
{ACAD_XDICTIONARY
360
52A
102
}
102
{ACAD_REACTORS
330
EF
102
}
330
EF
100
AcDbVisualStyle
  2
FlatWithEdges
 70
     1
 71
     2
 72
     1
 73
     1
 90
        2
 40
-0.6
 41
30.0
 62
     5
 63
     7
421
 16777215
 74
     1
 91
        4
 64
     7
 65
   257
 75
     1
175
     1
 42
1.0
 92
        0
 66
   257
 43
1.0
 76
     1
 77
     6
 78
     2
 67
     7
 79
     5
170
     0
171
     0
290
     0
174
     0
 93
        1
 44
0.0
173
     0
291
     1
 45
0.0
1001
ACAD
1000
AcDbSavedByObjectVersion
1070
     0
  0
VISUALSTYLE
  5
F2
102
{ACAD_XDICTIONARY
360
52C
102
}
102
{ACAD_REACTORS
330
EF
102
}
330
EF
100
AcDbVisualStyle
  2
Gouraud
 70
     2
 71
     2
 72
     2
 73
     1
 90
        2
 40
-0.6
 41
30.0
 62
     5
 63
     7
421
 16777215
 74
     0
 91
        4
 64
     7
 65
   257
 75
     1
175
     1
 42
1.0
 92
        0
 66
     7
 43
1.0
 76
     1
 77
     6
 78
     2
 67
     7
 79
     5
170
     0
171
     0
290
     0
174
     0
 93
        1
 44
0.0
173
     0
291
     1
 45
0.0
1001
ACAD
1000
AcDbSavedByObjectVersion
1070
     0
  0
VISUALSTYLE
  5
F3
102
{ACAD_XDICTIONARY
360
52E
102
}
102
{ACAD_REACTORS
330
EF
102
}
330
EF
100
AcDbVisualStyle
  2
GouraudWithEdges
 70
     3
 71
     2
 72
     2
 73
     1
 90
        2
 40
-0.6
 41
30.0
 62
     5
 63
     7
421
 16777215
 74
     1
 91
        4
 64
     7
 65
   257
 75
     1
175
     1
 42
1.0
 92
        0
 66
   257
 43
1.0
 76
     1
 77
     6
 78
     2
 67
     7
 79
     5
170
     0
171
     0
290
     0
174
     0
 93
        1
 44
0.0
173
     0
291
     1
 45
0.0
1001
ACAD
1000
AcDbSavedByObjectVersion
1070
     0
  0
VISUALSTYLE
  5
1E4
102
{ACAD_XDICTIONARY
360
548
102
}
102
{ACAD_REACTORS
330
EF
102
}
330
EF
100
AcDbVisualStyle
  2
JitterOff
 70
    20
 71
     2
 72
     2
 73
     0
 90
        0
 40
-0.6
 41
-30.0
 62
     5
 63
     7
421
 16777215
 74
     1
 91
        4
 64
     7
 65
   257
 75
     1
175
     1
 42
1.0
 92
       10
 66
     7
 43
1.0
 76
     1
 77
     6
 78
     2
 67
     7
 79
     5
170
     0
171
     0
290
     0
174
     0
 93
        1
 44
0.0
173
     0
291
     1
 45
0.0
1001
ACAD
1000
AcDbSavedByObjectVersion
1070
     0
  0
VISUALSTYLE
  5
FD
102
{ACAD_XDICTIONARY
360
542
102
}
102
{ACAD_REACTORS
330
EF
102
}
330
EF
100
AcDbVisualStyle
  2
Linepattern
 70
    14
 71
     2
 72
     2
 73
     1
 90
        0
 40
-0.6
 41
-30.0
 62
     5
 63
     7
421
 16777215
 74
     1
 91
        4
 64
     7
 65
   257
 75
     7
175
     7
 42
1.0
 92
        8
 66
     7
 43
1.0
 76
     1
 77
     6
 78
     2
 67
     7
 79
     5
170
     0
171
     0
290
     0
174
     0
 93
        1
 44
0.0
173
     0
291
     1
 45
0.0
1001
ACAD
1000
AcDbSavedByObjectVersion
1070
     0
  0
VISUALSTYLE
  5
1E5
102
{ACAD_XDICTIONARY
360
54A
102
}
102
{ACAD_REACTORS
330
EF
102
}
330
EF
100
AcDbVisualStyle
  2
OverhangOff
 70
    21
 71
     2
 72
     2
 73
     0
 90
        0
 40
-0.6
 41
-30.0
 62
     5
 63
     7
421
 16777215
 74
     1
 91
        4
 64
     7
 65
   257
 75
     1
175
     1
 42
1.0
 92
        9
 66
     7
 43
1.0
 76
     1
 77
     6
 78
     2
 67
     7
 79
     5
170
     0
171
     0
290
     0
174
     0
 93
        1
 44
0.0
173
     0
291
     1
 45
0.0
1001
ACAD
1000
AcDbSavedByObjectVersion
1070
     0
  0
VISUALSTYLE
  5
F9
102
{ACAD_XDICTIONARY
360
53A
102
}
102
{ACAD_REACTORS
330
EF
102
}
330
EF
100
AcDbVisualStyle
  2
Realistic
 70
     8
 71
     2
 72
     2
 73
     1
 90
        0
 40
-0.6
 41
-30.0
 62
     5
 63
     7
421
 16777215
 74
     1
 91
        0
 64
     7
 65
   257
 75
     1
175
     1
 42
1.0
 92
        8
 66
     8
424
  7895160
 43
1.0
 76
     1
 77
     6
 78
     2
 67
     7
 79
     5
170
     0
171
     0
290
     0
174
     0
 93
       13
 44
0.0
173
     0
291
     0
 45
0.0
1001
ACAD
1000
AcDbSavedByObjectVersion
1070
     0
  0
VISUALSTYLE
  5
FC
102
{ACAD_XDICTIONARY
360
540
102
}
102
{ACAD_REACTORS
330
EF
102
}
330
EF
100
AcDbVisualStyle
  2
Thicken
 70
    13
 71
     2
 72
     2
 73
     1
 90
        0
 40
-0.6
 41
-30.0
 62
     5
 63
     7
421
 16777215
 74
     1
 91
        4
 64
     7
 65
   257
 75
     1
175
     1
 42
1.0
 92
       12
 66
     7
 43
1.0
 76
     1
 77
     6
 78
     2
 67
     7
 79
     5
170
     0
171
     0
290
     0
174
     0
 93
        1
 44
0.0
173
     0
291
     1
 45
0.0
1001
ACAD
1000
AcDbSavedByObjectVersion
1070
     0
  0
DICTIONARYVAR
  5
146
102
{ACAD_REACTORS
330
5E
102
}
330
5E
100
DictionaryVariables
280
     0
  1
1:1
  0
DICTIONARYVAR
  5
145
102
{ACAD_REACTORS
330
5E
102
}
330
5E
100
DictionaryVariables
280
     0
  1
STANDARD
  0
DICTIONARYVAR
  5
84
102
{ACAD_REACTORS
330
5E
102
}
330
5E
100
DictionaryVariables
280
     0
  1
STANDARD
  0
DICTIONARYVAR
  5
5F
102
{ACAD_REACTORS
330
5E
102
}
330
5E
100
DictionaryVariables
280
     0
  1
2
  0
DICTIONARYVAR
  5
63
102
{ACAD_REACTORS
330
5E
102
}
330
5E
100
DictionaryVariables
280
     0
  1
1
  0
DICTIONARYVAR
  5
1AE
102
{ACAD_REACTORS
330
5E
102
}
330
5E
100
DictionaryVariables
280
     0
  1
0
  0
DICTIONARYVAR
  5
1AF
102
{ACAD_REACTORS
330
5E
102
}
330
5E
100
DictionaryVariables
280
     0
  1
0
  0
DICTIONARYVAR
  5
51C
102
{ACAD_REACTORS
330
5E
102
}
330
5E
100
DictionaryVariables
280
     0
  1
2
  0
DICTIONARYVAR
  5
51B
102
{ACAD_REACTORS
330
5E
102
}
330
5E
100
DictionaryVariables
280
     0
  1
1
  0
DICTIONARYVAR
  5
51E
102
{ACAD_REACTORS
330
5E
102
}
330
5E
100
DictionaryVariables
280
     0
  1
80.000000
  0
DICTIONARYVAR
  5
51D
102
{ACAD_REACTORS
330
5E
102
}
330
5E
100
DictionaryVariables
280
     0
  1
5.000000
  0
DICTIONARYVAR
  5
51F
102
{ACAD_REACTORS
330
5E
102
}
330
5E
100
DictionaryVariables
280
     0
  1
2
  0
DICTIONARY
  5
525
330
ED
100
AcDbDictionary
280
     1
281
     1
  3
ACAD_XREC_ROUNDTRIP
360
526
  0
DICTIONARY
  5
523
330
EC
100
AcDbDictionary
280
     1
281
     1
  3
ACAD_XREC_ROUNDTRIP
360
524
  0
DICTIONARY
  5
173
330
EE
100
AcDbDictionary
280
     1
281
     1
  3
ACAD_XREC_ROUNDTRIP
360
527
  3
BUMPTILE
360
175
  3
DIFFUSETILE
360
174
  3
OPACITYTILE
360
176
  3
REFLECTIONTILE
360
177
  0
DICTIONARY
  5
162
330
7F
100
AcDbDictionary
280
     1
281
     1
  3
ACAD_ROUNDTRIP_2008_TABLESTYLE_CELLSTYLEMAP
360
520
  3
ACAD_XREC_ROUNDTRIP
360
522
  0
DICTIONARY
  5
532
330
F5
100
AcDbDictionary
280
     1
281
     1
  3
ACAD_XREC_ROUNDTRIP
360
533
  0
DICTIONARY
  5
536
330
F7
100
AcDbDictionary
280
     1
281
     1
  3
ACAD_XREC_ROUNDTRIP
360
537
  0
DICTIONARY
  5
534
330
F6
100
AcDbDictionary
280
     1
281
     1
  3
ACAD_XREC_ROUNDTRIP
360
535
  0
DICTIONARY
  5
530
330
F4
100
AcDbDictionary
280
     1
281
     1
  3
ACAD_XREC_ROUNDTRIP
360
531
  0
DICTIONARY
  5
53E
330
FB
100
AcDbDictionary
280
     1
281
     1
  3
ACAD_XREC_ROUNDTRIP
360
53F
  0
DICTIONARY
  5
546
330
FF
100
AcDbDictionary
280
     1
281
     1
  3
ACAD_XREC_ROUNDTRIP
360
547
  0
DICTIONARY
  5
538
330
F8
100
AcDbDictionary
280
     1
281
     1
  3
ACAD_XREC_ROUNDTRIP
360
539
  0
DICTIONARY
  5
53C
330
FA
100
AcDbDictionary
280
     1
281
     1
  3
ACAD_XREC_ROUNDTRIP
360
53D
  0
DICTIONARY
  5
54C
330
1E6
100
AcDbDictionary
280
     1
281
     1
  3
ACAD_XREC_ROUNDTRIP
360
54D
  0
DICTIONARY
  5
544
330
FE
100
AcDbDictionary
280
     1
281
     1
  3
ACAD_XREC_ROUNDTRIP
360
545
  0
DICTIONARY
  5
528
330
F0
100
AcDbDictionary
280
     1
281
     1
  3
ACAD_XREC_ROUNDTRIP
360
529
  0
DICTIONARY
  5
52A
330
F1
100
AcDbDictionary
280
     1
281
     1
  3
ACAD_XREC_ROUNDTRIP
360
52B
  0
DICTIONARY
  5
52C
330
F2
100
AcDbDictionary
280
     1
281
     1
  3
ACAD_XREC_ROUNDTRIP
360
52D
  0
DICTIONARY
  5
52E
330
F3
100
AcDbDictionary
280
     1
281
     1
  3
ACAD_XREC_ROUNDTRIP
360
52F
  0
DICTIONARY
  5
548
330
1E4
100
AcDbDictionary
280
     1
281
     1
  3
ACAD_XREC_ROUNDTRIP
360
549
  0
DICTIONARY
  5
542
330
FD
100
AcDbDictionary
280
     1
281
     1
  3
ACAD_XREC_ROUNDTRIP
360
543
  0
DICTIONARY
  5
54A
330
1E5
100
AcDbDictionary
280
     1
281
     1
  3
ACAD_XREC_ROUNDTRIP
360
54B
  0
DICTIONARY
  5
53A
330
F9
100
AcDbDictionary
280
     1
281
     1
  3
ACAD_XREC_ROUNDTRIP
360
53B
  0
DICTIONARY
  5
540
330
FC
100
AcDbDictionary
280
     1
281
     1
  3
ACAD_XREC_ROUNDTRIP
360
541
  0
XRECORD
  5
526
102
{ACAD_REACTORS
330
525
102
}
330
525
100
AcDbXrecord
280
     1
102
MATERIAL
148
0.0
149
0.0
149
0.0
 93
        0
 94
       63
282
     0
 72
     1
 77
     1
171
     1
175
     1
179
     1
273
     0
  0
XRECORD
  5
524
102
{ACAD_REACTORS
330
523
102
}
330
523
100
AcDbXrecord
280
     1
102
MATERIAL
148
0.0
149
0.0
149
0.0
 93
        0
 94
       63
282
     0
 72
     1
 77
     1
171
     1
175
     1
179
     1
273
     0
  0
XRECORD
  5
527
102
{ACAD_REACTORS
330
173
102
}
330
173
100
AcDbXrecord
280
     1
102
MATERIAL
148
0.0
149
0.0
149
0.0
 93
        0
 94
       63
282
     0
 72
     1
 77
     1
171
     1
175
     1
179
     1
273
     0
  0
XRECORD
  5
175
102
{ACAD_REACTORS
330
173
102
}
330
173
100
AcDbXrecord
280
     1
270
     1
271
     1
  0
XRECORD
  5
174
102
{ACAD_REACTORS
330
173
102
}
330
173
100
AcDbXrecord
280
     1
270
     1
271
     1
  0
XRECORD
  5
176
102
{ACAD_REACTORS
330
173
102
}
330
173
100
AcDbXrecord
280
     1
270
     1
271
     1
  0
XRECORD
  5
177
102
{ACAD_REACTORS
330
173
102
}
330
173
100
AcDbXrecord
280
     1
270
     1
271
     1
  0
CELLSTYLEMAP
  5
520
102
{ACAD_REACTORS
330
162
102
}
330
162
100
AcDbCellStyleMap
 90
        3
300
CELLSTYLE
  1
TABLEFORMAT_BEGIN
 90
        5
170
     1
 91
        0
 92
    32768
 62
   257
 93
        1
300
CONTENTFORMAT
  1
CONTENTFORMAT_BEGIN
 90
        0
 91
        0
 92
      512
 93
        0
300

 40
0.0
140
1.0
 94
        5
 62
     0
340
11
144
6.0
309
CONTENTFORMAT_END
171
     1
301
MARGIN
  1
CELLMARGIN_BEGIN
 40
1.5
 40
1.5
 40
1.5
 40
1.5
 40
4.5
 40
4.5
309
CELLMARGIN_END
 94
        6
 95
        1
302
GRIDFORMAT
  1
GRIDFORMAT_BEGIN
 90
        0
 91
        1
 62
     0
 92
       -2
340
14
 93
        0
 40
1.125
309
GRIDFORMAT_END
 95
        2
302
GRIDFORMAT
  1
GRIDFORMAT_BEGIN
 90
        0
 91
        1
 62
     0
 92
       -2
340
14
 93
        0
 40
1.125
309
GRIDFORMAT_END
 95
        4
302
GRIDFORMAT
  1
GRIDFORMAT_BEGIN
 90
        0
 91
        1
 62
     0
 92
       -2
340
14
 93
        0
 40
1.125
309
GRIDFORMAT_END
 95
        8
302
GRIDFORMAT
  1
GRIDFORMAT_BEGIN
 90
        0
 91
        1
 62
     0
 92
       -2
340
14
 93
        0
 40
1.125
309
GRIDFORMAT_END
 95
       16
302
GRIDFORMAT
  1
GRIDFORMAT_BEGIN
 90
        0
 91
        1
 62
     0
 92
       -2
340
14
 93
        0
 40
1.125
309
GRIDFORMAT_END
 95
       32
302
GRIDFORMAT
  1
GRIDFORMAT_BEGIN
 90
        0
 91
        1
 62
     0
 92
       -2
340
14
 93
        0
 40
1.125
309
GRIDFORMAT_END
309
TABLEFORMAT_END
  1
CELLSTYLE_BEGIN
 90
        1
 91
        1
300
_TITLE
309
CELLSTYLE_END
300
CELLSTYLE
  1
TABLEFORMAT_BEGIN
 90
        5
170
     1
 91
        0
 92
        0
 62
   257
 93
        1
300
CONTENTFORMAT
  1
CONTENTFORMAT_BEGIN
 90
        0
 91
        0
 92
      512
 93
        0
300

 40
0.0
140
1.0
 94
        5
 62
     0
340
11
144
4.5
309
CONTENTFORMAT_END
171
     1
301
MARGIN
  1
CELLMARGIN_BEGIN
 40
1.5
 40
1.5
 40
1.5
 40
1.5
 40
4.5
 40
4.5
309
CELLMARGIN_END
 94
        6
 95
        1
302
GRIDFORMAT
  1
GRIDFORMAT_BEGIN
 90
        0
 91
        1
 62
     0
 92
       -2
340
14
 93
        0
 40
1.125
309
GRIDFORMAT_END
 95
        2
302
GRIDFORMAT
  1
GRIDFORMAT_BEGIN
 90
        0
 91
        1
 62
     0
 92
       -2
340
14
 93
        0
 40
1.125
309
GRIDFORMAT_END
 95
        4
302
GRIDFORMAT
  1
GRIDFORMAT_BEGIN
 90
        0
 91
        1
 62
     0
 92
       -2
340
14
 93
        0
 40
1.125
309
GRIDFORMAT_END
 95
        8
302
GRIDFORMAT
  1
GRIDFORMAT_BEGIN
 90
        0
 91
        1
 62
     0
 92
       -2
340
14
 93
        0
 40
1.125
309
GRIDFORMAT_END
 95
       16
302
GRIDFORMAT
  1
GRIDFORMAT_BEGIN
 90
        0
 91
        1
 62
     0
 92
       -2
340
14
 93
        0
 40
1.125
309
GRIDFORMAT_END
 95
       32
302
GRIDFORMAT
  1
GRIDFORMAT_BEGIN
 90
        0
 91
        1
 62
     0
 92
       -2
340
14
 93
        0
 40
1.125
309
GRIDFORMAT_END
309
TABLEFORMAT_END
  1
CELLSTYLE_BEGIN
 90
        2
 91
        1
300
_HEADER
309
CELLSTYLE_END
300
CELLSTYLE
  1
TABLEFORMAT_BEGIN
 90
        5
170
     1
 91
        0
 92
        0
 62
   257
 93
        1
300
CONTENTFORMAT
  1
CONTENTFORMAT_BEGIN
 90
        0
 91
        0
 92
      512
 93
        0
300

 40
0.0
140
1.0
 94
        2
 62
     0
340
11
144
4.5
309
CONTENTFORMAT_END
171
     1
301
MARGIN
  1
CELLMARGIN_BEGIN
 40
1.5
 40
1.5
 40
1.5
 40
1.5
 40
4.5
 40
4.5
309
CELLMARGIN_END
 94
        6
 95
        1
302
GRIDFORMAT
  1
GRIDFORMAT_BEGIN
 90
        0
 91
        1
 62
     0
 92
       -2
340
14
 93
        0
 40
1.125
309
GRIDFORMAT_END
 95
        2
302
GRIDFORMAT
  1
GRIDFORMAT_BEGIN
 90
        0
 91
        1
 62
     0
 92
       -2
340
14
 93
        0
 40
1.125
309
GRIDFORMAT_END
 95
        4
302
GRIDFORMAT
  1
GRIDFORMAT_BEGIN
 90
        0
 91
        1
 62
     0
 92
       -2
340
14
 93
        0
 40
1.125
309
GRIDFORMAT_END
 95
        8
302
GRIDFORMAT
  1
GRIDFORMAT_BEGIN
 90
        0
 91
        1
 62
     0
 92
       -2
340
14
 93
        0
 40
1.125
309
GRIDFORMAT_END
 95
       16
302
GRIDFORMAT
  1
GRIDFORMAT_BEGIN
 90
        0
 91
        1
 62
     0
 92
       -2
340
14
 93
        0
 40
1.125
309
GRIDFORMAT_END
 95
       32
302
GRIDFORMAT
  1
GRIDFORMAT_BEGIN
 90
        0
 91
        1
 62
     0
 92
       -2
340
14
 93
        0
 40
1.125
309
GRIDFORMAT_END
309
TABLEFORMAT_END
  1
CELLSTYLE_BEGIN
 90
        3
 91
        2
300
_DATA
309
CELLSTYLE_END
  0
XRECORD
  5
522
102
{ACAD_REACTORS
330
162
102
}
330
162
100
AcDbXrecord
280
     1
102
ACAD_ROUNDTRIP_PRE2007_TABLESTYLE
 90
      512
 91
        0
  1

 92
      512
 93
        0
  2

 94
      512
 95
        0
  3

  0
XRECORD
  5
533
102
{ACAD_REACTORS
330
532
102
}
330
532
100
AcDbXrecord
280
     1
102
RTVSPropertyOp0
 70
     1
102
RTVSPropertyOp1
 70
     1
102
RTVSPropertyOp2
 70
     1
102
RTVSPropertyOp3
 70
     1
102
RTVSPropertyOp4
 70
     1
102
RTVSPropertyOp5
 70
     1
102
RTVSPropertyOp6
 70
     1
102
RTVSPropertyOp7
 70
     1
102
RTVSPropertyOp8
 70
     1
102
RTVSPropertyOp9
 70
     1
102
RTVSPropertyOp10
 70
     1
102
RTVSPropertyOp11
 70
     1
102
RTVSPropertyOp12
 70
     1
102
RTVSPropertyOp13
 70
     1
102
RTVSPropertyOp14
 70
     1
102
RTVSPropertyOp15
 70
     1
102
RTVSPropertyOp16
 70
     1
102
RTVSPropertyOp17
 70
     1
102
RTVSPropertyOp18
 70
     1
102
RTVSPropertyOp19
 70
     1
102
RTVSPropertyOp20
 70
     1
102
RTVSPropertyOp21
 70
     1
102
RTVSPropertyOp22
 70
     1
102
RTVSPropertyOp23
 70
     1
102
RTVSPropertyOp24
 70
     1
102
RTVSPropertyOp25
 70
     1
102
RTVSPropertyOp26
 70
     1
102
RTVSPropertyOp27
 70
     1
  0
XRECORD
  5
537
102
{ACAD_REACTORS
330
536
102
}
330
536
100
AcDbXrecord
280
     1
102
RTVSPropertyOp0
 70
     1
102
RTVSPropertyOp1
 70
     1
102
RTVSPropertyOp2
 70
     1
102
RTVSPropertyOp3
 70
     1
102
RTVSPropertyOp4
 70
     1
102
RTVSPropertyOp5
 70
     1
102
RTVSPropertyOp6
 70
     1
102
RTVSPropertyOp7
 70
     1
102
RTVSPropertyOp8
 70
     1
102
RTVSPropertyOp9
 70
     1
102
RTVSPropertyOp10
 70
     1
102
RTVSPropertyOp11
 70
     1
102
RTVSPropertyOp12
 70
     1
102
RTVSPropertyOp13
 70
     1
102
RTVSPropertyOp14
 70
     1
102
RTVSPropertyOp15
 70
     1
102
RTVSPropertyOp16
 70
     1
102
RTVSPropertyOp17
 70
     1
102
RTVSPropertyOp18
 70
     1
102
RTVSPropertyOp19
 70
     1
102
RTVSPropertyOp20
 70
     1
102
RTVSPropertyOp21
 70
     1
102
RTVSPropertyOp22
 70
     1
102
RTVSPropertyOp23
 70
     1
102
RTVSPropertyOp24
 70
     1
102
RTVSPropertyOp25
 70
     1
102
RTVSPropertyOp26
 70
     1
102
RTVSPropertyOp27
 70
     1
  0
XRECORD
  5
535
102
{ACAD_REACTORS
330
534
102
}
330
534
100
AcDbXrecord
280
     1
102
RTVSPropertyOp0
 70
     1
102
RTVSPropertyOp1
 70
     1
102
RTVSPropertyOp2
 70
     1
102
RTVSPropertyOp3
 70
     1
102
RTVSPropertyOp4
 70
     1
102
RTVSPropertyOp5
 70
     1
102
RTVSPropertyOp6
 70
     1
102
RTVSPropertyOp7
 70
     1
102
RTVSPropertyOp8
 70
     1
102
RTVSPropertyOp9
 70
     1
102
RTVSPropertyOp10
 70
     1
102
RTVSPropertyOp11
 70
     1
102
RTVSPropertyOp12
 70
     1
102
RTVSPropertyOp13
 70
     1
102
RTVSPropertyOp14
 70
     1
102
RTVSPropertyOp15
 70
     1
102
RTVSPropertyOp16
 70
     1
102
RTVSPropertyOp17
 70
     1
102
RTVSPropertyOp18
 70
     1
102
RTVSPropertyOp19
 70
     1
102
RTVSPropertyOp20
 70
     1
102
RTVSPropertyOp21
 70
     1
102
RTVSPropertyOp22
 70
     1
102
RTVSPropertyOp23
 70
     1
102
RTVSPropertyOp24
 70
     1
102
RTVSPropertyOp25
 70
     1
102
RTVSPropertyOp26
 70
     1
102
RTVSPropertyOp27
 70
     1
  0
XRECORD
  5
531
102
{ACAD_REACTORS
330
530
102
}
330
530
100
AcDbXrecord
280
     1
102
RTVSPropertyOp0
 70
     1
102
RTVSPropertyOp1
 70
     1
102
RTVSPropertyOp2
 70
     1
102
RTVSPropertyOp3
 70
     1
102
RTVSPropertyOp4
 70
     1
102
RTVSPropertyOp5
 70
     1
102
RTVSPropertyOp6
 70
     1
102
RTVSPropertyOp7
 70
     1
102
RTVSPropertyOp8
 70
     1
102
RTVSPropertyOp9
 70
     1
102
RTVSPropertyOp10
 70
     1
102
RTVSPropertyOp11
 70
     1
102
RTVSPropertyOp12
 70
     1
102
RTVSPropertyOp13
 70
     1
102
RTVSPropertyOp14
 70
     1
102
RTVSPropertyOp15
 70
     1
102
RTVSPropertyOp16
 70
     1
102
RTVSPropertyOp17
 70
     1
102
RTVSPropertyOp18
 70
     1
102
RTVSPropertyOp19
 70
     1
102
RTVSPropertyOp20
 70
     1
102
RTVSPropertyOp21
 70
     1
102
RTVSPropertyOp22
 70
     1
102
RTVSPropertyOp23
 70
     1
102
RTVSPropertyOp24
 70
     1
102
RTVSPropertyOp25
 70
     1
102
RTVSPropertyOp26
 70
     1
102
RTVSPropertyOp27
 70
     1
  0
XRECORD
  5
53F
102
{ACAD_REACTORS
330
53E
102
}
330
53E
100
AcDbXrecord
280
     1
102
RTVSPropertyOp0
 70
     1
102
RTVSPropertyOp1
 70
     1
102
RTVSPropertyOp2
 70
     1
102
RTVSPropertyOp3
 70
     1
102
RTVSPropertyOp4
 70
     1
102
RTVSPropertyOp5
 70
     1
102
RTVSPropertyOp6
 70
     1
102
RTVSPropertyOp7
 70
     1
102
RTVSPropertyOp8
 70
     1
102
RTVSPropertyOp9
 70
     1
102
RTVSPropertyOp10
 70
     1
102
RTVSPropertyOp11
 70
     1
102
RTVSPropertyOp12
 70
     1
102
RTVSPropertyOp13
 70
     1
102
RTVSPropertyOp14
 70
     1
102
RTVSPropertyOp15
 70
     1
102
RTVSPropertyOp16
 70
     1
102
RTVSPropertyOp17
 70
     1
102
RTVSPropertyOp18
 70
     1
102
RTVSPropertyOp19
 70
     1
102
RTVSPropertyOp20
 70
     1
102
RTVSPropertyOp21
 70
     1
102
RTVSPropertyOp22
 70
     1
102
RTVSPropertyOp23
 70
     1
102
RTVSPropertyOp24
 70
     1
102
RTVSPropertyOp25
 70
     1
102
RTVSPropertyOp26
 70
     1
102
RTVSPropertyOp27
 70
     1
  0
XRECORD
  5
547
102
{ACAD_REACTORS
330
546
102
}
330
546
100
AcDbXrecord
280
     1
102
RTVSPropertyOp0
 70
     1
102
RTVSPropertyOp1
 70
     1
102
RTVSPropertyOp2
 70
     1
102
RTVSPropertyOp3
 70
     1
102
RTVSPropertyOp4
 70
     1
102
RTVSPropertyOp5
 70
     1
102
RTVSPropertyOp6
 70
     1
102
RTVSPropertyOp7
 70
     1
102
RTVSPropertyOp8
 70
     1
102
RTVSPropertyOp9
 70
     1
102
RTVSPropertyOp10
 70
     1
102
RTVSPropertyOp11
 70
     1
102
RTVSPropertyOp12
 70
     1
102
RTVSPropertyOp13
 70
     1
102
RTVSPropertyOp14
 70
     1
102
RTVSPropertyOp15
 70
     1
102
RTVSPropertyOp16
 70
     1
102
RTVSPropertyOp17
 70
     1
102
RTVSPropertyOp18
 70
     1
102
RTVSPropertyOp19
 70
     1
102
RTVSPropertyOp20
 70
     1
102
RTVSPropertyOp21
 70
     1
102
RTVSPropertyOp22
 70
     1
102
RTVSPropertyOp23
 70
     1
102
RTVSPropertyOp24
 70
     1
102
RTVSPropertyOp25
 70
     1
102
RTVSPropertyOp26
 70
     1
102
RTVSPropertyOp27
 70
     1
  0
XRECORD
  5
539
102
{ACAD_REACTORS
330
538
102
}
330
538
100
AcDbXrecord
280
     1
102
RTVSPropertyOp0
 70
     1
102
RTVSPropertyOp1
 70
     1
102
RTVSPropertyOp2
 70
     1
102
RTVSPropertyOp3
 70
     1
102
RTVSPropertyOp4
 70
     1
102
RTVSPropertyOp5
 70
     1
102
RTVSPropertyOp6
 70
     1
102
RTVSPropertyOp7
 70
     1
102
RTVSPropertyOp8
 70
     1
102
RTVSPropertyOp9
 70
     1
102
RTVSPropertyOp10
 70
     1
102
RTVSPropertyOp11
 70
     1
102
RTVSPropertyOp12
 70
     1
102
RTVSPropertyOp13
 70
     1
102
RTVSPropertyOp14
 70
     1
102
RTVSPropertyOp15
 70
     1
102
RTVSPropertyOp16
 70
     1
102
RTVSPropertyOp17
 70
     1
102
RTVSPropertyOp18
 70
     1
102
RTVSPropertyOp19
 70
     1
102
RTVSPropertyOp20
 70
     1
102
RTVSPropertyOp21
 70
     1
102
RTVSPropertyOp22
 70
     1
102
RTVSPropertyOp23
 70
     1
102
RTVSPropertyOp24
 70
     1
102
RTVSPropertyOp25
 70
     1
102
RTVSPropertyOp26
 70
     1
102
RTVSPropertyOp27
 70
     1
  0
XRECORD
  5
53D
102
{ACAD_REACTORS
330
53C
102
}
330
53C
100
AcDbXrecord
280
     1
102
RTVSPropertyOp0
 70
     1
102
RTVSPropertyOp1
 70
     1
102
RTVSPropertyOp2
 70
     1
102
RTVSPropertyOp3
 70
     1
102
RTVSPropertyOp4
 70
     1
102
RTVSPropertyOp5
 70
     1
102
RTVSPropertyOp6
 70
     1
102
RTVSPropertyOp7
 70
     1
102
RTVSPropertyOp8
 70
     1
102
RTVSPropertyOp9
 70
     1
102
RTVSPropertyOp10
 70
     1
102
RTVSPropertyOp11
 70
     1
102
RTVSPropertyOp12
 70
     1
102
RTVSPropertyOp13
 70
     1
102
RTVSPropertyOp14
 70
     1
102
RTVSPropertyOp15
 70
     1
102
RTVSPropertyOp16
 70
     1
102
RTVSPropertyOp17
 70
     1
102
RTVSPropertyOp18
 70
     1
102
RTVSPropertyOp19
 70
     1
102
RTVSPropertyOp20
 70
     1
102
RTVSPropertyOp21
 70
     1
102
RTVSPropertyOp22
 70
     1
102
RTVSPropertyOp23
 70
     1
102
RTVSPropertyOp24
 70
     1
102
RTVSPropertyOp25
 70
     1
102
RTVSPropertyOp26
 70
     1
102
RTVSPropertyOp27
 70
     1
  0
XRECORD
  5
54D
102
{ACAD_REACTORS
330
54C
102
}
330
54C
100
AcDbXrecord
280
     1
102
RTVSPropertyOp0
 70
     0
102
RTVSPropertyOp1
 70
     0
102
RTVSPropertyOp2
 70
     0
102
RTVSPropertyOp3
 70
     0
102
RTVSPropertyOp4
 70
     0
102
RTVSPropertyOp5
 70
     0
102
RTVSPropertyOp6
 70
     0
102
RTVSPropertyOp7
 70
     0
102
RTVSPropertyOp8
 70
     0
102
RTVSPropertyOp9
 70
     0
102
RTVSPropertyOp10
 70
     0
102
RTVSPropertyOp11
 70
     0
102
RTVSPropertyOp12
 70
     0
102
RTVSPropertyOp13
 70
     0
102
RTVSPropertyOp14
 70
     2
102
RTVSPropertyOp15
 70
     0
102
RTVSPropertyOp16
 70
     0
102
RTVSPropertyOp17
 70
     0
102
RTVSPropertyOp18
 70
     0
102
RTVSPropertyOp19
 70
     0
102
RTVSPropertyOp20
 70
     0
102
RTVSPropertyOp21
 70
     0
102
RTVSPropertyOp22
 70
     0
102
RTVSPropertyOp23
 70
     0
102
RTVSPropertyOp24
 70
     0
102
RTVSPropertyOp25
 70
     0
102
RTVSPropertyOp26
 70
     0
102
RTVSPropertyOp27
 70
     0
  0
XRECORD
  5
545
102
{ACAD_REACTORS
330
544
102
}
330
544
100
AcDbXrecord
280
     1
102
RTVSPropertyOp0
 70
     1
102
RTVSPropertyOp1
 70
     1
102
RTVSPropertyOp2
 70
     1
102
RTVSPropertyOp3
 70
     1
102
RTVSPropertyOp4
 70
     1
102
RTVSPropertyOp5
 70
     1
102
RTVSPropertyOp6
 70
     1
102
RTVSPropertyOp7
 70
     1
102
RTVSPropertyOp8
 70
     1
102
RTVSPropertyOp9
 70
     1
102
RTVSPropertyOp10
 70
     1
102
RTVSPropertyOp11
 70
     1
102
RTVSPropertyOp12
 70
     1
102
RTVSPropertyOp13
 70
     1
102
RTVSPropertyOp14
 70
     1
102
RTVSPropertyOp15
 70
     1
102
RTVSPropertyOp16
 70
     1
102
RTVSPropertyOp17
 70
     1
102
RTVSPropertyOp18
 70
     1
102
RTVSPropertyOp19
 70
     1
102
RTVSPropertyOp20
 70
     1
102
RTVSPropertyOp21
 70
     1
102
RTVSPropertyOp22
 70
     1
102
RTVSPropertyOp23
 70
     1
102
RTVSPropertyOp24
 70
     1
102
RTVSPropertyOp25
 70
     1
102
RTVSPropertyOp26
 70
     1
102
RTVSPropertyOp27
 70
     1
  0
XRECORD
  5
529
102
{ACAD_REACTORS
330
528
102
}
330
528
100
AcDbXrecord
280
     1
102
RTVSPropertyOp0
 70
     1
102
RTVSPropertyOp1
 70
     1
102
RTVSPropertyOp2
 70
     1
102
RTVSPropertyOp3
 70
     1
102
RTVSPropertyOp4
 70
     1
102
RTVSPropertyOp5
 70
     1
102
RTVSPropertyOp6
 70
     1
102
RTVSPropertyOp7
 70
     1
102
RTVSPropertyOp8
 70
     1
102
RTVSPropertyOp9
 70
     1
102
RTVSPropertyOp10
 70
     1
102
RTVSPropertyOp11
 70
     1
102
RTVSPropertyOp12
 70
     1
102
RTVSPropertyOp13
 70
     1
102
RTVSPropertyOp14
 70
     1
102
RTVSPropertyOp15
 70
     1
102
RTVSPropertyOp16
 70
     1
102
RTVSPropertyOp17
 70
     1
102
RTVSPropertyOp18
 70
     1
102
RTVSPropertyOp19
 70
     1
102
RTVSPropertyOp20
 70
     1
102
RTVSPropertyOp21
 70
     1
102
RTVSPropertyOp22
 70
     1
102
RTVSPropertyOp23
 70
     1
102
RTVSPropertyOp24
 70
     1
102
RTVSPropertyOp25
 70
     1
102
RTVSPropertyOp26
 70
     1
102
RTVSPropertyOp27
 70
     1
  0
XRECORD
  5
52B
102
{ACAD_REACTORS
330
52A
102
}
330
52A
100
AcDbXrecord
280
     1
102
RTVSPropertyOp0
 70
     1
102
RTVSPropertyOp1
 70
     1
102
RTVSPropertyOp2
 70
     1
102
RTVSPropertyOp3
 70
     1
102
RTVSPropertyOp4
 70
     1
102
RTVSPropertyOp5
 70
     1
102
RTVSPropertyOp6
 70
     1
102
RTVSPropertyOp7
 70
     1
102
RTVSPropertyOp8
 70
     1
102
RTVSPropertyOp9
 70
     1
102
RTVSPropertyOp10
 70
     1
102
RTVSPropertyOp11
 70
     1
102
RTVSPropertyOp12
 70
     1
102
RTVSPropertyOp13
 70
     1
102
RTVSPropertyOp14
 70
     1
102
RTVSPropertyOp15
 70
     1
102
RTVSPropertyOp16
 70
     1
102
RTVSPropertyOp17
 70
     1
102
RTVSPropertyOp18
 70
     1
102
RTVSPropertyOp19
 70
     1
102
RTVSPropertyOp20
 70
     1
102
RTVSPropertyOp21
 70
     1
102
RTVSPropertyOp22
 70
     1
102
RTVSPropertyOp23
 70
     1
102
RTVSPropertyOp24
 70
     1
102
RTVSPropertyOp25
 70
     1
102
RTVSPropertyOp26
 70
     1
102
RTVSPropertyOp27
 70
     1
  0
XRECORD
  5
52D
102
{ACAD_REACTORS
330
52C
102
}
330
52C
100
AcDbXrecord
280
     1
102
RTVSPropertyOp0
 70
     1
102
RTVSPropertyOp1
 70
     1
102
RTVSPropertyOp2
 70
     1
102
RTVSPropertyOp3
 70
     1
102
RTVSPropertyOp4
 70
     1
102
RTVSPropertyOp5
 70
     1
102
RTVSPropertyOp6
 70
     1
102
RTVSPropertyOp7
 70
     1
102
RTVSPropertyOp8
 70
     1
102
RTVSPropertyOp9
 70
     1
102
RTVSPropertyOp10
 70
     1
102
RTVSPropertyOp11
 70
     1
102
RTVSPropertyOp12
 70
     1
102
RTVSPropertyOp13
 70
     1
102
RTVSPropertyOp14
 70
     1
102
RTVSPropertyOp15
 70
     1
102
RTVSPropertyOp16
 70
     1
102
RTVSPropertyOp17
 70
     1
102
RTVSPropertyOp18
 70
     1
102
RTVSPropertyOp19
 70
     1
102
RTVSPropertyOp20
 70
     1
102
RTVSPropertyOp21
 70
     1
102
RTVSPropertyOp22
 70
     1
102
RTVSPropertyOp23
 70
     1
102
RTVSPropertyOp24
 70
     1
102
RTVSPropertyOp25
 70
     1
102
RTVSPropertyOp26
 70
     1
102
RTVSPropertyOp27
 70
     1
  0
XRECORD
  5
52F
102
{ACAD_REACTORS
330
52E
102
}
330
52E
100
AcDbXrecord
280
     1
102
RTVSPropertyOp0
 70
     1
102
RTVSPropertyOp1
 70
     1
102
RTVSPropertyOp2
 70
     1
102
RTVSPropertyOp3
 70
     1
102
RTVSPropertyOp4
 70
     1
102
RTVSPropertyOp5
 70
     1
102
RTVSPropertyOp6
 70
     1
102
RTVSPropertyOp7
 70
     1
102
RTVSPropertyOp8
 70
     1
102
RTVSPropertyOp9
 70
     1
102
RTVSPropertyOp10
 70
     1
102
RTVSPropertyOp11
 70
     1
102
RTVSPropertyOp12
 70
     1
102
RTVSPropertyOp13
 70
     1
102
RTVSPropertyOp14
 70
     1
102
RTVSPropertyOp15
 70
     1
102
RTVSPropertyOp16
 70
     1
102
RTVSPropertyOp17
 70
     1
102
RTVSPropertyOp18
 70
     1
102
RTVSPropertyOp19
 70
     1
102
RTVSPropertyOp20
 70
     1
102
RTVSPropertyOp21
 70
     1
102
RTVSPropertyOp22
 70
     1
102
RTVSPropertyOp23
 70
     1
102
RTVSPropertyOp24
 70
     1
102
RTVSPropertyOp25
 70
     1
102
RTVSPropertyOp26
 70
     1
102
RTVSPropertyOp27
 70
     1
  0
XRECORD
  5
549
102
{ACAD_REACTORS
330
548
102
}
330
548
100
AcDbXrecord
280
     1
102
RTVSPropertyOp0
 70
     0
102
RTVSPropertyOp1
 70
     0
102
RTVSPropertyOp2
 70
     0
102
RTVSPropertyOp3
 70
     0
102
RTVSPropertyOp4
 70
     0
102
RTVSPropertyOp5
 70
     0
102
RTVSPropertyOp6
 70
     0
102
RTVSPropertyOp7
 70
     0
102
RTVSPropertyOp8
 70
     0
102
RTVSPropertyOp9
 70
     0
102
RTVSPropertyOp10
 70
     0
102
RTVSPropertyOp11
 70
     0
102
RTVSPropertyOp12
 70
     0
102
RTVSPropertyOp13
 70
     0
102
RTVSPropertyOp14
 70
     2
102
RTVSPropertyOp15
 70
     0
102
RTVSPropertyOp16
 70
     0
102
RTVSPropertyOp17
 70
     0
102
RTVSPropertyOp18
 70
     0
102
RTVSPropertyOp19
 70
     0
102
RTVSPropertyOp20
 70
     0
102
RTVSPropertyOp21
 70
     0
102
RTVSPropertyOp22
 70
     0
102
RTVSPropertyOp23
 70
     0
102
RTVSPropertyOp24
 70
     0
102
RTVSPropertyOp25
 70
     0
102
RTVSPropertyOp26
 70
     0
102
RTVSPropertyOp27
 70
     0
  0
XRECORD
  5
543
102
{ACAD_REACTORS
330
542
102
}
330
542
100
AcDbXrecord
280
     1
102
RTVSPropertyOp0
 70
     1
102
RTVSPropertyOp1
 70
     1
102
RTVSPropertyOp2
 70
     1
102
RTVSPropertyOp3
 70
     1
102
RTVSPropertyOp4
 70
     1
102
RTVSPropertyOp5
 70
     1
102
RTVSPropertyOp6
 70
     1
102
RTVSPropertyOp7
 70
     1
102
RTVSPropertyOp8
 70
     1
102
RTVSPropertyOp9
 70
     1
102
RTVSPropertyOp10
 70
     1
102
RTVSPropertyOp11
 70
     1
102
RTVSPropertyOp12
 70
     1
102
RTVSPropertyOp13
 70
     1
102
RTVSPropertyOp14
 70
     1
102
RTVSPropertyOp15
 70
     1
102
RTVSPropertyOp16
 70
     1
102
RTVSPropertyOp17
 70
     1
102
RTVSPropertyOp18
 70
     1
102
RTVSPropertyOp19
 70
     1
102
RTVSPropertyOp20
 70
     1
102
RTVSPropertyOp21
 70
     1
102
RTVSPropertyOp22
 70
     1
102
RTVSPropertyOp23
 70
     1
102
RTVSPropertyOp24
 70
     1
102
RTVSPropertyOp25
 70
     1
102
RTVSPropertyOp26
 70
     1
102
RTVSPropertyOp27
 70
     1
  0
XRECORD
  5
54B
102
{ACAD_REACTORS
330
54A
102
}
330
54A
100
AcDbXrecord
280
     1
102
RTVSPropertyOp0
 70
     0
102
RTVSPropertyOp1
 70
     0
102
RTVSPropertyOp2
 70
     0
102
RTVSPropertyOp3
 70
     0
102
RTVSPropertyOp4
 70
     0
102
RTVSPropertyOp5
 70
     0
102
RTVSPropertyOp6
 70
     0
102
RTVSPropertyOp7
 70
     0
102
RTVSPropertyOp8
 70
     0
102
RTVSPropertyOp9
 70
     0
102
RTVSPropertyOp10
 70
     0
102
RTVSPropertyOp11
 70
     0
102
RTVSPropertyOp12
 70
     0
102
RTVSPropertyOp13
 70
     0
102
RTVSPropertyOp14
 70
     2
102
RTVSPropertyOp15
 70
     0
102
RTVSPropertyOp16
 70
     0
102
RTVSPropertyOp17
 70
     0
102
RTVSPropertyOp18
 70
     0
102
RTVSPropertyOp19
 70
     0
102
RTVSPropertyOp20
 70
     0
102
RTVSPropertyOp21
 70
     0
102
RTVSPropertyOp22
 70
     0
102
RTVSPropertyOp23
 70
     0
102
RTVSPropertyOp24
 70
     0
102
RTVSPropertyOp25
 70
     0
102
RTVSPropertyOp26
 70
     0
102
RTVSPropertyOp27
 70
     0
  0
XRECORD
  5
53B
102
{ACAD_REACTORS
330
53A
102
}
330
53A
100
AcDbXrecord
280
     1
102
RTVSPropertyOp0
 70
     1
102
RTVSPropertyOp1
 70
     1
102
RTVSPropertyOp2
 70
     1
102
RTVSPropertyOp3
 70
     1
102
RTVSPropertyOp4
 70
     1
102
RTVSPropertyOp5
 70
     1
102
RTVSPropertyOp6
 70
     1
102
RTVSPropertyOp7
 70
     1
102
RTVSPropertyOp8
 70
     1
102
RTVSPropertyOp9
 70
     1
102
RTVSPropertyOp10
 70
     1
102
RTVSPropertyOp11
 70
     1
102
RTVSPropertyOp12
 70
     1
102
RTVSPropertyOp13
 70
     1
102
RTVSPropertyOp14
 70
     1
102
RTVSPropertyOp15
 70
     1
102
RTVSPropertyOp16
 70
     1
102
RTVSPropertyOp17
 70
     1
102
RTVSPropertyOp18
 70
     1
102
RTVSPropertyOp19
 70
     1
102
RTVSPropertyOp20
 70
     1
102
RTVSPropertyOp21
 70
     1
102
RTVSPropertyOp22
 70
     1
102
RTVSPropertyOp23
 70
     1
102
RTVSPropertyOp24
 70
     1
102
RTVSPropertyOp25
 70
     1
102
RTVSPropertyOp26
 70
     1
102
RTVSPropertyOp27
 70
     1
  0
XRECORD
  5
541
102
{ACAD_REACTORS
330
540
102
}
330
540
100
AcDbXrecord
280
     1
102
RTVSPropertyOp0
 70
     1
102
RTVSPropertyOp1
 70
     1
102
RTVSPropertyOp2
 70
     1
102
RTVSPropertyOp3
 70
     1
102
RTVSPropertyOp4
 70
     1
102
RTVSPropertyOp5
 70
     1
102
RTVSPropertyOp6
 70
     1
102
RTVSPropertyOp7
 70
     1
102
RTVSPropertyOp8
 70
     1
102
RTVSPropertyOp9
 70
     1
102
RTVSPropertyOp10
 70
     1
102
RTVSPropertyOp11
 70
     1
102
RTVSPropertyOp12
 70
     1
102
RTVSPropertyOp13
 70
     1
102
RTVSPropertyOp14
 70
     1
102
RTVSPropertyOp15
 70
     1
102
RTVSPropertyOp16
 70
     1
102
RTVSPropertyOp17
 70
     1
102
RTVSPropertyOp18
 70
     1
102
RTVSPropertyOp19
 70
     1
102
RTVSPropertyOp20
 70
     1
102
RTVSPropertyOp21
 70
     1
102
RTVSPropertyOp22
 70
     1
102
RTVSPropertyOp23
 70
     1
102
RTVSPropertyOp24
 70
     1
102
RTVSPropertyOp25
 70
     1
102
RTVSPropertyOp26
 70
     1
102
RTVSPropertyOp27
 70
     1
  0
ENDSEC
  0
EOF
