  0
SECTION
  2
HEADER
  9
$ACADVER
  1
AC1018
  9
$ACADMAINTVER
 70
   104
  9
$DWGCODEPAGE
  3
ANSI_1252
  9
$LASTSAVEDBY
  1
a06741
  9
$INSBASE
 10
0.0
 20
0.0
 30
0.0
  9
$EXTMIN
 10
1607.48769913001
 20
824.9461548327982
 30
0.0
  9
$EXTMAX
 10
1726.968680764991
 20
932.4422980678486
 30
0.0
  9
$LIMMIN
 10
0.0
 20
0.0
  9
$LIMMAX
 10
420.0
 20
297.0
  9
$ORTHOMODE
 70
     0
  9
$REGENMODE
 70
     1
  9
$FILLMODE
 70
     1
  9
$QTEXTMODE
 70
     0
  9
$MIRRTEXT
 70
     0
  9
$LTSCALE
 40
1.0
  9
$ATTMODE
 70
     1
  9
$TEXTSIZE
 40
2.5
  9
$TRACEWID
 40
1.0
  9
$TEXTSTYLE
  7
Standard
  9
$CLAYER
  8
0
  9
$CELTYPE
  6
ByLayer
  9
$CECOLOR
 62
   256
  9
$CELTSCALE
 40
1.0
  9
$DISPSILH
 70
     0
  9
$DIMSCALE
 40
1.0
  9
$DIMASZ
 40
2.5
  9
$DIMEXO
 40
0.625
  9
$DIMDLI
 40
3.75
  9
$DIMRND
 40
0.0
  9
$DIMDLE
 40
0.0
  9
$DIMEXE
 40
1.25
  9
$DIMTP
 40
0.0
  9
$DIMTM
 40
0.0
  9
$DIMTXT
 40
2.5
  9
$DIMCEN
 40
2.5
  9
$DIMTSZ
 40
0.0
  9
$DIMTOL
 70
     0
  9
$DIMLIM
 70
     0
  9
$DIMTIH
 70
     0
  9
$DIMTOH
 70
     0
  9
$DIMSE1
 70
     0
  9
$DIMSE2
 70
     0
  9
$DIMTAD
 70
     1
  9
$DIMZIN
 70
     8
  9
$DIMBLK
  1

  9
$DIMASO
 70
     1
  9
$DIMSHO
 70
     1
  9
$DIMPOST
  1

  9
$DIMAPOST
  1

  9
$DIMALT
 70
     0
  9
$DIMALTD
 70
     3
  9
$DIMALTF
 40
0.03937007874016
  9
$DIMLFAC
 40
1.0
  9
$DIMTOFL
 70
     1
  9
$DIMTVP
 40
0.0
  9
$DIMTIX
 70
     0
  9
$DIMSOXD
 70
     0
  9
$DIMSAH
 70
     0
  9
$DIMBLK1
  1

  9
$DIMBLK2
  1

  9
$DIMSTYLE
  2
ISO-25
  9
$DIMCLRD
 70
     0
  9
$DIMCLRE
 70
     0
  9
$DIMCLRT
 70
     0
  9
$DIMTFAC
 40
1.0
  9
$DIMGAP
 40
0.625
  9
$DIMJUST
 70
     0
  9
$DIMSD1
 70
     0
  9
$DIMSD2
 70
     0
  9
$DIMTOLJ
 70
     0
  9
$DIMTZIN
 70
     8
  9
$DIMALTZ
 70
     0
  9
$DIMALTTZ
 70
     0
  9
$DIMUPT
 70
     0
  9
$DIMDEC
 70
     2
  9
$DIMTDEC
 70
     2
  9
$DIMALTU
 70
     2
  9
$DIMALTTD
 70
     3
  9
$DIMTXSTY
  7
Standard
  9
$DIMAUNIT
 70
     0
  9
$DIMADEC
 70
     0
  9
$DIMALTRND
 40
0.0
  9
$DIMAZIN
 70
     0
  9
$DIMDSEP
 70
    44
  9
$DIMATFIT
 70
     3
  9
$DIMFRAC
 70
     0
  9
$DIMLDRBLK
  1

  9
$DIMLUNIT
 70
     2
  9
$DIMLWD
 70
    -2
  9
$DIMLWE
 70
    -2
  9
$DIMTMOVE
 70
     0
  9
$LUNITS
 70
     2
  9
$LUPREC
 70
     4
  9
$SKETCHINC
 40
1.0
  9
$FILLETRAD
 40
0.0
  9
$AUNITS
 70
     0
  9
$AUPREC
 70
     0
  9
$MENU
  1
.
  9
$ELEVATION
 40
0.0
  9
$PELEVATION
 40
0.0
  9
$THICKNESS
 40
0.0
  9
$LIMCHECK
 70
     0
  9
$CHAMFERA
 40
0.0
  9
$CHAMFERB
 40
0.0
  9
$CHAMFERC
 40
0.0
  9
$CHAMFERD
 40
0.0
  9
$SKPOLY
 70
     0
  9
$TDCREATE
 40
2456139.558233044
  9
$TDUCREATE
 40
2456139.474899711
  9
$TDUPDATE
 40
2456139.558576678
  9
$TDUUPDATE
 40
2456139.475243345
  9
$TDINDWG
 40
0.0003440162
  9
$TDUSRTIMER
 40
0.0003439815
  9
$USRTIMER
 70
     1
  9
$ANGBASE
 50
0.0
  9
$ANGDIR
 70
     0
  9
$PDMODE
 70
     0
  9
$PDSIZE
 40
0.0
  9
$PLINEWID
 40
0.0
  9
$SPLFRAME
 70
     0
  9
$SPLINETYPE
 70
     6
  9
$SPLINESEGS
 70
     8
  9
$HANDSEED
  5
45F
  9
$SURFTAB1
 70
     6
  9
$SURFTAB2
 70
     6
  9
$SURFTYPE
 70
     6
  9
$SURFU
 70
     6
  9
$SURFV
 70
     6
  9
$UCSBASE
  2

  9
$UCSNAME
  2

  9
$UCSORG
 10
0.0
 20
0.0
 30
0.0
  9
$UCSXDIR
 10
1.0
 20
0.0
 30
0.0
  9
$UCSYDIR
 10
0.0
 20
1.0
 30
0.0
  9
$UCSORTHOREF
  2

  9
$UCSORTHOVIEW
 70
     0
  9
$UCSORGTOP
 10
0.0
 20
0.0
 30
0.0
  9
$UCSORGBOTTOM
 10
0.0
 20
0.0
 30
0.0
  9
$UCSORGLEFT
 10
0.0
 20
0.0
 30
0.0
  9
$UCSORGRIGHT
 10
0.0
 20
0.0
 30
0.0
  9
$UCSORGFRONT
 10
0.0
 20
0.0
 30
0.0
  9
$UCSORGBACK
 10
0.0
 20
0.0
 30
0.0
  9
$PUCSBASE
  2

  9
$PUCSNAME
  2

  9
$PUCSORG
 10
0.0
 20
0.0
 30
0.0
  9
$PUCSXDIR
 10
1.0
 20
0.0
 30
0.0
  9
$PUCSYDIR
 10
0.0
 20
1.0
 30
0.0
  9
$PUCSORTHOREF
  2

  9
$PUCSORTHOVIEW
 70
     0
  9
$PUCSORGTOP
 10
0.0
 20
0.0
 30
0.0
  9
$PUCSORGBOTTOM
 10
0.0
 20
0.0
 30
0.0
  9
$PUCSORGLEFT
 10
0.0
 20
0.0
 30
0.0
  9
$PUCSORGRIGHT
 10
0.0
 20
0.0
 30
0.0
  9
$PUCSORGFRONT
 10
0.0
 20
0.0
 30
0.0
  9
$PUCSORGBACK
 10
0.0
 20
0.0
 30
0.0
  9
$USERI1
 70
     0
  9
$USERI2
 70
     0
  9
$USERI3
 70
     0
  9
$USERI4
 70
     0
  9
$USERI5
 70
     0
  9
$USERR1
 40
0.0
  9
$USERR2
 40
0.0
  9
$USERR3
 40
0.0
  9
$USERR4
 40
0.0
  9
$USERR5
 40
0.0
  9
$WORLDVIEW
 70
     1
  9
$SHADEDGE
 70
     3
  9
$SHADEDIF
 70
    70
  9
$TILEMODE
 70
     1
  9
$MAXACTVP
 70
    64
  9
$PINSBASE
 10
0.0
 20
0.0
 30
0.0
  9
$PLIMCHECK
 70
     0
  9
$PEXTMIN
 10
0.0
 20
0.0
 30
0.0
  9
$PEXTMAX
 10
0.0
 20
0.0
 30
0.0
  9
$PLIMMIN
 10
0.0
 20
0.0
  9
$PLIMMAX
 10
12.0
 20
9.0
  9
$UNITMODE
 70
     0
  9
$VISRETAIN
 70
     1
  9
$PLINEGEN
 70
     0
  9
$PSLTSCALE
 70
     1
  9
$TREEDEPTH
 70
  3020
  9
$CMLSTYLE
  2
Standard
  9
$CMLJUST
 70
     0
  9
$CMLSCALE
 40
20.0
  9
$PROXYGRAPHICS
 70
     1
  9
$MEASUREMENT
 70
     1
  9
$CELWEIGHT
370
    -1
  9
$ENDCAPS
280
     0
  9
$JOINSTYLE
280
     0
  9
$LWDISPLAY
290
     0
  9
$INSUNITS
 70
     4
  9
$HYPERLINKBASE
  1

  9
$STYLESHEET
  1

  9
$XEDIT
290
     1
  9
$CEPSNTYPE
380
     0
  9
$PSTYLEMODE
290
     1
  9
$FINGERPRINTGUID
  2
{3E2C47D8-A795-4E9D-9EAA-350486CB605A}
  9
$VERSIONGUID
  2
{142C2211-F0A7-48F1-9B5E-4DBF4801B84F}
  9
$EXTNAMES
290
     1
  9
$PSVPSCALE
 40
0.0
  9
$OLESTARTUP
290
     0
  9
$SORTENTS
280
   127
  9
$INDEXCTL
280
     0
  9
$HIDETEXT
280
     1
  9
$XCLIPFRAME
290
     0
  9
$HALOGAP
280
     0
  9
$OBSCOLOR
 70
   257
  9
$OBSLTYPE
280
     0
  9
$INTERSECTIONDISPLAY
280
     0
  9
$INTERSECTIONCOLOR
 70
   257
  9
$DIMASSOC
280
     2
  9
$PROJECTNAME
  1

  0
ENDSEC
  0
SECTION
  2
CLASSES
  0
CLASS
  1
ACDBDICTIONARYWDFLT
  2
AcDbDictionaryWithDefault
  3
ObjectDBX Classes
 90
        0
 91
        1
280
     0
281
     0
  0
CLASS
  1
DICTIONARYVAR
  2
AcDbDictionaryVar
  3
ObjectDBX Classes
 90
        0
 91
       12
280
     0
281
     0
  0
CLASS
  1
TABLESTYLE
  2
AcDbTableStyle
  3
ObjectDBX Classes
 90
     4095
 91
        1
280
     0
281
     0
  0
CLASS
  1
MATERIAL
  2
AcDbMaterial
  3
ObjectDBX Classes
 90
     1153
 91
        3
280
     0
281
     0
  0
CLASS
  1
VISUALSTYLE
  2
AcDbVisualStyle
  3
ObjectDBX Classes
 90
     4095
 91
       19
280
     0
281
     0
  0
CLASS
  1
SCALE
  2
AcDbScale
  3
ObjectDBX Classes
 90
     1153
 91
       17
280
     0
281
     0
  0
CLASS
  1
MLEADERSTYLE
  2
AcDbMLeaderStyle
  3
ACDB_MLEADERSTYLE_CLASS
 90
     4095
 91
        2
280
     0
281
     0
  0
CLASS
  1
CELLSTYLEMAP
  2
AcDbCellStyleMap
  3
ObjectDBX Classes
 90
     1152
 91
        1
280
     0
281
     0
  0
CLASS
  1
EXACXREFPANELOBJECT
  2
ExAcXREFPanelObject
  3
EXAC_ESW
 90
     1025
 91
        0
280
     0
281
     0
  0
CLASS
  1
NPOCOLLECTION
  2
AcDbImpNonPersistentObjectsCollection
  3
ObjectDBX Classes
 90
     1153
 91
        0
280
     0
281
     0
  0
CLASS
  1
LAYER_INDEX
  2
AcDbLayerIndex
  3
ObjectDBX Classes
 90
        0
 91
        0
280
     0
281
     0
  0
CLASS
  1
SPATIAL_INDEX
  2
AcDbSpatialIndex
  3
ObjectDBX Classes
 90
        0
 91
        0
280
     0
281
     0
  0
CLASS
  1
IDBUFFER
  2
AcDbIdBuffer
  3
ObjectDBX Classes
 90
        0
 91
        0
280
     0
281
     0
  0
CLASS
  1
DIMASSOC
  2
AcDbDimAssoc
  3
"AcDbDimAssoc|Product Desc:     AcDim ARX App For Dimension|Company:          Autodesk, Inc.|WEB Address:      www.autodesk.com"
 90
        0
 91
        2
280
     0
281
     0
  0
CLASS
  1
SORTENTSTABLE
  2
AcDbSortentsTable
  3
ObjectDBX Classes
 90
        0
 91
        1
280
     0
281
     0
  0
ENDSEC
  0
SECTION
  2
TABLES
  0
TABLE
  2
VPORT
  5
8
330
0
100
AcDbSymbolTable
 70
     1
  0
VPORT
  5
EA
330
8
100
AcDbSymbolTableRecord
100
AcDbViewportTableRecord
  2
*Active
 70
     0
 10
0.0
 20
0.0
 11
1.0
 21
1.0
 12
1667.2281899475
 22
878.6942264503235
 13
0.0
 23
0.0
 14
10.0
 24
10.0
 15
10.0
 25
10.0
 16
0.0
 26
0.0
 36
1.0
 17
0.0
 27
0.0
 37
0.0
 40
108.3561123809307
 41
2.132176234979973
 42
50.0
 43
0.0
 44
0.0
 50
0.0
 51
0.0
 71
     0
 72
  1000
 73
     1
 74
     3
 75
     0
 76
     0
 77
     0
 78
     0
281
     0
 65
     1
110
0.0
120
0.0
130
0.0
111
1.0
121
0.0
131
0.0
112
0.0
122
1.0
132
0.0
 79
     0
146
0.0
  0
ENDTAB
  0
TABLE
  2
LTYPE
  5
5
330
0
100
AcDbSymbolTable
 70
     1
  0
LTYPE
  5
14
330
5
100
AcDbSymbolTableRecord
100
AcDbLinetypeTableRecord
  2
ByBlock
 70
     0
  3

 72
    65
 73
     0
 40
0.0
  0
LTYPE
  5
15
330
5
100
AcDbSymbolTableRecord
100
AcDbLinetypeTableRecord
  2
ByLayer
 70
     0
  3

 72
    65
 73
     0
 40
0.0
  0
LTYPE
  5
16
330
5
100
AcDbSymbolTableRecord
100
AcDbLinetypeTableRecord
  2
Continuous
 70
     0
  3
Solid line
 72
    65
 73
     0
 40
0.0
  0
ENDTAB
  0
TABLE
  2
LAYER
  5
2
102
{ACAD_XDICTIONARY
360
219
102
}
330
0
100
AcDbSymbolTable
 70
     7
  0
LAYER
  5
10
102
{ACAD_XDICTIONARY
360
13C
102
}
330
2
100
AcDbSymbolTableRecord
100
AcDbLayerTableRecord
  2
0
 70
     0
 62
     7
  6
Continuous
370
    -3
390
F
  0
LAYER
  5
206
330
2
100
AcDbSymbolTableRecord
100
AcDbLayerTableRecord
  2
Defpoints
 70
     0
 62
     7
  6
Continuous
290
     0
370
    -3
390
F
  0
LAYER
  5
207
102
{ACAD_XDICTIONARY
360
208
102
}
330
2
100
AcDbSymbolTableRecord
100
AcDbLayerTableRecord
  2
S10_Quote
 70
     0
 62
     7
  6
Continuous
370
    -3
390
F
  0
LAYER
  5
209
102
{ACAD_XDICTIONARY
360
20A
102
}
330
2
100
AcDbSymbolTableRecord
100
AcDbLayerTableRecord
  2
S09_Testo
 70
     0
 62
     7
  6
Continuous
370
    -3
390
F
1001
AcAecLayerStandard
1000

1000

  0
LAYER
  5
20B
102
{ACAD_XDICTIONARY
360
20C
102
}
330
2
100
AcDbSymbolTableRecord
100
AcDbLayerTableRecord
  2
S08_Retino
 70
     0
 62
   252
  6
Continuous
370
    -3
390
F
  0
LAYER
  5
20D
102
{ACAD_XDICTIONARY
360
20E
102
}
330
2
100
AcDbSymbolTableRecord
100
AcDbLayerTableRecord
  2
S14_Calcestruzzo
 70
     0
 62
     3
  6
Continuous
370
    -3
390
F
  0
LAYER
  5
20F
330
2
100
AcDbSymbolTableRecord
100
AcDbLayerTableRecord
  2
Sichtbar (ISO)
 70
     0
 62
     5
  6
Continuous
370
    35
390
F
  0
ENDTAB
  0
TABLE
  2
STYLE
  5
3
330
0
100
AcDbSymbolTable
 70
     4
  0
STYLE
  5
11
330
3
100
AcDbSymbolTableRecord
100
AcDbTextStyleTableRecord
  2
Standard
 70
     0
 40
0.0
 41
1.0
 50
0.0
 71
     0
 42
2.5
  3
ARIAL.TTF
  4

1001
ACAD
1000
Arial
1071
       34
  0
STYLE
  5
132
330
3
100
AcDbSymbolTableRecord
100
AcDbTextStyleTableRecord
  2
Annotativa
 70
     0
 40
0.0
 41
1.0
 50
0.0
 71
     0
 42
2.5
  3
ARIAL.TTF
  4

1001
AcadAnnotative
1000
AnnotativeData
1002
{
1070
     1
1070
     1
1002
}
1001
ACAD
1000
Arial
1071
       34
  0
STYLE
  5
210
330
3
100
AcDbSymbolTableRecord
100
AcDbTextStyleTableRecord
  2
ROMANS
 70
     0
 40
0.0
 41
1.0
 50
0.0
 71
     0
 42
0.21
  3
ROMANS.shx
  4

  0
STYLE
  5
211
330
3
100
AcDbSymbolTableRecord
100
AcDbTextStyleTableRecord
  2
wurth
 70
     0
 40
0.0
 41
1.0
 50
0.0
 71
     0
 42
40.0
  3
WuerthBook.ttf
  4

1001
ACAD
1000
Wuerth Book
1071
        2
  0
ENDTAB
  0
TABLE
  2
VIEW
  5
6
330
0
100
AcDbSymbolTable
 70
     0
  0
ENDTAB
  0
TABLE
  2
UCS
  5
7
330
0
100
AcDbSymbolTable
 70
     0
  0
ENDTAB
  0
TABLE
  2
APPID
  5
9
330
0
100
AcDbSymbolTable
 70
    11
  0
APPID
  5
12
330
9
100
AcDbSymbolTableRecord
100
AcDbRegAppTableRecord
  2
ACAD
 70
     0
  0
APPID
  5
9E
330
9
100
AcDbSymbolTableRecord
100
AcDbRegAppTableRecord
  2
ACAD_PSEXT
 70
     0
  0
APPID
  5
133
330
9
100
AcDbSymbolTableRecord
100
AcDbRegAppTableRecord
  2
AcadAnnoPO
 70
     0
  0
APPID
  5
134
330
9
100
AcDbSymbolTableRecord
100
AcDbRegAppTableRecord
  2
AcadAnnotative
 70
     0
  0
APPID
  5
135
330
9
100
AcDbSymbolTableRecord
100
AcDbRegAppTableRecord
  2
ACAD_DSTYLE_DIMJAG
 70
     0
  0
APPID
  5
136
330
9
100
AcDbSymbolTableRecord
100
AcDbRegAppTableRecord
  2
ACAD_DSTYLE_DIMTALN
 70
     0
  0
APPID
  5
165
330
9
100
AcDbSymbolTableRecord
100
AcDbRegAppTableRecord
  2
ACAD_MLEADERVER
 70
     0
  0
APPID
  5
215
330
9
100
AcDbSymbolTableRecord
100
AcDbRegAppTableRecord
  2
AcAecLayerStandard
 70
     0
  0
APPID
  5
216
330
9
100
AcDbSymbolTableRecord
100
AcDbRegAppTableRecord
  2
AcDbDynamicBlockGUID
 70
     0
  0
APPID
  5
217
330
9
100
AcDbSymbolTableRecord
100
AcDbRegAppTableRecord
  2
AcDbBlockRepETag
 70
     0
  0
APPID
  5
218
330
9
100
AcDbSymbolTableRecord
100
AcDbRegAppTableRecord
  2
ACAD_DSTYLE_DIMBREAK
 70
     0
  0
ENDTAB
  0
TABLE
  2
DIMSTYLE
  5
A
330
0
100
AcDbSymbolTable
 70
     6
100
AcDbDimStyleTable
 71
     2
340
27
340
137
  0
DIMSTYLE
105
1B0
330
A
100
AcDbSymbolTableRecord
100
AcDbDimStyleTableRecord
  2
Standard
 70
     0
340
11
  0
DIMSTYLE
105
137
330
A
100
AcDbSymbolTableRecord
100
AcDbDimStyleTableRecord
  2
Annotativa
 70
     0
 40
0.0
 41
2.5
 42
0.625
 43
3.75
 44
1.25
 73
     0
 74
     0
 77
     1
 78
     8
140
2.5
141
2.5
143
0.03937007874016
147
0.625
171
     3
172
     1
271
     2
272
     2
274
     3
278
    44
283
     0
284
     8
340
11
1001
AcadAnnotative
1000
AnnotativeData
1002
{
1070
     1
1070
     1
1002
}
1001
ACAD_DSTYLE_DIMJAG
1070
   388
1040
1.5
1001
ACAD_DSTYLE_DIMTALN
1070
   392
1070
     0
  0
DIMSTYLE
105
27
330
A
100
AcDbSymbolTableRecord
100
AcDbDimStyleTableRecord
  2
ISO-25
 70
     0
 41
2.5
 42
0.625
 43
3.75
 44
1.25
 73
     0
 74
     0
 77
     1
 78
     8
140
2.5
141
2.5
143
0.03937007874016
147
0.625
171
     3
172
     1
271
     2
272
     2
274
     3
278
    44
283
     0
284
     8
340
11
  0
DIMSTYLE
105
212
330
A
100
AcDbSymbolTableRecord
100
AcDbDimStyleTableRecord
  2
mm 1_5
 70
     0
 40
5.0
 41
0.015
 42
0.625
 43
1.0
 44
1.25
 73
     0
 74
     0
 75
     1
 76
     1
 77
     1
 78
     8
140
2.0
141
0.5
143
0.03937007874016
147
0.8
171
     3
172
     1
174
     1
179
     2
271
     1
272
     1
274
     3
283
     0
284
     8
340
210
342
1F4
  0
DIMSTYLE
105
213
102
{ACAD_REACTORS
330
317
330
41D
102
}
330
A
100
AcDbSymbolTableRecord
100
AcDbDimStyleTableRecord
  2
mm 1_1
 70
     0
 41
0.015
 42
0.625
 43
1.0
 44
1.25
 73
     0
 74
     0
 77
     1
 78
     8
140
2.0
141
0.5
143
0.03937007874016
147
0.8
171
     3
172
     1
174
     1
179
     2
271
     2
272
     2
274
     3
283
     0
284
     8
340
211
342
1F4
1001
ACAD_DSTYLE_DIMBREAK
1070
   391
1040
3.75
1001
ACAD_DSTYLE_DIMJAG
1070
   388
1040
1.5
1001
ACAD_DSTYLE_DIMTALN
1070
   392
1070
     0
  0
DIMSTYLE
105
214
330
A
100
AcDbSymbolTableRecord
100
AcDbDimStyleTableRecord
  2
mm 1_1 x4
 70
     0
 41
0.015
 42
0.625
 43
1.0
 44
1.25
 73
     0
 74
     0
 77
     1
 78
     8
140
2.0
141
0.5
143
0.03937007874016
144
0.25
147
0.8
171
     3
172
     1
174
     1
179
     2
271
     2
272
     2
274
     3
283
     0
284
     8
340
211
342
1F4
1001
ACAD_DSTYLE_DIMBREAK
1070
   391
1040
3.75
1001
ACAD_DSTYLE_DIMJAG
1070
   388
1040
1.5
1001
ACAD_DSTYLE_DIMTALN
1070
   392
1070
     0
  0
ENDTAB
  0
TABLE
  2
BLOCK_RECORD
  5
1
330
0
100
AcDbSymbolTable
 70
     5
  0
BLOCK_RECORD
  5
1F
102
{ACAD_XDICTIONARY
360
1CE
102
}
330
1
100
AcDbSymbolTableRecord
100
AcDbBlockTableRecord
  2
*Model_Space
340
22
  0
BLOCK_RECORD
  5
D2
330
1
100
AcDbSymbolTableRecord
100
AcDbBlockTableRecord
  2
*Paper_Space
340
D3
  0
BLOCK_RECORD
  5
D6
330
1
100
AcDbSymbolTableRecord
100
AcDbBlockTableRecord
  2
*Paper_Space0
340
D7
  0
BLOCK_RECORD
  5
1F4
102
{ACAD_XDICTIONARY
360
1F5
102
}
330
1
100
AcDbSymbolTableRecord
100
AcDbBlockTableRecord
  2
A$C79C4041D
340
0
102
{BLKREFS
331
1FF
331
200
331
426
331
427
102
}
1001
AcDbDynamicBlockGUID
1000
{93BD5B1E-816B-4960-B1CC-7C46A00E0667}
1001
AcDbBlockRepETag
1070
     1
1071
        2
  0
BLOCK_RECORD
  5
1FA
330
1
100
AcDbSymbolTableRecord
100
AcDbBlockTableRecord
  2
*D2
340
0
  0
BLOCK_RECORD
  5
420
330
1
100
AcDbSymbolTableRecord
100
AcDbBlockTableRecord
  2
*D4
340
0
  0
ENDTAB
  0
ENDSEC
  0
SECTION
  2
BLOCKS
  0
BLOCK
  5
20
330
1F
100
AcDbEntity
  8
0
100
AcDbBlockBegin
  2
*Model_Space
 70
     0
 10
0.0
 20
0.0
 30
0.0
  3
*Model_Space
  1

  0
ENDBLK
  5
21
330
1F
100
AcDbEntity
  8
0
100
AcDbBlockEnd
  0
BLOCK
  5
D4
330
D2
100
AcDbEntity
 67
     1
  8
0
100
AcDbBlockBegin
  2
*Paper_Space
 70
     0
 10
0.0
 20
0.0
 30
0.0
  3
*Paper_Space
  1

  0
ENDBLK
  5
D5
330
D2
100
AcDbEntity
 67
     1
  8
0
100
AcDbBlockEnd
  0
BLOCK
  5
D8
330
D6
100
AcDbEntity
 67
     1
  8
0
100
AcDbBlockBegin
  2
*Paper_Space0
 70
     0
 10
0.0
 20
0.0
 30
0.0
  3
*Paper_Space0
  1

  0
ENDBLK
  5
D9
330
D6
100
AcDbEntity
 67
     1
  8
0
100
AcDbBlockEnd
  0
BLOCK
  5
1F6
330
1F4
100
AcDbEntity
  8
0
 62
     3
100
AcDbBlockBegin
  2
A$C79C4041D
 70
     0
 10
0.0
 20
0.0
 30
0.0
  3
A$C79C4041D
  1

  0
LINE
  5
1F7
330
1F4
100
AcDbEntity
  8
S10_Quote
 62
     4
100
AcDbLine
 10
-20.0
 20
-50.0
 30
0.0
 11
20.0
 21
50.0
 31
0.0
1001
AcDbBlockRepETag
1070
     1
1071
        0
1005
1F7
  0
LINE
  5
1F8
330
1F4
100
AcDbEntity
  8
S10_Quote
100
AcDbLine
 10
0.0
 20
50.0
 30
0.0
 11
0.0
 21
-50.0
 31
0.0
1001
AcDbBlockRepETag
1070
     1
1071
        1
1005
1F8
  0
ENDBLK
  5
1F9
330
1F4
100
AcDbEntity
  8
0
 62
     3
100
AcDbBlockEnd
  0
BLOCK
  5
1FB
330
1FA
100
AcDbEntity
  8
0
 62
     0
100
AcDbBlockBegin
  2
*D2
 70
     1
 10
0.0
 20
0.0
 30
0.0
  3
*D2
  1

  0
LINE
  5
1FC
330
1FA
100
AcDbEntity
  8
S10_Quote
 62
     0
370
    -2
100
AcDbLine
 10
1343.251245373941
 20
4956.309042936692
 30
0.0
 11
1343.251245373941
 21
4945.362021204505
 31
0.0
  0
LINE
  5
1FD
330
1FA
100
AcDbEntity
  8
S10_Quote
 62
     0
370
    -2
100
AcDbLine
 10
1363.251245373941
 20
4956.309042936692
 30
0.0
 11
1363.251245373941
 21
4945.362021204505
 31
0.0
  0
LINE
  5
1FE
330
1FA
100
AcDbEntity
  8
S10_Quote
 62
     0
370
    -2
100
AcDbLine
 10
1343.266245373941
 20
4946.612021204504
 30
0.0
 11
1363.236245373941
 21
4946.612021204504
 31
0.0
  0
INSERT
  5
1FF
330
1FA
100
AcDbEntity
  8
S10_Quote
 62
     0
370
    -2
100
AcDbBlockReference
  2
A$C79C4041D
 10
1343.251245373941
 20
4946.612021204504
 30
0.0
 41
0.015
 42
0.015
 43
0.015
 50
180.0
  0
INSERT
  5
200
330
1FA
100
AcDbEntity
  8
S10_Quote
 62
     0
370
    -2
100
AcDbBlockReference
  2
A$C79C4041D
 10
1363.251245373941
 20
4946.612021204504
 30
0.0
 41
0.015
 42
0.015
 43
0.015
  0
MTEXT
  5
201
330
1FA
100
AcDbEntity
  8
S10_Quote
 62
     0
100
AcDbMText
 10
1353.251245373941
 20
4948.427405819889
 30
0.0
 40
2.0
 41
0.0
 71
     5
 72
     1
  1
20
  7
wurth
 73
     1
 44
1.0
  0
POINT
  5
202
330
1FA
100
AcDbEntity
  8
Defpoints
 62
     0
100
AcDbPoint
 10
1343.251245373941
 20
4956.934042936692
 30
0.0
  0
POINT
  5
203
330
1FA
100
AcDbEntity
  8
Defpoints
 62
     0
100
AcDbPoint
 10
1363.251245373941
 20
4956.934042936692
 30
0.0
  0
POINT
  5
204
330
1FA
100
AcDbEntity
  8
Defpoints
 62
     0
100
AcDbPoint
 10
1363.251245373941
 20
4946.612021204504
 30
0.0
  0
ENDBLK
  5
205
330
1FA
100
AcDbEntity
  8
0
 62
     0
100
AcDbBlockEnd
  0
BLOCK
  5
421
330
420
100
AcDbEntity
  8
0
100
AcDbBlockBegin
  2
*D4
 70
     1
 10
0.0
 20
0.0
 30
0.0
  3
*D4
  1

  0
LINE
  5
423
330
420
100
AcDbEntity
  8
S10_Quote
 62
     0
370
    -2
100
AcDbLine
 10
1690.641763279042
 20
899.8936348227189
 30
0.0
 11
1690.641763279042
 21
888.9466130905312
 31
0.0
  0
LINE
  5
424
330
420
100
AcDbEntity
  8
S10_Quote
 62
     0
370
    -2
100
AcDbLine
 10
1710.641763279042
 20
899.8936348227189
 30
0.0
 11
1710.641763279042
 21
888.9466130905312
 31
0.0
  0
LINE
  5
425
330
420
100
AcDbEntity
  8
S10_Quote
 62
     0
370
    -2
100
AcDbLine
 10
1690.656763279043
 20
890.1966130905311
 30
0.0
 11
1710.626763279043
 21
890.1966130905311
 31
0.0
  0
INSERT
  5
426
330
420
100
AcDbEntity
  8
S10_Quote
 62
     0
370
    -2
100
AcDbBlockReference
  2
A$C79C4041D
 10
1690.641763279042
 20
890.1966130905311
 30
0.0
 41
0.015
 42
0.015
 43
0.015
 50
180.0
  0
INSERT
  5
427
330
420
100
AcDbEntity
  8
S10_Quote
 62
     0
370
    -2
100
AcDbBlockReference
  2
A$C79C4041D
 10
1710.641763279042
 20
890.1966130905311
 30
0.0
 41
0.015
 42
0.015
 43
0.015
  0
MTEXT
  5
428
330
420
100
AcDbEntity
  8
S10_Quote
 62
     0
100
AcDbMText
 10
1700.641763279042
 20
892.0119977059156
 30
0.0
 40
2.0
 41
0.0
 71
     5
 72
     1
  1
20
  7
wurth
 73
     1
 44
1.0
  0
POINT
  5
429
330
420
100
AcDbEntity
  8
Defpoints
 62
     0
100
AcDbPoint
 10
1690.641763279042
 20
900.5186348227189
 30
0.0
  0
POINT
  5
42A
330
420
100
AcDbEntity
  8
Defpoints
 62
     0
100
AcDbPoint
 10
1710.641763279042
 20
900.5186348227189
 30
0.0
  0
POINT
  5
42B
330
420
100
AcDbEntity
  8
Defpoints
 62
     0
100
AcDbPoint
 10
1710.641763279042
 20
890.1966130905311
 30
0.0
  0
ENDBLK
  5
422
330
420
100
AcDbEntity
  8
0
100
AcDbBlockEnd
  0
ENDSEC
  0
SECTION
  2
ENTITIES
  0
LINE
  5
322
330
1F
100
AcDbEntity
  8
Sichtbar (ISO)
100
AcDbLine
 10
1607.488748599697
 20
909.5186348227198
 30
0.0
 11
1618.747078848898
 21
916.0186348227217
 31
0.0
  0
LINE
  5
323
330
1F
100
AcDbEntity
  8
Sichtbar (ISO)
100
AcDbLine
 10
1619.588748599698
 20
914.0191012644818
 30
0.0
 11
1619.588748599698
 21
910.0191012644819
 31
0.0
  0
LINE
  5
324
330
1F
100
AcDbEntity
  8
Sichtbar (ISO)
100
AcDbLine
 10
1619.588748599698
 20
910.0191012644819
 30
0.0
 11
1621.588748599697
 21
910.0191012644819
 31
0.0
  0
LINE
  5
325
330
1F
100
AcDbEntity
  8
Sichtbar (ISO)
100
AcDbLine
 10
1621.588748599697
 20
910.0191012644819
 30
0.0
 11
1621.588748599697
 21
909.0191012644881
 31
0.0
  0
LINE
  5
326
330
1F
100
AcDbEntity
  8
Sichtbar (ISO)
100
AcDbLine
 10
1621.588748599697
 20
909.0191012644881
 30
0.0
 11
1610.488748599697
 21
909.0191012644881
 31
0.0
  0
LINE
  5
327
330
1F
100
AcDbEntity
  8
Sichtbar (ISO)
100
AcDbLine
 10
1610.488748599697
 20
909.0191012644881
 30
0.0
 11
1610.488748599697
 21
904.3191012644884
 31
0.0
  0
ARC
  5
328
330
1F
100
AcDbEntity
  8
Sichtbar (ISO)
100
AcDbCircle
 10
1610.788748599697
 20
904.3191012644884
 30
0.0
 40
0.2999999999998404
100
AcDbArc
 50
180.0
 51
314.9999999999908
  0
LINE
  5
329
330
1F
100
AcDbEntity
  8
Sichtbar (ISO)
100
AcDbLine
 10
1611.000880634053
 20
904.1069692301325
 30
0.0
 11
1611.97661656534
 21
905.0827051614197
 31
0.0
  0
ARC
  5
32A
330
1F
100
AcDbEntity
  8
Sichtbar (ISO)
100
AcDbCircle
 10
1612.188748599697
 20
904.8705731270638
 30
0.0
 40
0.3000000000000005
100
AcDbArc
 50
0.0
 51
134.9999999999908
  0
LINE
  5
32B
330
1F
100
AcDbEntity
  8
Sichtbar (ISO)
100
AcDbLine
 10
1612.488748599696
 20
904.8705731270638
 30
0.0
 11
1612.488748599696
 21
902.5259937654263
 31
0.0
  0
LINE
  5
32C
330
1F
100
AcDbEntity
  8
Sichtbar (ISO)
100
AcDbLine
 10
1612.488748599696
 20
902.5259937654263
 30
0.0
 11
1610.481389656989
 21
900.5186348227189
 31
0.0
  0
LINE
  5
32D
330
1F
100
AcDbEntity
  8
Sichtbar (ISO)
100
AcDbLine
 10
1610.481389656989
 20
900.5186348227189
 30
0.0
 11
1608.398748599697
 21
900.5186348227189
 31
0.0
  0
LINE
  5
32E
330
1F
100
AcDbEntity
  8
Sichtbar (ISO)
100
AcDbLine
 10
1608.398748599697
 20
900.5186348227189
 30
0.0
 11
1607.488748599697
 21
901.7958217755321
 31
0.0
  0
LINE
  5
32F
330
1F
100
AcDbEntity
  8
Sichtbar (ISO)
100
AcDbLine
 10
1607.488748599697
 20
901.7958217755321
 30
0.0
 11
1607.488748599697
 21
909.5186348227198
 31
0.0
  0
LINE
  5
330
330
1F
100
AcDbEntity
  8
Sichtbar (ISO)
100
AcDbLine
 10
1618.747078848898
 20
916.0186348227217
 30
0.0
 11
1633.430418350497
 21
916.0186348227197
 31
0.0
  0
LINE
  5
331
330
1F
100
AcDbEntity
  8
Sichtbar (ISO)
100
AcDbLine
 10
1633.430418350497
 20
916.0186348227197
 30
0.0
 11
1644.688748599697
 21
909.5186348227189
 31
0.0
  0
LINE
  5
332
330
1F
100
AcDbEntity
  8
Sichtbar (ISO)
100
AcDbLine
 10
1644.688748599697
 20
909.5186348227189
 30
0.0
 11
1644.688748599697
 21
901.7958217755321
 31
0.0
  0
LINE
  5
333
330
1F
100
AcDbEntity
  8
Sichtbar (ISO)
100
AcDbLine
 10
1644.688748599697
 20
901.7958217755321
 30
0.0
 11
1643.778748599697
 21
900.5186348227189
 31
0.0
  0
LINE
  5
334
330
1F
100
AcDbEntity
  8
Sichtbar (ISO)
100
AcDbLine
 10
1643.778748599697
 20
900.5186348227189
 30
0.0
 11
1641.696107542404
 21
900.5186348227189
 31
0.0
  0
LINE
  5
335
330
1F
100
AcDbEntity
  8
Sichtbar (ISO)
100
AcDbLine
 10
1641.696107542404
 20
900.5186348227189
 30
0.0
 11
1639.688748599697
 21
902.5259937654263
 31
0.0
  0
LINE
  5
336
330
1F
100
AcDbEntity
  8
Sichtbar (ISO)
100
AcDbLine
 10
1639.688748599697
 20
902.5259937654263
 30
0.0
 11
1639.688748599697
 21
904.8705731270638
 31
0.0
  0
ARC
  5
337
330
1F
100
AcDbEntity
  8
Sichtbar (ISO)
100
AcDbCircle
 10
1639.988748599697
 20
904.8705731270638
 30
0.0
 40
0.3000000000000003
100
AcDbArc
 50
45.00000000000921
 51
180.0
  0
LINE
  5
338
330
1F
100
AcDbEntity
  8
Sichtbar (ISO)
100
AcDbLine
 10
1640.200880634053
 20
905.0827051614197
 30
0.0
 11
1641.176616565341
 21
904.1069692301325
 31
0.0
  0
ARC
  5
339
330
1F
100
AcDbEntity
  8
Sichtbar (ISO)
100
AcDbCircle
 10
1641.388748599697
 20
904.3191012644884
 30
0.0
 40
0.2999999999998396
100
AcDbArc
 50
225.0000000000092
 51
0.0
  0
LINE
  5
33A
330
1F
100
AcDbEntity
  8
Sichtbar (ISO)
100
AcDbLine
 10
1641.688748599697
 20
904.3191012644884
 30
0.0
 11
1641.688748599697
 21
909.0191012644881
 31
0.0
  0
LINE
  5
33B
330
1F
100
AcDbEntity
  8
Sichtbar (ISO)
100
AcDbLine
 10
1641.688748599697
 20
909.0191012644881
 30
0.0
 11
1630.588748599696
 21
909.0191012644881
 31
0.0
  0
LINE
  5
33C
330
1F
100
AcDbEntity
  8
Sichtbar (ISO)
100
AcDbLine
 10
1630.588748599696
 20
909.0191012644881
 30
0.0
 11
1630.588748599696
 21
910.0191012644819
 31
0.0
  0
LINE
  5
33D
330
1F
100
AcDbEntity
  8
Sichtbar (ISO)
100
AcDbLine
 10
1630.588748599696
 20
910.0191012644819
 30
0.0
 11
1632.588748599696
 21
910.0191012644819
 31
0.0
  0
LINE
  5
33E
330
1F
100
AcDbEntity
  8
Sichtbar (ISO)
100
AcDbLine
 10
1632.588748599696
 20
910.0191012644819
 30
0.0
 11
1632.588748599696
 21
914.0191012644818
 31
0.0
  0
LINE
  5
33F
330
1F
100
AcDbEntity
  8
Sichtbar (ISO)
100
AcDbLine
 10
1632.588748599696
 20
914.0191012644818
 30
0.0
 11
1619.588748599698
 21
914.0191012644818
 31
0.0
  0
LINE
  5
340
330
1F
100
AcDbEntity
  8
Sichtbar (ISO)
100
AcDbLine
 10
1630.588748599696
 20
910.0191012644819
 30
0.0
 11
1621.588748599697
 21
910.0191012644819
 31
0.0
  0
LINE
  5
341
330
1F
100
AcDbEntity
  8
Sichtbar (ISO)
100
AcDbLine
 10
1632.58769913001
 20
910.0191012644819
 30
0.0
 11
1632.58769913001
 21
914.0191012644818
 31
0.0
  0
LINE
  5
342
330
1F
100
AcDbEntity
  8
Sichtbar (ISO)
100
AcDbLine
 10
1622.08769913001
 20
896.7854473227198
 30
0.0
 11
1630.08769913001
 21
896.7854473227198
 31
0.0
  0
LINE
  5
343
330
1F
100
AcDbEntity
  8
Sichtbar (ISO)
100
AcDbLine
 10
1629.32088663001
 20
896.0186348227198
 30
0.0
 11
1622.85451163001
 21
896.0186348227198
 31
0.0
  0
LINE
  5
344
330
1F
100
AcDbEntity
  8
Sichtbar (ISO)
100
AcDbLine
 10
1622.85451163001
 20
896.0186348227198
 30
0.0
 11
1622.08769913001
 21
896.7854473227198
 31
0.0
  0
LINE
  5
345
330
1F
100
AcDbEntity
  8
Sichtbar (ISO)
100
AcDbLine
 10
1629.32088663001
 20
896.0186348227198
 30
0.0
 11
1630.08769913001
 21
896.7854473227198
 31
0.0
  0
LINE
  5
346
330
1F
100
AcDbEntity
  8
Sichtbar (ISO)
100
AcDbLine
 10
1622.43769913001
 20
920.4186348227203
 30
0.0
 11
1629.73769913001
 21
920.4186348227203
 31
0.0
  0
ARC
  5
347
330
1F
100
AcDbEntity
  8
Sichtbar (ISO)
100
AcDbCircle
 10
1622.43769913001
 20
917.0686348227199
 30
0.0
 40
3.35
100
AcDbArc
 50
90.0
 51
180.0
  0
ARC
  5
348
330
1F
100
AcDbEntity
  8
Sichtbar (ISO)
100
AcDbCircle
 10
1629.73769913001
 20
917.0686348227199
 30
0.0
 40
3.35
100
AcDbArc
 50
0.0
 51
90.0
  0
LINE
  5
349
330
1F
100
AcDbEntity
  8
Sichtbar (ISO)
100
AcDbLine
 10
1630.08769913001
 20
910.0191012644819
 30
0.0
 11
1630.08769913001
 21
896.7854473227198
 31
0.0
  0
LINE
  5
34A
330
1F
100
AcDbEntity
  8
Sichtbar (ISO)
100
AcDbLine
 10
1622.08769913001
 20
910.0191012644819
 30
0.0
 11
1622.08769913001
 21
896.7854473227198
 31
0.0
  0
LINE
  5
34B
330
1F
100
AcDbEntity
  8
Sichtbar (ISO)
100
AcDbLine
 10
1633.08769913001
 20
917.0686348227199
 30
0.0
 11
1633.08769913001
 21
916.0186348227197
 31
0.0
  0
LINE
  5
34C
330
1F
100
AcDbEntity
  8
Sichtbar (ISO)
100
AcDbLine
 10
1619.08769913001
 20
917.0686348227199
 30
0.0
 11
1619.08769913001
 21
916.0186348227197
 31
0.0
  0
LWPOLYLINE
  5
34D
330
1F
100
AcDbEntity
  8
Sichtbar (ISO)
100
AcDbPolyline
 90
        5
 70
     0
 43
0.0
 10
1607.48769913001
 20
848.1952824413511
 10
1607.48769913001
 20
828.195282441351
 10
1644.68769913001
 20
828.1952824413501
 10
1644.68769913001
 20
848.1952824413502
 10
1607.48769913001
 20
848.1952824413502
  0
LINE
  5
34E
330
1F
100
AcDbEntity
  8
Sichtbar (ISO)
100
AcDbLine
 10
1618.746029379211
 20
848.1952824413502
 30
0.0
 11
1618.746029379211
 21
828.195282441351
 31
0.0
  0
LINE
  5
34F
330
1F
100
AcDbEntity
  8
Sichtbar (ISO)
100
AcDbLine
 10
1633.42936888081
 20
848.1952824413502
 30
0.0
 11
1633.42936888081
 21
828.1952824413501
 31
0.0
  0
CIRCLE
  5
350
330
1F
100
AcDbEntity
  8
Sichtbar (ISO)
100
AcDbCircle
 10
1626.08769913001
 20
838.1952824413419
 30
0.0
 40
3.2331875
  0
CIRCLE
  5
351
330
1F
100
AcDbEntity
  8
Sichtbar (ISO)
100
AcDbCircle
 10
1626.08769913
 20
838.1952824413511
 30
0.0
 40
4.000000000000001
  0
CIRCLE
  5
352
330
1F
100
AcDbEntity
  8
Sichtbar (ISO)
100
AcDbCircle
 10
1626.08769913
 20
838.1952824413511
 30
0.0
 40
7.000000000000001
  0
LINE
  5
353
330
1F
100
AcDbEntity
  8
Sichtbar (ISO)
100
AcDbLine
 10
1628.587699129999
 20
839.6386581143261
 30
0.0
 11
1628.587699129999
 21
836.751906768378
 31
0.0
  0
LINE
  5
354
330
1F
100
AcDbEntity
  8
Sichtbar (ISO)
100
AcDbLine
 10
1628.587699129999
 20
836.751906768378
 30
0.0
 11
1626.087699129999
 21
835.3085310954039
 31
0.0
  0
LINE
  5
355
330
1F
100
AcDbEntity
  8
Sichtbar (ISO)
100
AcDbLine
 10
1626.087699129999
 20
835.3085310954039
 30
0.0
 11
1623.587699129999
 21
836.751906768378
 31
0.0
  0
LINE
  5
356
330
1F
100
AcDbEntity
  8
Sichtbar (ISO)
100
AcDbLine
 10
1623.587699129999
 20
836.751906768378
 30
0.0
 11
1623.587699129999
 21
839.6386581143261
 31
0.0
  0
LINE
  5
357
330
1F
100
AcDbEntity
  8
Sichtbar (ISO)
100
AcDbLine
 10
1623.587699129999
 20
839.6386581143261
 30
0.0
 11
1626.087699129999
 21
841.0820337873001
 31
0.0
  0
LINE
  5
358
330
1F
100
AcDbEntity
  8
Sichtbar (ISO)
100
AcDbLine
 10
1626.087699129999
 20
841.0820337873001
 30
0.0
 11
1628.587699129999
 21
839.6386581143261
 31
0.0
  0
ARC
  5
359
330
1F
100
AcDbEntity
  8
Sichtbar (ISO)
100
AcDbCircle
 10
1626.087699130001
 20
838.1952824413501
 30
0.0
 40
3.255999999999999
100
AcDbArc
 50
100.0000000000574
 51
10.00000000000615
  0
LINE
  5
35A
330
1F
100
AcDbEntity
  8
Sichtbar (ISO)
100
AcDbLine
 10
1696.641763279043
 20
896.7854473227198
 30
0.0
 11
1704.641763279042
 21
896.7854473227198
 31
0.0
  0
LINE
  5
35B
330
1F
100
AcDbEntity
  8
Sichtbar (ISO)
100
AcDbLine
 10
1703.874950779043
 20
896.0186348227198
 30
0.0
 11
1697.408575779042
 21
896.0186348227198
 31
0.0
  0
LINE
  5
35C
330
1F
100
AcDbEntity
  8
Sichtbar (ISO)
100
AcDbLine
 10
1697.408575779042
 20
896.0186348227198
 30
0.0
 11
1696.641763279043
 21
896.7854473227198
 31
0.0
  0
LINE
  5
35D
330
1F
100
AcDbEntity
  8
Sichtbar (ISO)
100
AcDbLine
 10
1703.874950779043
 20
896.0186348227198
 30
0.0
 11
1704.641763279042
 21
896.7854473227198
 31
0.0
  0
LINE
  5
35E
330
1F
100
AcDbEntity
  8
Sichtbar (ISO)
100
AcDbLine
 10
1696.991763279043
 20
920.4186348227203
 30
0.0
 11
1704.291763279042
 21
920.4186348227203
 31
0.0
  0
ARC
  5
35F
330
1F
100
AcDbEntity
  8
Sichtbar (ISO)
100
AcDbCircle
 10
1696.991763279043
 20
917.0686348227199
 30
0.0
 40
3.35
100
AcDbArc
 50
90.0
 51
180.0
  0
ARC
  5
360
330
1F
100
AcDbEntity
  8
Sichtbar (ISO)
100
AcDbCircle
 10
1704.291763279042
 20
917.0686348227199
 30
0.0
 40
3.35
100
AcDbArc
 50
0.0
 51
90.0
  0
LINE
  5
361
330
1F
100
AcDbEntity
  8
Sichtbar (ISO)
100
AcDbLine
 10
1704.641763279042
 20
900.5186348227189
 30
0.0
 11
1704.641763279042
 21
896.7854473227198
 31
0.0
  0
LINE
  5
362
330
1F
100
AcDbEntity
  8
Sichtbar (ISO)
100
AcDbLine
 10
1696.641763279043
 20
900.5186348227189
 30
0.0
 11
1696.641763279043
 21
896.7854473227198
 31
0.0
  0
LINE
  5
363
330
1F
100
AcDbEntity
  8
Sichtbar (ISO)
100
AcDbLine
 10
1707.641763279042
 20
917.0686348227199
 30
0.0
 11
1707.641763279042
 21
916.0186348227197
 31
0.0
  0
LINE
  5
364
330
1F
100
AcDbEntity
  8
Sichtbar (ISO)
100
AcDbLine
 10
1693.641763279042
 20
917.0686348227199
 30
0.0
 11
1693.641763279042
 21
916.0186348227197
 31
0.0
  0
LINE
  5
365
330
1F
100
AcDbEntity
  8
Sichtbar (ISO)
100
AcDbLine
 10
1626.088748599697
 20
916.0186348227208
 30
0.0
 11
1633.430418350495
 21
916.0186348227208
 31
0.0
  0
LINE
  5
366
330
1F
100
AcDbEntity
  8
S14_Calcestruzzo
100
AcDbLine
 10
1690.641763279042
 20
916.0186348227208
 30
0.0
 11
1710.641763279042
 21
916.0186348227208
 31
0.0
  0
LINE
  5
367
330
1F
100
AcDbEntity
  8
Sichtbar (ISO)
100
AcDbLine
 10
1690.641763279042
 20
909.5186348227189
 30
0.0
 11
1710.641763279042
 21
909.5186348227189
 31
0.0
  0
LINE
  5
368
330
1F
100
AcDbEntity
  8
Sichtbar (ISO)
100
AcDbLine
 10
1690.641763279042
 20
901.7958217755321
 30
0.0
 11
1710.641763279042
 21
901.7958217755321
 31
0.0
  0
LINE
  5
369
330
1F
100
AcDbEntity
  8
Sichtbar (ISO)
100
AcDbLine
 10
1642.737428071051
 20
900.5186348227189
 30
0.0
 11
1643.778748599697
 21
900.5186348227189
 31
0.0
  0
LINE
  5
36A
330
1F
100
AcDbEntity
  8
Sichtbar (ISO)
100
AcDbLine
 10
1690.641763279042
 20
900.5186348227189
 30
0.0
 11
1710.641763279042
 21
900.5186348227189
 31
0.0
  0
LWPOLYLINE
  5
36B
102
{ACAD_REACTORS
330
41F
102
}
330
1F
100
AcDbEntity
  8
Sichtbar (ISO)
100
AcDbPolyline
 90
        5
 70
     0
 43
0.0
 10
1690.641763279042
 20
916.0186348227208
 10
1690.641763279042
 20
900.5186348227189
 10
1710.641763279042
 20
900.5186348227189
 10
1710.641763279042
 20
916.0186348227208
 10
1690.641763279042
 20
916.0186348227208
  0
LINE
  5
36C
330
1F
100
AcDbEntity
  8
Sichtbar (ISO)
 62
   252
100
AcDbLine
 10
1690.641763279042
 20
909.0191012644881
 30
0.0
 11
1710.641763279042
 21
909.0191012644881
 31
0.0
  0
MTEXT
  5
36D
330
1F
100
AcDbEntity
  8
S09_Testo
100
AcDbMText
 10
1615.258179726622
 20
931.7342561098067
 30
0.0
 40
2.5
 41
48.50000000000012
 71
     1
 72
     5
  1
{\fWuerth Book|b0|i0|c0|p2;VISTA LATERALE} 
  7
ROMANS
 73
     1
 44
1.0
  0
MTEXT
  5
36E
330
1F
100
AcDbEntity
  8
S09_Testo
100
AcDbMText
 10
1687.884932537692
 20
931.7342561098067
 30
0.0
 40
2.5
 41
48.50000000000012
 71
     1
 72
     5
  1
{\fWuerth Book|b0|i0|c0|p2;VISTA FRONTALE} 
  7
ROMANS
 73
     1
 44
1.0
  0
MTEXT
  5
36F
330
1F
100
AcDbEntity
  8
S09_Testo
100
AcDbMText
 10
1613.122065458302
 20
861.2324626602839
 30
0.0
 40
2.5
 41
48.50000000000012
 71
     1
 72
     5
  1
{\fWuerth Book|b0|i0|c0|p2;VISTA SUPERIORE} 
  7
ROMANS
 73
     1
 44
1.0
  0
LINE
  5
370
330
1F
100
AcDbEntity
  8
Sichtbar (ISO)
100
AcDbLine
 10
1700.664308504847
 20
831.9335308568316
 30
0.0
 11
1708.625150168896
 21
841.8319309902416
 31
0.0
  0
LINE
  5
371
330
1F
100
AcDbEntity
  8
Sichtbar (ISO)
100
AcDbLine
 10
1694.483014545167
 20
849.9758452660898
 30
0.0
 11
1708.625150168896
 21
841.8319309902416
 31
0.0
  0
LINE
  5
372
330
1F
100
AcDbEntity
  8
Sichtbar (ISO)
100
AcDbLine
 10
1694.483014545167
 20
849.9758452660898
 30
0.0
 11
1686.522172881118
 21
840.0774451326778
 31
0.0
  0
LINE
  5
373
330
1F
100
AcDbEntity
  8
Sichtbar (ISO)
100
AcDbLine
 10
1700.664308504847
 20
831.9335308568316
 30
0.0
 11
1686.522172881118
 21
840.0774451326778
 31
0.0
  0
LINE
  5
374
330
1F
100
AcDbEntity
  8
Sichtbar (ISO)
100
AcDbLine
 10
1709.220300557206
 20
840.5399423936305
 30
0.0
 11
1709.220300557206
 21
837.2697538942594
 31
0.0
  0
LINE
  5
375
330
1F
100
AcDbEntity
  8
Sichtbar (ISO)
100
AcDbLine
 10
1709.220300557206
 20
837.2697538942594
 30
0.0
 11
1710.634514119579
 21
838.0841453218435
 31
0.0
  0
LINE
  5
376
330
1F
100
AcDbEntity
  8
Sichtbar (ISO)
100
AcDbLine
 10
1709.220300557206
 20
838.8985367494296
 30
0.0
 11
1710.634514119579
 21
838.0841453218435
 31
0.0
  0
LINE
  5
377
330
1F
100
AcDbEntity
  8
Sichtbar (ISO)
100
AcDbLine
 10
1710.634514119579
 20
838.0841453218435
 30
0.0
 11
1710.634514119579
 21
837.2665981970076
 31
0.0
  0
LINE
  5
378
330
1F
100
AcDbEntity
  8
Sichtbar (ISO)
100
AcDbLine
 10
1710.634514119579
 20
837.2665981970076
 30
0.0
 11
1702.785628848407
 21
832.7467257739135
 31
0.0
  0
LINE
  5
379
330
1F
100
AcDbEntity
  8
Sichtbar (ISO)
100
AcDbLine
 10
1702.785628848407
 20
832.7467257739135
 30
0.0
 11
1702.785628848407
 21
828.904254287152
 31
0.0
  0
ELLIPSE
  5
37A
330
1F
100
AcDbEntity
  8
Sichtbar (ISO)
100
AcDbEllipse
 10
1702.997760882763
 20
829.0264130012911
 30
0.0
 11
-0.1497096634752417
 21
-0.2599750308434141
 31
0.0
210
0.0
220
0.0
230
1.0
 40
0.5780931159158106
 41
5.495853435359157
 42
7.852047925551437
  0
LINE
  5
37B
330
1F
100
AcDbEntity
  8
Sichtbar (ISO)
100
AcDbLine
 10
1702.785628848407
 20
829.1479022909497
 30
0.0
 11
1703.147760882763
 21
828.9393643216627
 31
0.0
  0
LINE
  5
37C
330
1F
100
AcDbEntity
  8
Sichtbar (ISO)
100
AcDbLine
 10
1703.147760882763
 20
828.9393643216627
 30
0.0
 11
1703.837710376424
 21
830.1343899159073
 31
0.0
  0
LINE
  5
37D
330
1F
100
AcDbEntity
  8
Sichtbar (ISO)
100
AcDbLine
 10
1702.785628848407
 20
830.7402433742064
 30
0.0
 11
1703.837710376424
 21
830.1343899159073
 31
0.0
  0
ELLIPSE
  5
37E
330
1F
100
AcDbEntity
  8
Sichtbar (ISO)
100
AcDbEllipse
 10
1703.987710376424
 20
830.0473412362807
 30
0.0
 11
0.1497096634753217
 21
0.2599750308435528
 31
0.0
210
0.0
220
0.0
230
1.0
 40
0.5780931159158106
 41
5.495853435359352
 42
7.852047925551513
  0
LINE
  5
37F
330
1F
100
AcDbEntity
  8
Sichtbar (ISO)
100
AcDbLine
 10
1704.19984241078
 20
830.169499950418
 30
0.0
 11
1704.19984241078
 21
828.252695834346
 31
0.0
  0
LINE
  5
380
330
1F
100
AcDbEntity
  8
Sichtbar (ISO)
100
AcDbLine
 10
1704.19984241078
 20
828.252695834346
 30
0.0
 11
1702.780425290116
 21
825.7941973446959
 31
0.0
  0
LINE
  5
381
330
1F
100
AcDbEntity
  8
Sichtbar (ISO)
100
AcDbLine
 10
1702.780425290116
 20
825.7941973446959
 30
0.0
 11
1701.307775675727
 21
824.9461548327982
 31
0.0
  0
LINE
  5
382
330
1F
100
AcDbEntity
  8
Sichtbar (ISO)
100
AcDbLine
 10
1687.165640051998
 20
833.0900691086462
 30
0.0
 11
1701.307775675727
 21
824.9461548327982
 31
0.0
  0
LINE
  5
383
330
1F
100
AcDbEntity
  8
Sichtbar (ISO)
100
AcDbLine
 10
1701.307775675727
 20
824.9461548327982
 30
0.0
 11
1700.664308504847
 21
825.6197672544058
 31
0.0
  0
LINE
  5
384
330
1F
100
AcDbEntity
  8
Sichtbar (ISO)
100
AcDbLine
 10
1686.522172881118
 20
833.7636815302539
 30
0.0
 11
1700.664308504847
 21
825.6197672544058
 31
0.0
  0
LINE
  5
385
330
1F
100
AcDbEntity
  8
Sichtbar (ISO)
100
AcDbLine
 10
1686.522172881118
 20
833.7636815302539
 30
0.0
 11
1687.165640051998
 21
833.0900691086462
 31
0.0
  0
LINE
  5
386
330
1F
100
AcDbEntity
  8
Sichtbar (ISO)
100
AcDbLine
 10
1700.664308504847
 20
825.6197672544058
 30
0.0
 11
1700.664308504847
 21
831.9335308568316
 31
0.0
  0
LINE
  5
387
330
1F
100
AcDbEntity
  8
Sichtbar (ISO)
100
AcDbLine
 10
1686.522172881118
 20
840.0774451326778
 30
0.0
 11
1686.522172881118
 21
833.7636815302539
 31
0.0
  0
LINE
  5
388
330
1F
100
AcDbEntity
  8
Sichtbar (ISO)
100
AcDbLine
 10
1704.865703477214
 20
855.9548381752957
 30
0.0
 11
1694.483014545167
 21
849.9758452660898
 31
0.0
  0
LINE
  5
389
330
1F
100
AcDbEntity
  8
Sichtbar (ISO)
100
AcDbLine
 10
1712.826545141261
 20
855.2251256857507
 30
0.0
 11
1704.865703477214
 21
855.9548381752957
 31
0.0
  0
LINE
  5
38A
330
1F
100
AcDbEntity
  8
Sichtbar (ISO)
100
AcDbLine
 10
1708.625150168896
 20
841.8319309902416
 30
0.0
 11
1719.007839100943
 21
847.8109238994475
 31
0.0
  0
LINE
  5
38B
330
1F
100
AcDbEntity
  8
Sichtbar (ISO)
100
AcDbLine
 10
1704.865703477214
 20
855.9548381752957
 30
0.0
 11
1706.197676191863
 21
855.1878061021724
 31
0.0
  0
LINE
  5
38C
330
1F
100
AcDbEntity
  8
Sichtbar (ISO)
100
AcDbLine
 10
1713.590012253883
 20
850.930842883241
 30
0.0
 11
1719.007839100943
 21
847.8109238994475
 31
0.0
  0
LINE
  5
38D
330
1F
100
AcDbEntity
  8
Sichtbar (ISO)
100
AcDbLine
 10
1719.007839100943
 20
847.8109238994475
 30
0.0
 11
1726.968680764991
 21
847.0812114099025
 31
0.0
  0
LINE
  5
38E
330
1F
100
AcDbEntity
  8
Sichtbar (ISO)
100
AcDbLine
 10
1712.826545141261
 20
855.2251256857507
 30
0.0
 11
1726.968680764991
 21
847.0812114099025
 31
0.0
  0
LINE
  5
38F
330
1F
100
AcDbEntity
  8
Sichtbar (ISO)
100
AcDbLine
 10
1726.968680764991
 20
847.0812114099025
 30
0.0
 11
1726.968680764991
 21
840.7674478074786
 31
0.0
  0
LINE
  5
390
330
1F
100
AcDbEntity
  8
Sichtbar (ISO)
100
AcDbLine
 10
1726.968680764991
 20
840.7674478074786
 30
0.0
 11
1726.325213594111
 21
839.3527391867683
 31
0.0
  0
LINE
  5
391
330
1F
100
AcDbEntity
  8
Sichtbar (ISO)
100
AcDbLine
 10
1726.325213594111
 20
839.3527391867683
 30
0.0
 11
1724.852563979722
 21
838.5046966748722
 31
0.0
  0
LINE
  5
392
330
1F
100
AcDbEntity
  8
Sichtbar (ISO)
100
AcDbLine
 10
1718.818535420957
 20
841.9794626245165
 30
0.0
 11
1724.852563979722
 21
838.5046966748722
 31
0.0
  0
LINE
  5
393
330
1F
100
AcDbEntity
  8
Sichtbar (ISO)
100
AcDbLine
 10
1724.852563979722
 20
838.5046966748722
 30
0.0
 11
1723.433146859057
 21
839.3284192494956
 31
0.0
  0
LINE
  5
394
330
1F
100
AcDbEntity
  8
Sichtbar (ISO)
100
AcDbLine
 10
1718.824035541124
 20
841.9826299330726
 30
0.0
 11
1723.433146859057
 21
839.3284192494956
 31
0.0
  0
LINE
  5
395
330
1F
100
AcDbEntity
  8
Sichtbar (ISO)
100
AcDbLine
 10
1723.433146859057
 20
839.3284192494956
 30
0.0
 11
1723.433146859057
 21
841.2452233655676
 31
0.0
  0
LINE
  5
396
330
1F
100
AcDbEntity
  8
Sichtbar (ISO)
100
AcDbLine
 10
1720.488327603604
 20
842.9410319911076
 30
0.0
 11
1723.433146859057
 21
841.2452233655676
 31
0.0
  0
ELLIPSE
  5
397
330
1F
100
AcDbEntity
  8
Sichtbar (ISO)
100
AcDbEllipse
 10
1723.645278893414
 20
841.3673820797049
 30
0.0
 11
0.1497096634753371
 21
0.2599750308435436
 31
0.0
210
0.0
220
0.0
230
1.0
 40
0.5780931159158105
 41
6.281251598757124
 42
8.637446088949305
  0
LINE
  5
398
330
1F
100
AcDbEntity
  8
Sichtbar (ISO)
100
AcDbLine
 10
1723.795278893413
 20
841.6271892696277
 30
0.0
 11
1724.485228387075
 21
841.226794653412
 31
0.0
  0
ELLIPSE
  5
399
330
1F
100
AcDbEntity
  8
Sichtbar (ISO)
100
AcDbEllipse
 10
1724.635228387074
 20
841.4866018433349
 30
0.0
 11
-0.1497096634752414
 21
-0.2599750308434135
 31
0.0
210
0.0
220
0.0
230
1.0
 40
0.5780931159158105
 41
6.281251598756759
 42
8.63744608894895
  0
LINE
  5
39A
330
1F
100
AcDbEntity
  8
Sichtbar (ISO)
100
AcDbLine
 10
1721.511080651318
 20
843.5299963008528
 30
0.0
 11
1724.847360421431
 21
841.6087605574722
 31
0.0
  0
LINE
  5
39B
330
1F
100
AcDbEntity
  8
Sichtbar (ISO)
100
AcDbLine
 10
1724.847360421431
 20
841.6087605574722
 30
0.0
 11
1724.847360421431
 21
845.4512320442317
 31
0.0
  0
LINE
  5
39C
330
1F
100
AcDbEntity
  8
Sichtbar (ISO)
100
AcDbLine
 10
1724.847360421431
 20
845.4512320442317
 30
0.0
 11
1716.998475150258
 21
840.9313596211378
 31
0.0
  0
LINE
  5
39D
330
1F
100
AcDbEntity
  8
Sichtbar (ISO)
100
AcDbLine
 10
1713.813754656512
 20
842.7653181818296
 30
0.0
 11
1716.998475150258
 21
840.9313596211378
 31
0.0
  0
LINE
  5
39E
330
1F
100
AcDbEntity
  8
Sichtbar (ISO)
100
AcDbLine
 10
1716.998475150258
 20
840.9313596211378
 30
0.0
 11
1716.998475150258
 21
841.7489067459737
 31
0.0
  0
LINE
  5
39F
330
1F
100
AcDbEntity
  8
Sichtbar (ISO)
100
AcDbLine
 10
1714.523601416106
 20
843.1740917442475
 30
0.0
 11
1716.998475150258
 21
841.7489067459737
 31
0.0
  0
LINE
  5
3A0
330
1F
100
AcDbEntity
  8
Sichtbar (ISO)
100
AcDbLine
 10
1716.998475150258
 20
841.7489067459737
 30
0.0
 11
1718.412688712632
 21
842.563298173558
 31
0.0
  0
LINE
  5
3A1
330
1F
100
AcDbEntity
  8
Sichtbar (ISO)
100
AcDbLine
 10
1715.937072891347
 20
843.9889105113907
 30
0.0
 11
1718.412688712632
 21
842.563298173558
 31
0.0
  0
LINE
  5
3A2
330
1F
100
AcDbEntity
  8
Sichtbar (ISO)
100
AcDbLine
 10
1718.412688712632
 20
842.563298173558
 30
0.0
 11
1718.412688712632
 21
845.8334866729291
 31
0.0
  0
LINE
  5
3A3
330
1F
100
AcDbEntity
  8
Sichtbar (ISO)
100
AcDbLine
 10
1718.412688712632
 20
845.8334866729291
 30
0.0
 11
1709.220300557206
 21
840.5399423936305
 31
0.0
  0
LINE
  5
3A4
330
1F
100
AcDbEntity
  8
Sichtbar (ISO)
100
AcDbLine
 10
1702.785628848407
 20
831.0857610420335
 30
0.0
 11
1704.137420039899
 21
830.3073162671244
 31
0.0
  0
LINE
  5
3A5
330
1F
100
AcDbEntity
  8
Sichtbar (ISO)
100
AcDbLine
 10
1721.001041437127
 20
843.2362842513994
 30
0.0
 11
1723.794988556889
 21
841.6273571105485
 31
0.0
  0
LINE
  5
3A6
330
1F
100
AcDbEntity
  8
Sichtbar (ISO)
100
AcDbLine
 10
1715.937072891347
 20
843.9880558322748
 30
0.0
 11
1709.220300557206
 21
840.1201238908052
 31
0.0
  0
LINE
  5
3A7
330
1F
100
AcDbEntity
  8
Sichtbar (ISO)
100
AcDbLine
 10
1715.937072891347
 20
843.9880558322748
 30
0.0
 11
1715.937072891347
 21
844.4078743350983
 31
0.0
  0
ELLIPSE
  5
3A8
330
1F
100
AcDbEntity
  8
Sichtbar (ISO)
100
AcDbEllipse
 10
1706.744684735922
 20
833.1689201010266
 30
0.0
 11
3.999999999999998
 21
0.000000000000001
 31
0.0
210
0.0
220
0.0
230
1.0
 40
0.5758617009853118
 41
3.32016291725861
 42
6.283185307179585
  0
ELLIPSE
  5
3A9
330
1F
100
AcDbEntity
  8
Sichtbar (ISO)
100
AcDbEllipse
 10
1706.744684735922
 20
832.5420147463592
 30
0.0
 11
3.233187499999999
 21
0.0000000000001923
 31
0.0
210
0.0
220
0.0
230
1.0
 40
0.5758617009853121
 41
3.923138270879164
 42
5.501639689889738
  0
LINE
  5
3AA
330
1F
100
AcDbEntity
  8
Sichtbar (ISO)
100
AcDbLine
 10
1704.449685192836
 20
831.2305564434373
 30
0.0
 11
1703.90538198211
 21
831.5464242786584
 31
0.0
  0
LINE
  5
3AB
330
1F
100
AcDbEntity
  8
Sichtbar (ISO)
100
AcDbLine
 10
1709.039684279008
 20
831.2305564434373
 30
0.0
 11
1709.583987489735
 21
831.5464242786584
 31
0.0
  0
ELLIPSE
  5
3AC
330
1F
100
AcDbEntity
  8
Sichtbar (ISO)
100
AcDbEllipse
 10
1706.744684735922
 20
852.4901645925165
 30
0.0
 11
-3.650000000000001
 21
-0.0000000000000002
 31
0.0
210
0.0
220
0.0
230
1.0
 40
0.5758617009853118
 41
0.0
 42
6.283185307179586
  0
ELLIPSE
  5
3AD
330
1F
100
AcDbEntity
  8
Sichtbar (ISO)
100
AcDbEllipse
 10
1706.744684735922
 20
849.7513817242943
 30
0.0
 11
-7.0
 21
-0.0000000000000012
 31
0.0
210
0.0
220
0.0
230
1.0
 40
0.5758617009853117
 41
0.0
 42
3.141592653589793
  0
POLYLINE
  5
3AE
330
1F
100
AcDbEntity
  8
Sichtbar (ISO)
100
AcDb2dPolyline
 66
     1
 10
0.0
 20
0.0
 30
0.0
 70
   128
  0
VERTEX
  5
3AF
330
3AE
100
AcDbEntity
  8
Sichtbar (ISO)
100
AcDbVertex
100
AcDb2dVertex
 10
1699.744685005478
 20
849.7513816863939
 30
0.0
  0
VERTEX
  5
3B0
330
3AE
100
AcDbEntity
  8
Sichtbar (ISO)
100
AcDbVertex
100
AcDb2dVertex
 10
1699.761539503444
 20
850.1390349772991
 30
0.0
  0
VERTEX
  5
3B1
330
3AE
100
AcDbEntity
  8
Sichtbar (ISO)
100
AcDbVertex
100
AcDb2dVertex
 10
1699.810773579049
 20
850.521704072551
 30
0.0
  0
VERTEX
  5
3B2
330
3AE
100
AcDbEntity
  8
Sichtbar (ISO)
100
AcDbVertex
100
AcDb2dVertex
 10
1699.890390547948
 20
850.8951609561536
 30
0.0
  0
VERTEX
  5
3B3
330
3AE
100
AcDbEntity
  8
Sichtbar (ISO)
100
AcDbVertex
100
AcDb2dVertex
 10
1699.998394329053
 20
851.2551775080702
 30
0.0
  0
VERTEX
  5
3B4
330
3AE
100
AcDbEntity
  8
Sichtbar (ISO)
100
AcDbVertex
100
AcDb2dVertex
 10
1700.132022691288
 20
851.5979830237847
 30
0.0
  0
VERTEX
  5
3B5
330
3AE
100
AcDbEntity
  8
Sichtbar (ISO)
100
AcDbVertex
100
AcDb2dVertex
 10
1700.287737142778
 20
851.9221581279616
 30
0.0
  0
VERTEX
  5
3B6
330
3AE
100
AcDbEntity
  8
Sichtbar (ISO)
100
AcDbVertex
100
AcDb2dVertex
 10
1700.462419756475
 20
852.2270096810316
 30
0.0
  0
VERTEX
  5
3B7
330
3AE
100
AcDbEntity
  8
Sichtbar (ISO)
100
AcDbVertex
100
AcDb2dVertex
 10
1700.652952633791
 20
852.5118446426258
 30
0.0
  0
VERTEX
  5
3B8
330
3AE
100
AcDbEntity
  8
Sichtbar (ISO)
100
AcDbVertex
100
AcDb2dVertex
 10
1700.856211070975
 20
852.7762227759758
 30
0.0
  0
VERTEX
  5
3B9
330
3AE
100
AcDbEntity
  8
Sichtbar (ISO)
100
AcDbVertex
100
AcDb2dVertex
 10
1701.069825372144
 20
853.0210988042618
 30
0.0
  0
VERTEX
  5
3BA
330
3AE
100
AcDbEntity
  8
Sichtbar (ISO)
100
AcDbVertex
100
AcDb2dVertex
 10
1701.522308463598
 20
853.4566735802128
 30
0.0
  0
VERTEX
  5
3BB
330
3AE
100
AcDbEntity
  8
Sichtbar (ISO)
100
AcDbVertex
100
AcDb2dVertex
 10
1701.998972563555
 20
853.8270775221789
 30
0.0
  0
VERTEX
  5
3BC
330
3AE
100
AcDbEntity
  8
Sichtbar (ISO)
100
AcDbVertex
100
AcDb2dVertex
 10
1702.491614605117
 20
854.141181011113
 30
0.0
  0
VERTEX
  5
3BD
330
3AE
100
AcDbEntity
  8
Sichtbar (ISO)
100
AcDbVertex
100
AcDb2dVertex
 10
1702.99737583615
 20
854.4055077965859
 30
0.0
  0
VERTEX
  5
3BE
330
3AE
100
AcDbEntity
  8
Sichtbar (ISO)
100
AcDbVertex
100
AcDb2dVertex
 10
1703.513778740529
 20
854.6256631744691
 30
0.0
  0
VERTEX
  5
3BF
330
3AE
100
AcDbEntity
  8
Sichtbar (ISO)
100
AcDbVertex
100
AcDb2dVertex
 10
1704.038584702954
 20
854.8069867128143
 30
0.0
  0
VERTEX
  5
3C0
330
3AE
100
AcDbEntity
  8
Sichtbar (ISO)
100
AcDbVertex
100
AcDb2dVertex
 10
1704.570676609767
 20
854.9523141112949
 30
0.0
  0
VERTEX
  5
3C1
330
3AE
100
AcDbEntity
  8
Sichtbar (ISO)
100
AcDbVertex
100
AcDb2dVertex
 10
1705.108734504566
 20
855.0632034591272
 30
0.0
  0
VERTEX
  5
3C2
330
3AE
100
AcDbEntity
  8
Sichtbar (ISO)
100
AcDbVertex
100
AcDb2dVertex
 10
1705.651381894269
 20
855.14121130067
 30
0.0
  0
VERTEX
  5
3C3
330
3AE
100
AcDbEntity
  8
Sichtbar (ISO)
100
AcDbVertex
100
AcDb2dVertex
 10
1706.197221964165
 20
855.1878245118004
 30
0.0
  0
VERTEX
  5
3C4
330
3AE
100
AcDbEntity
  8
Sichtbar (ISO)
100
AcDbVertex
100
AcDb2dVertex
 10
1706.744669640655
 20
855.2034993644392
 30
0.0
  0
VERTEX
  5
3C5
330
3AE
100
AcDbEntity
  8
Sichtbar (ISO)
100
AcDbVertex
100
AcDb2dVertex
 10
1707.292122294566
 20
855.1880283702539
 30
0.0
  0
VERTEX
  5
3C6
330
3AE
100
AcDbEntity
  8
Sichtbar (ISO)
100
AcDbVertex
100
AcDb2dVertex
 10
1707.837991097784
 20
855.1412069856887
 30
0.0
  0
VERTEX
  5
3C7
330
3AE
100
AcDbEntity
  8
Sichtbar (ISO)
100
AcDbVertex
100
AcDb2dVertex
 10
1708.380690709305
 20
855.0628504824107
 30
0.0
  0
VERTEX
  5
3C8
330
3AE
100
AcDbEntity
  8
Sichtbar (ISO)
100
AcDbVertex
100
AcDb2dVertex
 10
1708.918751144254
 20
854.9523595271111
 30
0.0
  0
VERTEX
  5
3C9
330
3AE
100
AcDbEntity
  8
Sichtbar (ISO)
100
AcDbVertex
100
AcDb2dVertex
 10
1709.45082358835
 20
854.8075260041914
 30
0.0
  0
VERTEX
  5
3CA
330
3AE
100
AcDbEntity
  8
Sichtbar (ISO)
100
AcDbVertex
100
AcDb2dVertex
 10
1709.975562655682
 20
854.6258876241664
 30
0.0
  0
VERTEX
  5
3CB
330
3AE
100
AcDbEntity
  8
Sichtbar (ISO)
100
AcDbVertex
100
AcDb2dVertex
 10
1710.491654968992
 20
854.404983837232
 30
0.0
  0
VERTEX
  5
3CC
330
3AE
100
AcDbEntity
  8
Sichtbar (ISO)
100
AcDbVertex
100
AcDb2dVertex
 10
1710.998528702345
 20
854.1413148301762
 30
0.0
  0
VERTEX
  5
3CD
330
3AE
100
AcDbEntity
  8
Sichtbar (ISO)
100
AcDbVertex
100
AcDb2dVertex
 10
1711.492267545429
 20
853.8279058824882
 30
0.0
  0
VERTEX
  5
3CE
330
3AE
100
AcDbEntity
  8
Sichtbar (ISO)
100
AcDbVertex
100
AcDb2dVertex
 10
1711.967548640582
 20
853.4570971293433
 30
0.0
  0
VERTEX
  5
3CF
330
3AE
100
AcDbEntity
  8
Sichtbar (ISO)
100
AcDbVertex
100
AcDb2dVertex
 10
1712.419043597497
 20
853.0211877088531
 30
0.0
  0
VERTEX
  5
3D0
330
3AE
100
AcDbEntity
  8
Sichtbar (ISO)
100
AcDbVertex
100
AcDb2dVertex
 10
1712.633509542019
 20
852.7755591649984
 30
0.0
  0
VERTEX
  5
3D1
330
3AE
100
AcDbEntity
  8
Sichtbar (ISO)
100
AcDbVertex
100
AcDb2dVertex
 10
1712.837361010252
 20
852.5103701686239
 30
0.0
  0
VERTEX
  5
3D2
330
3AE
100
AcDbEntity
  8
Sichtbar (ISO)
100
AcDbVertex
100
AcDb2dVertex
 10
1713.027817318469
 20
852.2256744989791
 30
0.0
  0
VERTEX
  5
3D3
330
3AE
100
AcDbEntity
  8
Sichtbar (ISO)
100
AcDbVertex
100
AcDb2dVertex
 10
1713.202098349843
 20
851.9215254542505
 30
0.0
  0
VERTEX
  5
3D4
330
3AE
100
AcDbEntity
  8
Sichtbar (ISO)
100
AcDbVertex
100
AcDb2dVertex
 10
1713.357422839514
 20
851.5979770015
 30
0.0
  0
VERTEX
  5
3D5
330
3AE
100
AcDbEntity
  8
Sichtbar (ISO)
100
AcDbVertex
100
AcDb2dVertex
 10
1713.490934468505
 20
851.2551314964348
 30
0.0
  0
VERTEX
  5
3D6
330
3AE
100
AcDbEntity
  8
Sichtbar (ISO)
100
AcDbVertex
100
AcDb2dVertex
 10
1713.598805847028
 20
850.8949683169285
 30
0.0
  0
VERTEX
  5
3D7
330
3AE
100
AcDbEntity
  8
Sichtbar (ISO)
100
AcDbVertex
100
AcDb2dVertex
 10
1713.678452112982
 20
850.5215444257137
 30
0.0
  0
VERTEX
  5
3D8
330
3AE
100
AcDbEntity
  8
Sichtbar (ISO)
100
AcDbVertex
100
AcDb2dVertex
 10
1713.727776905987
 20
850.1389765347848
 30
0.0
  0
VERTEX
  5
3D9
330
3AE
100
AcDbEntity
  8
Sichtbar (ISO)
100
AcDbVertex
100
AcDb2dVertex
 10
1713.744684466367
 20
849.7513817085909
 30
0.0
  0
SEQEND
  5
3DA
330
3AE
100
AcDbEntity
  8
Sichtbar (ISO)
  0
LINE
  5
3DB
330
1F
100
AcDbEntity
  8
Sichtbar (ISO)
100
AcDbLine
 10
1704.178609307845
 20
851.72867807285
 30
0.0
 11
1704.316464646424
 21
853.3891510216836
 31
0.0
  0
LINE
  5
3DC
330
1F
100
AcDbEntity
  8
Sichtbar (ISO)
100
AcDbLine
 10
1704.316464646424
 20
853.3891510216836
 30
0.0
 11
1706.882540074502
 21
854.1506375413501
 31
0.0
  0
LINE
  5
3DD
330
1F
100
AcDbEntity
  8
Sichtbar (ISO)
100
AcDbLine
 10
1706.882540074502
 20
854.1506375413501
 30
0.0
 11
1709.310760164
 21
853.251651112183
 31
0.0
  0
LINE
  5
3DE
330
1F
100
AcDbEntity
  8
Sichtbar (ISO)
100
AcDbLine
 10
1709.310760164
 20
853.251651112183
 30
0.0
 11
1709.17290482542
 21
851.5911781633494
 31
0.0
  0
LINE
  5
3DF
330
1F
100
AcDbEntity
  8
Sichtbar (ISO)
100
AcDbLine
 10
1709.17290482542
 20
851.5911781633494
 30
0.0
 11
1706.606829397343
 21
850.829691643683
 31
0.0
  0
LINE
  5
3E0
330
1F
100
AcDbEntity
  8
Sichtbar (ISO)
100
AcDbLine
 10
1706.606829397343
 20
850.829691643683
 30
0.0
 11
1704.178609307845
 21
851.72867807285
 31
0.0
  0
LINE
  5
3E1
330
1F
100
AcDbEntity
  8
Sichtbar (ISO)
100
AcDbLine
 10
1704.316464646424
 20
851.6776406569643
 30
0.0
 11
1704.316464646424
 21
853.3891510216836
 31
0.0
  0
POLYLINE
  5
3E2
330
1F
100
AcDbEntity
  8
Sichtbar (ISO)
100
AcDb2dPolyline
 66
     1
 10
0.0
 20
0.0
 30
0.0
 70
   128
  0
VERTEX
  5
3E3
330
3E2
100
AcDbEntity
  8
Sichtbar (ISO)
100
AcDbVertex
100
AcDb2dVertex
 10
1706.882540072027
 20
852.0250150454321
 30
0.0
  0
VERTEX
  5
3E4
330
3E2
100
AcDbEntity
  8
Sichtbar (ISO)
100
AcDbVertex
100
AcDb2dVertex
 10
1706.800253060494
 20
851.9792830319401
 30
0.0
  0
VERTEX
  5
3E5
330
3E2
100
AcDbEntity
  8
Sichtbar (ISO)
100
AcDbVertex
100
AcDb2dVertex
 10
1706.71987287803
 20
851.9356741636201
 30
0.0
  0
VERTEX
  5
3E6
330
3E2
100
AcDbEntity
  8
Sichtbar (ISO)
100
AcDbVertex
100
AcDb2dVertex
 10
1706.641239854556
 20
851.8940763811988
 30
0.0
  0
VERTEX
  5
3E7
330
3E2
100
AcDbEntity
  8
Sichtbar (ISO)
100
AcDbVertex
100
AcDb2dVertex
 10
1706.564204107516
 20
851.8543870552749
 30
0.0
  0
VERTEX
  5
3E8
330
3E2
100
AcDbEntity
  8
Sichtbar (ISO)
100
AcDbVertex
100
AcDb2dVertex
 10
1706.488624390505
 20
851.8165111062062
 30
0.0
  0
VERTEX
  5
3E9
330
3E2
100
AcDbEntity
  8
Sichtbar (ISO)
100
AcDbVertex
100
AcDb2dVertex
 10
1706.414367267004
 20
851.7803613268096
 30
0.0
  0
VERTEX
  5
3EA
330
3E2
100
AcDbEntity
  8
Sichtbar (ISO)
100
AcDbVertex
100
AcDb2dVertex
 10
1706.34130610896
 20
851.745857916323
 30
0.0
  0
VERTEX
  5
3EB
330
3E2
100
AcDbEntity
  8
Sichtbar (ISO)
100
AcDbVertex
100
AcDb2dVertex
 10
1706.269320444494
 20
851.7129265928579
 30
0.0
  0
VERTEX
  5
3EC
330
3E2
100
AcDbEntity
  8
Sichtbar (ISO)
100
AcDbVertex
100
AcDb2dVertex
 10
1706.198295173218
 20
851.6814997177316
 30
0.0
  0
VERTEX
  5
3ED
330
3E2
100
AcDbEntity
  8
Sichtbar (ISO)
100
AcDbVertex
100
AcDb2dVertex
 10
1706.128119865764
 20
851.6515139874718
 30
0.0
  0
VERTEX
  5
3EE
330
3E2
100
AcDbEntity
  8
Sichtbar (ISO)
100
AcDbVertex
100
AcDb2dVertex
 10
1706.058688356689
 20
851.6229123068496
 30
0.0
  0
VERTEX
  5
3EF
330
3E2
100
AcDbEntity
  8
Sichtbar (ISO)
100
AcDbVertex
100
AcDb2dVertex
 10
1705.989897937858
 20
851.5956412683081
 30
0.0
  0
VERTEX
  5
3F0
330
3E2
100
AcDbEntity
  8
Sichtbar (ISO)
100
AcDbVertex
100
AcDb2dVertex
 10
1705.921648814516
 20
851.5696523133465
 30
0.0
  0
VERTEX
  5
3F1
330
3E2
100
AcDbEntity
  8
Sichtbar (ISO)
100
AcDbVertex
100
AcDb2dVertex
 10
1705.853843935105
 20
851.5449005048903
 30
0.0
  0
VERTEX
  5
3F2
330
3E2
100
AcDbEntity
  8
Sichtbar (ISO)
100
AcDbVertex
100
AcDb2dVertex
 10
1705.786388158395
 20
851.5213447438727
 30
0.0
  0
VERTEX
  5
3F3
330
3E2
100
AcDbEntity
  8
Sichtbar (ISO)
100
AcDbVertex
100
AcDb2dVertex
 10
1705.719187962921
 20
851.4989478631505
 30
0.0
  0
VERTEX
  5
3F4
330
3E2
100
AcDbEntity
  8
Sichtbar (ISO)
100
AcDbVertex
100
AcDb2dVertex
 10
1705.652151120838
 20
851.4776755618987
 30
0.0
  0
VERTEX
  5
3F5
330
3E2
100
AcDbEntity
  8
Sichtbar (ISO)
100
AcDbVertex
100
AcDb2dVertex
 10
1705.585186088316
 20
851.4574969815257
 30
0.0
  0
VERTEX
  5
3F6
330
3E2
100
AcDbEntity
  8
Sichtbar (ISO)
100
AcDbVertex
100
AcDb2dVertex
 10
1705.518201477487
 20
851.4383841470079
 30
0.0
  0
VERTEX
  5
3F7
330
3E2
100
AcDbEntity
  8
Sichtbar (ISO)
100
AcDbVertex
100
AcDb2dVertex
 10
1705.451106123743
 20
851.4203120009479
 30
0.0
  0
VERTEX
  5
3F8
330
3E2
100
AcDbEntity
  8
Sichtbar (ISO)
100
AcDbVertex
100
AcDb2dVertex
 10
1705.383807969428
 20
851.4032585561398
 30
0.0
  0
VERTEX
  5
3F9
330
3E2
100
AcDbEntity
  8
Sichtbar (ISO)
100
AcDbVertex
100
AcDb2dVertex
 10
1705.316214460546
 20
851.3872039178131
 30
0.0
  0
VERTEX
  5
3FA
330
3E2
100
AcDbEntity
  8
Sichtbar (ISO)
100
AcDbVertex
100
AcDb2dVertex
 10
1705.248231242773
 20
851.3721313581918
 30
0.0
  0
VERTEX
  5
3FB
330
3E2
100
AcDbEntity
  8
Sichtbar (ISO)
100
AcDbVertex
100
AcDb2dVertex
 10
1705.179762707007
 20
851.3580265783021
 30
0.0
  0
SEQEND
  5
3FC
330
3E2
100
AcDbEntity
  8
Sichtbar (ISO)
  0
LINE
  5
3FD
330
1F
100
AcDbEntity
  8
Sichtbar (ISO)
100
AcDbLine
 10
1706.882540074502
 20
854.1506375413501
 30
0.0
 11
1706.882540074502
 21
852.0250150167594
 31
0.0
  0
POLYLINE
  5
3FE
330
1F
100
AcDbEntity
  8
Sichtbar (ISO)
100
AcDb2dPolyline
 66
     1
 10
0.0
 20
0.0
 30
0.0
 70
   128
  0
VERTEX
  5
3FF
330
3FE
100
AcDbEntity
  8
Sichtbar (ISO)
100
AcDbVertex
100
AcDb2dVertex
 10
1708.2854405353
 20
851.3278218530885
 30
0.0
  0
VERTEX
  5
400
330
3FE
100
AcDbEntity
  8
Sichtbar (ISO)
100
AcDbVertex
100
AcDb2dVertex
 10
1708.230390249578
 20
851.3458409931445
 30
0.0
  0
VERTEX
  5
401
330
3FE
100
AcDbEntity
  8
Sichtbar (ISO)
100
AcDbVertex
100
AcDb2dVertex
 10
1708.175476592127
 20
851.3646161485285
 30
0.0
  0
VERTEX
  5
402
330
3FE
100
AcDbEntity
  8
Sichtbar (ISO)
100
AcDbVertex
100
AcDb2dVertex
 10
1708.12064340638
 20
851.3841646976452
 30
0.0
  0
VERTEX
  5
403
330
3FE
100
AcDbEntity
  8
Sichtbar (ISO)
100
AcDbVertex
100
AcDb2dVertex
 10
1708.065834610194
 20
851.4045062096883
 30
0.0
  0
VERTEX
  5
404
330
3FE
100
AcDbEntity
  8
Sichtbar (ISO)
100
AcDbVertex
100
AcDb2dVertex
 10
1708.010994404877
 20
851.4256611706478
 30
0.0
  0
VERTEX
  5
405
330
3FE
100
AcDbEntity
  8
Sichtbar (ISO)
100
AcDbVertex
100
AcDb2dVertex
 10
1707.956066857126
 20
851.4476521912147
 30
0.0
  0
VERTEX
  5
406
330
3FE
100
AcDbEntity
  8
Sichtbar (ISO)
100
AcDbVertex
100
AcDb2dVertex
 10
1707.900995661534
 20
851.4705034760446
 30
0.0
  0
VERTEX
  5
407
330
3FE
100
AcDbEntity
  8
Sichtbar (ISO)
100
AcDbVertex
100
AcDb2dVertex
 10
1707.845724005983
 20
851.4942408774404
 30
0.0
  0
VERTEX
  5
408
330
3FE
100
AcDbEntity
  8
Sichtbar (ISO)
100
AcDbVertex
100
AcDb2dVertex
 10
1707.790194511448
 20
851.5188926779574
 30
0.0
  0
VERTEX
  5
409
330
3FE
100
AcDbEntity
  8
Sichtbar (ISO)
100
AcDbVertex
100
AcDb2dVertex
 10
1707.73434884567
 20
851.5444888200999
 30
0.0
  0
VERTEX
  5
40A
330
3FE
100
AcDbEntity
  8
Sichtbar (ISO)
100
AcDbVertex
100
AcDb2dVertex
 10
1707.678127521234
 20
851.5710614132494
 30
0.0
  0
VERTEX
  5
40B
330
3FE
100
AcDbEntity
  8
Sichtbar (ISO)
100
AcDbVertex
100
AcDb2dVertex
 10
1707.621469909805
 20
851.5986452705638
 30
0.0
  0
VERTEX
  5
40C
330
3FE
100
AcDbEntity
  8
Sichtbar (ISO)
100
AcDbVertex
100
AcDb2dVertex
 10
1707.564313611182
 20
851.6272770095129
 30
0.0
  0
VERTEX
  5
40D
330
3FE
100
AcDbEntity
  8
Sichtbar (ISO)
100
AcDbVertex
100
AcDb2dVertex
 10
1707.506594666179
 20
851.656996550133
 30
0.0
  0
VERTEX
  5
40E
330
3FE
100
AcDbEntity
  8
Sichtbar (ISO)
100
AcDbVertex
100
AcDb2dVertex
 10
1707.448246918568
 20
851.6878460080206
 30
0.0
  0
VERTEX
  5
40F
330
3FE
100
AcDbEntity
  8
Sichtbar (ISO)
100
AcDbVertex
100
AcDb2dVertex
 10
1707.389202072005
 20
851.71987098916
 30
0.0
  0
VERTEX
  5
410
330
3FE
100
AcDbEntity
  8
Sichtbar (ISO)
100
AcDbVertex
100
AcDb2dVertex
 10
1707.329389126386
 20
851.7531200899812
 30
0.0
  0
VERTEX
  5
411
330
3FE
100
AcDbEntity
  8
Sichtbar (ISO)
100
AcDbVertex
100
AcDb2dVertex
 10
1707.2687343018
 20
851.7876452071796
 30
0.0
  0
VERTEX
  5
412
330
3FE
100
AcDbEntity
  8
Sichtbar (ISO)
100
AcDbVertex
100
AcDb2dVertex
 10
1707.207160569022
 20
851.8235022097487
 30
0.0
  0
VERTEX
  5
413
330
3FE
100
AcDbEntity
  8
Sichtbar (ISO)
100
AcDbVertex
100
AcDb2dVertex
 10
1707.14458730039
 20
851.8607506549543
 30
0.0
  0
VERTEX
  5
414
330
3FE
100
AcDbEntity
  8
Sichtbar (ISO)
100
AcDbVertex
100
AcDb2dVertex
 10
1707.080929991837
 20
851.8994549705457
 30
0.0
  0
VERTEX
  5
415
330
3FE
100
AcDbEntity
  8
Sichtbar (ISO)
100
AcDbVertex
100
AcDb2dVertex
 10
1707.01609972223
 20
851.9396835387306
 30
0.0
  0
VERTEX
  5
416
330
3FE
100
AcDbEntity
  8
Sichtbar (ISO)
100
AcDbVertex
100
AcDb2dVertex
 10
1706.950002778282
 20
851.9815105901653
 30
0.0
  0
VERTEX
  5
417
330
3FE
100
AcDbEntity
  8
Sichtbar (ISO)
100
AcDbVertex
100
AcDb2dVertex
 10
1706.882540072027
 20
852.0250150454321
 30
0.0
  0
SEQEND
  5
418
330
3FE
100
AcDbEntity
  8
Sichtbar (ISO)
  0
ELLIPSE
  5
419
330
1F
100
AcDbEntity
  8
Sichtbar (ISO)
100
AcDbEllipse
 10
1706.744684735922
 20
848.8929572432098
 30
0.0
 11
7.0
 21
-0.0000000000000003
 31
0.0
210
0.0
220
0.0
230
1.0
 40
0.5758617009853118
 41
3.141592653589793
 42
6.283185307179587
  0
LINE
  5
41A
330
1F
100
AcDbEntity
  8
Sichtbar (ISO)
100
AcDbLine
 10
1710.744684735922
 20
840.9979583569166
 30
0.0
 11
1710.744684735922
 21
833.1689201010266
 31
0.0
  0
LINE
  5
41B
330
1F
100
AcDbEntity
  8
Sichtbar (ISO)
100
AcDbLine
 10
1713.744684735922
 20
849.7513817242943
 30
0.0
 11
1713.744684735922
 21
848.8929572432098
 31
0.0
  0
LINE
  5
41C
330
1F
100
AcDbEntity
  8
Sichtbar (ISO)
100
AcDbLine
 10
1699.744684735922
 20
849.7513817242943
 30
0.0
 11
1699.744684735922
 21
848.8929572432098
 31
0.0
  0
DIMENSION
  5
41D
102
{ACAD_XDICTIONARY
360
41E
102
}
102
{ACAD_REACTORS
330
41F
102
}
330
1F
100
AcDbEntity
  8
S10_Quote
 62
     0
100
AcDbDimension
  2
*D4
 10
1710.641763279042
 20
890.1966130905311
 30
0.0
 11
1700.641763279042
 21
892.0119977059156
 31
0.0
 70
    32
 71
     5
 42
20.0
  3
mm 1_1
100
AcDbAlignedDimension
 13
1690.641763279042
 23
900.5186348227189
 33
0.0
 14
1710.641763279042
 24
900.5186348227189
 34
0.0
100
AcDbRotatedDimension
1001
ACAD
1000
DSTYLE
1002
{
1070
    49
1040
500.0
1070
   290
1070
     1
1070
   345
1005
15
1070
   346
1005
15
1070
   347
1005
15
1002
}
  0
ENDSEC
  0
SECTION
  2
OBJECTS
  0
DICTIONARY
  5
C
330
0
100
AcDbDictionary
281
     1
  3
ACAD_COLOR
350
6B
  3
ACAD_GROUP
350
D
  3
ACAD_LAYOUT
350
1A
  3
ACAD_MATERIAL
350
6A
  3
ACAD_MLEADERSTYLE
350
12D
  3
ACAD_MLINESTYLE
350
17
  3
ACAD_PLOTSETTINGS
350
19
  3
ACAD_PLOTSTYLENAME
350
E
  3
ACAD_SCALELIST
350
10C
  3
ACAD_TABLESTYLE
350
7E
  3
ACAD_VISUALSTYLE
350
EF
  3
ACDB_RECOMPOSE_DATA
350
432
  3
AcDbVariableDictionary
350
5E
  0
DICTIONARY
  5
219
330
2
100
AcDbDictionary
280
     1
281
     1
  3
ACAD_LAYERSTATES
360
21A
  0
DICTIONARY
  5
13C
330
10
100
AcDbDictionary
280
     1
281
     1
  0
DICTIONARY
  5
208
330
207
100
AcDbDictionary
280
     1
281
     1
  0
DICTIONARY
  5
20A
330
209
100
AcDbDictionary
280
     1
281
     1
  0
DICTIONARY
  5
20C
330
20B
100
AcDbDictionary
280
     1
281
     1
  0
DICTIONARY
  5
20E
330
20D
100
AcDbDictionary
280
     1
281
     1
  0
DICTIONARY
  5
1CE
330
1F
100
AcDbDictionary
280
     1
281
     1
  0
DICTIONARY
  5
1F5
330
1F4
100
AcDbDictionary
280
     1
281
     1
  0
DICTIONARY
  5
41E
330
41D
100
AcDbDictionary
280
     1
281
     1
  3
ACAD_DIMASSOC
360
41F
  0
DICTIONARY
  5
6B
102
{ACAD_REACTORS
330
C
102
}
330
C
100
AcDbDictionary
281
     1
  0
DICTIONARY
  5
D
102
{ACAD_REACTORS
330
C
102
}
330
C
100
AcDbDictionary
281
     1
  0
DICTIONARY
  5
1A
102
{ACAD_REACTORS
330
C
102
}
330
C
100
AcDbDictionary
281
     1
  3
Layout1
350
D3
  3
Layout2
350
D7
  3
Model
350
22
  0
DICTIONARY
  5
6A
102
{ACAD_REACTORS
330
C
102
}
330
C
100
AcDbDictionary
281
     1
  3
ByBlock
350
ED
  3
ByLayer
350
EC
  3
Global
350
EE
  0
DICTIONARY
  5
12D
102
{ACAD_REACTORS
330
C
102
}
330
C
100
AcDbDictionary
281
     1
  3
Annotativa
350
13B
  3
Standard
350
12E
  0
DICTIONARY
  5
17
102
{ACAD_REACTORS
330
C
102
}
330
C
100
AcDbDictionary
281
     1
  3
Standard
350
18
  0
DICTIONARY
  5
19
102
{ACAD_REACTORS
330
C
102
}
330
C
100
AcDbDictionary
281
     1
  0
ACDBDICTIONARYWDFLT
  5
E
102
{ACAD_REACTORS
330
C
102
}
330
C
100
AcDbDictionary
281
     1
  3
Normal
350
F
100
AcDbDictionaryWithDefault
340
F
  0
DICTIONARY
  5
10C
102
{ACAD_REACTORS
330
C
102
}
330
C
100
AcDbDictionary
281
     1
  3
A0
350
10D
  3
A1
350
1BE
  3
A2
350
1BF
  3
A3
350
1C0
  3
A4
350
1C1
  3
A5
350
1C2
  3
A6
350
1C3
  3
A7
350
1C4
  3
A8
350
1C5
  3
A9
350
1C6
  3
B0
350
1C7
  3
B1
350
1C8
  3
B2
350
1C9
  3
B3
350
1CA
  3
B4
350
1CB
  3
B5
350
1CC
  3
B6
350
1CD
  0
DICTIONARY
  5
7E
102
{ACAD_REACTORS
330
C
102
}
330
C
100
AcDbDictionary
281
     1
  3
Standard
350
7F
  0
DICTIONARY
  5
EF
102
{ACAD_REACTORS
330
C
102
}
330
C
100
AcDbDictionary
281
     1
  3
2dWireframe
350
F5
  3
3D Hidden
350
F7
  3
3dWireframe
350
F6
  3
Basic
350
F4
  3
Brighten
350
FB
  3
ColorChange
350
FF
  3
Conceptual
350
F8
  3
Dim
350
FA
  3
EdgeColorOff
350
1E6
  3
Facepattern
350
FE
  3
Flat
350
F0
  3
FlatWithEdges
350
F1
  3
Gouraud
350
F2
  3
GouraudWithEdges
350
F3
  3
JitterOff
350
1E4
  3
Linepattern
350
FD
  3
OverhangOff
350
1E5
  3
Realistic
350
F9
  3
Thicken
350
FC
  0
XRECORD
  5
432
102
{ACAD_REACTORS
330
C
102
}
330
C
100
AcDbXrecord
280
     1
 90
        1
330
7F
  0
DICTIONARY
  5
5E
102
{ACAD_REACTORS
330
C
102
}
330
C
100
AcDbDictionary
281
     1
  3
CANNOSCALE
350
146
  3
CMLEADERSTYLE
350
145
  3
CTABLESTYLE
350
84
  3
DIMASSOC
350
5F
  3
HIDETEXT
350
63
  3
LAYEREVAL
350
1AE
  3
LAYERNOTIFY
350
1AF
  3
LIGHTINGUNITS
350
42D
  3
MSLTSCALE
350
42C
  3
PSOLHEIGHT
350
42F
  3
PSOLWIDTH
350
42E
  3
XCLIPFRAME
350
430
  0
DICTIONARY
  5
21A
102
{ACAD_REACTORS
330
219
102
}
330
219
100
AcDbDictionary
281
     1
  0
DIMASSOC
  5
41F
102
{ACAD_REACTORS
330
41E
102
}
330
41E
100
AcDbDimAssoc
330
41D
 90
        3
 70
     0
 71
     0
  1
AcDbOsnapPointRef
 72
     1
331
36B
 73
     2
 91
        1
 40
1.0
 10
0.0
 20
0.0
 30
2.000000000000000E+50
 75
     0
  1
AcDbOsnapPointRef
 72
     1
331
36B
 73
     2
 91
        2
 40
1.0
 10
0.0
 20
0.0
 30
2.000000000000000E+50
 75
     0
  0
LAYOUT
  5
D3
102
{ACAD_REACTORS
330
1A
102
}
330
1A
100
AcDbPlotSettings
  1

  2
C:\Documents and Settings\basas\Application Data\Autodesk\AutoCAD 2005\R16.1\enu\plotters\Default Windows System Printer.pc3
  4

  6

 40
0.0
 41
0.0
 42
0.0
 43
0.0
 44
0.0
 45
0.0
 46
0.0
 47
0.0
 48
0.0
 49
0.0
140
0.0
141
0.0
142
1.0
143
1.0
 70
   688
 72
     0
 73
     0
 74
     5
  7

 75
    16
147
1.0
 76
     0
 77
     2
 78
   300
148
0.0
149
0.0
100
AcDbLayout
  1
Layout1
 70
     1
 71
     1
 10
0.0
 20
0.0
 11
12.0
 21
9.0
 12
0.0
 22
0.0
 32
0.0
 14
0.0
 24
0.0
 34
0.0
 15
0.0
 25
0.0
 35
0.0
146
0.0
 13
0.0
 23
0.0
 33
0.0
 16
1.0
 26
0.0
 36
0.0
 17
0.0
 27
1.0
 37
0.0
 76
     0
330
D2
  0
LAYOUT
  5
D7
102
{ACAD_REACTORS
330
1A
102
}
330
1A
100
AcDbPlotSettings
  1

  2
C:\Documents and Settings\basas\Application Data\Autodesk\AutoCAD 2005\R16.1\enu\plotters\Default Windows System Printer.pc3
  4

  6

 40
0.0
 41
0.0
 42
0.0
 43
0.0
 44
0.0
 45
0.0
 46
0.0
 47
0.0
 48
0.0
 49
0.0
140
0.0
141
0.0
142
1.0
143
1.0
 70
   688
 72
     0
 73
     0
 74
     5
  7

 75
    16
147
1.0
 76
     0
 77
     2
 78
   300
148
0.0
149
0.0
100
AcDbLayout
  1
Layout2
 70
     1
 71
     2
 10
0.0
 20
0.0
 11
12.0
 21
9.0
 12
0.0
 22
0.0
 32
0.0
 14
0.0
 24
0.0
 34
0.0
 15
0.0
 25
0.0
 35
0.0
146
0.0
 13
0.0
 23
0.0
 33
0.0
 16
1.0
 26
0.0
 36
0.0
 17
0.0
 27
1.0
 37
0.0
 76
     0
330
D6
  0
LAYOUT
  5
22
102
{ACAD_REACTORS
330
1A
102
}
330
1A
100
AcDbPlotSettings
  1

  2
none_device
  4
ISO_A4_(210.00_x_297.00_MM)
  6

 40
7.5
 41
20.0
 42
7.5
 43
20.0
 44
210.0
 45
297.0
 46
11.54999923706054
 47
-13.65000009536743
 48
0.0
 49
0.0
140
0.0
141
0.0
142
1.0
143
8.704084754739808
 70
 11952
 72
     1
 73
     0
 74
     0
  7

 75
     0
147
0.1148885871608098
 76
     0
 77
     2
 78
   300
148
0.0
149
0.0
100
AcDbLayout
  1
Model
 70
     1
 71
     0
 10
0.0
 20
0.0
 11
12.0
 21
9.0
 12
0.0
 22
0.0
 32
0.0
 14
0.0
 24
0.0
 34
0.0
 15
0.0
 25
0.0
 35
0.0
146
0.0
 13
0.0
 23
0.0
 33
0.0
 16
1.0
 26
0.0
 36
0.0
 17
0.0
 27
1.0
 37
0.0
 76
     0
330
1F
331
EA
1001
ACAD_PSEXT
1000
None
1000
None
1000
Not applicable
1000
The layout will not be plotted unless a new plotter configuration name is selected.
1070
     0
  0
MATERIAL
  5
ED
102
{ACAD_XDICTIONARY
360
436
102
}
102
{ACAD_REACTORS
330
6A
102
}
330
6A
100
AcDbMaterial
  1
ByBlock
  0
MATERIAL
  5
EC
102
{ACAD_XDICTIONARY
360
434
102
}
102
{ACAD_REACTORS
330
6A
102
}
330
6A
100
AcDbMaterial
  1
ByLayer
  0
MATERIAL
  5
EE
102
{ACAD_XDICTIONARY
360
173
102
}
102
{ACAD_REACTORS
330
6A
102
}
330
6A
100
AcDbMaterial
  1
Global
 43
0.0007999999797903
 43
0.0
 43
0.0
 43
0.0
 43
0.0
 43
0.0007999999797903
 43
0.0
 43
0.0
 43
0.0
 43
0.0
 43
1.0
 43
0.0
 43
0.0
 43
0.0
 43
0.0
 43
1.0
 49
0.0007999999797903
 49
0.0
 49
0.0
 49
0.0
 49
0.0
 49
0.0007999999797903
 49
0.0
 49
0.0
 49
0.0
 49
0.0
 49
1.0
 49
0.0
 49
0.0
 49
0.0
 49
0.0
 49
1.0
142
0.0007999999797903
142
0.0
142
0.0
142
0.0
142
0.0
142
0.0007999999797903
142
0.0
142
0.0
142
0.0
142
0.0
142
1.0
142
0.0
142
0.0
142
0.0
142
0.0
142
1.0
144
0.0007999999797903
144
0.0
144
0.0
144
0.0
144
0.0
144
0.0007999999797903
144
0.0
144
0.0
144
0.0
144
0.0
144
1.0
144
0.0
144
0.0
144
0.0
144
0.0
144
1.0
1001
ACAD
1070
    -1
1070
     3
1070
     0
1000

1071
        0
1070
     0
  0
MLEADERSTYLE
  5
13B
102
{ACAD_REACTORS
330
12D
102
}
330
12D
100
AcDbMLeaderStyle
170
     2
171
     1
172
     0
 90
        2
 40
0.0
 41
0.0
173
     1
 91
-1056964608
340
14
 92
       -2
290
     1
 42
2.0
291
     1
 43
8.0
  3
Standard
 44
4.0
300

342
11
174
     1
178
     1
175
     1
176
     0
 93
-1056964608
 45
4.0
292
     0
297
     0
 46
4.0
 94
-1056964608
 47
1.0
 49
1.0
140
1.0
293
     1
141
0.0
294
     1
177
     0
142
1.0
295
     0
296
     1
143
3.75
1001
ACAD_MLEADERVER
1070
     2
  0
MLEADERSTYLE
  5
12E
102
{ACAD_REACTORS
330
12D
102
}
330
12D
100
AcDbMLeaderStyle
170
     2
171
     1
172
     0
 90
        2
 40
0.0
 41
0.0
173
     1
 91
-1056964608
340
14
 92
       -2
290
     1
 42
2.0
291
     1
 43
8.0
  3
Standard
 44
4.0
300

342
11
174
     1
178
     1
175
     1
176
     0
 93
-1056964608
 45
4.0
292
     0
297
     0
 46
4.0
 94
-1056964608
 47
1.0
 49
1.0
140
1.0
293
     1
141
0.0
294
     1
177
     0
142
1.0
295
     0
296
     0
143
3.75
1001
ACAD_MLEADERVER
1070
     2
  0
MLINESTYLE
  5
18
102
{ACAD_REACTORS
330
17
102
}
330
17
100
AcDbMlineStyle
  2
STANDARD
 70
     0
  3

 62
   256
 51
90.0
 52
90.0
 71
     2
 49
0.5
 62
   256
  6
BYLAYER
 49
-0.5
 62
   256
  6
BYLAYER
  0
ACDBPLACEHOLDER
  5
F
102
{ACAD_REACTORS
330
E
102
}
330
E
  0
SCALE
  5
10D
102
{ACAD_REACTORS
330
10C
102
}
330
10C
100
AcDbScale
 70
     0
300
1:1
140
1.0
141
1.0
290
     1
  0
SCALE
  5
1BE
102
{ACAD_REACTORS
330
10C
102
}
330
10C
100
AcDbScale
 70
     0
300
1:2
140
1.0
141
2.0
290
     0
  0
SCALE
  5
1BF
102
{ACAD_REACTORS
330
10C
102
}
330
10C
100
AcDbScale
 70
     0
300
1:4
140
1.0
141
4.0
290
     0
  0
SCALE
  5
1C0
102
{ACAD_REACTORS
330
10C
102
}
330
10C
100
AcDbScale
 70
     0
300
1:5
140
1.0
141
5.0
290
     0
  0
SCALE
  5
1C1
102
{ACAD_REACTORS
330
10C
102
}
330
10C
100
AcDbScale
 70
     0
300
1:8
140
1.0
141
8.0
290
     0
  0
SCALE
  5
1C2
102
{ACAD_REACTORS
330
10C
102
}
330
10C
100
AcDbScale
 70
     0
300
1:10
140
1.0
141
10.0
290
     0
  0
SCALE
  5
1C3
102
{ACAD_REACTORS
330
10C
102
}
330
10C
100
AcDbScale
 70
     0
300
1:16
140
1.0
141
16.0
290
     0
  0
SCALE
  5
1C4
102
{ACAD_REACTORS
330
10C
102
}
330
10C
100
AcDbScale
 70
     0
300
1:20
140
1.0
141
20.0
290
     0
  0
SCALE
  5
1C5
102
{ACAD_REACTORS
330
10C
102
}
330
10C
100
AcDbScale
 70
     0
300
1:30
140
1.0
141
30.0
290
     0
  0
SCALE
  5
1C6
102
{ACAD_REACTORS
330
10C
102
}
330
10C
100
AcDbScale
 70
     0
300
1:40
140
1.0
141
40.0
290
     0
  0
SCALE
  5
1C7
102
{ACAD_REACTORS
330
10C
102
}
330
10C
100
AcDbScale
 70
     0
300
1:50
140
1.0
141
50.0
290
     0
  0
SCALE
  5
1C8
102
{ACAD_REACTORS
330
10C
102
}
330
10C
100
AcDbScale
 70
     0
300
1:100
140
1.0
141
100.0
290
     0
  0
SCALE
  5
1C9
102
{ACAD_REACTORS
330
10C
102
}
330
10C
100
AcDbScale
 70
     0
300
2:1
140
2.0
141
1.0
290
     0
  0
SCALE
  5
1CA
102
{ACAD_REACTORS
330
10C
102
}
330
10C
100
AcDbScale
 70
     0
300
4:1
140
4.0
141
1.0
290
     0
  0
SCALE
  5
1CB
102
{ACAD_REACTORS
330
10C
102
}
330
10C
100
AcDbScale
 70
     0
300
8:1
140
8.0
141
1.0
290
     0
  0
SCALE
  5
1CC
102
{ACAD_REACTORS
330
10C
102
}
330
10C
100
AcDbScale
 70
     0
300
10:1
140
10.0
141
1.0
290
     0
  0
SCALE
  5
1CD
102
{ACAD_REACTORS
330
10C
102
}
330
10C
100
AcDbScale
 70
     0
300
100:1
140
100.0
141
1.0
290
     0
  0
TABLESTYLE
  5
7F
102
{ACAD_XDICTIONARY
360
162
102
}
102
{ACAD_REACTORS
330
7E
102
}
330
7E
100
AcDbTableStyle
  3
Standard
 70
     0
 71
     0
 40
1.5
 41
1.5
280
     0
281
     0
  7
Standard
140
4.5
170
     2
 62
     0
 63
     7
283
     0
274
    -2
284
     1
 64
     0
275
    -2
285
     1
 65
     0
276
    -2
286
     1
 66
     0
277
    -2
287
     1
 67
     0
278
    -2
288
     1
 68
     0
279
    -2
289
     1
 69
     0
  7
Standard
140
6.0
170
     5
 62
     0
 63
     7
283
     0
274
    -2
284
     1
 64
     0
275
    -2
285
     1
 65
     0
276
    -2
286
     1
 66
     0
277
    -2
287
     1
 67
     0
278
    -2
288
     1
 68
     0
279
    -2
289
     1
 69
     0
  7
Standard
140
4.5
170
     5
 62
     0
 63
     7
283
     0
274
    -2
284
     1
 64
     0
275
    -2
285
     1
 65
     0
276
    -2
286
     1
 66
     0
277
    -2
287
     1
 67
     0
278
    -2
288
     1
 68
     0
279
    -2
289
     1
 69
     0
  0
VISUALSTYLE
  5
F5
102
{ACAD_XDICTIONARY
360
443
102
}
102
{ACAD_REACTORS
330
EF
102
}
330
EF
100
AcDbVisualStyle
  2
2dWireframe
 70
     4
 71
     0
 72
     2
 73
     1
 90
        0
 40
-0.6
 41
-30.0
 62
     5
 63
     7
421
 16777215
 74
     1
 91
        4
 64
     7
 65
   257
 75
     1
175
     1
 42
1.0
 92
        0
 66
   257
 43
1.0
 76
     1
 77
     6
 78
     2
 67
     7
 79
     5
170
     0
171
     0
290
     0
174
     0
 93
        1
 44
0.0
173
     0
291
     0
 45
0.0
1001
ACAD
1000
AcDbSavedByObjectVersion
1070
     0
  0
VISUALSTYLE
  5
F7
102
{ACAD_XDICTIONARY
360
447
102
}
102
{ACAD_REACTORS
330
EF
102
}
330
EF
100
AcDbVisualStyle
  2
3D Hidden
 70
     6
 71
     1
 72
     2
 73
     2
 90
        0
 40
-0.6
 41
-30.0
 62
     5
 63
     7
421
 16777215
 74
     2
 91
        2
 64
     7
 65
   257
 75
     2
175
     1
 42
40.0
 92
        0
 66
   257
 43
1.0
 76
     1
 77
     6
 78
     2
 67
     7
 79
     3
170
     0
171
     0
290
     0
174
     0
 93
        1
 44
0.0
173
     0
291
     0
 45
0.0
1001
ACAD
1000
AcDbSavedByObjectVersion
1070
     0
  0
VISUALSTYLE
  5
F6
102
{ACAD_XDICTIONARY
360
445
102
}
102
{ACAD_REACTORS
330
EF
102
}
330
EF
100
AcDbVisualStyle
  2
3dWireframe
 70
     5
 71
     0
 72
     2
 73
     1
 90
        0
 40
-0.6
 41
-30.0
 62
     5
 63
     7
421
 16777215
 74
     1
 91
        4
 64
     7
 65
   257
 75
     1
175
     1
 42
1.0
 92
        0
 66
   257
 43
1.0
 76
     1
 77
     6
 78
     2
 67
     7
 79
     5
170
     0
171
     0
290
     0
174
     0
 93
        1
 44
0.0
173
     0
291
     0
 45
0.0
1001
ACAD
1000
AcDbSavedByObjectVersion
1070
     0
  0
VISUALSTYLE
  5
F4
102
{ACAD_XDICTIONARY
360
441
102
}
102
{ACAD_REACTORS
330
EF
102
}
330
EF
100
AcDbVisualStyle
  2
Basic
 70
     7
 71
     1
 72
     0
 73
     1
 90
        0
 40
-0.6
 41
-30.0
 62
     5
 63
     7
421
 16777215
 74
     0
 91
        4
 64
     7
 65
   257
 75
     1
175
     1
 42
1.0
 92
        8
 66
     7
 43
1.0
 76
     1
 77
     6
 78
     2
 67
     7
 79
     5
170
     0
171
     0
290
     0
174
     0
 93
        1
 44
0.0
173
     0
291
     1
 45
0.0
1001
ACAD
1000
AcDbSavedByObjectVersion
1070
     0
  0
VISUALSTYLE
  5
FB
102
{ACAD_XDICTIONARY
360
44F
102
}
102
{ACAD_REACTORS
330
EF
102
}
330
EF
100
AcDbVisualStyle
  2
Brighten
 70
    12
 71
     2
 72
     2
 73
     1
 90
        0
 40
-0.6
 41
-30.0
 62
     5
 63
     7
421
 16777215
 74
     1
 91
        4
 64
     7
 65
   257
 75
     1
175
     1
 42
1.0
 92
        8
 66
     7
 43
1.0
 76
     1
 77
     6
 78
     2
 67
     7
 79
     5
170
     0
171
     0
290
     0
174
     0
 93
        1
 44
50.0
173
     0
291
     1
 45
0.0
1001
ACAD
1000
AcDbSavedByObjectVersion
1070
     0
  0
VISUALSTYLE
  5
FF
102
{ACAD_XDICTIONARY
360
457
102
}
102
{ACAD_REACTORS
330
EF
102
}
330
EF
100
AcDbVisualStyle
  2
ColorChange
 70
    16
 71
     2
 72
     2
 73
     3
 90
        0
 40
-0.6
 41
-30.0
 62
     5
 63
     8
421
  8421504
 74
     1
 91
        4
 64
     7
 65
   257
 75
     1
175
     1
 42
1.0
 92
        8
 66
     8
424
  8421504
 43
1.0
 76
     1
 77
     6
 78
     2
 67
     7
 79
     5
170
     0
171
     0
290
     0
174
     0
 93
        1
 44
0.0
173
     0
291
     1
 45
0.0
1001
ACAD
1000
AcDbSavedByObjectVersion
1070
     0
  0
VISUALSTYLE
  5
F8
102
{ACAD_XDICTIONARY
360
449
102
}
102
{ACAD_REACTORS
330
EF
102
}
330
EF
100
AcDbVisualStyle
  2
Conceptual
 70
     9
 71
     3
 72
     2
 73
     1
 90
        0
 40
-0.6
 41
-30.0
 62
     5
 63
     7
421
 16777215
 74
     2
 91
        2
 64
     7
 65
   257
 75
     1
175
     1
 42
40.0
 92
        8
 66
     7
 43
1.0
 76
     1
 77
     6
 78
     2
 67
     7
 79
     3
170
     0
171
     0
290
     0
174
     0
 93
        1
 44
0.0
173
     0
291
     0
 45
0.0
1001
ACAD
1000
AcDbSavedByObjectVersion
1070
     0
  0
VISUALSTYLE
  5
FA
102
{ACAD_XDICTIONARY
360
44D
102
}
102
{ACAD_REACTORS
330
EF
102
}
330
EF
100
AcDbVisualStyle
  2
Dim
 70
    11
 71
     2
 72
     2
 73
     1
 90
        0
 40
-0.6
 41
-30.0
 62
     5
 63
     7
421
 16777215
 74
     1
 91
        4
 64
     7
 65
   257
 75
     1
175
     1
 42
1.0
 92
        8
 66
     7
 43
1.0
 76
     1
 77
     6
 78
     2
 67
     7
 79
     5
170
     0
171
     0
290
     0
174
     0
 93
        1
 44
-50.0
173
     0
291
     1
 45
0.0
1001
ACAD
1000
AcDbSavedByObjectVersion
1070
     0
  0
VISUALSTYLE
  5
1E6
102
{ACAD_XDICTIONARY
360
45D
102
}
102
{ACAD_REACTORS
330
EF
102
}
330
EF
100
AcDbVisualStyle
  2
EdgeColorOff
 70
    22
 71
     2
 72
     2
 73
     0
 90
        0
 40
-0.6
 41
-30.0
 62
     5
 63
     7
421
 16777215
 74
     1
 91
        4
 64
     7
 65
   257
 75
     1
175
     1
 42
1.0
 92
        8
 66
     7
 43
1.0
 76
     1
 77
     6
 78
     2
 67
     7
 79
     5
170
     0
171
     0
290
     0
174
     0
 93
        1
 44
0.0
173
     0
291
     1
 45
0.0
1001
ACAD
1000
AcDbSavedByObjectVersion
1070
     0
  0
VISUALSTYLE
  5
FE
102
{ACAD_XDICTIONARY
360
455
102
}
102
{ACAD_REACTORS
330
EF
102
}
330
EF
100
AcDbVisualStyle
  2
Facepattern
 70
    15
 71
     2
 72
     2
 73
     1
 90
        0
 40
-0.6
 41
-30.0
 62
     5
 63
     7
421
 16777215
 74
     1
 91
        4
 64
     7
 65
   257
 75
     1
175
     1
 42
1.0
 92
        8
 66
     7
 43
1.0
 76
     1
 77
     6
 78
     2
 67
     7
 79
     5
170
     0
171
     0
290
     0
174
     0
 93
        1
 44
0.0
173
     0
291
     1
 45
0.0
1001
ACAD
1000
AcDbSavedByObjectVersion
1070
     0
  0
VISUALSTYLE
  5
F0
102
{ACAD_XDICTIONARY
360
439
102
}
102
{ACAD_REACTORS
330
EF
102
}
330
EF
100
AcDbVisualStyle
  2
Flat
 70
     0
 71
     2
 72
     1
 73
     1
 90
        2
 40
-0.6
 41
30.0
 62
     5
 63
     7
421
 16777215
 74
     0
 91
        4
 64
     7
 65
   257
 75
     1
175
     1
 42
1.0
 92
        8
 66
     7
 43
1.0
 76
     1
 77
     6
 78
     2
 67
     7
 79
     5
170
     0
171
     0
290
     0
174
     0
 93
        1
 44
0.0
173
     0
291
     1
 45
0.0
1001
ACAD
1000
AcDbSavedByObjectVersion
1070
     0
  0
VISUALSTYLE
  5
F1
102
{ACAD_XDICTIONARY
360
43B
102
}
102
{ACAD_REACTORS
330
EF
102
}
330
EF
100
AcDbVisualStyle
  2
FlatWithEdges
 70
     1
 71
     2
 72
     1
 73
     1
 90
        2
 40
-0.6
 41
30.0
 62
     5
 63
     7
421
 16777215
 74
     1
 91
        4
 64
     7
 65
   257
 75
     1
175
     1
 42
1.0
 92
        0
 66
   257
 43
1.0
 76
     1
 77
     6
 78
     2
 67
     7
 79
     5
170
     0
171
     0
290
     0
174
     0
 93
        1
 44
0.0
173
     0
291
     1
 45
0.0
1001
ACAD
1000
AcDbSavedByObjectVersion
1070
     0
  0
VISUALSTYLE
  5
F2
102
{ACAD_XDICTIONARY
360
43D
102
}
102
{ACAD_REACTORS
330
EF
102
}
330
EF
100
AcDbVisualStyle
  2
Gouraud
 70
     2
 71
     2
 72
     2
 73
     1
 90
        2
 40
-0.6
 41
30.0
 62
     5
 63
     7
421
 16777215
 74
     0
 91
        4
 64
     7
 65
   257
 75
     1
175
     1
 42
1.0
 92
        0
 66
     7
 43
1.0
 76
     1
 77
     6
 78
     2
 67
     7
 79
     5
170
     0
171
     0
290
     0
174
     0
 93
        1
 44
0.0
173
     0
291
     1
 45
0.0
1001
ACAD
1000
AcDbSavedByObjectVersion
1070
     0
  0
VISUALSTYLE
  5
F3
102
{ACAD_XDICTIONARY
360
43F
102
}
102
{ACAD_REACTORS
330
EF
102
}
330
EF
100
AcDbVisualStyle
  2
GouraudWithEdges
 70
     3
 71
     2
 72
     2
 73
     1
 90
        2
 40
-0.6
 41
30.0
 62
     5
 63
     7
421
 16777215
 74
     1
 91
        4
 64
     7
 65
   257
 75
     1
175
     1
 42
1.0
 92
        0
 66
   257
 43
1.0
 76
     1
 77
     6
 78
     2
 67
     7
 79
     5
170
     0
171
     0
290
     0
174
     0
 93
        1
 44
0.0
173
     0
291
     1
 45
0.0
1001
ACAD
1000
AcDbSavedByObjectVersion
1070
     0
  0
VISUALSTYLE
  5
1E4
102
{ACAD_XDICTIONARY
360
459
102
}
102
{ACAD_REACTORS
330
EF
102
}
330
EF
100
AcDbVisualStyle
  2
JitterOff
 70
    20
 71
     2
 72
     2
 73
     0
 90
        0
 40
-0.6
 41
-30.0
 62
     5
 63
     7
421
 16777215
 74
     1
 91
        4
 64
     7
 65
   257
 75
     1
175
     1
 42
1.0
 92
       10
 66
     7
 43
1.0
 76
     1
 77
     6
 78
     2
 67
     7
 79
     5
170
     0
171
     0
290
     0
174
     0
 93
        1
 44
0.0
173
     0
291
     1
 45
0.0
1001
ACAD
1000
AcDbSavedByObjectVersion
1070
     0
  0
VISUALSTYLE
  5
FD
102
{ACAD_XDICTIONARY
360
453
102
}
102
{ACAD_REACTORS
330
EF
102
}
330
EF
100
AcDbVisualStyle
  2
Linepattern
 70
    14
 71
     2
 72
     2
 73
     1
 90
        0
 40
-0.6
 41
-30.0
 62
     5
 63
     7
421
 16777215
 74
     1
 91
        4
 64
     7
 65
   257
 75
     7
175
     7
 42
1.0
 92
        8
 66
     7
 43
1.0
 76
     1
 77
     6
 78
     2
 67
     7
 79
     5
170
     0
171
     0
290
     0
174
     0
 93
        1
 44
0.0
173
     0
291
     1
 45
0.0
1001
ACAD
1000
AcDbSavedByObjectVersion
1070
     0
  0
VISUALSTYLE
  5
1E5
102
{ACAD_XDICTIONARY
360
45B
102
}
102
{ACAD_REACTORS
330
EF
102
}
330
EF
100
AcDbVisualStyle
  2
OverhangOff
 70
    21
 71
     2
 72
     2
 73
     0
 90
        0
 40
-0.6
 41
-30.0
 62
     5
 63
     7
421
 16777215
 74
     1
 91
        4
 64
     7
 65
   257
 75
     1
175
     1
 42
1.0
 92
        9
 66
     7
 43
1.0
 76
     1
 77
     6
 78
     2
 67
     7
 79
     5
170
     0
171
     0
290
     0
174
     0
 93
        1
 44
0.0
173
     0
291
     1
 45
0.0
1001
ACAD
1000
AcDbSavedByObjectVersion
1070
     0
  0
VISUALSTYLE
  5
F9
102
{ACAD_XDICTIONARY
360
44B
102
}
102
{ACAD_REACTORS
330
EF
102
}
330
EF
100
AcDbVisualStyle
  2
Realistic
 70
     8
 71
     2
 72
     2
 73
     1
 90
        0
 40
-0.6
 41
-30.0
 62
     5
 63
     7
421
 16777215
 74
     1
 91
        0
 64
     7
 65
   257
 75
     1
175
     1
 42
1.0
 92
        8
 66
     8
424
  7895160
 43
1.0
 76
     1
 77
     6
 78
     2
 67
     7
 79
     5
170
     0
171
     0
290
     0
174
     0
 93
       13
 44
0.0
173
     0
291
     0
 45
0.0
1001
ACAD
1000
AcDbSavedByObjectVersion
1070
     0
  0
VISUALSTYLE
  5
FC
102
{ACAD_XDICTIONARY
360
451
102
}
102
{ACAD_REACTORS
330
EF
102
}
330
EF
100
AcDbVisualStyle
  2
Thicken
 70
    13
 71
     2
 72
     2
 73
     1
 90
        0
 40
-0.6
 41
-30.0
 62
     5
 63
     7
421
 16777215
 74
     1
 91
        4
 64
     7
 65
   257
 75
     1
175
     1
 42
1.0
 92
       12
 66
     7
 43
1.0
 76
     1
 77
     6
 78
     2
 67
     7
 79
     5
170
     0
171
     0
290
     0
174
     0
 93
        1
 44
0.0
173
     0
291
     1
 45
0.0
1001
ACAD
1000
AcDbSavedByObjectVersion
1070
     0
  0
DICTIONARYVAR
  5
146
102
{ACAD_REACTORS
330
5E
102
}
330
5E
100
DictionaryVariables
280
     0
  1
1:1
  0
DICTIONARYVAR
  5
145
102
{ACAD_REACTORS
330
5E
102
}
330
5E
100
DictionaryVariables
280
     0
  1
STANDARD
  0
DICTIONARYVAR
  5
84
102
{ACAD_REACTORS
330
5E
102
}
330
5E
100
DictionaryVariables
280
     0
  1
STANDARD
  0
DICTIONARYVAR
  5
5F
102
{ACAD_REACTORS
330
5E
102
}
330
5E
100
DictionaryVariables
280
     0
  1
2
  0
DICTIONARYVAR
  5
63
102
{ACAD_REACTORS
330
5E
102
}
330
5E
100
DictionaryVariables
280
     0
  1
1
  0
DICTIONARYVAR
  5
1AE
102
{ACAD_REACTORS
330
5E
102
}
330
5E
100
DictionaryVariables
280
     0
  1
0
  0
DICTIONARYVAR
  5
1AF
102
{ACAD_REACTORS
330
5E
102
}
330
5E
100
DictionaryVariables
280
     0
  1
0
  0
DICTIONARYVAR
  5
42D
102
{ACAD_REACTORS
330
5E
102
}
330
5E
100
DictionaryVariables
280
     0
  1
2
  0
DICTIONARYVAR
  5
42C
102
{ACAD_REACTORS
330
5E
102
}
330
5E
100
DictionaryVariables
280
     0
  1
1
  0
DICTIONARYVAR
  5
42F
102
{ACAD_REACTORS
330
5E
102
}
330
5E
100
DictionaryVariables
280
     0
  1
80.000000
  0
DICTIONARYVAR
  5
42E
102
{ACAD_REACTORS
330
5E
102
}
330
5E
100
DictionaryVariables
280
     0
  1
5.000000
  0
DICTIONARYVAR
  5
430
102
{ACAD_REACTORS
330
5E
102
}
330
5E
100
DictionaryVariables
280
     0
  1
2
  0
DICTIONARY
  5
436
330
ED
100
AcDbDictionary
280
     1
281
     1
  3
ACAD_XREC_ROUNDTRIP
360
437
  0
DICTIONARY
  5
434
330
EC
100
AcDbDictionary
280
     1
281
     1
  3
ACAD_XREC_ROUNDTRIP
360
435
  0
DICTIONARY
  5
173
330
EE
100
AcDbDictionary
280
     1
281
     1
  3
ACAD_XREC_ROUNDTRIP
360
438
  3
BUMPTILE
360
175
  3
DIFFUSETILE
360
174
  3
OPACITYTILE
360
176
  3
REFLECTIONTILE
360
177
  0
DICTIONARY
  5
162
330
7F
100
AcDbDictionary
280
     1
281
     1
  3
ACAD_ROUNDTRIP_2008_TABLESTYLE_CELLSTYLEMAP
360
431
  3
ACAD_XREC_ROUNDTRIP
360
433
  0
DICTIONARY
  5
443
330
F5
100
AcDbDictionary
280
     1
281
     1
  3
ACAD_XREC_ROUNDTRIP
360
444
  0
DICTIONARY
  5
447
330
F7
100
AcDbDictionary
280
     1
281
     1
  3
ACAD_XREC_ROUNDTRIP
360
448
  0
DICTIONARY
  5
445
330
F6
100
AcDbDictionary
280
     1
281
     1
  3
ACAD_XREC_ROUNDTRIP
360
446
  0
DICTIONARY
  5
441
330
F4
100
AcDbDictionary
280
     1
281
     1
  3
ACAD_XREC_ROUNDTRIP
360
442
  0
DICTIONARY
  5
44F
330
FB
100
AcDbDictionary
280
     1
281
     1
  3
ACAD_XREC_ROUNDTRIP
360
450
  0
DICTIONARY
  5
457
330
FF
100
AcDbDictionary
280
     1
281
     1
  3
ACAD_XREC_ROUNDTRIP
360
458
  0
DICTIONARY
  5
449
330
F8
100
AcDbDictionary
280
     1
281
     1
  3
ACAD_XREC_ROUNDTRIP
360
44A
  0
DICTIONARY
  5
44D
330
FA
100
AcDbDictionary
280
     1
281
     1
  3
ACAD_XREC_ROUNDTRIP
360
44E
  0
DICTIONARY
  5
45D
330
1E6
100
AcDbDictionary
280
     1
281
     1
  3
ACAD_XREC_ROUNDTRIP
360
45E
  0
DICTIONARY
  5
455
330
FE
100
AcDbDictionary
280
     1
281
     1
  3
ACAD_XREC_ROUNDTRIP
360
456
  0
DICTIONARY
  5
439
330
F0
100
AcDbDictionary
280
     1
281
     1
  3
ACAD_XREC_ROUNDTRIP
360
43A
  0
DICTIONARY
  5
43B
330
F1
100
AcDbDictionary
280
     1
281
     1
  3
ACAD_XREC_ROUNDTRIP
360
43C
  0
DICTIONARY
  5
43D
330
F2
100
AcDbDictionary
280
     1
281
     1
  3
ACAD_XREC_ROUNDTRIP
360
43E
  0
DICTIONARY
  5
43F
330
F3
100
AcDbDictionary
280
     1
281
     1
  3
ACAD_XREC_ROUNDTRIP
360
440
  0
DICTIONARY
  5
459
330
1E4
100
AcDbDictionary
280
     1
281
     1
  3
ACAD_XREC_ROUNDTRIP
360
45A
  0
DICTIONARY
  5
453
330
FD
100
AcDbDictionary
280
     1
281
     1
  3
ACAD_XREC_ROUNDTRIP
360
454
  0
DICTIONARY
  5
45B
330
1E5
100
AcDbDictionary
280
     1
281
     1
  3
ACAD_XREC_ROUNDTRIP
360
45C
  0
DICTIONARY
  5
44B
330
F9
100
AcDbDictionary
280
     1
281
     1
  3
ACAD_XREC_ROUNDTRIP
360
44C
  0
DICTIONARY
  5
451
330
FC
100
AcDbDictionary
280
     1
281
     1
  3
ACAD_XREC_ROUNDTRIP
360
452
  0
XRECORD
  5
437
102
{ACAD_REACTORS
330
436
102
}
330
436
100
AcDbXrecord
280
     1
102
MATERIAL
148
0.0
149
0.0
149
0.0
 93
        0
 94
       63
282
     0
 72
     1
 77
     1
171
     1
175
     1
179
     1
273
     0
  0
XRECORD
  5
435
102
{ACAD_REACTORS
330
434
102
}
330
434
100
AcDbXrecord
280
     1
102
MATERIAL
148
0.0
149
0.0
149
0.0
 93
        0
 94
       63
282
     0
 72
     1
 77
     1
171
     1
175
     1
179
     1
273
     0
  0
XRECORD
  5
438
102
{ACAD_REACTORS
330
173
102
}
330
173
100
AcDbXrecord
280
     1
102
MATERIAL
148
0.0
149
0.0
149
0.0
 93
        0
 94
       63
282
     0
 72
     1
 77
     1
171
     1
175
     1
179
     1
273
     0
  0
XRECORD
  5
175
102
{ACAD_REACTORS
330
173
102
}
330
173
100
AcDbXrecord
280
     1
270
     1
271
     1
  0
XRECORD
  5
174
102
{ACAD_REACTORS
330
173
102
}
330
173
100
AcDbXrecord
280
     1
270
     1
271
     1
  0
XRECORD
  5
176
102
{ACAD_REACTORS
330
173
102
}
330
173
100
AcDbXrecord
280
     1
270
     1
271
     1
  0
XRECORD
  5
177
102
{ACAD_REACTORS
330
173
102
}
330
173
100
AcDbXrecord
280
     1
270
     1
271
     1
  0
CELLSTYLEMAP
  5
431
102
{ACAD_REACTORS
330
162
102
}
330
162
100
AcDbCellStyleMap
 90
        3
300
CELLSTYLE
  1
TABLEFORMAT_BEGIN
 90
        5
170
     1
 91
        0
 92
    32768
 62
   257
 93
        1
300
CONTENTFORMAT
  1
CONTENTFORMAT_BEGIN
 90
        0
 91
        0
 92
      512
 93
        0
300

 40
0.0
140
1.0
 94
        5
 62
     0
340
11
144
6.0
309
CONTENTFORMAT_END
171
     1
301
MARGIN
  1
CELLMARGIN_BEGIN
 40
1.5
 40
1.5
 40
1.5
 40
1.5
 40
4.5
 40
4.5
309
CELLMARGIN_END
 94
        6
 95
        1
302
GRIDFORMAT
  1
GRIDFORMAT_BEGIN
 90
        0
 91
        1
 62
     0
 92
       -2
340
14
 93
        0
 40
1.125
309
GRIDFORMAT_END
 95
        2
302
GRIDFORMAT
  1
GRIDFORMAT_BEGIN
 90
        0
 91
        1
 62
     0
 92
       -2
340
14
 93
        0
 40
1.125
309
GRIDFORMAT_END
 95
        4
302
GRIDFORMAT
  1
GRIDFORMAT_BEGIN
 90
        0
 91
        1
 62
     0
 92
       -2
340
14
 93
        0
 40
1.125
309
GRIDFORMAT_END
 95
        8
302
GRIDFORMAT
  1
GRIDFORMAT_BEGIN
 90
        0
 91
        1
 62
     0
 92
       -2
340
14
 93
        0
 40
1.125
309
GRIDFORMAT_END
 95
       16
302
GRIDFORMAT
  1
GRIDFORMAT_BEGIN
 90
        0
 91
        1
 62
     0
 92
       -2
340
14
 93
        0
 40
1.125
309
GRIDFORMAT_END
 95
       32
302
GRIDFORMAT
  1
GRIDFORMAT_BEGIN
 90
        0
 91
        1
 62
     0
 92
       -2
340
14
 93
        0
 40
1.125
309
GRIDFORMAT_END
309
TABLEFORMAT_END
  1
CELLSTYLE_BEGIN
 90
        1
 91
        1
300
_TITLE
309
CELLSTYLE_END
300
CELLSTYLE
  1
TABLEFORMAT_BEGIN
 90
        5
170
     1
 91
        0
 92
        0
 62
   257
 93
        1
300
CONTENTFORMAT
  1
CONTENTFORMAT_BEGIN
 90
        0
 91
        0
 92
      512
 93
        0
300

 40
0.0
140
1.0
 94
        5
 62
     0
340
11
144
4.5
309
CONTENTFORMAT_END
171
     1
301
MARGIN
  1
CELLMARGIN_BEGIN
 40
1.5
 40
1.5
 40
1.5
 40
1.5
 40
4.5
 40
4.5
309
CELLMARGIN_END
 94
        6
 95
        1
302
GRIDFORMAT
  1
GRIDFORMAT_BEGIN
 90
        0
 91
        1
 62
     0
 92
       -2
340
14
 93
        0
 40
1.125
309
GRIDFORMAT_END
 95
        2
302
GRIDFORMAT
  1
GRIDFORMAT_BEGIN
 90
        0
 91
        1
 62
     0
 92
       -2
340
14
 93
        0
 40
1.125
309
GRIDFORMAT_END
 95
        4
302
GRIDFORMAT
  1
GRIDFORMAT_BEGIN
 90
        0
 91
        1
 62
     0
 92
       -2
340
14
 93
        0
 40
1.125
309
GRIDFORMAT_END
 95
        8
302
GRIDFORMAT
  1
GRIDFORMAT_BEGIN
 90
        0
 91
        1
 62
     0
 92
       -2
340
14
 93
        0
 40
1.125
309
GRIDFORMAT_END
 95
       16
302
GRIDFORMAT
  1
GRIDFORMAT_BEGIN
 90
        0
 91
        1
 62
     0
 92
       -2
340
14
 93
        0
 40
1.125
309
GRIDFORMAT_END
 95
       32
302
GRIDFORMAT
  1
GRIDFORMAT_BEGIN
 90
        0
 91
        1
 62
     0
 92
       -2
340
14
 93
        0
 40
1.125
309
GRIDFORMAT_END
309
TABLEFORMAT_END
  1
CELLSTYLE_BEGIN
 90
        2
 91
        1
300
_HEADER
309
CELLSTYLE_END
300
CELLSTYLE
  1
TABLEFORMAT_BEGIN
 90
        5
170
     1
 91
        0
 92
        0
 62
   257
 93
        1
300
CONTENTFORMAT
  1
CONTENTFORMAT_BEGIN
 90
        0
 91
        0
 92
      512
 93
        0
300

 40
0.0
140
1.0
 94
        2
 62
     0
340
11
144
4.5
309
CONTENTFORMAT_END
171
     1
301
MARGIN
  1
CELLMARGIN_BEGIN
 40
1.5
 40
1.5
 40
1.5
 40
1.5
 40
4.5
 40
4.5
309
CELLMARGIN_END
 94
        6
 95
        1
302
GRIDFORMAT
  1
GRIDFORMAT_BEGIN
 90
        0
 91
        1
 62
     0
 92
       -2
340
14
 93
        0
 40
1.125
309
GRIDFORMAT_END
 95
        2
302
GRIDFORMAT
  1
GRIDFORMAT_BEGIN
 90
        0
 91
        1
 62
     0
 92
       -2
340
14
 93
        0
 40
1.125
309
GRIDFORMAT_END
 95
        4
302
GRIDFORMAT
  1
GRIDFORMAT_BEGIN
 90
        0
 91
        1
 62
     0
 92
       -2
340
14
 93
        0
 40
1.125
309
GRIDFORMAT_END
 95
        8
302
GRIDFORMAT
  1
GRIDFORMAT_BEGIN
 90
        0
 91
        1
 62
     0
 92
       -2
340
14
 93
        0
 40
1.125
309
GRIDFORMAT_END
 95
       16
302
GRIDFORMAT
  1
GRIDFORMAT_BEGIN
 90
        0
 91
        1
 62
     0
 92
       -2
340
14
 93
        0
 40
1.125
309
GRIDFORMAT_END
 95
       32
302
GRIDFORMAT
  1
GRIDFORMAT_BEGIN
 90
        0
 91
        1
 62
     0
 92
       -2
340
14
 93
        0
 40
1.125
309
GRIDFORMAT_END
309
TABLEFORMAT_END
  1
CELLSTYLE_BEGIN
 90
        3
 91
        2
300
_DATA
309
CELLSTYLE_END
  0
XRECORD
  5
433
102
{ACAD_REACTORS
330
162
102
}
330
162
100
AcDbXrecord
280
     1
102
ACAD_ROUNDTRIP_PRE2007_TABLESTYLE
 90
      512
 91
        0
  1

 92
      512
 93
        0
  2

 94
      512
 95
        0
  3

  0
XRECORD
  5
444
102
{ACAD_REACTORS
330
443
102
}
330
443
100
AcDbXrecord
280
     1
102
RTVSPropertyOp0
 70
     1
102
RTVSPropertyOp1
 70
     1
102
RTVSPropertyOp2
 70
     1
102
RTVSPropertyOp3
 70
     1
102
RTVSPropertyOp4
 70
     1
102
RTVSPropertyOp5
 70
     1
102
RTVSPropertyOp6
 70
     1
102
RTVSPropertyOp7
 70
     1
102
RTVSPropertyOp8
 70
     1
102
RTVSPropertyOp9
 70
     1
102
RTVSPropertyOp10
 70
     1
102
RTVSPropertyOp11
 70
     1
102
RTVSPropertyOp12
 70
     1
102
RTVSPropertyOp13
 70
     1
102
RTVSPropertyOp14
 70
     1
102
RTVSPropertyOp15
 70
     1
102
RTVSPropertyOp16
 70
     1
102
RTVSPropertyOp17
 70
     1
102
RTVSPropertyOp18
 70
     1
102
RTVSPropertyOp19
 70
     1
102
RTVSPropertyOp20
 70
     1
102
RTVSPropertyOp21
 70
     1
102
RTVSPropertyOp22
 70
     1
102
RTVSPropertyOp23
 70
     1
102
RTVSPropertyOp24
 70
     1
102
RTVSPropertyOp25
 70
     1
102
RTVSPropertyOp26
 70
     1
102
RTVSPropertyOp27
 70
     1
  0
XRECORD
  5
448
102
{ACAD_REACTORS
330
447
102
}
330
447
100
AcDbXrecord
280
     1
102
RTVSPropertyOp0
 70
     1
102
RTVSPropertyOp1
 70
     1
102
RTVSPropertyOp2
 70
     1
102
RTVSPropertyOp3
 70
     1
102
RTVSPropertyOp4
 70
     1
102
RTVSPropertyOp5
 70
     1
102
RTVSPropertyOp6
 70
     1
102
RTVSPropertyOp7
 70
     1
102
RTVSPropertyOp8
 70
     1
102
RTVSPropertyOp9
 70
     1
102
RTVSPropertyOp10
 70
     1
102
RTVSPropertyOp11
 70
     1
102
RTVSPropertyOp12
 70
     1
102
RTVSPropertyOp13
 70
     1
102
RTVSPropertyOp14
 70
     1
102
RTVSPropertyOp15
 70
     1
102
RTVSPropertyOp16
 70
     1
102
RTVSPropertyOp17
 70
     1
102
RTVSPropertyOp18
 70
     1
102
RTVSPropertyOp19
 70
     1
102
RTVSPropertyOp20
 70
     1
102
RTVSPropertyOp21
 70
     1
102
RTVSPropertyOp22
 70
     1
102
RTVSPropertyOp23
 70
     1
102
RTVSPropertyOp24
 70
     1
102
RTVSPropertyOp25
 70
     1
102
RTVSPropertyOp26
 70
     1
102
RTVSPropertyOp27
 70
     1
  0
XRECORD
  5
446
102
{ACAD_REACTORS
330
445
102
}
330
445
100
AcDbXrecord
280
     1
102
RTVSPropertyOp0
 70
     1
102
RTVSPropertyOp1
 70
     1
102
RTVSPropertyOp2
 70
     1
102
RTVSPropertyOp3
 70
     1
102
RTVSPropertyOp4
 70
     1
102
RTVSPropertyOp5
 70
     1
102
RTVSPropertyOp6
 70
     1
102
RTVSPropertyOp7
 70
     1
102
RTVSPropertyOp8
 70
     1
102
RTVSPropertyOp9
 70
     1
102
RTVSPropertyOp10
 70
     1
102
RTVSPropertyOp11
 70
     1
102
RTVSPropertyOp12
 70
     1
102
RTVSPropertyOp13
 70
     1
102
RTVSPropertyOp14
 70
     1
102
RTVSPropertyOp15
 70
     1
102
RTVSPropertyOp16
 70
     1
102
RTVSPropertyOp17
 70
     1
102
RTVSPropertyOp18
 70
     1
102
RTVSPropertyOp19
 70
     1
102
RTVSPropertyOp20
 70
     1
102
RTVSPropertyOp21
 70
     1
102
RTVSPropertyOp22
 70
     1
102
RTVSPropertyOp23
 70
     1
102
RTVSPropertyOp24
 70
     1
102
RTVSPropertyOp25
 70
     1
102
RTVSPropertyOp26
 70
     1
102
RTVSPropertyOp27
 70
     1
  0
XRECORD
  5
442
102
{ACAD_REACTORS
330
441
102
}
330
441
100
AcDbXrecord
280
     1
102
RTVSPropertyOp0
 70
     1
102
RTVSPropertyOp1
 70
     1
102
RTVSPropertyOp2
 70
     1
102
RTVSPropertyOp3
 70
     1
102
RTVSPropertyOp4
 70
     1
102
RTVSPropertyOp5
 70
     1
102
RTVSPropertyOp6
 70
     1
102
RTVSPropertyOp7
 70
     1
102
RTVSPropertyOp8
 70
     1
102
RTVSPropertyOp9
 70
     1
102
RTVSPropertyOp10
 70
     1
102
RTVSPropertyOp11
 70
     1
102
RTVSPropertyOp12
 70
     1
102
RTVSPropertyOp13
 70
     1
102
RTVSPropertyOp14
 70
     1
102
RTVSPropertyOp15
 70
     1
102
RTVSPropertyOp16
 70
     1
102
RTVSPropertyOp17
 70
     1
102
RTVSPropertyOp18
 70
     1
102
RTVSPropertyOp19
 70
     1
102
RTVSPropertyOp20
 70
     1
102
RTVSPropertyOp21
 70
     1
102
RTVSPropertyOp22
 70
     1
102
RTVSPropertyOp23
 70
     1
102
RTVSPropertyOp24
 70
     1
102
RTVSPropertyOp25
 70
     1
102
RTVSPropertyOp26
 70
     1
102
RTVSPropertyOp27
 70
     1
  0
XRECORD
  5
450
102
{ACAD_REACTORS
330
44F
102
}
330
44F
100
AcDbXrecord
280
     1
102
RTVSPropertyOp0
 70
     1
102
RTVSPropertyOp1
 70
     1
102
RTVSPropertyOp2
 70
     1
102
RTVSPropertyOp3
 70
     1
102
RTVSPropertyOp4
 70
     1
102
RTVSPropertyOp5
 70
     1
102
RTVSPropertyOp6
 70
     1
102
RTVSPropertyOp7
 70
     1
102
RTVSPropertyOp8
 70
     1
102
RTVSPropertyOp9
 70
     1
102
RTVSPropertyOp10
 70
     1
102
RTVSPropertyOp11
 70
     1
102
RTVSPropertyOp12
 70
     1
102
RTVSPropertyOp13
 70
     1
102
RTVSPropertyOp14
 70
     1
102
RTVSPropertyOp15
 70
     1
102
RTVSPropertyOp16
 70
     1
102
RTVSPropertyOp17
 70
     1
102
RTVSPropertyOp18
 70
     1
102
RTVSPropertyOp19
 70
     1
102
RTVSPropertyOp20
 70
     1
102
RTVSPropertyOp21
 70
     1
102
RTVSPropertyOp22
 70
     1
102
RTVSPropertyOp23
 70
     1
102
RTVSPropertyOp24
 70
     1
102
RTVSPropertyOp25
 70
     1
102
RTVSPropertyOp26
 70
     1
102
RTVSPropertyOp27
 70
     1
  0
XRECORD
  5
458
102
{ACAD_REACTORS
330
457
102
}
330
457
100
AcDbXrecord
280
     1
102
RTVSPropertyOp0
 70
     1
102
RTVSPropertyOp1
 70
     1
102
RTVSPropertyOp2
 70
     1
102
RTVSPropertyOp3
 70
     1
102
RTVSPropertyOp4
 70
     1
102
RTVSPropertyOp5
 70
     1
102
RTVSPropertyOp6
 70
     1
102
RTVSPropertyOp7
 70
     1
102
RTVSPropertyOp8
 70
     1
102
RTVSPropertyOp9
 70
     1
102
RTVSPropertyOp10
 70
     1
102
RTVSPropertyOp11
 70
     1
102
RTVSPropertyOp12
 70
     1
102
RTVSPropertyOp13
 70
     1
102
RTVSPropertyOp14
 70
     1
102
RTVSPropertyOp15
 70
     1
102
RTVSPropertyOp16
 70
     1
102
RTVSPropertyOp17
 70
     1
102
RTVSPropertyOp18
 70
     1
102
RTVSPropertyOp19
 70
     1
102
RTVSPropertyOp20
 70
     1
102
RTVSPropertyOp21
 70
     1
102
RTVSPropertyOp22
 70
     1
102
RTVSPropertyOp23
 70
     1
102
RTVSPropertyOp24
 70
     1
102
RTVSPropertyOp25
 70
     1
102
RTVSPropertyOp26
 70
     1
102
RTVSPropertyOp27
 70
     1
  0
XRECORD
  5
44A
102
{ACAD_REACTORS
330
449
102
}
330
449
100
AcDbXrecord
280
     1
102
RTVSPropertyOp0
 70
     1
102
RTVSPropertyOp1
 70
     1
102
RTVSPropertyOp2
 70
     1
102
RTVSPropertyOp3
 70
     1
102
RTVSPropertyOp4
 70
     1
102
RTVSPropertyOp5
 70
     1
102
RTVSPropertyOp6
 70
     1
102
RTVSPropertyOp7
 70
     1
102
RTVSPropertyOp8
 70
     1
102
RTVSPropertyOp9
 70
     1
102
RTVSPropertyOp10
 70
     1
102
RTVSPropertyOp11
 70
     1
102
RTVSPropertyOp12
 70
     1
102
RTVSPropertyOp13
 70
     1
102
RTVSPropertyOp14
 70
     1
102
RTVSPropertyOp15
 70
     1
102
RTVSPropertyOp16
 70
     1
102
RTVSPropertyOp17
 70
     1
102
RTVSPropertyOp18
 70
     1
102
RTVSPropertyOp19
 70
     1
102
RTVSPropertyOp20
 70
     1
102
RTVSPropertyOp21
 70
     1
102
RTVSPropertyOp22
 70
     1
102
RTVSPropertyOp23
 70
     1
102
RTVSPropertyOp24
 70
     1
102
RTVSPropertyOp25
 70
     1
102
RTVSPropertyOp26
 70
     1
102
RTVSPropertyOp27
 70
     1
  0
XRECORD
  5
44E
102
{ACAD_REACTORS
330
44D
102
}
330
44D
100
AcDbXrecord
280
     1
102
RTVSPropertyOp0
 70
     1
102
RTVSPropertyOp1
 70
     1
102
RTVSPropertyOp2
 70
     1
102
RTVSPropertyOp3
 70
     1
102
RTVSPropertyOp4
 70
     1
102
RTVSPropertyOp5
 70
     1
102
RTVSPropertyOp6
 70
     1
102
RTVSPropertyOp7
 70
     1
102
RTVSPropertyOp8
 70
     1
102
RTVSPropertyOp9
 70
     1
102
RTVSPropertyOp10
 70
     1
102
RTVSPropertyOp11
 70
     1
102
RTVSPropertyOp12
 70
     1
102
RTVSPropertyOp13
 70
     1
102
RTVSPropertyOp14
 70
     1
102
RTVSPropertyOp15
 70
     1
102
RTVSPropertyOp16
 70
     1
102
RTVSPropertyOp17
 70
     1
102
RTVSPropertyOp18
 70
     1
102
RTVSPropertyOp19
 70
     1
102
RTVSPropertyOp20
 70
     1
102
RTVSPropertyOp21
 70
     1
102
RTVSPropertyOp22
 70
     1
102
RTVSPropertyOp23
 70
     1
102
RTVSPropertyOp24
 70
     1
102
RTVSPropertyOp25
 70
     1
102
RTVSPropertyOp26
 70
     1
102
RTVSPropertyOp27
 70
     1
  0
XRECORD
  5
45E
102
{ACAD_REACTORS
330
45D
102
}
330
45D
100
AcDbXrecord
280
     1
102
RTVSPropertyOp0
 70
     0
102
RTVSPropertyOp1
 70
     0
102
RTVSPropertyOp2
 70
     0
102
RTVSPropertyOp3
 70
     0
102
RTVSPropertyOp4
 70
     0
102
RTVSPropertyOp5
 70
     0
102
RTVSPropertyOp6
 70
     0
102
RTVSPropertyOp7
 70
     0
102
RTVSPropertyOp8
 70
     0
102
RTVSPropertyOp9
 70
     0
102
RTVSPropertyOp10
 70
     0
102
RTVSPropertyOp11
 70
     0
102
RTVSPropertyOp12
 70
     0
102
RTVSPropertyOp13
 70
     0
102
RTVSPropertyOp14
 70
     2
102
RTVSPropertyOp15
 70
     0
102
RTVSPropertyOp16
 70
     0
102
RTVSPropertyOp17
 70
     0
102
RTVSPropertyOp18
 70
     0
102
RTVSPropertyOp19
 70
     0
102
RTVSPropertyOp20
 70
     0
102
RTVSPropertyOp21
 70
     0
102
RTVSPropertyOp22
 70
     0
102
RTVSPropertyOp23
 70
     0
102
RTVSPropertyOp24
 70
     0
102
RTVSPropertyOp25
 70
     0
102
RTVSPropertyOp26
 70
     0
102
RTVSPropertyOp27
 70
     0
  0
XRECORD
  5
456
102
{ACAD_REACTORS
330
455
102
}
330
455
100
AcDbXrecord
280
     1
102
RTVSPropertyOp0
 70
     1
102
RTVSPropertyOp1
 70
     1
102
RTVSPropertyOp2
 70
     1
102
RTVSPropertyOp3
 70
     1
102
RTVSPropertyOp4
 70
     1
102
RTVSPropertyOp5
 70
     1
102
RTVSPropertyOp6
 70
     1
102
RTVSPropertyOp7
 70
     1
102
RTVSPropertyOp8
 70
     1
102
RTVSPropertyOp9
 70
     1
102
RTVSPropertyOp10
 70
     1
102
RTVSPropertyOp11
 70
     1
102
RTVSPropertyOp12
 70
     1
102
RTVSPropertyOp13
 70
     1
102
RTVSPropertyOp14
 70
     1
102
RTVSPropertyOp15
 70
     1
102
RTVSPropertyOp16
 70
     1
102
RTVSPropertyOp17
 70
     1
102
RTVSPropertyOp18
 70
     1
102
RTVSPropertyOp19
 70
     1
102
RTVSPropertyOp20
 70
     1
102
RTVSPropertyOp21
 70
     1
102
RTVSPropertyOp22
 70
     1
102
RTVSPropertyOp23
 70
     1
102
RTVSPropertyOp24
 70
     1
102
RTVSPropertyOp25
 70
     1
102
RTVSPropertyOp26
 70
     1
102
RTVSPropertyOp27
 70
     1
  0
XRECORD
  5
43A
102
{ACAD_REACTORS
330
439
102
}
330
439
100
AcDbXrecord
280
     1
102
RTVSPropertyOp0
 70
     1
102
RTVSPropertyOp1
 70
     1
102
RTVSPropertyOp2
 70
     1
102
RTVSPropertyOp3
 70
     1
102
RTVSPropertyOp4
 70
     1
102
RTVSPropertyOp5
 70
     1
102
RTVSPropertyOp6
 70
     1
102
RTVSPropertyOp7
 70
     1
102
RTVSPropertyOp8
 70
     1
102
RTVSPropertyOp9
 70
     1
102
RTVSPropertyOp10
 70
     1
102
RTVSPropertyOp11
 70
     1
102
RTVSPropertyOp12
 70
     1
102
RTVSPropertyOp13
 70
     1
102
RTVSPropertyOp14
 70
     1
102
RTVSPropertyOp15
 70
     1
102
RTVSPropertyOp16
 70
     1
102
RTVSPropertyOp17
 70
     1
102
RTVSPropertyOp18
 70
     1
102
RTVSPropertyOp19
 70
     1
102
RTVSPropertyOp20
 70
     1
102
RTVSPropertyOp21
 70
     1
102
RTVSPropertyOp22
 70
     1
102
RTVSPropertyOp23
 70
     1
102
RTVSPropertyOp24
 70
     1
102
RTVSPropertyOp25
 70
     1
102
RTVSPropertyOp26
 70
     1
102
RTVSPropertyOp27
 70
     1
  0
XRECORD
  5
43C
102
{ACAD_REACTORS
330
43B
102
}
330
43B
100
AcDbXrecord
280
     1
102
RTVSPropertyOp0
 70
     1
102
RTVSPropertyOp1
 70
     1
102
RTVSPropertyOp2
 70
     1
102
RTVSPropertyOp3
 70
     1
102
RTVSPropertyOp4
 70
     1
102
RTVSPropertyOp5
 70
     1
102
RTVSPropertyOp6
 70
     1
102
RTVSPropertyOp7
 70
     1
102
RTVSPropertyOp8
 70
     1
102
RTVSPropertyOp9
 70
     1
102
RTVSPropertyOp10
 70
     1
102
RTVSPropertyOp11
 70
     1
102
RTVSPropertyOp12
 70
     1
102
RTVSPropertyOp13
 70
     1
102
RTVSPropertyOp14
 70
     1
102
RTVSPropertyOp15
 70
     1
102
RTVSPropertyOp16
 70
     1
102
RTVSPropertyOp17
 70
     1
102
RTVSPropertyOp18
 70
     1
102
RTVSPropertyOp19
 70
     1
102
RTVSPropertyOp20
 70
     1
102
RTVSPropertyOp21
 70
     1
102
RTVSPropertyOp22
 70
     1
102
RTVSPropertyOp23
 70
     1
102
RTVSPropertyOp24
 70
     1
102
RTVSPropertyOp25
 70
     1
102
RTVSPropertyOp26
 70
     1
102
RTVSPropertyOp27
 70
     1
  0
XRECORD
  5
43E
102
{ACAD_REACTORS
330
43D
102
}
330
43D
100
AcDbXrecord
280
     1
102
RTVSPropertyOp0
 70
     1
102
RTVSPropertyOp1
 70
     1
102
RTVSPropertyOp2
 70
     1
102
RTVSPropertyOp3
 70
     1
102
RTVSPropertyOp4
 70
     1
102
RTVSPropertyOp5
 70
     1
102
RTVSPropertyOp6
 70
     1
102
RTVSPropertyOp7
 70
     1
102
RTVSPropertyOp8
 70
     1
102
RTVSPropertyOp9
 70
     1
102
RTVSPropertyOp10
 70
     1
102
RTVSPropertyOp11
 70
     1
102
RTVSPropertyOp12
 70
     1
102
RTVSPropertyOp13
 70
     1
102
RTVSPropertyOp14
 70
     1
102
RTVSPropertyOp15
 70
     1
102
RTVSPropertyOp16
 70
     1
102
RTVSPropertyOp17
 70
     1
102
RTVSPropertyOp18
 70
     1
102
RTVSPropertyOp19
 70
     1
102
RTVSPropertyOp20
 70
     1
102
RTVSPropertyOp21
 70
     1
102
RTVSPropertyOp22
 70
     1
102
RTVSPropertyOp23
 70
     1
102
RTVSPropertyOp24
 70
     1
102
RTVSPropertyOp25
 70
     1
102
RTVSPropertyOp26
 70
     1
102
RTVSPropertyOp27
 70
     1
  0
XRECORD
  5
440
102
{ACAD_REACTORS
330
43F
102
}
330
43F
100
AcDbXrecord
280
     1
102
RTVSPropertyOp0
 70
     1
102
RTVSPropertyOp1
 70
     1
102
RTVSPropertyOp2
 70
     1
102
RTVSPropertyOp3
 70
     1
102
RTVSPropertyOp4
 70
     1
102
RTVSPropertyOp5
 70
     1
102
RTVSPropertyOp6
 70
     1
102
RTVSPropertyOp7
 70
     1
102
RTVSPropertyOp8
 70
     1
102
RTVSPropertyOp9
 70
     1
102
RTVSPropertyOp10
 70
     1
102
RTVSPropertyOp11
 70
     1
102
RTVSPropertyOp12
 70
     1
102
RTVSPropertyOp13
 70
     1
102
RTVSPropertyOp14
 70
     1
102
RTVSPropertyOp15
 70
     1
102
RTVSPropertyOp16
 70
     1
102
RTVSPropertyOp17
 70
     1
102
RTVSPropertyOp18
 70
     1
102
RTVSPropertyOp19
 70
     1
102
RTVSPropertyOp20
 70
     1
102
RTVSPropertyOp21
 70
     1
102
RTVSPropertyOp22
 70
     1
102
RTVSPropertyOp23
 70
     1
102
RTVSPropertyOp24
 70
     1
102
RTVSPropertyOp25
 70
     1
102
RTVSPropertyOp26
 70
     1
102
RTVSPropertyOp27
 70
     1
  0
XRECORD
  5
45A
102
{ACAD_REACTORS
330
459
102
}
330
459
100
AcDbXrecord
280
     1
102
RTVSPropertyOp0
 70
     0
102
RTVSPropertyOp1
 70
     0
102
RTVSPropertyOp2
 70
     0
102
RTVSPropertyOp3
 70
     0
102
RTVSPropertyOp4
 70
     0
102
RTVSPropertyOp5
 70
     0
102
RTVSPropertyOp6
 70
     0
102
RTVSPropertyOp7
 70
     0
102
RTVSPropertyOp8
 70
     0
102
RTVSPropertyOp9
 70
     0
102
RTVSPropertyOp10
 70
     0
102
RTVSPropertyOp11
 70
     0
102
RTVSPropertyOp12
 70
     0
102
RTVSPropertyOp13
 70
     0
102
RTVSPropertyOp14
 70
     2
102
RTVSPropertyOp15
 70
     0
102
RTVSPropertyOp16
 70
     0
102
RTVSPropertyOp17
 70
     0
102
RTVSPropertyOp18
 70
     0
102
RTVSPropertyOp19
 70
     0
102
RTVSPropertyOp20
 70
     0
102
RTVSPropertyOp21
 70
     0
102
RTVSPropertyOp22
 70
     0
102
RTVSPropertyOp23
 70
     0
102
RTVSPropertyOp24
 70
     0
102
RTVSPropertyOp25
 70
     0
102
RTVSPropertyOp26
 70
     0
102
RTVSPropertyOp27
 70
     0
  0
XRECORD
  5
454
102
{ACAD_REACTORS
330
453
102
}
330
453
100
AcDbXrecord
280
     1
102
RTVSPropertyOp0
 70
     1
102
RTVSPropertyOp1
 70
     1
102
RTVSPropertyOp2
 70
     1
102
RTVSPropertyOp3
 70
     1
102
RTVSPropertyOp4
 70
     1
102
RTVSPropertyOp5
 70
     1
102
RTVSPropertyOp6
 70
     1
102
RTVSPropertyOp7
 70
     1
102
RTVSPropertyOp8
 70
     1
102
RTVSPropertyOp9
 70
     1
102
RTVSPropertyOp10
 70
     1
102
RTVSPropertyOp11
 70
     1
102
RTVSPropertyOp12
 70
     1
102
RTVSPropertyOp13
 70
     1
102
RTVSPropertyOp14
 70
     1
102
RTVSPropertyOp15
 70
     1
102
RTVSPropertyOp16
 70
     1
102
RTVSPropertyOp17
 70
     1
102
RTVSPropertyOp18
 70
     1
102
RTVSPropertyOp19
 70
     1
102
RTVSPropertyOp20
 70
     1
102
RTVSPropertyOp21
 70
     1
102
RTVSPropertyOp22
 70
     1
102
RTVSPropertyOp23
 70
     1
102
RTVSPropertyOp24
 70
     1
102
RTVSPropertyOp25
 70
     1
102
RTVSPropertyOp26
 70
     1
102
RTVSPropertyOp27
 70
     1
  0
XRECORD
  5
45C
102
{ACAD_REACTORS
330
45B
102
}
330
45B
100
AcDbXrecord
280
     1
102
RTVSPropertyOp0
 70
     0
102
RTVSPropertyOp1
 70
     0
102
RTVSPropertyOp2
 70
     0
102
RTVSPropertyOp3
 70
     0
102
RTVSPropertyOp4
 70
     0
102
RTVSPropertyOp5
 70
     0
102
RTVSPropertyOp6
 70
     0
102
RTVSPropertyOp7
 70
     0
102
RTVSPropertyOp8
 70
     0
102
RTVSPropertyOp9
 70
     0
102
RTVSPropertyOp10
 70
     0
102
RTVSPropertyOp11
 70
     0
102
RTVSPropertyOp12
 70
     0
102
RTVSPropertyOp13
 70
     0
102
RTVSPropertyOp14
 70
     2
102
RTVSPropertyOp15
 70
     0
102
RTVSPropertyOp16
 70
     0
102
RTVSPropertyOp17
 70
     0
102
RTVSPropertyOp18
 70
     0
102
RTVSPropertyOp19
 70
     0
102
RTVSPropertyOp20
 70
     0
102
RTVSPropertyOp21
 70
     0
102
RTVSPropertyOp22
 70
     0
102
RTVSPropertyOp23
 70
     0
102
RTVSPropertyOp24
 70
     0
102
RTVSPropertyOp25
 70
     0
102
RTVSPropertyOp26
 70
     0
102
RTVSPropertyOp27
 70
     0
  0
XRECORD
  5
44C
102
{ACAD_REACTORS
330
44B
102
}
330
44B
100
AcDbXrecord
280
     1
102
RTVSPropertyOp0
 70
     1
102
RTVSPropertyOp1
 70
     1
102
RTVSPropertyOp2
 70
     1
102
RTVSPropertyOp3
 70
     1
102
RTVSPropertyOp4
 70
     1
102
RTVSPropertyOp5
 70
     1
102
RTVSPropertyOp6
 70
     1
102
RTVSPropertyOp7
 70
     1
102
RTVSPropertyOp8
 70
     1
102
RTVSPropertyOp9
 70
     1
102
RTVSPropertyOp10
 70
     1
102
RTVSPropertyOp11
 70
     1
102
RTVSPropertyOp12
 70
     1
102
RTVSPropertyOp13
 70
     1
102
RTVSPropertyOp14
 70
     1
102
RTVSPropertyOp15
 70
     1
102
RTVSPropertyOp16
 70
     1
102
RTVSPropertyOp17
 70
     1
102
RTVSPropertyOp18
 70
     1
102
RTVSPropertyOp19
 70
     1
102
RTVSPropertyOp20
 70
     1
102
RTVSPropertyOp21
 70
     1
102
RTVSPropertyOp22
 70
     1
102
RTVSPropertyOp23
 70
     1
102
RTVSPropertyOp24
 70
     1
102
RTVSPropertyOp25
 70
     1
102
RTVSPropertyOp26
 70
     1
102
RTVSPropertyOp27
 70
     1
  0
XRECORD
  5
452
102
{ACAD_REACTORS
330
451
102
}
330
451
100
AcDbXrecord
280
     1
102
RTVSPropertyOp0
 70
     1
102
RTVSPropertyOp1
 70
     1
102
RTVSPropertyOp2
 70
     1
102
RTVSPropertyOp3
 70
     1
102
RTVSPropertyOp4
 70
     1
102
RTVSPropertyOp5
 70
     1
102
RTVSPropertyOp6
 70
     1
102
RTVSPropertyOp7
 70
     1
102
RTVSPropertyOp8
 70
     1
102
RTVSPropertyOp9
 70
     1
102
RTVSPropertyOp10
 70
     1
102
RTVSPropertyOp11
 70
     1
102
RTVSPropertyOp12
 70
     1
102
RTVSPropertyOp13
 70
     1
102
RTVSPropertyOp14
 70
     1
102
RTVSPropertyOp15
 70
     1
102
RTVSPropertyOp16
 70
     1
102
RTVSPropertyOp17
 70
     1
102
RTVSPropertyOp18
 70
     1
102
RTVSPropertyOp19
 70
     1
102
RTVSPropertyOp20
 70
     1
102
RTVSPropertyOp21
 70
     1
102
RTVSPropertyOp22
 70
     1
102
RTVSPropertyOp23
 70
     1
102
RTVSPropertyOp24
 70
     1
102
RTVSPropertyOp25
 70
     1
102
RTVSPropertyOp26
 70
     1
102
RTVSPropertyOp27
 70
     1
  0
ENDSEC
  0
EOF
