  0
SECTION
  2
HEADER
  9
$ACADVER
  1
AC1018
  9
$ACADMAINTVER
 70
   104
  9
$DWGCODEPAGE
  3
ANSI_1252
  9
$LASTSAVEDBY
  1
a06741
  9
$INSBASE
 10
0.0
 20
0.0
 30
0.0
  9
$EXTMIN
 10
2205.840065752284
 20
943.9651479099184
 30
0.0
  9
$EXTMAX
 10
2325.877596962424
 20
1057.529152544171
 30
0.0
  9
$LIMMIN
 10
0.0
 20
0.0
  9
$LIMMAX
 10
420.0
 20
297.0
  9
$ORTHOMODE
 70
     0
  9
$REGENMODE
 70
     1
  9
$FILLMODE
 70
     1
  9
$QTEXTMODE
 70
     0
  9
$MIRRTEXT
 70
     0
  9
$LTSCALE
 40
1.0
  9
$ATTMODE
 70
     1
  9
$TEXTSIZE
 40
2.5
  9
$TRACEWID
 40
1.0
  9
$TEXTSTYLE
  7
Standard
  9
$CLAYER
  8
0
  9
$CELTYPE
  6
ByLayer
  9
$CECOLOR
 62
   256
  9
$CELTSCALE
 40
1.0
  9
$DISPSILH
 70
     0
  9
$DIMSCALE
 40
1.0
  9
$DIMASZ
 40
2.5
  9
$DIMEXO
 40
0.625
  9
$DIMDLI
 40
3.75
  9
$DIMRND
 40
0.0
  9
$DIMDLE
 40
0.0
  9
$DIMEXE
 40
1.25
  9
$DIMTP
 40
0.0
  9
$DIMTM
 40
0.0
  9
$DIMTXT
 40
2.5
  9
$DIMCEN
 40
2.5
  9
$DIMTSZ
 40
0.0
  9
$DIMTOL
 70
     0
  9
$DIMLIM
 70
     0
  9
$DIMTIH
 70
     0
  9
$DIMTOH
 70
     0
  9
$DIMSE1
 70
     0
  9
$DIMSE2
 70
     0
  9
$DIMTAD
 70
     1
  9
$DIMZIN
 70
     8
  9
$DIMBLK
  1

  9
$DIMASO
 70
     1
  9
$DIMSHO
 70
     1
  9
$DIMPOST
  1

  9
$DIMAPOST
  1

  9
$DIMALT
 70
     0
  9
$DIMALTD
 70
     3
  9
$DIMALTF
 40
0.03937007874016
  9
$DIMLFAC
 40
1.0
  9
$DIMTOFL
 70
     1
  9
$DIMTVP
 40
0.0
  9
$DIMTIX
 70
     0
  9
$DIMSOXD
 70
     0
  9
$DIMSAH
 70
     0
  9
$DIMBLK1
  1

  9
$DIMBLK2
  1

  9
$DIMSTYLE
  2
ISO-25
  9
$DIMCLRD
 70
     0
  9
$DIMCLRE
 70
     0
  9
$DIMCLRT
 70
     0
  9
$DIMTFAC
 40
1.0
  9
$DIMGAP
 40
0.625
  9
$DIMJUST
 70
     0
  9
$DIMSD1
 70
     0
  9
$DIMSD2
 70
     0
  9
$DIMTOLJ
 70
     0
  9
$DIMTZIN
 70
     8
  9
$DIMALTZ
 70
     0
  9
$DIMALTTZ
 70
     0
  9
$DIMUPT
 70
     0
  9
$DIMDEC
 70
     2
  9
$DIMTDEC
 70
     2
  9
$DIMALTU
 70
     2
  9
$DIMALTTD
 70
     3
  9
$DIMTXSTY
  7
Standard
  9
$DIMAUNIT
 70
     0
  9
$DIMADEC
 70
     0
  9
$DIMALTRND
 40
0.0
  9
$DIMAZIN
 70
     0
  9
$DIMDSEP
 70
    44
  9
$DIMATFIT
 70
     3
  9
$DIMFRAC
 70
     0
  9
$DIMLDRBLK
  1

  9
$DIMLUNIT
 70
     2
  9
$DIMLWD
 70
    -2
  9
$DIMLWE
 70
    -2
  9
$DIMTMOVE
 70
     0
  9
$LUNITS
 70
     2
  9
$LUPREC
 70
     4
  9
$SKETCHINC
 40
1.0
  9
$FILLETRAD
 40
0.0
  9
$AUNITS
 70
     0
  9
$AUPREC
 70
     0
  9
$MENU
  1
.
  9
$ELEVATION
 40
0.0
  9
$PELEVATION
 40
0.0
  9
$THICKNESS
 40
0.0
  9
$LIMCHECK
 70
     0
  9
$CHAMFERA
 40
0.0
  9
$CHAMFERB
 40
0.0
  9
$CHAMFERC
 40
0.0
  9
$CHAMFERD
 40
0.0
  9
$SKPOLY
 70
     0
  9
$TDCREATE
 40
2456139.521454734
  9
$TDUCREATE
 40
2456139.438121400
  9
$TDUPDATE
 40
2456139.522025382
  9
$TDUUPDATE
 40
2456139.438692049
  9
$TDINDWG
 40
0.0005709722
  9
$TDUSRTIMER
 40
0.0005709491
  9
$USRTIMER
 70
     1
  9
$ANGBASE
 50
0.0
  9
$ANGDIR
 70
     0
  9
$PDMODE
 70
     0
  9
$PDSIZE
 40
0.0
  9
$PLINEWID
 40
0.0
  9
$SPLFRAME
 70
     0
  9
$SPLINETYPE
 70
     6
  9
$SPLINESEGS
 70
     8
  9
$HANDSEED
  5
485
  9
$SURFTAB1
 70
     6
  9
$SURFTAB2
 70
     6
  9
$SURFTYPE
 70
     6
  9
$SURFU
 70
     6
  9
$SURFV
 70
     6
  9
$UCSBASE
  2

  9
$UCSNAME
  2

  9
$UCSORG
 10
0.0
 20
0.0
 30
0.0
  9
$UCSXDIR
 10
1.0
 20
0.0
 30
0.0
  9
$UCSYDIR
 10
0.0
 20
1.0
 30
0.0
  9
$UCSORTHOREF
  2

  9
$UCSORTHOVIEW
 70
     0
  9
$UCSORGTOP
 10
0.0
 20
0.0
 30
0.0
  9
$UCSORGBOTTOM
 10
0.0
 20
0.0
 30
0.0
  9
$UCSORGLEFT
 10
0.0
 20
0.0
 30
0.0
  9
$UCSORGRIGHT
 10
0.0
 20
0.0
 30
0.0
  9
$UCSORGFRONT
 10
0.0
 20
0.0
 30
0.0
  9
$UCSORGBACK
 10
0.0
 20
0.0
 30
0.0
  9
$PUCSBASE
  2

  9
$PUCSNAME
  2

  9
$PUCSORG
 10
0.0
 20
0.0
 30
0.0
  9
$PUCSXDIR
 10
1.0
 20
0.0
 30
0.0
  9
$PUCSYDIR
 10
0.0
 20
1.0
 30
0.0
  9
$PUCSORTHOREF
  2

  9
$PUCSORTHOVIEW
 70
     0
  9
$PUCSORGTOP
 10
0.0
 20
0.0
 30
0.0
  9
$PUCSORGBOTTOM
 10
0.0
 20
0.0
 30
0.0
  9
$PUCSORGLEFT
 10
0.0
 20
0.0
 30
0.0
  9
$PUCSORGRIGHT
 10
0.0
 20
0.0
 30
0.0
  9
$PUCSORGFRONT
 10
0.0
 20
0.0
 30
0.0
  9
$PUCSORGBACK
 10
0.0
 20
0.0
 30
0.0
  9
$USERI1
 70
     0
  9
$USERI2
 70
     0
  9
$USERI3
 70
     0
  9
$USERI4
 70
     0
  9
$USERI5
 70
     0
  9
$USERR1
 40
0.0
  9
$USERR2
 40
0.0
  9
$USERR3
 40
0.0
  9
$USERR4
 40
0.0
  9
$USERR5
 40
0.0
  9
$WORLDVIEW
 70
     1
  9
$SHADEDGE
 70
     3
  9
$SHADEDIF
 70
    70
  9
$TILEMODE
 70
     1
  9
$MAXACTVP
 70
    64
  9
$PINSBASE
 10
0.0
 20
0.0
 30
0.0
  9
$PLIMCHECK
 70
     0
  9
$PEXTMIN
 10
0.0
 20
0.0
 30
0.0
  9
$PEXTMAX
 10
0.0
 20
0.0
 30
0.0
  9
$PLIMMIN
 10
0.0
 20
0.0
  9
$PLIMMAX
 10
12.0
 20
9.0
  9
$UNITMODE
 70
     0
  9
$VISRETAIN
 70
     1
  9
$PLINEGEN
 70
     0
  9
$PSLTSCALE
 70
     1
  9
$TREEDEPTH
 70
  3020
  9
$CMLSTYLE
  2
Standard
  9
$CMLJUST
 70
     0
  9
$CMLSCALE
 40
20.0
  9
$PROXYGRAPHICS
 70
     1
  9
$MEASUREMENT
 70
     1
  9
$CELWEIGHT
370
    -1
  9
$ENDCAPS
280
     0
  9
$JOINSTYLE
280
     0
  9
$LWDISPLAY
290
     0
  9
$INSUNITS
 70
     4
  9
$HYPERLINKBASE
  1

  9
$STYLESHEET
  1

  9
$XEDIT
290
     1
  9
$CEPSNTYPE
380
     0
  9
$PSTYLEMODE
290
     1
  9
$FINGERPRINTGUID
  2
{04E83BD6-514F-4146-9AB0-02181F5142E2}
  9
$VERSIONGUID
  2
{6FF29308-3158-4F2D-8A7A-61F811C8A634}
  9
$EXTNAMES
290
     1
  9
$PSVPSCALE
 40
0.0
  9
$OLESTARTUP
290
     0
  9
$SORTENTS
280
   127
  9
$INDEXCTL
280
     0
  9
$HIDETEXT
280
     1
  9
$XCLIPFRAME
290
     0
  9
$HALOGAP
280
     0
  9
$OBSCOLOR
 70
   257
  9
$OBSLTYPE
280
     0
  9
$INTERSECTIONDISPLAY
280
     0
  9
$INTERSECTIONCOLOR
 70
   257
  9
$DIMASSOC
280
     2
  9
$PROJECTNAME
  1

  0
ENDSEC
  0
SECTION
  2
CLASSES
  0
CLASS
  1
ACDBDICTIONARYWDFLT
  2
AcDbDictionaryWithDefault
  3
ObjectDBX Classes
 90
        0
 91
        1
280
     0
281
     0
  0
CLASS
  1
DICTIONARYVAR
  2
AcDbDictionaryVar
  3
ObjectDBX Classes
 90
        0
 91
       22
280
     0
281
     0
  0
CLASS
  1
TABLESTYLE
  2
AcDbTableStyle
  3
ObjectDBX Classes
 90
     4095
 91
        1
280
     0
281
     0
  0
CLASS
  1
MATERIAL
  2
AcDbMaterial
  3
ObjectDBX Classes
 90
     1153
 91
        3
280
     0
281
     0
  0
CLASS
  1
VISUALSTYLE
  2
AcDbVisualStyle
  3
ObjectDBX Classes
 90
     4095
 91
       19
280
     0
281
     0
  0
CLASS
  1
SCALE
  2
AcDbScale
  3
ObjectDBX Classes
 90
     1153
 91
       17
280
     0
281
     0
  0
CLASS
  1
MLEADERSTYLE
  2
AcDbMLeaderStyle
  3
ACDB_MLEADERSTYLE_CLASS
 90
     4095
 91
        2
280
     0
281
     0
  0
CLASS
  1
CELLSTYLEMAP
  2
AcDbCellStyleMap
  3
ObjectDBX Classes
 90
     1152
 91
        3
280
     0
281
     0
  0
CLASS
  1
EXACXREFPANELOBJECT
  2
ExAcXREFPanelObject
  3
EXAC_ESW
 90
     1025
 91
        0
280
     0
281
     0
  0
CLASS
  1
NPOCOLLECTION
  2
AcDbImpNonPersistentObjectsCollection
  3
ObjectDBX Classes
 90
     1153
 91
        0
280
     0
281
     0
  0
CLASS
  1
LAYER_INDEX
  2
AcDbLayerIndex
  3
ObjectDBX Classes
 90
        0
 91
        0
280
     0
281
     0
  0
CLASS
  1
SPATIAL_INDEX
  2
AcDbSpatialIndex
  3
ObjectDBX Classes
 90
        0
 91
        0
280
     0
281
     0
  0
CLASS
  1
IDBUFFER
  2
AcDbIdBuffer
  3
ObjectDBX Classes
 90
        0
 91
        0
280
     0
281
     0
  0
CLASS
  1
DIMASSOC
  2
AcDbDimAssoc
  3
"AcDbDimAssoc|Product Desc:     AcDim ARX App For Dimension|Company:          Autodesk, Inc.|WEB Address:      www.autodesk.com"
 90
        0
 91
        2
280
     0
281
     0
  0
CLASS
  1
SORTENTSTABLE
  2
AcDbSortentsTable
  3
ObjectDBX Classes
 90
        0
 91
        1
280
     0
281
     0
  0
ENDSEC
  0
SECTION
  2
TABLES
  0
TABLE
  2
VPORT
  5
8
330
0
100
AcDbSymbolTable
 70
     1
  0
VPORT
  5
EA
330
8
100
AcDbSymbolTableRecord
100
AcDbViewportTableRecord
  2
*Active
 70
     0
 10
0.0
 20
0.0
 11
1.0
 21
1.0
 12
2265.858831357354
 22
1000.747150227045
 13
0.0
 23
0.0
 14
10.0
 24
10.0
 15
10.0
 25
10.0
 16
0.0
 26
0.0
 36
1.0
 17
0.0
 27
0.0
 37
0.0
 40
114.4725166713273
 41
2.132176234979973
 42
50.0
 43
0.0
 44
0.0
 50
0.0
 51
0.0
 71
     0
 72
  1000
 73
     1
 74
     3
 75
     0
 76
     0
 77
     0
 78
     0
281
     0
 65
     1
110
0.0
120
0.0
130
0.0
111
1.0
121
0.0
131
0.0
112
0.0
122
1.0
132
0.0
 79
     0
146
0.0
  0
ENDTAB
  0
TABLE
  2
LTYPE
  5
5
330
0
100
AcDbSymbolTable
 70
     1
  0
LTYPE
  5
14
330
5
100
AcDbSymbolTableRecord
100
AcDbLinetypeTableRecord
  2
ByBlock
 70
     0
  3

 72
    65
 73
     0
 40
0.0
  0
LTYPE
  5
15
330
5
100
AcDbSymbolTableRecord
100
AcDbLinetypeTableRecord
  2
ByLayer
 70
     0
  3

 72
    65
 73
     0
 40
0.0
  0
LTYPE
  5
16
330
5
100
AcDbSymbolTableRecord
100
AcDbLinetypeTableRecord
  2
Continuous
 70
     0
  3
Solid line
 72
    65
 73
     0
 40
0.0
  0
ENDTAB
  0
TABLE
  2
LAYER
  5
2
102
{ACAD_XDICTIONARY
360
217
102
}
330
0
100
AcDbSymbolTable
 70
     6
  0
LAYER
  5
10
102
{ACAD_XDICTIONARY
360
13C
102
}
330
2
100
AcDbSymbolTableRecord
100
AcDbLayerTableRecord
  2
0
 70
     0
 62
     7
  6
Continuous
370
    -3
390
F
  0
LAYER
  5
206
330
2
100
AcDbSymbolTableRecord
100
AcDbLayerTableRecord
  2
Defpoints
 70
     0
 62
     7
  6
Continuous
290
     0
370
    -3
390
F
  0
LAYER
  5
207
102
{ACAD_XDICTIONARY
360
208
102
}
330
2
100
AcDbSymbolTableRecord
100
AcDbLayerTableRecord
  2
S10_Quote
 70
     0
 62
     7
  6
Continuous
370
    -3
390
F
  0
LAYER
  5
209
102
{ACAD_XDICTIONARY
360
20A
102
}
330
2
100
AcDbSymbolTableRecord
100
AcDbLayerTableRecord
  2
S09_Testo
 70
     0
 62
     7
  6
Continuous
370
    -3
390
F
1001
AcAecLayerStandard
1000

1000

  0
LAYER
  5
20B
102
{ACAD_XDICTIONARY
360
20C
102
}
330
2
100
AcDbSymbolTableRecord
100
AcDbLayerTableRecord
  2
S08_Retino
 70
     0
 62
   252
  6
Continuous
370
    -3
390
F
  0
LAYER
  5
20D
330
2
100
AcDbSymbolTableRecord
100
AcDbLayerTableRecord
  2
Sichtbar (ISO)
 70
     0
 62
     5
  6
Continuous
370
    35
390
F
  0
ENDTAB
  0
TABLE
  2
STYLE
  5
3
330
0
100
AcDbSymbolTable
 70
     4
  0
STYLE
  5
11
330
3
100
AcDbSymbolTableRecord
100
AcDbTextStyleTableRecord
  2
Standard
 70
     0
 40
0.0
 41
1.0
 50
0.0
 71
     0
 42
2.5
  3
ARIAL.TTF
  4

1001
ACAD
1000
Arial
1071
       34
  0
STYLE
  5
132
330
3
100
AcDbSymbolTableRecord
100
AcDbTextStyleTableRecord
  2
Annotativa
 70
     0
 40
0.0
 41
1.0
 50
0.0
 71
     0
 42
2.5
  3
ARIAL.TTF
  4

1001
AcadAnnotative
1000
AnnotativeData
1002
{
1070
     1
1070
     1
1002
}
1001
ACAD
1000
Arial
1071
       34
  0
STYLE
  5
20E
330
3
100
AcDbSymbolTableRecord
100
AcDbTextStyleTableRecord
  2
ROMANS
 70
     0
 40
0.0
 41
1.0
 50
0.0
 71
     0
 42
0.21
  3
ROMANS.shx
  4

  0
STYLE
  5
20F
330
3
100
AcDbSymbolTableRecord
100
AcDbTextStyleTableRecord
  2
wurth
 70
     0
 40
0.0
 41
1.0
 50
0.0
 71
     0
 42
40.0
  3
WuerthBook.ttf
  4

1001
ACAD
1000
Wuerth Book
1071
        2
  0
ENDTAB
  0
TABLE
  2
VIEW
  5
6
330
0
100
AcDbSymbolTable
 70
     0
  0
ENDTAB
  0
TABLE
  2
UCS
  5
7
330
0
100
AcDbSymbolTable
 70
     0
  0
ENDTAB
  0
TABLE
  2
APPID
  5
9
330
0
100
AcDbSymbolTable
 70
    11
  0
APPID
  5
12
330
9
100
AcDbSymbolTableRecord
100
AcDbRegAppTableRecord
  2
ACAD
 70
     0
  0
APPID
  5
9E
330
9
100
AcDbSymbolTableRecord
100
AcDbRegAppTableRecord
  2
ACAD_PSEXT
 70
     0
  0
APPID
  5
133
330
9
100
AcDbSymbolTableRecord
100
AcDbRegAppTableRecord
  2
AcadAnnoPO
 70
     0
  0
APPID
  5
134
330
9
100
AcDbSymbolTableRecord
100
AcDbRegAppTableRecord
  2
AcadAnnotative
 70
     0
  0
APPID
  5
135
330
9
100
AcDbSymbolTableRecord
100
AcDbRegAppTableRecord
  2
ACAD_DSTYLE_DIMJAG
 70
     0
  0
APPID
  5
136
330
9
100
AcDbSymbolTableRecord
100
AcDbRegAppTableRecord
  2
ACAD_DSTYLE_DIMTALN
 70
     0
  0
APPID
  5
165
330
9
100
AcDbSymbolTableRecord
100
AcDbRegAppTableRecord
  2
ACAD_MLEADERVER
 70
     0
  0
APPID
  5
213
330
9
100
AcDbSymbolTableRecord
100
AcDbRegAppTableRecord
  2
AcAecLayerStandard
 70
     0
  0
APPID
  5
214
330
9
100
AcDbSymbolTableRecord
100
AcDbRegAppTableRecord
  2
AcDbDynamicBlockGUID
 70
     0
  0
APPID
  5
215
330
9
100
AcDbSymbolTableRecord
100
AcDbRegAppTableRecord
  2
AcDbBlockRepETag
 70
     0
  0
APPID
  5
216
330
9
100
AcDbSymbolTableRecord
100
AcDbRegAppTableRecord
  2
ACAD_DSTYLE_DIMBREAK
 70
     0
  0
ENDTAB
  0
TABLE
  2
DIMSTYLE
  5
A
330
0
100
AcDbSymbolTable
 70
     6
100
AcDbDimStyleTable
 71
     2
340
27
340
137
  0
DIMSTYLE
105
1B0
330
A
100
AcDbSymbolTableRecord
100
AcDbDimStyleTableRecord
  2
Standard
 70
     0
340
11
  0
DIMSTYLE
105
137
330
A
100
AcDbSymbolTableRecord
100
AcDbDimStyleTableRecord
  2
Annotativa
 70
     0
 40
0.0
 41
2.5
 42
0.625
 43
3.75
 44
1.25
 73
     0
 74
     0
 77
     1
 78
     8
140
2.5
141
2.5
143
0.03937007874016
147
0.625
171
     3
172
     1
271
     2
272
     2
274
     3
278
    44
283
     0
284
     8
340
11
1001
AcadAnnotative
1000
AnnotativeData
1002
{
1070
     1
1070
     1
1002
}
1001
ACAD_DSTYLE_DIMJAG
1070
   388
1040
1.5
1001
ACAD_DSTYLE_DIMTALN
1070
   392
1070
     0
  0
DIMSTYLE
105
27
330
A
100
AcDbSymbolTableRecord
100
AcDbDimStyleTableRecord
  2
ISO-25
 70
     0
 41
2.5
 42
0.625
 43
3.75
 44
1.25
 73
     0
 74
     0
 77
     1
 78
     8
140
2.5
141
2.5
143
0.03937007874016
147
0.625
171
     3
172
     1
271
     2
272
     2
274
     3
278
    44
283
     0
284
     8
340
11
  0
DIMSTYLE
105
210
330
A
100
AcDbSymbolTableRecord
100
AcDbDimStyleTableRecord
  2
mm 1_5
 70
     0
 40
5.0
 41
0.015
 42
0.625
 43
1.0
 44
1.25
 73
     0
 74
     0
 75
     1
 76
     1
 77
     1
 78
     8
140
2.0
141
0.5
143
0.03937007874016
147
0.8
171
     3
172
     1
174
     1
179
     2
271
     1
272
     1
274
     3
283
     0
284
     8
340
20E
342
1F4
  0
DIMSTYLE
105
211
102
{ACAD_REACTORS
330
2F4
330
3D9
102
}
330
A
100
AcDbSymbolTableRecord
100
AcDbDimStyleTableRecord
  2
mm 1_1
 70
     0
 41
0.015
 42
0.625
 43
1.0
 44
1.25
 73
     0
 74
     0
 77
     1
 78
     8
140
2.0
141
0.5
143
0.03937007874016
147
0.8
171
     3
172
     1
174
     1
179
     2
271
     2
272
     2
274
     3
283
     0
284
     8
340
20F
342
1F4
1001
ACAD_DSTYLE_DIMBREAK
1070
   391
1040
3.75
1001
ACAD_DSTYLE_DIMJAG
1070
   388
1040
1.5
1001
ACAD_DSTYLE_DIMTALN
1070
   392
1070
     0
  0
DIMSTYLE
105
212
330
A
100
AcDbSymbolTableRecord
100
AcDbDimStyleTableRecord
  2
mm 1_1 x4
 70
     0
 41
0.015
 42
0.625
 43
1.0
 44
1.25
 73
     0
 74
     0
 77
     1
 78
     8
140
2.0
141
0.5
143
0.03937007874016
144
0.25
147
0.8
171
     3
172
     1
174
     1
179
     2
271
     2
272
     2
274
     3
283
     0
284
     8
340
20F
342
1F4
1001
ACAD_DSTYLE_DIMBREAK
1070
   391
1040
3.75
1001
ACAD_DSTYLE_DIMJAG
1070
   388
1040
1.5
1001
ACAD_DSTYLE_DIMTALN
1070
   392
1070
     0
  0
ENDTAB
  0
TABLE
  2
BLOCK_RECORD
  5
1
330
0
100
AcDbSymbolTable
 70
     5
  0
BLOCK_RECORD
  5
1F
102
{ACAD_XDICTIONARY
360
1CE
102
}
330
1
100
AcDbSymbolTableRecord
100
AcDbBlockTableRecord
  2
*Model_Space
340
22
  0
BLOCK_RECORD
  5
D2
330
1
100
AcDbSymbolTableRecord
100
AcDbBlockTableRecord
  2
*Paper_Space
340
D3
  0
BLOCK_RECORD
  5
D6
330
1
100
AcDbSymbolTableRecord
100
AcDbBlockTableRecord
  2
*Paper_Space0
340
D7
  0
BLOCK_RECORD
  5
1F4
102
{ACAD_XDICTIONARY
360
1F5
102
}
330
1
100
AcDbSymbolTableRecord
100
AcDbBlockTableRecord
  2
A$C79C4041D
340
0
102
{BLKREFS
331
1FF
331
200
331
3E2
331
3E3
102
}
1001
AcDbDynamicBlockGUID
1000
{93BD5B1E-816B-4960-B1CC-7C46A00E0667}
1001
AcDbBlockRepETag
1070
     1
1071
        2
  0
BLOCK_RECORD
  5
1FA
330
1
100
AcDbSymbolTableRecord
100
AcDbBlockTableRecord
  2
*D2
340
0
  0
BLOCK_RECORD
  5
3DC
330
1
100
AcDbSymbolTableRecord
100
AcDbBlockTableRecord
  2
*D4
340
0
  0
ENDTAB
  0
ENDSEC
  0
SECTION
  2
BLOCKS
  0
BLOCK
  5
20
330
1F
100
AcDbEntity
  8
0
100
AcDbBlockBegin
  2
*Model_Space
 70
     0
 10
0.0
 20
0.0
 30
0.0
  3
*Model_Space
  1

  0
ENDBLK
  5
21
330
1F
100
AcDbEntity
  8
0
100
AcDbBlockEnd
  0
BLOCK
  5
D4
330
D2
100
AcDbEntity
 67
     1
  8
0
100
AcDbBlockBegin
  2
*Paper_Space
 70
     0
 10
0.0
 20
0.0
 30
0.0
  3
*Paper_Space
  1

  0
ENDBLK
  5
D5
330
D2
100
AcDbEntity
 67
     1
  8
0
100
AcDbBlockEnd
  0
BLOCK
  5
D8
330
D6
100
AcDbEntity
 67
     1
  8
0
100
AcDbBlockBegin
  2
*Paper_Space0
 70
     0
 10
0.0
 20
0.0
 30
0.0
  3
*Paper_Space0
  1

  0
ENDBLK
  5
D9
330
D6
100
AcDbEntity
 67
     1
  8
0
100
AcDbBlockEnd
  0
BLOCK
  5
1F6
330
1F4
100
AcDbEntity
  8
0
 62
     3
100
AcDbBlockBegin
  2
A$C79C4041D
 70
     0
 10
0.0
 20
0.0
 30
0.0
  3
A$C79C4041D
  1

  0
LINE
  5
1F7
330
1F4
100
AcDbEntity
  8
S10_Quote
 62
     4
100
AcDbLine
 10
-20.0
 20
-50.0
 30
0.0
 11
20.0
 21
50.0
 31
0.0
1001
AcDbBlockRepETag
1070
     1
1071
        0
1005
1F7
  0
LINE
  5
1F8
330
1F4
100
AcDbEntity
  8
S10_Quote
100
AcDbLine
 10
0.0
 20
50.0
 30
0.0
 11
0.0
 21
-50.0
 31
0.0
1001
AcDbBlockRepETag
1070
     1
1071
        1
1005
1F8
  0
ENDBLK
  5
1F9
330
1F4
100
AcDbEntity
  8
0
 62
     3
100
AcDbBlockEnd
  0
BLOCK
  5
1FB
330
1FA
100
AcDbEntity
  8
0
 62
     0
100
AcDbBlockBegin
  2
*D2
 70
     1
 10
0.0
 20
0.0
 30
0.0
  3
*D2
  1

  0
LINE
  5
1FC
330
1FA
100
AcDbEntity
  8
S10_Quote
 62
     0
370
    -2
100
AcDbLine
 10
1497.533017775473
 20
4951.48464765592
 30
0.0
 11
1497.533017775473
 21
4931.903058301132
 31
0.0
  0
LINE
  5
1FD
330
1FA
100
AcDbEntity
  8
S10_Quote
 62
     0
370
    -2
100
AcDbLine
 10
1526.533017775473
 20
4951.48464765592
 30
0.0
 11
1526.533017775473
 21
4931.903058301132
 31
0.0
  0
LINE
  5
1FE
330
1FA
100
AcDbEntity
  8
S10_Quote
 62
     0
370
    -2
100
AcDbLine
 10
1497.548017775473
 20
4933.153058301132
 30
0.0
 11
1526.518017775473
 21
4933.153058301132
 31
0.0
  0
INSERT
  5
1FF
330
1FA
100
AcDbEntity
  8
S10_Quote
 62
     0
370
    -2
100
AcDbBlockReference
  2
A$C79C4041D
 10
1497.533017775473
 20
4933.153058301132
 30
0.0
 41
0.015
 42
0.015
 43
0.015
 50
180.0
  0
INSERT
  5
200
330
1FA
100
AcDbEntity
  8
S10_Quote
 62
     0
370
    -2
100
AcDbBlockReference
  2
A$C79C4041D
 10
1526.533017775473
 20
4933.153058301132
 30
0.0
 41
0.015
 42
0.015
 43
0.015
  0
MTEXT
  5
201
330
1FA
100
AcDbEntity
  8
S10_Quote
 62
     0
100
AcDbMText
 10
1512.033017775473
 20
4934.976135224208
 30
0.0
 40
2.0
 41
0.0
 71
     5
 72
     1
  1
29
  7
wurth
 73
     1
 44
1.0
  0
POINT
  5
202
330
1FA
100
AcDbEntity
  8
Defpoints
 62
     0
100
AcDbPoint
 10
1497.533017775473
 20
4952.10964765592
 30
0.0
  0
POINT
  5
203
330
1FA
100
AcDbEntity
  8
Defpoints
 62
     0
100
AcDbPoint
 10
1526.533017775473
 20
4952.10964765592
 30
0.0
  0
POINT
  5
204
330
1FA
100
AcDbEntity
  8
Defpoints
 62
     0
100
AcDbPoint
 10
1526.533017775473
 20
4933.153058301132
 30
0.0
  0
ENDBLK
  5
205
330
1FA
100
AcDbEntity
  8
0
 62
     0
100
AcDbBlockEnd
  0
BLOCK
  5
3DD
330
3DC
100
AcDbEntity
  8
0
100
AcDbBlockBegin
  2
*D4
 70
     1
 10
0.0
 20
0.0
 30
0.0
  3
*D4
  1

  0
LINE
  5
3DF
330
3DC
100
AcDbEntity
  8
S10_Quote
 62
     0
370
    -2
100
AcDbLine
 10
2208.840065752283
 20
1024.504152544171
 30
0.0
 11
2208.840065752283
 21
1004.922563189383
 31
0.0
  0
LINE
  5
3E0
330
3DC
100
AcDbEntity
  8
S10_Quote
 62
     0
370
    -2
100
AcDbLine
 10
2237.840065752283
 20
1024.504152544171
 30
0.0
 11
2237.840065752283
 21
1004.922563189383
 31
0.0
  0
LINE
  5
3E1
330
3DC
100
AcDbEntity
  8
S10_Quote
 62
     0
370
    -2
100
AcDbLine
 10
2208.855065752283
 20
1006.172563189383
 30
0.0
 11
2237.825065752284
 21
1006.172563189383
 31
0.0
  0
INSERT
  5
3E2
330
3DC
100
AcDbEntity
  8
S10_Quote
 62
     0
370
    -2
100
AcDbBlockReference
  2
A$C79C4041D
 10
2208.840065752283
 20
1006.172563189383
 30
0.0
 41
0.015
 42
0.015
 43
0.015
 50
180.0
  0
INSERT
  5
3E3
330
3DC
100
AcDbEntity
  8
S10_Quote
 62
     0
370
    -2
100
AcDbBlockReference
  2
A$C79C4041D
 10
2237.840065752283
 20
1006.172563189383
 30
0.0
 41
0.015
 42
0.015
 43
0.015
  0
MTEXT
  5
3E4
330
3DC
100
AcDbEntity
  8
S10_Quote
 62
     0
100
AcDbMText
 10
2223.340065752283
 20
1007.99564011246
 30
0.0
 40
2.0
 41
0.0
 71
     5
 72
     1
  1
29
  7
wurth
 73
     1
 44
1.0
  0
POINT
  5
3E5
330
3DC
100
AcDbEntity
  8
Defpoints
 62
     0
100
AcDbPoint
 10
2208.840065752283
 20
1025.129152544171
 30
0.0
  0
POINT
  5
3E6
330
3DC
100
AcDbEntity
  8
Defpoints
 62
     0
100
AcDbPoint
 10
2237.840065752283
 20
1025.129152544171
 30
0.0
  0
POINT
  5
3E7
330
3DC
100
AcDbEntity
  8
Defpoints
 62
     0
100
AcDbPoint
 10
2237.840065752283
 20
1006.172563189383
 30
0.0
  0
ENDBLK
  5
3DE
330
3DC
100
AcDbEntity
  8
0
100
AcDbBlockEnd
  0
ENDSEC
  0
SECTION
  2
ENTITIES
  0
LINE
  5
300
330
1F
100
AcDbEntity
  8
Sichtbar (ISO)
100
AcDbLine
 10
2215.340065752283
 20
1053.129152544171
 30
0.0
 11
2236.340065752283
 21
1053.129152544171
 31
0.0
  0
LINE
  5
301
330
1F
100
AcDbEntity
  8
Sichtbar (ISO)
100
AcDbLine
 10
2237.840065752283
 20
1051.629152544171
 30
0.0
 11
2237.840065752283
 21
1023.129152544171
 31
0.0
  0
LINE
  5
302
330
1F
100
AcDbEntity
  8
Sichtbar (ISO)
100
AcDbLine
 10
2213.840065752283
 20
1051.629152544171
 30
0.0
 11
2213.840065752283
 21
1035.129152544171
 31
0.0
  0
LINE
  5
303
330
1F
100
AcDbEntity
  8
Sichtbar (ISO)
100
AcDbLine
 10
2213.840065752283
 20
1035.129152544171
 30
0.0
 11
2210.340065752284
 21
1035.129152544171
 31
0.0
  0
LINE
  5
304
330
1F
100
AcDbEntity
  8
Sichtbar (ISO)
100
AcDbLine
 10
2208.840065752283
 20
1033.629152544171
 30
0.0
 11
2208.840065752283
 21
1025.129152544171
 31
0.0
  0
LINE
  5
305
330
1F
100
AcDbEntity
  8
Sichtbar (ISO)
100
AcDbLine
 10
2208.840065752283
 20
1025.129152544171
 30
0.0
 11
2211.840065752284
 21
1028.129152544171
 31
0.0
  0
LWPOLYLINE
  5
306
102
{ACAD_REACTORS
330
3DB
102
}
330
1F
100
AcDbEntity
  8
Sichtbar (ISO)
100
AcDbPolyline
 90
       17
 70
     0
 43
0.0
 10
2208.840065752283
 20
1025.129152544171
 10
2208.840065752283
 20
1033.629152544171
 42
-0.4142135623730684
 10
2210.340065752284
 20
1035.129152544171
 10
2213.840065752283
 20
1035.129152544171
 10
2213.840065752283
 20
1051.629152544171
 42
-0.4142135623730951
 10
2215.340065752283
 20
1053.129152544171
 10
2236.340065752283
 20
1053.129152544171
 42
-0.4142135623730951
 10
2237.840065752283
 20
1051.629152544171
 10
2237.840065752283
 20
1023.129152544171
 10
2234.840065752283
 20
1023.129152544171
 10
2234.840065752283
 20
1049.129152544171
 10
2216.840065752283
 20
1049.129152544171
 10
2216.840065752283
 20
1032.629152544171
 42
-0.4142135623730951
 10
2215.340065752283
 20
1031.129152544171
 10
2211.840065752284
 20
1031.129152544171
 10
2211.840065752284
 20
1028.129152544171
 10
2208.840065752283
 20
1025.129152544171
  0
LINE
  5
307
330
1F
100
AcDbEntity
  8
Sichtbar (ISO)
100
AcDbLine
 10
2222.190065752284
 20
1057.529152544171
 30
0.0
 11
2229.490065752283
 21
1057.529152544171
 31
0.0
  0
ARC
  5
308
330
1F
100
AcDbEntity
  8
Sichtbar (ISO)
100
AcDbCircle
 10
2222.190065752284
 20
1054.179152544171
 30
0.0
 40
3.35
100
AcDbArc
 50
90.0
 51
180.0
  0
ARC
  5
309
330
1F
100
AcDbEntity
  8
Sichtbar (ISO)
100
AcDbCircle
 10
2229.490065752283
 20
1054.179152544171
 30
0.0
 40
3.35
100
AcDbArc
 50
0.0
 51
90.0
  0
LINE
  5
30A
330
1F
100
AcDbEntity
  8
Sichtbar (ISO)
100
AcDbLine
 10
2232.840065752283
 20
1054.179152544171
 30
0.0
 11
2232.840065752283
 21
1053.129152544171
 31
0.0
  0
LINE
  5
30B
330
1F
100
AcDbEntity
  8
Sichtbar (ISO)
100
AcDbLine
 10
2218.840065752283
 20
1054.179152544171
 30
0.0
 11
2218.840065752283
 21
1053.129152544171
 31
0.0
  0
LINE
  5
30C
330
1F
100
AcDbEntity
  8
Sichtbar (ISO)
100
AcDbLine
 10
2229.840065752283
 20
1049.129152544171
 30
0.0
 11
2229.840065752283
 21
1045.17915254417
 31
0.0
  0
LINE
  5
30D
330
1F
100
AcDbEntity
  8
Sichtbar (ISO)
100
AcDbLine
 10
2221.840065752283
 20
1049.129152544171
 30
0.0
 11
2221.840065752283
 21
1045.17915254417
 31
0.0
  0
LWPOLYLINE
  5
30E
330
1F
100
AcDbEntity
  8
Sichtbar (ISO)
100
AcDbPolyline
 90
        6
 70
     0
 43
0.0
 10
2225.840065752283
 20
1045.17915254417
 10
2217.840065752284
 20
1045.17915254417
 10
2217.840065752284
 20
1014.129152544171
 10
2233.840065752284
 20
1014.129152544171
 10
2233.840065752284
 20
1045.17915254417
 10
2225.840065752283
 20
1045.17915254417
  0
LINE
  5
30F
330
1F
100
AcDbEntity
  8
Sichtbar (ISO)
100
AcDbLine
 10
2217.840065752284
 20
1016.255450660851
 30
0.0
 11
2233.840065752284
 21
1016.255450660852
 31
0.0
  0
LINE
  5
310
330
1F
100
AcDbEntity
  8
Sichtbar (ISO)
100
AcDbLine
 10
2217.840065752284
 20
1021.913875563295
 30
0.0
 11
2233.840065752284
 21
1021.913875563296
 31
0.0
  0
CIRCLE
  5
311
330
1F
100
AcDbEntity
  8
Sichtbar (ISO)
100
AcDbCircle
 10
2225.840065752285
 20
964.4747424462321
 30
0.0
 40
3.2331875
  0
CIRCLE
  5
312
330
1F
100
AcDbEntity
  8
Sichtbar (ISO)
100
AcDbCircle
 10
2225.840065752275
 20
964.4747424462412
 30
0.0
 40
4.000000000000001
  0
CIRCLE
  5
313
330
1F
100
AcDbEntity
  8
Sichtbar (ISO)
100
AcDbCircle
 10
2225.840065752275
 20
964.4747424462412
 30
0.0
 40
7.000000000000001
  0
LINE
  5
314
330
1F
100
AcDbEntity
  8
Sichtbar (ISO)
100
AcDbLine
 10
2228.340065752274
 20
965.9181181192161
 30
0.0
 11
2228.340065752274
 21
963.031366773268
 31
0.0
  0
LINE
  5
315
330
1F
100
AcDbEntity
  8
Sichtbar (ISO)
100
AcDbLine
 10
2228.340065752274
 20
963.031366773268
 30
0.0
 11
2225.840065752274
 21
961.587991100294
 31
0.0
  0
LINE
  5
316
330
1F
100
AcDbEntity
  8
Sichtbar (ISO)
100
AcDbLine
 10
2225.840065752274
 20
961.587991100294
 30
0.0
 11
2223.340065752274
 21
963.031366773268
 31
0.0
  0
LINE
  5
317
330
1F
100
AcDbEntity
  8
Sichtbar (ISO)
100
AcDbLine
 10
2223.340065752274
 20
963.031366773268
 30
0.0
 11
2223.340065752274
 21
965.9181181192161
 31
0.0
  0
LINE
  5
318
330
1F
100
AcDbEntity
  8
Sichtbar (ISO)
100
AcDbLine
 10
2223.340065752274
 20
965.9181181192161
 30
0.0
 11
2225.840065752274
 21
967.3614937921902
 31
0.0
  0
LINE
  5
319
330
1F
100
AcDbEntity
  8
Sichtbar (ISO)
100
AcDbLine
 10
2225.840065752274
 20
967.3614937921902
 30
0.0
 11
2228.340065752274
 21
965.9181181192161
 31
0.0
  0
ARC
  5
31A
330
1F
100
AcDbEntity
  8
Sichtbar (ISO)
100
AcDbCircle
 10
2225.840065752276
 20
964.4747424462403
 30
0.0
 40
3.255999999999999
100
AcDbArc
 50
100.0000000000574
 51
10.00000000000389
  0
LWPOLYLINE
  5
31B
330
1F
100
AcDbEntity
  8
Sichtbar (ISO)
100
AcDbPolyline
 90
        5
 70
     0
 43
0.0
 10
2205.840065752284
 20
981.4747424462321
 10
2205.840065752284
 20
952.474742446232
 10
2245.840065752284
 20
952.474742446232
 10
2245.840065752284
 20
981.4747424462321
 10
2205.840065752284
 20
981.4747424462321
  0
LINE
  5
31C
330
1F
100
AcDbEntity
  8
Sichtbar (ISO)
100
AcDbLine
 10
2205.840065752284
 20
976.4747424462321
 30
0.0
 11
2245.840065752284
 21
976.4747424462321
 31
0.0
  0
LINE
  5
31D
330
1F
100
AcDbEntity
  8
Sichtbar (ISO)
 62
   252
100
AcDbLine
 10
2217.840065752284
 20
1023.17915254417
 30
0.0
 11
2233.840065752284
 21
1023.179152544171
 31
0.0
  0
LINE
  5
31E
330
1F
100
AcDbEntity
  8
Sichtbar (ISO)
100
AcDbLine
 10
2297.562470523339
 20
1057.529152544171
 30
0.0
 11
2304.862470523338
 21
1057.529152544171
 31
0.0
  0
ARC
  5
31F
330
1F
100
AcDbEntity
  8
Sichtbar (ISO)
100
AcDbCircle
 10
2297.562470523339
 20
1054.179152544171
 30
0.0
 40
3.35
100
AcDbArc
 50
90.0
 51
180.0
  0
ARC
  5
320
330
1F
100
AcDbEntity
  8
Sichtbar (ISO)
100
AcDbCircle
 10
2304.862470523338
 20
1054.179152544171
 30
0.0
 40
3.35
100
AcDbArc
 50
0.0
 51
90.0
  0
LINE
  5
321
330
1F
100
AcDbEntity
  8
Sichtbar (ISO)
100
AcDbLine
 10
2308.212470523338
 20
1054.179152544171
 30
0.0
 11
2308.212470523338
 21
1053.129152544171
 31
0.0
  0
LINE
  5
322
330
1F
100
AcDbEntity
  8
Sichtbar (ISO)
100
AcDbLine
 10
2294.212470523338
 20
1054.179152544171
 30
0.0
 11
2294.212470523338
 21
1053.129152544171
 31
0.0
  0
LWPOLYLINE
  5
323
330
1F
100
AcDbEntity
  8
Sichtbar (ISO)
100
AcDbPolyline
 90
        4
 70
     1
 43
0.0
 10
2281.212470523338
 20
1053.129152544171
 10
2321.212470523338
 20
1053.129152544171
 10
2321.212470523338
 20
1025.129152544171
 10
2281.212470523338
 20
1025.129152544171
  0
LINE
  5
324
330
1F
100
AcDbEntity
  8
Sichtbar (ISO)
100
AcDbLine
 10
2319.193876324797
 20
1023.129152544171
 30
0.0
 11
2319.712470523338
 21
1021.913875563296
 31
0.0
  0
LINE
  5
325
330
1F
100
AcDbEntity
  8
Sichtbar (ISO)
100
AcDbLine
 10
2319.712470523338
 20
1021.913875563296
 30
0.0
 11
2319.712470523338
 21
1016.255450660852
 31
0.0
  0
LINE
  5
326
330
1F
100
AcDbEntity
  8
Sichtbar (ISO)
100
AcDbLine
 10
2319.712470523338
 20
1016.255450660852
 30
0.0
 11
2318.197271124248
 21
1014.129152544171
 31
0.0
  0
LINE
  5
327
330
1F
100
AcDbEntity
  8
Sichtbar (ISO)
100
AcDbLine
 10
2318.197271124248
 20
1014.129152544171
 30
0.0
 11
2316.711418026778
 21
1014.129152544171
 31
0.0
  0
LINE
  5
328
330
1F
100
AcDbEntity
  8
Sichtbar (ISO)
100
AcDbLine
 10
2316.711418026778
 20
1014.129152544171
 30
0.0
 11
2314.712470523338
 21
1016.12810004761
 31
0.0
  0
LINE
  5
329
330
1F
100
AcDbEntity
  8
Sichtbar (ISO)
100
AcDbLine
 10
2314.712470523338
 20
1016.12810004761
 30
0.0
 11
2314.712470523338
 21
1018.409152544171
 31
0.0
  0
ARC
  5
32A
330
1F
100
AcDbEntity
  8
Sichtbar (ISO)
100
AcDbCircle
 10
2315.012468651956
 20
1018.409152544171
 30
0.0
 40
0.3000000000000003
100
AcDbArc
 50
45.00141057220644
 51
180.0
  0
LINE
  5
32B
330
1F
100
AcDbEntity
  8
Sichtbar (ISO)
100
AcDbLine
 10
2315.224595463742
 20
1018.621289800969
 30
0.0
 11
2316.162292473274
 21
1017.683592791436
 31
0.0
  0
ARC
  5
32C
330
1F
100
AcDbEntity
  8
Sichtbar (ISO)
100
AcDbCircle
 10
2316.412472345115
 20
1017.849152544171
 30
0.0
 40
0.3
100
AcDbArc
 50
213.4951119557731
 51
0.0
  0
LINE
  5
32D
330
1F
100
AcDbEntity
  8
Sichtbar (ISO)
100
AcDbLine
 10
2316.712470523338
 20
1017.849152544171
 30
0.0
 11
2316.712470523338
 21
1022.679152544171
 31
0.0
  0
LINE
  5
32E
330
1F
100
AcDbEntity
  8
Sichtbar (ISO)
100
AcDbLine
 10
2316.712470523338
 20
1022.679152544171
 30
0.0
 11
2316.520442374187
 21
1023.129152544171
 31
0.0
  0
LINE
  5
32F
330
1F
100
AcDbEntity
  8
Sichtbar (ISO)
100
AcDbLine
 10
2285.904498672489
 20
1023.129152544171
 30
0.0
 11
2285.712470523338
 21
1022.679152544171
 31
0.0
  0
LINE
  5
330
330
1F
100
AcDbEntity
  8
Sichtbar (ISO)
100
AcDbLine
 10
2285.712470523338
 20
1022.679152544171
 30
0.0
 11
2285.712470523338
 21
1017.849152544171
 31
0.0
  0
ARC
  5
331
330
1F
100
AcDbEntity
  8
Sichtbar (ISO)
100
AcDbCircle
 10
2286.012468701561
 20
1017.849152544171
 30
0.0
 40
0.3000000000000003
100
AcDbArc
 50
180.0
 51
326.5048880442269
  0
LINE
  5
332
330
1F
100
AcDbEntity
  8
Sichtbar (ISO)
100
AcDbLine
 10
2286.262648573403
 20
1017.683592791436
 30
0.0
 11
2287.200345582935
 21
1018.621289800969
 31
0.0
  0
ARC
  5
333
330
1F
100
AcDbEntity
  8
Sichtbar (ISO)
100
AcDbCircle
 10
2287.41247239472
 20
1018.409152544171
 30
0.0
 40
0.2999999999999987
100
AcDbArc
 50
0.0
 51
134.9985894277935
  0
LINE
  5
334
330
1F
100
AcDbEntity
  8
Sichtbar (ISO)
100
AcDbLine
 10
2287.712470523338
 20
1018.409152544171
 30
0.0
 11
2287.712470523338
 21
1016.12810004761
 31
0.0
  0
LINE
  5
335
330
1F
100
AcDbEntity
  8
Sichtbar (ISO)
100
AcDbLine
 10
2287.712470523338
 20
1016.12810004761
 30
0.0
 11
2285.713523019899
 21
1014.129152544171
 31
0.0
  0
LINE
  5
336
330
1F
100
AcDbEntity
  8
Sichtbar (ISO)
100
AcDbLine
 10
2285.713523019899
 20
1014.129152544171
 30
0.0
 11
2284.227669922429
 21
1014.129152544171
 31
0.0
  0
LINE
  5
337
330
1F
100
AcDbEntity
  8
Sichtbar (ISO)
100
AcDbLine
 10
2284.227669922429
 20
1014.129152544171
 30
0.0
 11
2282.712470523339
 21
1016.255450660852
 31
0.0
  0
LINE
  5
338
330
1F
100
AcDbEntity
  8
Sichtbar (ISO)
100
AcDbLine
 10
2282.712470523339
 20
1016.255450660852
 30
0.0
 11
2282.712470523339
 21
1021.913875563296
 31
0.0
  0
LINE
  5
339
330
1F
100
AcDbEntity
  8
Sichtbar (ISO)
100
AcDbLine
 10
2282.712470523339
 20
1021.913875563296
 30
0.0
 11
2283.231064721879
 21
1023.129152544171
 31
0.0
  0
ELLIPSE
  5
33A
330
1F
100
AcDbEntity
  8
Sichtbar (ISO)
100
AcDbEllipse
 10
2306.035630122174
 20
990.043628566662
 30
0.0
 11
-0.8233458783583841
 21
1.822663316301239
 31
0.0
210
0.0
220
0.0
230
1.0
 40
0.6788965796855843
 41
5.696071347569559
 42
6.283185307179582
  0
LINE
  5
33B
330
1F
100
AcDbEntity
  8
Sichtbar (ISO)
100
AcDbLine
 10
2320.675583184081
 20
986.5091687307385
 30
0.0
 11
2306.035630122174
 21
991.8707194819472
 31
0.0
  0
ELLIPSE
  5
33C
330
1F
100
AcDbEntity
  8
Sichtbar (ISO)
100
AcDbEllipse
 10
2320.675583184081
 20
984.6820778154533
 30
0.0
 11
-0.8233458783585211
 21
1.822663316301199
 31
0.0
210
0.0
220
0.0
230
1.0
 40
0.678896579685585
 41
4.125275020774559
 42
5.696071347569388
  0
LINE
  5
33D
330
1F
100
AcDbEntity
  8
Sichtbar (ISO)
100
AcDbLine
 10
2322.161872835037
 20
970.2518669860655
 30
0.0
 11
2322.161872835037
 21
984.1377579422342
 31
0.0
  0
ELLIPSE
  5
33E
330
1F
100
AcDbEntity
  8
Sichtbar (ISO)
100
AcDbEllipse
 10
2322.38481628268
 20
970.1702190050827
 30
0.0
 11
-0.1235018817537381
 21
0.2733994974451938
 31
0.0
210
0.0
220
0.0
230
1.0
 40
0.6788965796855852
 41
0.983682367185036
 42
2.554478693980096
  0
LINE
  5
33F
330
1F
100
AcDbEntity
  8
Sichtbar (ISO)
100
AcDbLine
 10
2324.391307311469
 20
969.1613235389441
 30
0.0
 11
2322.38481628268
 21
969.89615536779
 31
0.0
  0
ELLIPSE
  5
340
330
1F
100
AcDbEntity
  8
Sichtbar (ISO)
100
AcDbEllipse
 10
2324.391307311469
 20
967.3342326236589
 30
0.0
 11
-0.8233458783585152
 21
1.822663316301188
 31
0.0
210
0.0
220
0.0
230
1.0
 40
0.6788965796855852
 41
4.125275020774568
 42
5.696071347569413
  0
LINE
  5
341
330
1F
100
AcDbEntity
  8
Sichtbar (ISO)
100
AcDbLine
 10
2325.877596962424
 20
959.2988399977702
 30
0.0
 11
2325.877596962424
 21
966.7899127504396
 31
0.0
  0
ELLIPSE
  5
342
330
1F
100
AcDbEntity
  8
Sichtbar (ISO)
100
AcDbEllipse
 10
2325.654653514781
 20
959.380487978753
 30
0.0
 11
0.123501881753753
 21
-0.2733994974451825
 31
0.0
210
0.0
220
0.0
230
1.0
 40
0.6788965796855852
 41
0.0000000000000042
 42
0.9836823671849302
  0
LINE
  5
343
330
1F
100
AcDbEntity
  8
Sichtbar (ISO)
100
AcDbLine
 10
2280.013550693302
 20
975.5797448121221
 30
0.0
 11
2280.013550693302
 21
952.3756901879988
 31
0.0
  0
LINE
  5
344
330
1F
100
AcDbEntity
  8
Sichtbar (ISO)
100
AcDbLine
 10
2280.013550693302
 20
952.3756901879988
 30
0.0
 11
2281.984153125596
 21
953.2658641307126
 31
0.0
  0
LINE
  5
345
330
1F
100
AcDbEntity
  8
Sichtbar (ISO)
100
AcDbLine
 10
2280.013550693302
 20
975.5797448121221
 30
0.0
 11
2280.348610605719
 21
975.7311003561898
 31
0.0
  0
ELLIPSE
  5
346
330
1F
100
AcDbEntity
  8
Sichtbar (ISO)
100
AcDbEllipse
 10
2279.790607245659
 20
952.4573381689815
 30
0.0
 11
0.1235018817537586
 21
-0.2733994974451883
 31
0.0
210
0.0
220
0.0
230
1.0
 40
0.6788965796855849
 41
5.696071347569478
 42
7.266867674364414
  0
LINE
  5
347
330
1F
100
AcDbEntity
  8
Sichtbar (ISO)
100
AcDbLine
 10
2279.790607245659
 20
952.1832745316887
 30
0.0
 11
2278.007059664513
 21
952.836458379552
 31
0.0
  0
ELLIPSE
  5
348
330
1F
100
AcDbEntity
  8
Sichtbar (ISO)
100
AcDbEllipse
 10
2278.007059664513
 20
953.1105220168447
 30
0.0
 11
-0.1235018817537388
 21
0.2733994974451952
 31
0.0
210
0.0
220
0.0
230
1.0
 40
0.6788965796855852
 41
0.9836823671850822
 42
2.554478693980016
  0
LINE
  5
349
330
1F
100
AcDbEntity
  8
Sichtbar (ISO)
100
AcDbLine
 10
2277.78411621687
 20
953.1921699978274
 30
0.0
 11
2277.78411621687
 21
978.4973791745278
 31
0.0
  0
ELLIPSE
  5
34A
330
1F
100
AcDbEntity
  8
Sichtbar (ISO)
100
AcDbEllipse
 10
2279.270405867825
 20
977.9530593013086
 30
0.0
 11
-0.8233458783583888
 21
1.822663316301248
 31
0.0
210
0.0
220
0.0
230
1.0
 40
0.6788965796855849
 41
5.696071347569558
 42
7.266867674364454
  0
LINE
  5
34B
330
1F
100
AcDbEntity
  8
Sichtbar (ISO)
100
AcDbLine
 10
2279.270405867825
 20
979.7801502165938
 30
0.0
 11
2293.599676032556
 21
986.2530656609878
 31
0.0
  0
LINE
  5
34C
330
1F
100
AcDbEntity
  8
Sichtbar (ISO)
100
AcDbLine
 10
2299.526498392037
 20
988.9303701954004
 30
0.0
 11
2306.035630122174
 21
991.8707194819472
 31
0.0
  0
LINE
  5
34D
330
1F
100
AcDbEntity
  8
Sichtbar (ISO)
100
AcDbLine
 10
2279.270405867825
 20
979.7801502165938
 30
0.0
 11
2293.910358929731
 21
974.4185994653863
 31
0.0
  0
LINE
  5
34E
330
1F
100
AcDbEntity
  8
Sichtbar (ISO)
100
AcDbLine
 10
2293.910358929731
 20
974.4185994653863
 30
0.0
 11
2320.675583184081
 21
986.5091687307385
 31
0.0
  0
ELLIPSE
  5
34F
330
1F
100
AcDbEntity
  8
Sichtbar (ISO)
100
AcDbEllipse
 10
2293.910358929731
 20
972.5915085501011
 30
0.0
 11
0.8233458783582639
 21
-1.822663316301314
 31
0.0
210
0.0
220
0.0
230
1.0
 40
0.678896579685585
 41
0.9836823671850378
 42
2.554478693980009
  0
LINE
  5
350
330
1F
100
AcDbEntity
  8
Sichtbar (ISO)
100
AcDbLine
 10
2295.396648580686
 20
972.0471886768809
 30
0.0
 11
2322.161872835037
 21
984.1377579422342
 31
0.0
  0
LINE
  5
351
330
1F
100
AcDbEntity
  8
Sichtbar (ISO)
100
AcDbLine
 10
2295.396648580686
 20
972.0471886768809
 30
0.0
 11
2295.396648580686
 21
958.1612977207132
 31
0.0
  0
LINE
  5
352
330
1F
100
AcDbEntity
  8
Sichtbar (ISO)
100
AcDbLine
 10
2295.396648580686
 20
958.1612977207132
 30
0.0
 11
2322.161872835037
 21
970.2518669860655
 31
0.0
  0
ELLIPSE
  5
353
330
1F
100
AcDbEntity
  8
Sichtbar (ISO)
100
AcDbEllipse
 10
2295.61959202833
 20
958.0796497397304
 30
0.0
 11
0.1235018817537766
 21
-0.2733994974451764
 31
0.0
210
0.0
220
0.0
230
1.0
 40
0.6788965796855852
 41
4.125275020774671
 42
5.696071347569389
  0
LINE
  5
354
330
1F
100
AcDbEntity
  8
Sichtbar (ISO)
100
AcDbLine
 10
2295.61959202833
 20
957.8055861024378
 30
0.0
 11
2322.38481628268
 21
969.89615536779
 31
0.0
  0
LINE
  5
355
330
1F
100
AcDbEntity
  8
Sichtbar (ISO)
100
AcDbLine
 10
2295.61959202833
 20
957.8055861024378
 30
0.0
 11
2297.626083057119
 21
957.0707542735917
 31
0.0
  0
LINE
  5
356
330
1F
100
AcDbEntity
  8
Sichtbar (ISO)
100
AcDbLine
 10
2297.626083057119
 20
957.0707542735917
 30
0.0
 11
2324.391307311469
 21
969.1613235389441
 31
0.0
  0
ELLIPSE
  5
357
330
1F
100
AcDbEntity
  8
Sichtbar (ISO)
100
AcDbEllipse
 10
2297.626083057119
 20
955.2436633583065
 30
0.0
 11
0.8233458783582589
 21
-1.822663316301303
 31
0.0
210
0.0
220
0.0
230
1.0
 40
0.678896579685585
 41
0.9836823671850387
 42
2.554478693980009
  0
LINE
  5
358
330
1F
100
AcDbEntity
  8
Sichtbar (ISO)
100
AcDbLine
 10
2299.112372708074
 20
954.6993434850874
 30
0.0
 11
2325.877596962424
 21
966.7899127504396
 31
0.0
  0
LINE
  5
359
330
1F
100
AcDbEntity
  8
Sichtbar (ISO)
100
AcDbLine
 10
2299.112372708074
 20
954.6993434850874
 30
0.0
 11
2299.112372708074
 21
947.208270732418
 31
0.0
  0
LINE
  5
35A
330
1F
100
AcDbEntity
  8
Sichtbar (ISO)
100
AcDbLine
 10
2299.112372708074
 20
947.208270732418
 30
0.0
 11
2325.877596962424
 21
959.2988399977702
 31
0.0
  0
ELLIPSE
  5
35B
330
1F
100
AcDbEntity
  8
Sichtbar (ISO)
100
AcDbEllipse
 10
2298.88942926043
 20
947.2899187133998
 30
0.0
 11
0.1235018817537592
 21
-0.2733994974451892
 31
0.0
210
0.0
220
0.0
230
1.0
 40
0.678896579685585
 41
4.91067318417211
 42
7.266867674364437
  0
LINE
  5
35C
330
1F
100
AcDbEntity
  8
Sichtbar (ISO)
100
AcDbLine
 10
2298.73178443678
 20
947.1538602980173
 30
0.0
 11
2296.882938231641
 21
950.1037387650685
 31
0.0
  0
LINE
  5
35D
330
1F
100
AcDbEntity
  8
Sichtbar (ISO)
100
AcDbLine
 10
2296.882938231641
 20
950.1037387650685
 30
0.0
 11
2296.882938231641
 21
953.4146687423382
 31
0.0
  0
ELLIPSE
  5
35E
330
1F
100
AcDbEntity
  8
Sichtbar (ISO)
100
AcDbEllipse
 10
2296.659994783998
 20
953.4963167233209
 30
0.0
 11
-0.1235018817537737
 21
0.2733994974451703
 31
0.0
210
0.0
220
0.0
230
1.0
 40
0.6788965796855852
 41
4.125275020774541
 42
5.696071347569389
  0
LINE
  5
35F
330
1F
100
AcDbEntity
  8
Sichtbar (ISO)
100
AcDbLine
 10
2296.659994783998
 20
953.7703803606136
 30
0.0
 11
2294.653503755208
 21
954.5052121894595
 31
0.0
  0
ELLIPSE
  5
360
330
1F
100
AcDbEntity
  8
Sichtbar (ISO)
100
AcDbEllipse
 10
2294.653503755208
 20
956.3323031047447
 30
0.0
 11
-0.8233458783582623
 21
1.822663316301308
 31
0.0
210
0.0
220
0.0
230
1.0
 40
0.678896579685585
 41
0.9836823671850378
 42
2.554478693980007
  0
LINE
  5
361
330
1F
100
AcDbEntity
  8
Sichtbar (ISO)
100
AcDbLine
 10
2293.167214104254
 20
956.8766229779638
 30
0.0
 11
2293.167214104254
 21
970.7625139341317
 31
0.0
  0
ELLIPSE
  5
362
330
1F
100
AcDbEntity
  8
Sichtbar (ISO)
100
AcDbEllipse
 10
2292.94427065661
 20
970.8441619151154
 30
0.0
 11
-0.1235018817537774
 21
0.2733994974451787
 31
0.0
210
0.0
220
0.0
230
1.0
 40
0.6788965796855852
 41
4.12527502077456
 42
5.69607134756939
  0
LINE
  5
363
330
1F
100
AcDbEntity
  8
Sichtbar (ISO)
100
AcDbLine
 10
2292.94427065661
 20
971.118225552408
 30
0.0
 11
2280.236494140945
 21
975.7721604684311
 31
0.0
  0
ELLIPSE
  5
364
330
1F
100
AcDbEntity
  8
Sichtbar (ISO)
100
AcDbEllipse
 10
2280.236494140945
 20
975.4980968311384
 30
0.0
 11
-0.1235018817537573
 21
0.2733994974451852
 31
0.0
210
0.0
220
0.0
230
0.9999999999999998
 40
0.6788965796855848
 41
5.696071347569559
 42
7.266867674364479
  0
LINE
  5
365
330
1F
100
AcDbEntity
  8
Sichtbar (ISO)
100
AcDbLine
 10
2281.984153125596
 20
953.1190330351973
 30
0.0
 11
2279.914109127412
 21
952.1839386715365
 31
0.0
  0
LINE
  5
366
330
1F
100
AcDbEntity
  8
Sichtbar (ISO)
100
AcDbLine
 10
2305.212284243816
 20
991.8662918829632
 30
0.0
 11
2298.544722033589
 21
988.8543753016666
 31
0.0
  0
LINE
  5
367
330
1F
100
AcDbEntity
  8
Sichtbar (ISO)
100
AcDbLine
 10
2294.012707778756
 20
986.8071429774046
 30
0.0
 11
2278.447059989466
 21
979.77572261761
 31
0.0
  0
LINE
  5
368
330
1F
100
AcDbEntity
  8
Sichtbar (ISO)
100
AcDbLine
 10
2325.778155396534
 20
959.1070884813079
 30
0.0
 11
2299.012931142184
 21
947.0165192159557
 31
0.0
  0
LINE
  5
369
330
1F
100
AcDbEntity
  8
Sichtbar (ISO)
100
AcDbLine
 10
2317.569473531602
 20
955.3990068406665
 30
0.0
 11
2316.949305869483
 21
953.9306790844603
 31
0.0
  0
LINE
  5
36A
330
1F
100
AcDbEntity
  8
Sichtbar (ISO)
100
AcDbLine
 10
2316.949305869483
 20
953.9306790844603
 30
0.0
 11
2315.955076085413
 21
953.4815588396323
 31
0.0
  0
LINE
  5
36B
330
1F
100
AcDbEntity
  8
Sichtbar (ISO)
100
AcDbLine
 10
2314.502450120824
 20
954.0135501512668
 30
0.0
 11
2315.955076085413
 21
953.4815588396323
 31
0.0
  0
LINE
  5
36C
330
1F
100
AcDbEntity
  8
Sichtbar (ISO)
100
AcDbLine
 10
2315.955076085413
 20
953.4815588396323
 30
0.0
 11
2315.084787110389
 21
954.276607379602
 31
0.0
  0
LINE
  5
36D
330
1F
100
AcDbEntity
  8
Sichtbar (ISO)
100
AcDbLine
 10
2287.002074350937
 20
973.2944201707779
 30
0.0
 11
2281.984153125596
 21
954.9734146666615
 31
0.0
  0
LINE
  5
36E
330
1F
100
AcDbEntity
  8
Sichtbar (ISO)
100
AcDbLine
 10
2281.984153125596
 20
949.8041862996224
 30
0.0
 11
2282.998019418263
 21
948.3197068956725
 31
0.0
  0
LINE
  5
36F
330
1F
100
AcDbEntity
  8
Sichtbar (ISO)
100
AcDbLine
 10
2281.984153125596
 20
954.9734146666615
 30
0.0
 11
2281.984153125596
 21
949.8041862996224
 31
0.0
  0
LINE
  5
370
330
1F
100
AcDbEntity
  8
Sichtbar (ISO)
100
AcDbLine
 10
2296.882938231641
 20
953.1337493142665
 30
0.0
 11
2296.024630943289
 21
952.7460289042982
 31
0.0
  0
LINE
  5
371
330
1F
100
AcDbEntity
  8
Sichtbar (ISO)
100
AcDbLine
 10
2296.024630943289
 20
952.7460289042982
 30
0.0
 11
2295.881862152311
 21
952.2247636855272
 31
0.0
  0
LINE
  5
372
330
1F
100
AcDbEntity
  8
Sichtbar (ISO)
100
AcDbLine
 10
2295.881862152311
 20
952.2247636855272
 30
0.0
 11
2295.881862152311
 21
947.8123391251129
 31
0.0
  0
ELLIPSE
  5
373
330
1F
100
AcDbEntity
  8
Sichtbar (ISO)
100
AcDbEllipse
 10
2296.082600115213
 20
947.9030178439453
 30
0.0
 11
-0.103167288953255
 21
-0.2817028762544602
 31
0.0
210
0.0
220
0.0
230
1.0
 40
0.6112812260087014
 41
5.252156969630594
 42
7.809149636267749
  0
LINE
  5
374
330
1F
100
AcDbEntity
  8
Sichtbar (ISO)
100
AcDbLine
 10
2295.881862152311
 20
947.9622151916528
 30
0.0
 11
2296.250003124557
 21
947.8273919105985
 31
0.0
  0
LINE
  5
375
330
1F
100
AcDbEntity
  8
Sichtbar (ISO)
100
AcDbLine
 10
2296.250003124557
 20
947.8273919105985
 30
0.0
 11
2296.877444893125
 21
948.9674530203929
 31
0.0
  0
LINE
  5
376
330
1F
100
AcDbEntity
  8
Sichtbar (ISO)
100
AcDbLine
 10
2295.881862152311
 20
949.3320626177965
 30
0.0
 11
2296.877444893125
 21
948.9674530203929
 31
0.0
  0
ELLIPSE
  5
377
330
1F
100
AcDbEntity
  8
Sichtbar (ISO)
100
AcDbEllipse
 10
2297.019385435321
 20
948.8377743408227
 30
0.0
 11
0.1031672889532545
 21
0.2817028762544589
 31
0.0
210
0.0
220
0.0
230
1.0
 40
0.6112812260087014
 41
5.252156969630594
 42
7.608326840693205
  0
LINE
  5
378
330
1F
100
AcDbEntity
  8
Sichtbar (ISO)
100
AcDbLine
 10
2297.220123365029
 20
948.9284530446603
 30
0.0
 11
2297.220123365029
 21
946.8446078977832
 31
0.0
  0
LINE
  5
379
330
1F
100
AcDbEntity
  8
Sichtbar (ISO)
100
AcDbLine
 10
2297.220123365029
 20
946.8446078977832
 30
0.0
 11
2295.882566409973
 21
944.4142681547464
 31
0.0
  0
LINE
  5
37A
330
1F
100
AcDbEntity
  8
Sichtbar (ISO)
100
AcDbLine
 10
2295.882566409973
 20
944.4142681547464
 30
0.0
 11
2294.888336625903
 21
943.9651479099184
 31
0.0
  0
LINE
  5
37B
330
1F
100
AcDbEntity
  8
Sichtbar (ISO)
100
AcDbLine
 10
2282.998019418263
 20
948.3197068956725
 30
0.0
 11
2294.888336625903
 21
943.9651479099184
 31
0.0
  0
LINE
  5
37C
330
1F
100
AcDbEntity
  8
Sichtbar (ISO)
100
AcDbLine
 10
2294.888336625903
 20
943.9651479099184
 30
0.0
 11
2293.874470333236
 21
945.4496273138692
 31
0.0
  0
LINE
  5
37D
330
1F
100
AcDbEntity
  8
Sichtbar (ISO)
100
AcDbLine
 10
2281.984153125596
 20
949.8041862996224
 30
0.0
 11
2293.874470333236
 21
945.4496273138692
 31
0.0
  0
LINE
  5
37E
330
1F
100
AcDbEntity
  8
Sichtbar (ISO)
100
AcDbLine
 10
2293.874470333236
 20
945.4496273138692
 30
0.0
 11
2293.874470333236
 21
950.6188556809075
 31
0.0
  0
LINE
  5
37F
330
1F
100
AcDbEntity
  8
Sichtbar (ISO)
100
AcDbLine
 10
2281.984153125596
 20
954.9734146666615
 30
0.0
 11
2293.874470333236
 21
950.6188556809075
 31
0.0
  0
LINE
  5
380
330
1F
100
AcDbEntity
  8
Sichtbar (ISO)
100
AcDbLine
 10
2293.874470333236
 20
950.6188556809075
 30
0.0
 11
2294.912883269611
 21
954.4102203254542
 31
0.0
  0
LINE
  5
381
330
1F
100
AcDbEntity
  8
Sichtbar (ISO)
100
AcDbLine
 10
2295.881862152311
 20
949.5738519981978
 30
0.0
 11
2297.122552724274
 21
949.1194772170766
 31
0.0
  0
ELLIPSE
  5
382
330
1F
100
AcDbEntity
  8
Sichtbar (ISO)
100
AcDbEllipse
 10
2299.972994525953
 20
987.1642594872938
 30
0.0
 11
3.650000000000007
 21
-0.0000000000000002
 31
0.0
210
0.0
220
0.0
230
1.0
 40
0.4067366430757284
 41
0.0000000000000005
 42
6.283185307179585
  0
ELLIPSE
  5
383
330
1F
100
AcDbEntity
  8
Sichtbar (ISO)
100
AcDbEllipse
 10
2299.972994525953
 20
984.1038822041909
 30
0.0
 11
-7.000000000000012
 21
0.0000000000000005
 31
0.0
210
0.0
220
0.0
230
1.0
 40
0.4067366430757284
 41
0.0000000000000007
 42
3.141592653589793
  0
POLYLINE
  5
384
330
1F
100
AcDbEntity
  8
Sichtbar (ISO)
100
AcDb2dPolyline
 66
     1
 10
0.0
 20
0.0
 30
0.0
 70
   128
  0
VERTEX
  5
385
330
384
100
AcDbEntity
  8
Sichtbar (ISO)
100
AcDbVertex
100
AcDb2dVertex
 10
2292.972994234195
 20
984.1038821615757
 30
0.0
  0
VERTEX
  5
386
330
384
100
AcDbEntity
  8
Sichtbar (ISO)
100
AcDbVertex
100
AcDb2dVertex
 10
2293.00209958375
 20
984.5779775754099
 30
0.0
  0
VERTEX
  5
387
330
384
100
AcDbEntity
  8
Sichtbar (ISO)
100
AcDbVertex
100
AcDb2dVertex
 10
2293.085053319461
 20
985.0374174594845
 30
0.0
  0
VERTEX
  5
388
330
384
100
AcDbEntity
  8
Sichtbar (ISO)
100
AcDbVertex
100
AcDb2dVertex
 10
2293.215251306534
 20
985.4694574831309
 30
0.0
  0
VERTEX
  5
389
330
384
100
AcDbEntity
  8
Sichtbar (ISO)
100
AcDbVertex
100
AcDb2dVertex
 10
2293.383439540605
 20
985.8645317337877
 30
0.0
  0
VERTEX
  5
38A
330
384
100
AcDbEntity
  8
Sichtbar (ISO)
100
AcDbVertex
100
AcDb2dVertex
 10
2293.579677346606
 20
986.220807277753
 30
0.0
  0
VERTEX
  5
38B
330
384
100
AcDbEntity
  8
Sichtbar (ISO)
100
AcDbVertex
100
AcDb2dVertex
 10
2293.794750005294
 20
986.5376188328246
 30
0.0
  0
VERTEX
  5
38C
330
384
100
AcDbEntity
  8
Sichtbar (ISO)
100
AcDbVertex
100
AcDb2dVertex
 10
2294.020459503136
 20
986.8166792939236
 30
0.0
  0
VERTEX
  5
38D
330
384
100
AcDbEntity
  8
Sichtbar (ISO)
100
AcDbVertex
100
AcDb2dVertex
 10
2294.252809641699
 20
987.0623193451493
 30
0.0
  0
VERTEX
  5
38E
330
384
100
AcDbEntity
  8
Sichtbar (ISO)
100
AcDbVertex
100
AcDb2dVertex
 10
2294.488772417778
 20
987.278613916612
 30
0.0
  0
VERTEX
  5
38F
330
384
100
AcDbEntity
  8
Sichtbar (ISO)
100
AcDbVertex
100
AcDb2dVertex
 10
2294.725336984566
 20
987.4696538392299
 30
0.0
  0
VERTEX
  5
390
330
384
100
AcDbEntity
  8
Sichtbar (ISO)
100
AcDbVertex
100
AcDb2dVertex
 10
2295.195751630368
 20
987.7914764755587
 30
0.0
  0
VERTEX
  5
391
330
384
100
AcDbEntity
  8
Sichtbar (ISO)
100
AcDbVertex
100
AcDb2dVertex
 10
2295.663562430918
 20
988.048326255377
 30
0.0
  0
VERTEX
  5
392
330
384
100
AcDbEntity
  8
Sichtbar (ISO)
100
AcDbVertex
100
AcDb2dVertex
 10
2296.129897323648
 20
988.2567852937382
 30
0.0
  0
VERTEX
  5
393
330
384
100
AcDbEntity
  8
Sichtbar (ISO)
100
AcDbVertex
100
AcDb2dVertex
 10
2296.597233237139
 20
988.4301041435955
 30
0.0
  0
VERTEX
  5
394
330
384
100
AcDbEntity
  8
Sichtbar (ISO)
100
AcDbVertex
100
AcDb2dVertex
 10
2297.06752491144
 20
988.5728007697352
 30
0.0
  0
VERTEX
  5
395
330
384
100
AcDbEntity
  8
Sichtbar (ISO)
100
AcDbVertex
100
AcDb2dVertex
 10
2297.541491770001
 20
988.6881079367849
 30
0.0
  0
VERTEX
  5
396
330
384
100
AcDbEntity
  8
Sichtbar (ISO)
100
AcDbVertex
100
AcDb2dVertex
 10
2298.019853436951
 20
988.7792592365421
 30
0.0
  0
VERTEX
  5
397
330
384
100
AcDbEntity
  8
Sichtbar (ISO)
100
AcDbVertex
100
AcDb2dVertex
 10
2298.503252325325
 20
988.8493561833929
 30
0.0
  0
VERTEX
  5
398
330
384
100
AcDbEntity
  8
Sichtbar (ISO)
100
AcDbVertex
100
AcDb2dVertex
 10
2298.990883042888
 20
988.8992078400697
 30
0.0
  0
VERTEX
  5
399
330
384
100
AcDbEntity
  8
Sichtbar (ISO)
100
AcDbVertex
100
AcDb2dVertex
 10
2299.481271184217
 20
988.9288577786219
 30
0.0
  0
VERTEX
  5
39A
330
384
100
AcDbEntity
  8
Sichtbar (ISO)
100
AcDbVertex
100
AcDb2dVertex
 10
2299.973049454548
 20
988.9385773374025
 30
0.0
  0
VERTEX
  5
39B
330
384
100
AcDbEntity
  8
Sichtbar (ISO)
100
AcDbVertex
100
AcDb2dVertex
 10
2300.464850699954
 20
988.9286374905777
 30
0.0
  0
VERTEX
  5
39C
330
384
100
AcDbEntity
  8
Sichtbar (ISO)
100
AcDbVertex
100
AcDb2dVertex
 10
2300.955059854596
 20
988.8992162641725
 30
0.0
  0
VERTEX
  5
39D
330
384
100
AcDbEntity
  8
Sichtbar (ISO)
100
AcDbVertex
100
AcDb2dVertex
 10
2301.442427181501
 20
988.8496974120062
 30
0.0
  0
VERTEX
  5
39E
330
384
100
AcDbEntity
  8
Sichtbar (ISO)
100
AcDbVertex
100
AcDb2dVertex
 10
2301.926109774444
 20
988.7791684807389
 30
0.0
  0
VERTEX
  5
39F
330
384
100
AcDbEntity
  8
Sichtbar (ISO)
100
AcDbVertex
100
AcDb2dVertex
 10
2302.405265151376
 20
988.6867159853983
 30
0.0
  0
VERTEX
  5
3A0
330
384
100
AcDbEntity
  8
Sichtbar (ISO)
100
AcDbVertex
100
AcDb2dVertex
 10
2302.879141378343
 20
988.5720764054932
 30
0.0
  0
VERTEX
  5
3A1
330
384
100
AcDbEntity
  8
Sichtbar (ISO)
100
AcDbVertex
100
AcDb2dVertex
 10
2303.348599317288
 20
988.4321902447654
 30
0.0
  0
VERTEX
  5
3A2
330
384
100
AcDbEntity
  8
Sichtbar (ISO)
100
AcDbVertex
100
AcDb2dVertex
 10
2303.815561488442
 20
988.260022321886
 30
0.0
  0
VERTEX
  5
3A3
330
384
100
AcDbEntity
  8
Sichtbar (ISO)
100
AcDbVertex
100
AcDb2dVertex
 10
2304.281960150508
 20
988.0484708881532
 30
0.0
  0
VERTEX
  5
3A4
330
384
100
AcDbEntity
  8
Sichtbar (ISO)
100
AcDbVertex
100
AcDb2dVertex
 10
2304.749796467262
 20
987.7902672543269
 30
0.0
  0
VERTEX
  5
3A5
330
384
100
AcDbEntity
  8
Sichtbar (ISO)
100
AcDbVertex
100
AcDb2dVertex
 10
2305.220937666256
 20
987.4699136872195
 30
0.0
  0
VERTEX
  5
3A6
330
384
100
AcDbEntity
  8
Sichtbar (ISO)
100
AcDbVertex
100
AcDb2dVertex
 10
2305.456907564091
 20
987.2786326858268
 30
0.0
  0
VERTEX
  5
3A7
330
384
100
AcDbEntity
  8
Sichtbar (ISO)
100
AcDbVertex
100
AcDb2dVertex
 10
2305.692379477565
 20
987.0622833652005
 30
0.0
  0
VERTEX
  5
3A8
330
384
100
AcDbEntity
  8
Sichtbar (ISO)
100
AcDbVertex
100
AcDb2dVertex
 10
2305.925096132859
 20
986.8166680078202
 30
0.0
  0
VERTEX
  5
3A9
330
384
100
AcDbEntity
  8
Sichtbar (ISO)
100
AcDbVertex
100
AcDb2dVertex
 10
2306.151226222492
 20
986.5376195408353
 30
0.0
  0
VERTEX
  5
3AA
330
384
100
AcDbEntity
  8
Sichtbar (ISO)
100
AcDbVertex
100
AcDb2dVertex
 10
2306.366450030575
 20
986.2201425035118
 30
0.0
  0
VERTEX
  5
3AB
330
384
100
AcDbEntity
  8
Sichtbar (ISO)
100
AcDbVertex
100
AcDb2dVertex
 10
2306.562861955719
 20
985.86282352547
 30
0.0
  0
VERTEX
  5
3AC
330
384
100
AcDbEntity
  8
Sichtbar (ISO)
100
AcDbVertex
100
AcDb2dVertex
 10
2306.7309810594
 20
985.4679453964591
 30
0.0
  0
VERTEX
  5
3AD
330
384
100
AcDbEntity
  8
Sichtbar (ISO)
100
AcDbVertex
100
AcDb2dVertex
 10
2306.8613214997
 20
985.0378062657064
 30
0.0
  0
VERTEX
  5
3AE
330
384
100
AcDbEntity
  8
Sichtbar (ISO)
100
AcDbVertex
100
AcDb2dVertex
 10
2306.944256158379
 20
984.5783311620607
 30
0.0
  0
VERTEX
  5
3AF
330
384
100
AcDbEntity
  8
Sichtbar (ISO)
100
AcDbVertex
100
AcDb2dVertex
 10
2306.97299481771
 20
984.1038821869096
 30
0.0
  0
SEQEND
  5
3B0
330
384
100
AcDbEntity
  8
Sichtbar (ISO)
  0
LINE
  5
3B1
330
1F
100
AcDbEntity
  8
Sichtbar (ISO)
100
AcDbLine
 10
2301.889549507079
 20
988.0422973898058
 30
0.0
 11
2302.800794081976
 21
986.9281829368301
 31
0.0
  0
LINE
  5
3B2
330
1F
100
AcDbEntity
  8
Sichtbar (ISO)
100
AcDbLine
 10
2302.800794081976
 20
986.9281829368301
 30
0.0
 11
2300.884239100849
 21
986.050145034318
 31
0.0
  0
LINE
  5
3B3
330
1F
100
AcDbEntity
  8
Sichtbar (ISO)
100
AcDbLine
 10
2300.884239100849
 20
986.050145034318
 30
0.0
 11
2298.056439544827
 21
986.2862215847817
 31
0.0
  0
LINE
  5
3B4
330
1F
100
AcDbEntity
  8
Sichtbar (ISO)
100
AcDbLine
 10
2298.056439544827
 20
986.2862215847817
 30
0.0
 11
2297.14519496993
 21
987.4003360377583
 31
0.0
  0
LINE
  5
3B5
330
1F
100
AcDbEntity
  8
Sichtbar (ISO)
100
AcDbLine
 10
2297.14519496993
 20
987.4003360377583
 30
0.0
 11
2299.061749951056
 21
988.2783739402702
 31
0.0
  0
LINE
  5
3B6
330
1F
100
AcDbEntity
  8
Sichtbar (ISO)
100
AcDbLine
 10
2299.061749951056
 20
988.2783739402702
 30
0.0
 11
2301.889549507079
 21
988.0422973898058
 31
0.0
  0
LINE
  5
3B7
330
1F
100
AcDbEntity
  8
Sichtbar (ISO)
100
AcDbLine
 10
2299.061749951056
 20
986.2022940615798
 30
0.0
 11
2299.061749951056
 21
988.2783739402702
 31
0.0
  0
LINE
  5
3B8
330
1F
100
AcDbEntity
  8
Sichtbar (ISO)
100
AcDbLine
 10
2301.889549507079
 20
986.5107113364347
 30
0.0
 11
2301.889549507079
 21
988.0422973898058
 31
0.0
  0
ELLIPSE
  5
3B9
330
1F
100
AcDbEntity
  8
Sichtbar (ISO)
100
AcDbEllipse
 10
2299.972994525953
 20
983.1446594736663
 30
0.0
 11
7.000000000000015
 21
-0.0000000000000005
 31
0.0
210
0.0
220
0.0
230
1.0
 40
0.4067366430757283
 41
3.141592653589793
 42
6.283185307179587
  0
LINE
  5
3BA
330
1F
100
AcDbEntity
  8
Sichtbar (ISO)
100
AcDbLine
 10
2306.972994525953
 20
984.1038822041909
 30
0.0
 11
2306.972994525953
 21
983.1446594736663
 31
0.0
  0
LINE
  5
3BB
330
1F
100
AcDbEntity
  8
Sichtbar (ISO)
100
AcDbLine
 10
2292.972994525953
 20
984.1038822041909
 30
0.0
 11
2292.972994525953
 21
983.1446594736663
 31
0.0
  0
LINE
  5
3BC
330
1F
100
AcDbEntity
  8
Sichtbar (ISO)
100
AcDbLine
 10
2318.340417884127
 20
1025.129152544171
 30
0.0
 11
2319.712470523338
 21
1021.913875563296
 31
0.0
  0
LINE
  5
3BD
330
1F
100
AcDbEntity
  8
Sichtbar (ISO)
100
AcDbLine
 10
2319.712470523338
 20
1021.913875563296
 30
0.0
 11
2319.712470523338
 21
1016.255450660852
 31
0.0
  0
LINE
  5
3BE
330
1F
100
AcDbEntity
  8
Sichtbar (ISO)
100
AcDbLine
 10
2319.712470523338
 20
1016.255450660852
 30
0.0
 11
2318.197271124248
 21
1014.129152544171
 31
0.0
  0
LINE
  5
3BF
330
1F
100
AcDbEntity
  8
Sichtbar (ISO)
100
AcDbLine
 10
2318.197271124248
 20
1014.129152544171
 30
0.0
 11
2316.711418026778
 21
1014.129152544171
 31
0.0
  0
LINE
  5
3C0
330
1F
100
AcDbEntity
  8
Sichtbar (ISO)
100
AcDbLine
 10
2316.711418026778
 20
1014.129152544171
 30
0.0
 11
2314.712470523338
 21
1016.12810004761
 31
0.0
  0
LINE
  5
3C1
330
1F
100
AcDbEntity
  8
Sichtbar (ISO)
100
AcDbLine
 10
2314.712470523338
 20
1016.12810004761
 30
0.0
 11
2314.712470523338
 21
1018.409152544171
 31
0.0
  0
ARC
  5
3C2
330
1F
100
AcDbEntity
  8
Sichtbar (ISO)
100
AcDbCircle
 10
2315.012468651956
 20
1018.409152544171
 30
0.0
 40
0.3000000000000003
100
AcDbArc
 50
45.00141057224328
 51
180.0
  0
LINE
  5
3C3
330
1F
100
AcDbEntity
  8
Sichtbar (ISO)
100
AcDbLine
 10
2315.224595463742
 20
1018.621289800969
 30
0.0
 11
2316.162292473274
 21
1017.683592791436
 31
0.0
  0
ARC
  5
3C4
330
1F
100
AcDbEntity
  8
Sichtbar (ISO)
100
AcDbCircle
 10
2316.412472345115
 20
1017.849152544171
 30
0.0
 40
0.3
100
AcDbArc
 50
213.4951119557731
 51
0.0
  0
LINE
  5
3C5
330
1F
100
AcDbEntity
  8
Sichtbar (ISO)
100
AcDbLine
 10
2316.712470523338
 20
1017.849152544171
 30
0.0
 11
2316.712470523338
 21
1022.679152544171
 31
0.0
  0
LINE
  5
3C6
330
1F
100
AcDbEntity
  8
Sichtbar (ISO)
100
AcDbLine
 10
2316.712470523338
 20
1022.679152544171
 30
0.0
 11
2316.49910591317
 21
1023.179152544171
 31
0.0
  0
LINE
  5
3C7
330
1F
100
AcDbEntity
  8
Sichtbar (ISO)
100
AcDbLine
 10
2316.49910591317
 20
1023.179152544171
 30
0.0
 11
2313.002470523338
 21
1023.179152544171
 31
0.0
  0
LINE
  5
3C8
330
1F
100
AcDbEntity
  8
Sichtbar (ISO)
100
AcDbLine
 10
2313.002470523338
 20
1023.179152544171
 30
0.0
 11
2313.002470523338
 21
1024.679152544171
 31
0.0
  0
LINE
  5
3C9
330
1F
100
AcDbEntity
  8
Sichtbar (ISO)
100
AcDbLine
 10
2313.002470523338
 20
1024.679152544171
 30
0.0
 11
2313.452372876237
 21
1025.129152544171
 31
0.0
  0
LINE
  5
3CA
330
1F
100
AcDbEntity
  8
Sichtbar (ISO)
100
AcDbLine
 10
2288.972568170439
 20
1025.129152544171
 30
0.0
 11
2289.422470523339
 21
1024.679152544171
 31
0.0
  0
LINE
  5
3CB
330
1F
100
AcDbEntity
  8
Sichtbar (ISO)
100
AcDbLine
 10
2289.422470523339
 20
1024.679152544171
 30
0.0
 11
2289.422470523339
 21
1023.179152544171
 31
0.0
  0
LINE
  5
3CC
330
1F
100
AcDbEntity
  8
Sichtbar (ISO)
100
AcDbLine
 10
2289.422470523339
 20
1023.179152544171
 30
0.0
 11
2285.925835133506
 21
1023.179152544171
 31
0.0
  0
LINE
  5
3CD
330
1F
100
AcDbEntity
  8
Sichtbar (ISO)
100
AcDbLine
 10
2285.925835133506
 20
1023.179152544171
 30
0.0
 11
2285.712470523338
 21
1022.679152544171
 31
0.0
  0
LINE
  5
3CE
330
1F
100
AcDbEntity
  8
Sichtbar (ISO)
100
AcDbLine
 10
2285.712470523338
 20
1022.679152544171
 30
0.0
 11
2285.712470523338
 21
1017.849152544171
 31
0.0
  0
ARC
  5
3CF
330
1F
100
AcDbEntity
  8
Sichtbar (ISO)
100
AcDbCircle
 10
2286.012468701561
 20
1017.849152544171
 30
0.0
 40
0.3000000000000003
100
AcDbArc
 50
180.0
 51
326.5048880442269
  0
LINE
  5
3D0
330
1F
100
AcDbEntity
  8
Sichtbar (ISO)
100
AcDbLine
 10
2286.262648573403
 20
1017.683592791436
 30
0.0
 11
2287.200345582935
 21
1018.621289800969
 31
0.0
  0
ARC
  5
3D1
330
1F
100
AcDbEntity
  8
Sichtbar (ISO)
100
AcDbCircle
 10
2287.41247239472
 20
1018.409152544171
 30
0.0
 40
0.2999999999999987
100
AcDbArc
 50
0.0
 51
134.9985894277567
  0
LINE
  5
3D2
330
1F
100
AcDbEntity
  8
Sichtbar (ISO)
100
AcDbLine
 10
2287.712470523338
 20
1018.409152544171
 30
0.0
 11
2287.712470523338
 21
1016.12810004761
 31
0.0
  0
LINE
  5
3D3
330
1F
100
AcDbEntity
  8
Sichtbar (ISO)
100
AcDbLine
 10
2287.712470523338
 20
1016.12810004761
 30
0.0
 11
2285.713523019899
 21
1014.129152544171
 31
0.0
  0
LINE
  5
3D4
330
1F
100
AcDbEntity
  8
Sichtbar (ISO)
100
AcDbLine
 10
2285.713523019899
 20
1014.129152544171
 30
0.0
 11
2284.227669922429
 21
1014.129152544171
 31
0.0
  0
LINE
  5
3D5
330
1F
100
AcDbEntity
  8
Sichtbar (ISO)
100
AcDbLine
 10
2284.227669922429
 20
1014.129152544171
 30
0.0
 11
2282.712470523339
 21
1016.255450660852
 31
0.0
  0
LINE
  5
3D6
330
1F
100
AcDbEntity
  8
Sichtbar (ISO)
100
AcDbLine
 10
2282.712470523339
 20
1016.255450660852
 30
0.0
 11
2282.712470523339
 21
1021.913875563296
 31
0.0
  0
LINE
  5
3D7
330
1F
100
AcDbEntity
  8
Sichtbar (ISO)
100
AcDbLine
 10
2282.712470523339
 20
1021.913875563296
 30
0.0
 11
2284.084523162549
 21
1025.129152544171
 31
0.0
  0
LINE
  5
3D8
330
1F
100
AcDbEntity
  8
Sichtbar (ISO)
100
AcDbLine
 10
2281.212470523338
 20
1035.129152544171
 30
0.0
 11
2321.212470523338
 21
1035.129152544171
 31
0.0
  0
DIMENSION
  5
3D9
102
{ACAD_XDICTIONARY
360
3DA
102
}
102
{ACAD_REACTORS
330
3DB
102
}
330
1F
100
AcDbEntity
  8
S10_Quote
 62
     0
100
AcDbDimension
  2
*D4
 10
2237.840065752283
 20
1006.172563189383
 30
0.0
 11
2223.340065752283
 21
1007.99564011246
 31
0.0
 70
    32
 71
     5
 42
29.0
  3
mm 1_1
100
AcDbAlignedDimension
 13
2208.840065752283
 23
1025.129152544171
 33
0.0
 14
2237.840065752283
 24
1025.129152544171
 34
0.0
100
AcDbRotatedDimension
1001
ACAD
1000
DSTYLE
1002
{
1070
    49
1040
500.0
1070
   290
1070
     1
1070
   345
1005
15
1070
   346
1005
15
1070
   347
1005
15
1002
}
  0
ENDSEC
  0
SECTION
  2
OBJECTS
  0
DICTIONARY
  5
C
330
0
100
AcDbDictionary
281
     1
  3
ACAD_COLOR
350
6B
  3
ACAD_GROUP
350
D
  3
ACAD_LAYOUT
350
1A
  3
ACAD_MATERIAL
350
6A
  3
ACAD_MLEADERSTYLE
350
12D
  3
ACAD_MLINESTYLE
350
17
  3
ACAD_PLOTSETTINGS
350
19
  3
ACAD_PLOTSTYLENAME
350
E
  3
ACAD_SCALELIST
350
10C
  3
ACAD_TABLESTYLE
350
7E
  3
ACAD_VISUALSTYLE
350
EF
  3
ACDB_RECOMPOSE_DATA
350
458
  3
AcDbVariableDictionary
350
5E
  0
DICTIONARY
  5
217
330
2
100
AcDbDictionary
280
     1
281
     1
  3
ACAD_LAYERSTATES
360
218
  0
DICTIONARY
  5
13C
330
10
100
AcDbDictionary
280
     1
281
     1
  0
DICTIONARY
  5
208
330
207
100
AcDbDictionary
280
     1
281
     1
  0
DICTIONARY
  5
20A
330
209
100
AcDbDictionary
280
     1
281
     1
  0
DICTIONARY
  5
20C
330
20B
100
AcDbDictionary
280
     1
281
     1
  0
DICTIONARY
  5
1CE
330
1F
100
AcDbDictionary
280
     1
281
     1
  0
DICTIONARY
  5
1F5
330
1F4
100
AcDbDictionary
280
     1
281
     1
  0
DICTIONARY
  5
3DA
330
3D9
100
AcDbDictionary
280
     1
281
     1
  3
ACAD_DIMASSOC
360
3DB
  0
DICTIONARY
  5
6B
102
{ACAD_REACTORS
330
C
102
}
330
C
100
AcDbDictionary
281
     1
  0
DICTIONARY
  5
D
102
{ACAD_REACTORS
330
C
102
}
330
C
100
AcDbDictionary
281
     1
  0
DICTIONARY
  5
1A
102
{ACAD_REACTORS
330
C
102
}
330
C
100
AcDbDictionary
281
     1
  3
Layout1
350
D3
  3
Layout2
350
D7
  3
Model
350
22
  0
DICTIONARY
  5
6A
102
{ACAD_REACTORS
330
C
102
}
330
C
100
AcDbDictionary
281
     1
  3
ByBlock
350
ED
  3
ByLayer
350
EC
  3
Global
350
EE
  0
DICTIONARY
  5
12D
102
{ACAD_REACTORS
330
C
102
}
330
C
100
AcDbDictionary
281
     1
  3
Annotativa
350
13B
  3
Standard
350
12E
  0
DICTIONARY
  5
17
102
{ACAD_REACTORS
330
C
102
}
330
C
100
AcDbDictionary
281
     1
  3
Standard
350
18
  0
DICTIONARY
  5
19
102
{ACAD_REACTORS
330
C
102
}
330
C
100
AcDbDictionary
281
     1
  0
ACDBDICTIONARYWDFLT
  5
E
102
{ACAD_REACTORS
330
C
102
}
330
C
100
AcDbDictionary
281
     1
  3
Normal
350
F
100
AcDbDictionaryWithDefault
340
F
  0
DICTIONARY
  5
10C
102
{ACAD_REACTORS
330
C
102
}
330
C
100
AcDbDictionary
281
     1
  3
A0
350
10D
  3
A1
350
1BE
  3
A2
350
1BF
  3
A3
350
1C0
  3
A4
350
1C1
  3
A5
350
1C2
  3
A6
350
1C3
  3
A7
350
1C4
  3
A8
350
1C5
  3
A9
350
1C6
  3
B0
350
1C7
  3
B1
350
1C8
  3
B2
350
1C9
  3
B3
350
1CA
  3
B4
350
1CB
  3
B5
350
1CC
  3
B6
350
1CD
  0
DICTIONARY
  5
7E
102
{ACAD_REACTORS
330
C
102
}
330
C
100
AcDbDictionary
281
     1
  3
Standard
350
7F
  0
DICTIONARY
  5
EF
102
{ACAD_REACTORS
330
C
102
}
330
C
100
AcDbDictionary
281
     1
  3
2dWireframe
350
F5
  3
3D Hidden
350
F7
  3
3dWireframe
350
F6
  3
Basic
350
F4
  3
Brighten
350
FB
  3
ColorChange
350
FF
  3
Conceptual
350
F8
  3
Dim
350
FA
  3
EdgeColorOff
350
1E6
  3
Facepattern
350
FE
  3
Flat
350
F0
  3
FlatWithEdges
350
F1
  3
Gouraud
350
F2
  3
GouraudWithEdges
350
F3
  3
JitterOff
350
1E4
  3
Linepattern
350
FD
  3
OverhangOff
350
1E5
  3
Realistic
350
F9
  3
Thicken
350
FC
  0
XRECORD
  5
458
102
{ACAD_REACTORS
330
C
102
}
330
C
100
AcDbXrecord
280
     1
 90
        1
330
7F
  0
DICTIONARY
  5
5E
102
{ACAD_REACTORS
330
C
102
}
330
C
100
AcDbDictionary
281
     1
  3
CANNOSCALE
350
146
  3
CMLEADERSTYLE
350
145
  3
CTABLESTYLE
350
84
  3
DIMASSOC
350
5F
  3
HIDETEXT
350
63
  3
LAYEREVAL
350
1AE
  3
LAYERNOTIFY
350
1AF
  3
LIGHTINGUNITS
350
453
  3
MSLTSCALE
350
452
  3
PSOLHEIGHT
350
455
  3
PSOLWIDTH
350
454
  3
XCLIPFRAME
350
456
  0
DICTIONARY
  5
218
102
{ACAD_REACTORS
330
217
102
}
330
217
100
AcDbDictionary
281
     1
  0
DIMASSOC
  5
3DB
102
{ACAD_REACTORS
330
3DA
102
}
330
3DA
100
AcDbDimAssoc
330
3D9
 90
        3
 70
     0
 71
     0
  1
AcDbOsnapPointRef
 72
    13
331
306
 73
     2
 91
        1
 40
0.0
 10
0.0
 20
0.0
 30
2.000000000000000E+50
 75
     0
  1
AcDbOsnapPointRef
 72
     8
331
306
 73
     2
 91
        8
 40
0.9298245614035087
 10
0.0
 20
0.0
 30
0.0
 75
     1
  1
AcDbOsnapPointRef
 72
    13
331
306
 73
     2
 91
        1
 40
0.0
 10
0.0
 20
0.0
 30
2.000000000000000E+50
 75
     0
  0
LAYOUT
  5
D3
102
{ACAD_REACTORS
330
1A
102
}
330
1A
100
AcDbPlotSettings
  1

  2
C:\Documents and Settings\basas\Application Data\Autodesk\AutoCAD 2005\R16.1\enu\plotters\Default Windows System Printer.pc3
  4

  6

 40
0.0
 41
0.0
 42
0.0
 43
0.0
 44
0.0
 45
0.0
 46
0.0
 47
0.0
 48
0.0
 49
0.0
140
0.0
141
0.0
142
1.0
143
1.0
 70
   688
 72
     0
 73
     0
 74
     5
  7

 75
    16
147
1.0
 76
     0
 77
     2
 78
   300
148
0.0
149
0.0
100
AcDbLayout
  1
Layout1
 70
     1
 71
     1
 10
0.0
 20
0.0
 11
12.0
 21
9.0
 12
0.0
 22
0.0
 32
0.0
 14
0.0
 24
0.0
 34
0.0
 15
0.0
 25
0.0
 35
0.0
146
0.0
 13
0.0
 23
0.0
 33
0.0
 16
1.0
 26
0.0
 36
0.0
 17
0.0
 27
1.0
 37
0.0
 76
     0
330
D2
  0
LAYOUT
  5
D7
102
{ACAD_REACTORS
330
1A
102
}
330
1A
100
AcDbPlotSettings
  1

  2
C:\Documents and Settings\basas\Application Data\Autodesk\AutoCAD 2005\R16.1\enu\plotters\Default Windows System Printer.pc3
  4

  6

 40
0.0
 41
0.0
 42
0.0
 43
0.0
 44
0.0
 45
0.0
 46
0.0
 47
0.0
 48
0.0
 49
0.0
140
0.0
141
0.0
142
1.0
143
1.0
 70
   688
 72
     0
 73
     0
 74
     5
  7

 75
    16
147
1.0
 76
     0
 77
     2
 78
   300
148
0.0
149
0.0
100
AcDbLayout
  1
Layout2
 70
     1
 71
     2
 10
0.0
 20
0.0
 11
12.0
 21
9.0
 12
0.0
 22
0.0
 32
0.0
 14
0.0
 24
0.0
 34
0.0
 15
0.0
 25
0.0
 35
0.0
146
0.0
 13
0.0
 23
0.0
 33
0.0
 16
1.0
 26
0.0
 36
0.0
 17
0.0
 27
1.0
 37
0.0
 76
     0
330
D6
  0
LAYOUT
  5
22
102
{ACAD_REACTORS
330
1A
102
}
330
1A
100
AcDbPlotSettings
  1

  2
none_device
  4
ISO_A4_(210.00_x_297.00_MM)
  6

 40
7.5
 41
20.0
 42
7.5
 43
20.0
 44
210.0
 45
297.0
 46
11.54999923706054
 47
-13.65000009536743
 48
0.0
 49
0.0
140
0.0
141
0.0
142
1.0
143
8.704084754739808
 70
 11952
 72
     1
 73
     0
 74
     0
  7

 75
     0
147
0.1148885871608098
 76
     0
 77
     2
 78
   300
148
0.0
149
0.0
100
AcDbLayout
  1
Model
 70
     1
 71
     0
 10
0.0
 20
0.0
 11
12.0
 21
9.0
 12
0.0
 22
0.0
 32
0.0
 14
0.0
 24
0.0
 34
0.0
 15
0.0
 25
0.0
 35
0.0
146
0.0
 13
0.0
 23
0.0
 33
0.0
 16
1.0
 26
0.0
 36
0.0
 17
0.0
 27
1.0
 37
0.0
 76
     0
330
1F
331
EA
1001
ACAD_PSEXT
1000
None
1000
None
1000
Not applicable
1000
The layout will not be plotted unless a new plotter configuration name is selected.
1070
     0
  0
MATERIAL
  5
ED
102
{ACAD_XDICTIONARY
360
45C
102
}
102
{ACAD_REACTORS
330
6A
102
}
330
6A
100
AcDbMaterial
  1
ByBlock
  0
MATERIAL
  5
EC
102
{ACAD_XDICTIONARY
360
45A
102
}
102
{ACAD_REACTORS
330
6A
102
}
330
6A
100
AcDbMaterial
  1
ByLayer
  0
MATERIAL
  5
EE
102
{ACAD_XDICTIONARY
360
173
102
}
102
{ACAD_REACTORS
330
6A
102
}
330
6A
100
AcDbMaterial
  1
Global
 43
0.0007999999797903
 43
0.0
 43
0.0
 43
0.0
 43
0.0
 43
0.0007999999797903
 43
0.0
 43
0.0
 43
0.0
 43
0.0
 43
1.0
 43
0.0
 43
0.0
 43
0.0
 43
0.0
 43
1.0
 49
0.0007999999797903
 49
0.0
 49
0.0
 49
0.0
 49
0.0
 49
0.0007999999797903
 49
0.0
 49
0.0
 49
0.0
 49
0.0
 49
1.0
 49
0.0
 49
0.0
 49
0.0
 49
0.0
 49
1.0
142
0.0007999999797903
142
0.0
142
0.0
142
0.0
142
0.0
142
0.0007999999797903
142
0.0
142
0.0
142
0.0
142
0.0
142
1.0
142
0.0
142
0.0
142
0.0
142
0.0
142
1.0
144
0.0007999999797903
144
0.0
144
0.0
144
0.0
144
0.0
144
0.0007999999797903
144
0.0
144
0.0
144
0.0
144
0.0
144
1.0
144
0.0
144
0.0
144
0.0
144
0.0
144
1.0
1001
ACAD
1070
    -1
1070
     3
1070
     0
1000

1071
        0
1070
     0
  0
MLEADERSTYLE
  5
13B
102
{ACAD_REACTORS
330
12D
102
}
330
12D
100
AcDbMLeaderStyle
170
     2
171
     1
172
     0
 90
        2
 40
0.0
 41
0.0
173
     1
 91
-1056964608
340
14
 92
       -2
290
     1
 42
2.0
291
     1
 43
8.0
  3
Standard
 44
4.0
300

342
11
174
     1
178
     1
175
     1
176
     0
 93
-1056964608
 45
4.0
292
     0
297
     0
 46
4.0
 94
-1056964608
 47
1.0
 49
1.0
140
1.0
293
     1
141
0.0
294
     1
177
     0
142
1.0
295
     0
296
     1
143
3.75
1001
ACAD_MLEADERVER
1070
     2
  0
MLEADERSTYLE
  5
12E
102
{ACAD_REACTORS
330
12D
102
}
330
12D
100
AcDbMLeaderStyle
170
     2
171
     1
172
     0
 90
        2
 40
0.0
 41
0.0
173
     1
 91
-1056964608
340
14
 92
       -2
290
     1
 42
2.0
291
     1
 43
8.0
  3
Standard
 44
4.0
300

342
11
174
     1
178
     1
175
     1
176
     0
 93
-1056964608
 45
4.0
292
     0
297
     0
 46
4.0
 94
-1056964608
 47
1.0
 49
1.0
140
1.0
293
     1
141
0.0
294
     1
177
     0
142
1.0
295
     0
296
     0
143
3.75
1001
ACAD_MLEADERVER
1070
     2
  0
MLINESTYLE
  5
18
102
{ACAD_REACTORS
330
17
102
}
330
17
100
AcDbMlineStyle
  2
STANDARD
 70
     0
  3

 62
   256
 51
90.0
 52
90.0
 71
     2
 49
0.5
 62
   256
  6
BYLAYER
 49
-0.5
 62
   256
  6
BYLAYER
  0
ACDBPLACEHOLDER
  5
F
102
{ACAD_REACTORS
330
E
102
}
330
E
  0
SCALE
  5
10D
102
{ACAD_REACTORS
330
10C
102
}
330
10C
100
AcDbScale
 70
     0
300
1:1
140
1.0
141
1.0
290
     1
  0
SCALE
  5
1BE
102
{ACAD_REACTORS
330
10C
102
}
330
10C
100
AcDbScale
 70
     0
300
1:2
140
1.0
141
2.0
290
     0
  0
SCALE
  5
1BF
102
{ACAD_REACTORS
330
10C
102
}
330
10C
100
AcDbScale
 70
     0
300
1:4
140
1.0
141
4.0
290
     0
  0
SCALE
  5
1C0
102
{ACAD_REACTORS
330
10C
102
}
330
10C
100
AcDbScale
 70
     0
300
1:5
140
1.0
141
5.0
290
     0
  0
SCALE
  5
1C1
102
{ACAD_REACTORS
330
10C
102
}
330
10C
100
AcDbScale
 70
     0
300
1:8
140
1.0
141
8.0
290
     0
  0
SCALE
  5
1C2
102
{ACAD_REACTORS
330
10C
102
}
330
10C
100
AcDbScale
 70
     0
300
1:10
140
1.0
141
10.0
290
     0
  0
SCALE
  5
1C3
102
{ACAD_REACTORS
330
10C
102
}
330
10C
100
AcDbScale
 70
     0
300
1:16
140
1.0
141
16.0
290
     0
  0
SCALE
  5
1C4
102
{ACAD_REACTORS
330
10C
102
}
330
10C
100
AcDbScale
 70
     0
300
1:20
140
1.0
141
20.0
290
     0
  0
SCALE
  5
1C5
102
{ACAD_REACTORS
330
10C
102
}
330
10C
100
AcDbScale
 70
     0
300
1:30
140
1.0
141
30.0
290
     0
  0
SCALE
  5
1C6
102
{ACAD_REACTORS
330
10C
102
}
330
10C
100
AcDbScale
 70
     0
300
1:40
140
1.0
141
40.0
290
     0
  0
SCALE
  5
1C7
102
{ACAD_REACTORS
330
10C
102
}
330
10C
100
AcDbScale
 70
     0
300
1:50
140
1.0
141
50.0
290
     0
  0
SCALE
  5
1C8
102
{ACAD_REACTORS
330
10C
102
}
330
10C
100
AcDbScale
 70
     0
300
1:100
140
1.0
141
100.0
290
     0
  0
SCALE
  5
1C9
102
{ACAD_REACTORS
330
10C
102
}
330
10C
100
AcDbScale
 70
     0
300
2:1
140
2.0
141
1.0
290
     0
  0
SCALE
  5
1CA
102
{ACAD_REACTORS
330
10C
102
}
330
10C
100
AcDbScale
 70
     0
300
4:1
140
4.0
141
1.0
290
     0
  0
SCALE
  5
1CB
102
{ACAD_REACTORS
330
10C
102
}
330
10C
100
AcDbScale
 70
     0
300
8:1
140
8.0
141
1.0
290
     0
  0
SCALE
  5
1CC
102
{ACAD_REACTORS
330
10C
102
}
330
10C
100
AcDbScale
 70
     0
300
10:1
140
10.0
141
1.0
290
     0
  0
SCALE
  5
1CD
102
{ACAD_REACTORS
330
10C
102
}
330
10C
100
AcDbScale
 70
     0
300
100:1
140
100.0
141
1.0
290
     0
  0
TABLESTYLE
  5
7F
102
{ACAD_XDICTIONARY
360
162
102
}
102
{ACAD_REACTORS
330
7E
102
}
330
7E
100
AcDbTableStyle
  3
Standard
 70
     0
 71
     0
 40
1.5
 41
1.5
280
     0
281
     0
  7
Standard
140
4.5
170
     2
 62
     0
 63
     7
283
     0
274
    -2
284
     1
 64
     0
275
    -2
285
     1
 65
     0
276
    -2
286
     1
 66
     0
277
    -2
287
     1
 67
     0
278
    -2
288
     1
 68
     0
279
    -2
289
     1
 69
     0
  7
Standard
140
6.0
170
     5
 62
     0
 63
     7
283
     0
274
    -2
284
     1
 64
     0
275
    -2
285
     1
 65
     0
276
    -2
286
     1
 66
     0
277
    -2
287
     1
 67
     0
278
    -2
288
     1
 68
     0
279
    -2
289
     1
 69
     0
  7
Standard
140
4.5
170
     5
 62
     0
 63
     7
283
     0
274
    -2
284
     1
 64
     0
275
    -2
285
     1
 65
     0
276
    -2
286
     1
 66
     0
277
    -2
287
     1
 67
     0
278
    -2
288
     1
 68
     0
279
    -2
289
     1
 69
     0
  0
VISUALSTYLE
  5
F5
102
{ACAD_XDICTIONARY
360
469
102
}
102
{ACAD_REACTORS
330
EF
102
}
330
EF
100
AcDbVisualStyle
  2
2dWireframe
 70
     4
 71
     0
 72
     2
 73
     1
 90
        0
 40
-0.6
 41
-30.0
 62
     5
 63
     7
421
 16777215
 74
     1
 91
        4
 64
     7
 65
   257
 75
     1
175
     1
 42
1.0
 92
        0
 66
   257
 43
1.0
 76
     1
 77
     6
 78
     2
 67
     7
 79
     5
170
     0
171
     0
290
     0
174
     0
 93
        1
 44
0.0
173
     0
291
     0
 45
0.0
1001
ACAD
1000
AcDbSavedByObjectVersion
1070
     0
  0
VISUALSTYLE
  5
F7
102
{ACAD_XDICTIONARY
360
46D
102
}
102
{ACAD_REACTORS
330
EF
102
}
330
EF
100
AcDbVisualStyle
  2
3D Hidden
 70
     6
 71
     1
 72
     2
 73
     2
 90
        0
 40
-0.6
 41
-30.0
 62
     5
 63
     7
421
 16777215
 74
     2
 91
        2
 64
     7
 65
   257
 75
     2
175
     1
 42
40.0
 92
        0
 66
   257
 43
1.0
 76
     1
 77
     6
 78
     2
 67
     7
 79
     3
170
     0
171
     0
290
     0
174
     0
 93
        1
 44
0.0
173
     0
291
     0
 45
0.0
1001
ACAD
1000
AcDbSavedByObjectVersion
1070
     0
  0
VISUALSTYLE
  5
F6
102
{ACAD_XDICTIONARY
360
46B
102
}
102
{ACAD_REACTORS
330
EF
102
}
330
EF
100
AcDbVisualStyle
  2
3dWireframe
 70
     5
 71
     0
 72
     2
 73
     1
 90
        0
 40
-0.6
 41
-30.0
 62
     5
 63
     7
421
 16777215
 74
     1
 91
        4
 64
     7
 65
   257
 75
     1
175
     1
 42
1.0
 92
        0
 66
   257
 43
1.0
 76
     1
 77
     6
 78
     2
 67
     7
 79
     5
170
     0
171
     0
290
     0
174
     0
 93
        1
 44
0.0
173
     0
291
     0
 45
0.0
1001
ACAD
1000
AcDbSavedByObjectVersion
1070
     0
  0
VISUALSTYLE
  5
F4
102
{ACAD_XDICTIONARY
360
467
102
}
102
{ACAD_REACTORS
330
EF
102
}
330
EF
100
AcDbVisualStyle
  2
Basic
 70
     7
 71
     1
 72
     0
 73
     1
 90
        0
 40
-0.6
 41
-30.0
 62
     5
 63
     7
421
 16777215
 74
     0
 91
        4
 64
     7
 65
   257
 75
     1
175
     1
 42
1.0
 92
        8
 66
     7
 43
1.0
 76
     1
 77
     6
 78
     2
 67
     7
 79
     5
170
     0
171
     0
290
     0
174
     0
 93
        1
 44
0.0
173
     0
291
     1
 45
0.0
1001
ACAD
1000
AcDbSavedByObjectVersion
1070
     0
  0
VISUALSTYLE
  5
FB
102
{ACAD_XDICTIONARY
360
475
102
}
102
{ACAD_REACTORS
330
EF
102
}
330
EF
100
AcDbVisualStyle
  2
Brighten
 70
    12
 71
     2
 72
     2
 73
     1
 90
        0
 40
-0.6
 41
-30.0
 62
     5
 63
     7
421
 16777215
 74
     1
 91
        4
 64
     7
 65
   257
 75
     1
175
     1
 42
1.0
 92
        8
 66
     7
 43
1.0
 76
     1
 77
     6
 78
     2
 67
     7
 79
     5
170
     0
171
     0
290
     0
174
     0
 93
        1
 44
50.0
173
     0
291
     1
 45
0.0
1001
ACAD
1000
AcDbSavedByObjectVersion
1070
     0
  0
VISUALSTYLE
  5
FF
102
{ACAD_XDICTIONARY
360
47D
102
}
102
{ACAD_REACTORS
330
EF
102
}
330
EF
100
AcDbVisualStyle
  2
ColorChange
 70
    16
 71
     2
 72
     2
 73
     3
 90
        0
 40
-0.6
 41
-30.0
 62
     5
 63
     8
421
  8421504
 74
     1
 91
        4
 64
     7
 65
   257
 75
     1
175
     1
 42
1.0
 92
        8
 66
     8
424
  8421504
 43
1.0
 76
     1
 77
     6
 78
     2
 67
     7
 79
     5
170
     0
171
     0
290
     0
174
     0
 93
        1
 44
0.0
173
     0
291
     1
 45
0.0
1001
ACAD
1000
AcDbSavedByObjectVersion
1070
     0
  0
VISUALSTYLE
  5
F8
102
{ACAD_XDICTIONARY
360
46F
102
}
102
{ACAD_REACTORS
330
EF
102
}
330
EF
100
AcDbVisualStyle
  2
Conceptual
 70
     9
 71
     3
 72
     2
 73
     1
 90
        0
 40
-0.6
 41
-30.0
 62
     5
 63
     7
421
 16777215
 74
     2
 91
        2
 64
     7
 65
   257
 75
     1
175
     1
 42
40.0
 92
        8
 66
     7
 43
1.0
 76
     1
 77
     6
 78
     2
 67
     7
 79
     3
170
     0
171
     0
290
     0
174
     0
 93
        1
 44
0.0
173
     0
291
     0
 45
0.0
1001
ACAD
1000
AcDbSavedByObjectVersion
1070
     0
  0
VISUALSTYLE
  5
FA
102
{ACAD_XDICTIONARY
360
473
102
}
102
{ACAD_REACTORS
330
EF
102
}
330
EF
100
AcDbVisualStyle
  2
Dim
 70
    11
 71
     2
 72
     2
 73
     1
 90
        0
 40
-0.6
 41
-30.0
 62
     5
 63
     7
421
 16777215
 74
     1
 91
        4
 64
     7
 65
   257
 75
     1
175
     1
 42
1.0
 92
        8
 66
     7
 43
1.0
 76
     1
 77
     6
 78
     2
 67
     7
 79
     5
170
     0
171
     0
290
     0
174
     0
 93
        1
 44
-50.0
173
     0
291
     1
 45
0.0
1001
ACAD
1000
AcDbSavedByObjectVersion
1070
     0
  0
VISUALSTYLE
  5
1E6
102
{ACAD_XDICTIONARY
360
483
102
}
102
{ACAD_REACTORS
330
EF
102
}
330
EF
100
AcDbVisualStyle
  2
EdgeColorOff
 70
    22
 71
     2
 72
     2
 73
     0
 90
        0
 40
-0.6
 41
-30.0
 62
     5
 63
     7
421
 16777215
 74
     1
 91
        4
 64
     7
 65
   257
 75
     1
175
     1
 42
1.0
 92
        8
 66
     7
 43
1.0
 76
     1
 77
     6
 78
     2
 67
     7
 79
     5
170
     0
171
     0
290
     0
174
     0
 93
        1
 44
0.0
173
     0
291
     1
 45
0.0
1001
ACAD
1000
AcDbSavedByObjectVersion
1070
     0
  0
VISUALSTYLE
  5
FE
102
{ACAD_XDICTIONARY
360
47B
102
}
102
{ACAD_REACTORS
330
EF
102
}
330
EF
100
AcDbVisualStyle
  2
Facepattern
 70
    15
 71
     2
 72
     2
 73
     1
 90
        0
 40
-0.6
 41
-30.0
 62
     5
 63
     7
421
 16777215
 74
     1
 91
        4
 64
     7
 65
   257
 75
     1
175
     1
 42
1.0
 92
        8
 66
     7
 43
1.0
 76
     1
 77
     6
 78
     2
 67
     7
 79
     5
170
     0
171
     0
290
     0
174
     0
 93
        1
 44
0.0
173
     0
291
     1
 45
0.0
1001
ACAD
1000
AcDbSavedByObjectVersion
1070
     0
  0
VISUALSTYLE
  5
F0
102
{ACAD_XDICTIONARY
360
45F
102
}
102
{ACAD_REACTORS
330
EF
102
}
330
EF
100
AcDbVisualStyle
  2
Flat
 70
     0
 71
     2
 72
     1
 73
     1
 90
        2
 40
-0.6
 41
30.0
 62
     5
 63
     7
421
 16777215
 74
     0
 91
        4
 64
     7
 65
   257
 75
     1
175
     1
 42
1.0
 92
        8
 66
     7
 43
1.0
 76
     1
 77
     6
 78
     2
 67
     7
 79
     5
170
     0
171
     0
290
     0
174
     0
 93
        1
 44
0.0
173
     0
291
     1
 45
0.0
1001
ACAD
1000
AcDbSavedByObjectVersion
1070
     0
  0
VISUALSTYLE
  5
F1
102
{ACAD_XDICTIONARY
360
461
102
}
102
{ACAD_REACTORS
330
EF
102
}
330
EF
100
AcDbVisualStyle
  2
FlatWithEdges
 70
     1
 71
     2
 72
     1
 73
     1
 90
        2
 40
-0.6
 41
30.0
 62
     5
 63
     7
421
 16777215
 74
     1
 91
        4
 64
     7
 65
   257
 75
     1
175
     1
 42
1.0
 92
        0
 66
   257
 43
1.0
 76
     1
 77
     6
 78
     2
 67
     7
 79
     5
170
     0
171
     0
290
     0
174
     0
 93
        1
 44
0.0
173
     0
291
     1
 45
0.0
1001
ACAD
1000
AcDbSavedByObjectVersion
1070
     0
  0
VISUALSTYLE
  5
F2
102
{ACAD_XDICTIONARY
360
463
102
}
102
{ACAD_REACTORS
330
EF
102
}
330
EF
100
AcDbVisualStyle
  2
Gouraud
 70
     2
 71
     2
 72
     2
 73
     1
 90
        2
 40
-0.6
 41
30.0
 62
     5
 63
     7
421
 16777215
 74
     0
 91
        4
 64
     7
 65
   257
 75
     1
175
     1
 42
1.0
 92
        0
 66
     7
 43
1.0
 76
     1
 77
     6
 78
     2
 67
     7
 79
     5
170
     0
171
     0
290
     0
174
     0
 93
        1
 44
0.0
173
     0
291
     1
 45
0.0
1001
ACAD
1000
AcDbSavedByObjectVersion
1070
     0
  0
VISUALSTYLE
  5
F3
102
{ACAD_XDICTIONARY
360
465
102
}
102
{ACAD_REACTORS
330
EF
102
}
330
EF
100
AcDbVisualStyle
  2
GouraudWithEdges
 70
     3
 71
     2
 72
     2
 73
     1
 90
        2
 40
-0.6
 41
30.0
 62
     5
 63
     7
421
 16777215
 74
     1
 91
        4
 64
     7
 65
   257
 75
     1
175
     1
 42
1.0
 92
        0
 66
   257
 43
1.0
 76
     1
 77
     6
 78
     2
 67
     7
 79
     5
170
     0
171
     0
290
     0
174
     0
 93
        1
 44
0.0
173
     0
291
     1
 45
0.0
1001
ACAD
1000
AcDbSavedByObjectVersion
1070
     0
  0
VISUALSTYLE
  5
1E4
102
{ACAD_XDICTIONARY
360
47F
102
}
102
{ACAD_REACTORS
330
EF
102
}
330
EF
100
AcDbVisualStyle
  2
JitterOff
 70
    20
 71
     2
 72
     2
 73
     0
 90
        0
 40
-0.6
 41
-30.0
 62
     5
 63
     7
421
 16777215
 74
     1
 91
        4
 64
     7
 65
   257
 75
     1
175
     1
 42
1.0
 92
       10
 66
     7
 43
1.0
 76
     1
 77
     6
 78
     2
 67
     7
 79
     5
170
     0
171
     0
290
     0
174
     0
 93
        1
 44
0.0
173
     0
291
     1
 45
0.0
1001
ACAD
1000
AcDbSavedByObjectVersion
1070
     0
  0
VISUALSTYLE
  5
FD
102
{ACAD_XDICTIONARY
360
479
102
}
102
{ACAD_REACTORS
330
EF
102
}
330
EF
100
AcDbVisualStyle
  2
Linepattern
 70
    14
 71
     2
 72
     2
 73
     1
 90
        0
 40
-0.6
 41
-30.0
 62
     5
 63
     7
421
 16777215
 74
     1
 91
        4
 64
     7
 65
   257
 75
     7
175
     7
 42
1.0
 92
        8
 66
     7
 43
1.0
 76
     1
 77
     6
 78
     2
 67
     7
 79
     5
170
     0
171
     0
290
     0
174
     0
 93
        1
 44
0.0
173
     0
291
     1
 45
0.0
1001
ACAD
1000
AcDbSavedByObjectVersion
1070
     0
  0
VISUALSTYLE
  5
1E5
102
{ACAD_XDICTIONARY
360
481
102
}
102
{ACAD_REACTORS
330
EF
102
}
330
EF
100
AcDbVisualStyle
  2
OverhangOff
 70
    21
 71
     2
 72
     2
 73
     0
 90
        0
 40
-0.6
 41
-30.0
 62
     5
 63
     7
421
 16777215
 74
     1
 91
        4
 64
     7
 65
   257
 75
     1
175
     1
 42
1.0
 92
        9
 66
     7
 43
1.0
 76
     1
 77
     6
 78
     2
 67
     7
 79
     5
170
     0
171
     0
290
     0
174
     0
 93
        1
 44
0.0
173
     0
291
     1
 45
0.0
1001
ACAD
1000
AcDbSavedByObjectVersion
1070
     0
  0
VISUALSTYLE
  5
F9
102
{ACAD_XDICTIONARY
360
471
102
}
102
{ACAD_REACTORS
330
EF
102
}
330
EF
100
AcDbVisualStyle
  2
Realistic
 70
     8
 71
     2
 72
     2
 73
     1
 90
        0
 40
-0.6
 41
-30.0
 62
     5
 63
     7
421
 16777215
 74
     1
 91
        0
 64
     7
 65
   257
 75
     1
175
     1
 42
1.0
 92
        8
 66
     8
424
  7895160
 43
1.0
 76
     1
 77
     6
 78
     2
 67
     7
 79
     5
170
     0
171
     0
290
     0
174
     0
 93
       13
 44
0.0
173
     0
291
     0
 45
0.0
1001
ACAD
1000
AcDbSavedByObjectVersion
1070
     0
  0
VISUALSTYLE
  5
FC
102
{ACAD_XDICTIONARY
360
477
102
}
102
{ACAD_REACTORS
330
EF
102
}
330
EF
100
AcDbVisualStyle
  2
Thicken
 70
    13
 71
     2
 72
     2
 73
     1
 90
        0
 40
-0.6
 41
-30.0
 62
     5
 63
     7
421
 16777215
 74
     1
 91
        4
 64
     7
 65
   257
 75
     1
175
     1
 42
1.0
 92
       12
 66
     7
 43
1.0
 76
     1
 77
     6
 78
     2
 67
     7
 79
     5
170
     0
171
     0
290
     0
174
     0
 93
        1
 44
0.0
173
     0
291
     1
 45
0.0
1001
ACAD
1000
AcDbSavedByObjectVersion
1070
     0
  0
DICTIONARYVAR
  5
146
102
{ACAD_REACTORS
330
5E
102
}
330
5E
100
DictionaryVariables
280
     0
  1
1:1
  0
DICTIONARYVAR
  5
145
102
{ACAD_REACTORS
330
5E
102
}
330
5E
100
DictionaryVariables
280
     0
  1
STANDARD
  0
DICTIONARYVAR
  5
84
102
{ACAD_REACTORS
330
5E
102
}
330
5E
100
DictionaryVariables
280
     0
  1
STANDARD
  0
DICTIONARYVAR
  5
5F
102
{ACAD_REACTORS
330
5E
102
}
330
5E
100
DictionaryVariables
280
     0
  1
2
  0
DICTIONARYVAR
  5
63
102
{ACAD_REACTORS
330
5E
102
}
330
5E
100
DictionaryVariables
280
     0
  1
1
  0
DICTIONARYVAR
  5
1AE
102
{ACAD_REACTORS
330
5E
102
}
330
5E
100
DictionaryVariables
280
     0
  1
0
  0
DICTIONARYVAR
  5
1AF
102
{ACAD_REACTORS
330
5E
102
}
330
5E
100
DictionaryVariables
280
     0
  1
0
  0
DICTIONARYVAR
  5
453
102
{ACAD_REACTORS
330
5E
102
}
330
5E
100
DictionaryVariables
280
     0
  1
2
  0
DICTIONARYVAR
  5
452
102
{ACAD_REACTORS
330
5E
102
}
330
5E
100
DictionaryVariables
280
     0
  1
1
  0
DICTIONARYVAR
  5
455
102
{ACAD_REACTORS
330
5E
102
}
330
5E
100
DictionaryVariables
280
     0
  1
80.000000
  0
DICTIONARYVAR
  5
454
102
{ACAD_REACTORS
330
5E
102
}
330
5E
100
DictionaryVariables
280
     0
  1
5.000000
  0
DICTIONARYVAR
  5
456
102
{ACAD_REACTORS
330
5E
102
}
330
5E
100
DictionaryVariables
280
     0
  1
2
  0
DICTIONARY
  5
45C
330
ED
100
AcDbDictionary
280
     1
281
     1
  3
ACAD_XREC_ROUNDTRIP
360
45D
  0
DICTIONARY
  5
45A
330
EC
100
AcDbDictionary
280
     1
281
     1
  3
ACAD_XREC_ROUNDTRIP
360
45B
  0
DICTIONARY
  5
173
330
EE
100
AcDbDictionary
280
     1
281
     1
  3
ACAD_XREC_ROUNDTRIP
360
45E
  3
BUMPTILE
360
175
  3
DIFFUSETILE
360
174
  3
OPACITYTILE
360
176
  3
REFLECTIONTILE
360
177
  0
DICTIONARY
  5
162
330
7F
100
AcDbDictionary
280
     1
281
     1
  3
ACAD_ROUNDTRIP_2008_TABLESTYLE_CELLSTYLEMAP
360
457
  3
ACAD_XREC_ROUNDTRIP
360
459
  0
DICTIONARY
  5
469
330
F5
100
AcDbDictionary
280
     1
281
     1
  3
ACAD_XREC_ROUNDTRIP
360
46A
  0
DICTIONARY
  5
46D
330
F7
100
AcDbDictionary
280
     1
281
     1
  3
ACAD_XREC_ROUNDTRIP
360
46E
  0
DICTIONARY
  5
46B
330
F6
100
AcDbDictionary
280
     1
281
     1
  3
ACAD_XREC_ROUNDTRIP
360
46C
  0
DICTIONARY
  5
467
330
F4
100
AcDbDictionary
280
     1
281
     1
  3
ACAD_XREC_ROUNDTRIP
360
468
  0
DICTIONARY
  5
475
330
FB
100
AcDbDictionary
280
     1
281
     1
  3
ACAD_XREC_ROUNDTRIP
360
476
  0
DICTIONARY
  5
47D
330
FF
100
AcDbDictionary
280
     1
281
     1
  3
ACAD_XREC_ROUNDTRIP
360
47E
  0
DICTIONARY
  5
46F
330
F8
100
AcDbDictionary
280
     1
281
     1
  3
ACAD_XREC_ROUNDTRIP
360
470
  0
DICTIONARY
  5
473
330
FA
100
AcDbDictionary
280
     1
281
     1
  3
ACAD_XREC_ROUNDTRIP
360
474
  0
DICTIONARY
  5
483
330
1E6
100
AcDbDictionary
280
     1
281
     1
  3
ACAD_XREC_ROUNDTRIP
360
484
  0
DICTIONARY
  5
47B
330
FE
100
AcDbDictionary
280
     1
281
     1
  3
ACAD_XREC_ROUNDTRIP
360
47C
  0
DICTIONARY
  5
45F
330
F0
100
AcDbDictionary
280
     1
281
     1
  3
ACAD_XREC_ROUNDTRIP
360
460
  0
DICTIONARY
  5
461
330
F1
100
AcDbDictionary
280
     1
281
     1
  3
ACAD_XREC_ROUNDTRIP
360
462
  0
DICTIONARY
  5
463
330
F2
100
AcDbDictionary
280
     1
281
     1
  3
ACAD_XREC_ROUNDTRIP
360
464
  0
DICTIONARY
  5
465
330
F3
100
AcDbDictionary
280
     1
281
     1
  3
ACAD_XREC_ROUNDTRIP
360
466
  0
DICTIONARY
  5
47F
330
1E4
100
AcDbDictionary
280
     1
281
     1
  3
ACAD_XREC_ROUNDTRIP
360
480
  0
DICTIONARY
  5
479
330
FD
100
AcDbDictionary
280
     1
281
     1
  3
ACAD_XREC_ROUNDTRIP
360
47A
  0
DICTIONARY
  5
481
330
1E5
100
AcDbDictionary
280
     1
281
     1
  3
ACAD_XREC_ROUNDTRIP
360
482
  0
DICTIONARY
  5
471
330
F9
100
AcDbDictionary
280
     1
281
     1
  3
ACAD_XREC_ROUNDTRIP
360
472
  0
DICTIONARY
  5
477
330
FC
100
AcDbDictionary
280
     1
281
     1
  3
ACAD_XREC_ROUNDTRIP
360
478
  0
XRECORD
  5
45D
102
{ACAD_REACTORS
330
45C
102
}
330
45C
100
AcDbXrecord
280
     1
102
MATERIAL
148
0.0
149
0.0
149
0.0
 93
        0
 94
       63
282
     0
 72
     1
 77
     1
171
     1
175
     1
179
     1
273
     0
  0
XRECORD
  5
45B
102
{ACAD_REACTORS
330
45A
102
}
330
45A
100
AcDbXrecord
280
     1
102
MATERIAL
148
0.0
149
0.0
149
0.0
 93
        0
 94
       63
282
     0
 72
     1
 77
     1
171
     1
175
     1
179
     1
273
     0
  0
XRECORD
  5
45E
102
{ACAD_REACTORS
330
173
102
}
330
173
100
AcDbXrecord
280
     1
102
MATERIAL
148
0.0
149
0.0
149
0.0
 93
        0
 94
       63
282
     0
 72
     1
 77
     1
171
     1
175
     1
179
     1
273
     0
  0
XRECORD
  5
175
102
{ACAD_REACTORS
330
173
102
}
330
173
100
AcDbXrecord
280
     1
270
     1
271
     1
  0
XRECORD
  5
174
102
{ACAD_REACTORS
330
173
102
}
330
173
100
AcDbXrecord
280
     1
270
     1
271
     1
  0
XRECORD
  5
176
102
{ACAD_REACTORS
330
173
102
}
330
173
100
AcDbXrecord
280
     1
270
     1
271
     1
  0
XRECORD
  5
177
102
{ACAD_REACTORS
330
173
102
}
330
173
100
AcDbXrecord
280
     1
270
     1
271
     1
  0
CELLSTYLEMAP
  5
457
102
{ACAD_REACTORS
330
162
102
}
330
162
100
AcDbCellStyleMap
 90
        3
300
CELLSTYLE
  1
TABLEFORMAT_BEGIN
 90
        5
170
     1
 91
        0
 92
    32768
 62
   257
 93
        1
300
CONTENTFORMAT
  1
CONTENTFORMAT_BEGIN
 90
        0
 91
        0
 92
      512
 93
        0
300

 40
0.0
140
1.0
 94
        5
 62
     0
340
11
144
6.0
309
CONTENTFORMAT_END
171
     1
301
MARGIN
  1
CELLMARGIN_BEGIN
 40
1.5
 40
1.5
 40
1.5
 40
1.5
 40
4.5
 40
4.5
309
CELLMARGIN_END
 94
        6
 95
        1
302
GRIDFORMAT
  1
GRIDFORMAT_BEGIN
 90
        0
 91
        1
 62
     0
 92
       -2
340
14
 93
        0
 40
1.125
309
GRIDFORMAT_END
 95
        2
302
GRIDFORMAT
  1
GRIDFORMAT_BEGIN
 90
        0
 91
        1
 62
     0
 92
       -2
340
14
 93
        0
 40
1.125
309
GRIDFORMAT_END
 95
        4
302
GRIDFORMAT
  1
GRIDFORMAT_BEGIN
 90
        0
 91
        1
 62
     0
 92
       -2
340
14
 93
        0
 40
1.125
309
GRIDFORMAT_END
 95
        8
302
GRIDFORMAT
  1
GRIDFORMAT_BEGIN
 90
        0
 91
        1
 62
     0
 92
       -2
340
14
 93
        0
 40
1.125
309
GRIDFORMAT_END
 95
       16
302
GRIDFORMAT
  1
GRIDFORMAT_BEGIN
 90
        0
 91
        1
 62
     0
 92
       -2
340
14
 93
        0
 40
1.125
309
GRIDFORMAT_END
 95
       32
302
GRIDFORMAT
  1
GRIDFORMAT_BEGIN
 90
        0
 91
        1
 62
     0
 92
       -2
340
14
 93
        0
 40
1.125
309
GRIDFORMAT_END
309
TABLEFORMAT_END
  1
CELLSTYLE_BEGIN
 90
        1
 91
        1
300
_TITLE
309
CELLSTYLE_END
300
CELLSTYLE
  1
TABLEFORMAT_BEGIN
 90
        5
170
     1
 91
        0
 92
        0
 62
   257
 93
        1
300
CONTENTFORMAT
  1
CONTENTFORMAT_BEGIN
 90
        0
 91
        0
 92
      512
 93
        0
300

 40
0.0
140
1.0
 94
        5
 62
     0
340
11
144
4.5
309
CONTENTFORMAT_END
171
     1
301
MARGIN
  1
CELLMARGIN_BEGIN
 40
1.5
 40
1.5
 40
1.5
 40
1.5
 40
4.5
 40
4.5
309
CELLMARGIN_END
 94
        6
 95
        1
302
GRIDFORMAT
  1
GRIDFORMAT_BEGIN
 90
        0
 91
        1
 62
     0
 92
       -2
340
14
 93
        0
 40
1.125
309
GRIDFORMAT_END
 95
        2
302
GRIDFORMAT
  1
GRIDFORMAT_BEGIN
 90
        0
 91
        1
 62
     0
 92
       -2
340
14
 93
        0
 40
1.125
309
GRIDFORMAT_END
 95
        4
302
GRIDFORMAT
  1
GRIDFORMAT_BEGIN
 90
        0
 91
        1
 62
     0
 92
       -2
340
14
 93
        0
 40
1.125
309
GRIDFORMAT_END
 95
        8
302
GRIDFORMAT
  1
GRIDFORMAT_BEGIN
 90
        0
 91
        1
 62
     0
 92
       -2
340
14
 93
        0
 40
1.125
309
GRIDFORMAT_END
 95
       16
302
GRIDFORMAT
  1
GRIDFORMAT_BEGIN
 90
        0
 91
        1
 62
     0
 92
       -2
340
14
 93
        0
 40
1.125
309
GRIDFORMAT_END
 95
       32
302
GRIDFORMAT
  1
GRIDFORMAT_BEGIN
 90
        0
 91
        1
 62
     0
 92
       -2
340
14
 93
        0
 40
1.125
309
GRIDFORMAT_END
309
TABLEFORMAT_END
  1
CELLSTYLE_BEGIN
 90
        2
 91
        1
300
_HEADER
309
CELLSTYLE_END
300
CELLSTYLE
  1
TABLEFORMAT_BEGIN
 90
        5
170
     1
 91
        0
 92
        0
 62
   257
 93
        1
300
CONTENTFORMAT
  1
CONTENTFORMAT_BEGIN
 90
        0
 91
        0
 92
      512
 93
        0
300

 40
0.0
140
1.0
 94
        2
 62
     0
340
11
144
4.5
309
CONTENTFORMAT_END
171
     1
301
MARGIN
  1
CELLMARGIN_BEGIN
 40
1.5
 40
1.5
 40
1.5
 40
1.5
 40
4.5
 40
4.5
309
CELLMARGIN_END
 94
        6
 95
        1
302
GRIDFORMAT
  1
GRIDFORMAT_BEGIN
 90
        0
 91
        1
 62
     0
 92
       -2
340
14
 93
        0
 40
1.125
309
GRIDFORMAT_END
 95
        2
302
GRIDFORMAT
  1
GRIDFORMAT_BEGIN
 90
        0
 91
        1
 62
     0
 92
       -2
340
14
 93
        0
 40
1.125
309
GRIDFORMAT_END
 95
        4
302
GRIDFORMAT
  1
GRIDFORMAT_BEGIN
 90
        0
 91
        1
 62
     0
 92
       -2
340
14
 93
        0
 40
1.125
309
GRIDFORMAT_END
 95
        8
302
GRIDFORMAT
  1
GRIDFORMAT_BEGIN
 90
        0
 91
        1
 62
     0
 92
       -2
340
14
 93
        0
 40
1.125
309
GRIDFORMAT_END
 95
       16
302
GRIDFORMAT
  1
GRIDFORMAT_BEGIN
 90
        0
 91
        1
 62
     0
 92
       -2
340
14
 93
        0
 40
1.125
309
GRIDFORMAT_END
 95
       32
302
GRIDFORMAT
  1
GRIDFORMAT_BEGIN
 90
        0
 91
        1
 62
     0
 92
       -2
340
14
 93
        0
 40
1.125
309
GRIDFORMAT_END
309
TABLEFORMAT_END
  1
CELLSTYLE_BEGIN
 90
        3
 91
        2
300
_DATA
309
CELLSTYLE_END
  0
XRECORD
  5
459
102
{ACAD_REACTORS
330
162
102
}
330
162
100
AcDbXrecord
280
     1
102
ACAD_ROUNDTRIP_PRE2007_TABLESTYLE
 90
      512
 91
        0
  1

 92
      512
 93
        0
  2

 94
      512
 95
        0
  3

  0
XRECORD
  5
46A
102
{ACAD_REACTORS
330
469
102
}
330
469
100
AcDbXrecord
280
     1
102
RTVSPropertyOp0
 70
     1
102
RTVSPropertyOp1
 70
     1
102
RTVSPropertyOp2
 70
     1
102
RTVSPropertyOp3
 70
     1
102
RTVSPropertyOp4
 70
     1
102
RTVSPropertyOp5
 70
     1
102
RTVSPropertyOp6
 70
     1
102
RTVSPropertyOp7
 70
     1
102
RTVSPropertyOp8
 70
     1
102
RTVSPropertyOp9
 70
     1
102
RTVSPropertyOp10
 70
     1
102
RTVSPropertyOp11
 70
     1
102
RTVSPropertyOp12
 70
     1
102
RTVSPropertyOp13
 70
     1
102
RTVSPropertyOp14
 70
     1
102
RTVSPropertyOp15
 70
     1
102
RTVSPropertyOp16
 70
     1
102
RTVSPropertyOp17
 70
     1
102
RTVSPropertyOp18
 70
     1
102
RTVSPropertyOp19
 70
     1
102
RTVSPropertyOp20
 70
     1
102
RTVSPropertyOp21
 70
     1
102
RTVSPropertyOp22
 70
     1
102
RTVSPropertyOp23
 70
     1
102
RTVSPropertyOp24
 70
     1
102
RTVSPropertyOp25
 70
     1
102
RTVSPropertyOp26
 70
     1
102
RTVSPropertyOp27
 70
     1
  0
XRECORD
  5
46E
102
{ACAD_REACTORS
330
46D
102
}
330
46D
100
AcDbXrecord
280
     1
102
RTVSPropertyOp0
 70
     1
102
RTVSPropertyOp1
 70
     1
102
RTVSPropertyOp2
 70
     1
102
RTVSPropertyOp3
 70
     1
102
RTVSPropertyOp4
 70
     1
102
RTVSPropertyOp5
 70
     1
102
RTVSPropertyOp6
 70
     1
102
RTVSPropertyOp7
 70
     1
102
RTVSPropertyOp8
 70
     1
102
RTVSPropertyOp9
 70
     1
102
RTVSPropertyOp10
 70
     1
102
RTVSPropertyOp11
 70
     1
102
RTVSPropertyOp12
 70
     1
102
RTVSPropertyOp13
 70
     1
102
RTVSPropertyOp14
 70
     1
102
RTVSPropertyOp15
 70
     1
102
RTVSPropertyOp16
 70
     1
102
RTVSPropertyOp17
 70
     1
102
RTVSPropertyOp18
 70
     1
102
RTVSPropertyOp19
 70
     1
102
RTVSPropertyOp20
 70
     1
102
RTVSPropertyOp21
 70
     1
102
RTVSPropertyOp22
 70
     1
102
RTVSPropertyOp23
 70
     1
102
RTVSPropertyOp24
 70
     1
102
RTVSPropertyOp25
 70
     1
102
RTVSPropertyOp26
 70
     1
102
RTVSPropertyOp27
 70
     1
  0
XRECORD
  5
46C
102
{ACAD_REACTORS
330
46B
102
}
330
46B
100
AcDbXrecord
280
     1
102
RTVSPropertyOp0
 70
     1
102
RTVSPropertyOp1
 70
     1
102
RTVSPropertyOp2
 70
     1
102
RTVSPropertyOp3
 70
     1
102
RTVSPropertyOp4
 70
     1
102
RTVSPropertyOp5
 70
     1
102
RTVSPropertyOp6
 70
     1
102
RTVSPropertyOp7
 70
     1
102
RTVSPropertyOp8
 70
     1
102
RTVSPropertyOp9
 70
     1
102
RTVSPropertyOp10
 70
     1
102
RTVSPropertyOp11
 70
     1
102
RTVSPropertyOp12
 70
     1
102
RTVSPropertyOp13
 70
     1
102
RTVSPropertyOp14
 70
     1
102
RTVSPropertyOp15
 70
     1
102
RTVSPropertyOp16
 70
     1
102
RTVSPropertyOp17
 70
     1
102
RTVSPropertyOp18
 70
     1
102
RTVSPropertyOp19
 70
     1
102
RTVSPropertyOp20
 70
     1
102
RTVSPropertyOp21
 70
     1
102
RTVSPropertyOp22
 70
     1
102
RTVSPropertyOp23
 70
     1
102
RTVSPropertyOp24
 70
     1
102
RTVSPropertyOp25
 70
     1
102
RTVSPropertyOp26
 70
     1
102
RTVSPropertyOp27
 70
     1
  0
XRECORD
  5
468
102
{ACAD_REACTORS
330
467
102
}
330
467
100
AcDbXrecord
280
     1
102
RTVSPropertyOp0
 70
     1
102
RTVSPropertyOp1
 70
     1
102
RTVSPropertyOp2
 70
     1
102
RTVSPropertyOp3
 70
     1
102
RTVSPropertyOp4
 70
     1
102
RTVSPropertyOp5
 70
     1
102
RTVSPropertyOp6
 70
     1
102
RTVSPropertyOp7
 70
     1
102
RTVSPropertyOp8
 70
     1
102
RTVSPropertyOp9
 70
     1
102
RTVSPropertyOp10
 70
     1
102
RTVSPropertyOp11
 70
     1
102
RTVSPropertyOp12
 70
     1
102
RTVSPropertyOp13
 70
     1
102
RTVSPropertyOp14
 70
     1
102
RTVSPropertyOp15
 70
     1
102
RTVSPropertyOp16
 70
     1
102
RTVSPropertyOp17
 70
     1
102
RTVSPropertyOp18
 70
     1
102
RTVSPropertyOp19
 70
     1
102
RTVSPropertyOp20
 70
     1
102
RTVSPropertyOp21
 70
     1
102
RTVSPropertyOp22
 70
     1
102
RTVSPropertyOp23
 70
     1
102
RTVSPropertyOp24
 70
     1
102
RTVSPropertyOp25
 70
     1
102
RTVSPropertyOp26
 70
     1
102
RTVSPropertyOp27
 70
     1
  0
XRECORD
  5
476
102
{ACAD_REACTORS
330
475
102
}
330
475
100
AcDbXrecord
280
     1
102
RTVSPropertyOp0
 70
     1
102
RTVSPropertyOp1
 70
     1
102
RTVSPropertyOp2
 70
     1
102
RTVSPropertyOp3
 70
     1
102
RTVSPropertyOp4
 70
     1
102
RTVSPropertyOp5
 70
     1
102
RTVSPropertyOp6
 70
     1
102
RTVSPropertyOp7
 70
     1
102
RTVSPropertyOp8
 70
     1
102
RTVSPropertyOp9
 70
     1
102
RTVSPropertyOp10
 70
     1
102
RTVSPropertyOp11
 70
     1
102
RTVSPropertyOp12
 70
     1
102
RTVSPropertyOp13
 70
     1
102
RTVSPropertyOp14
 70
     1
102
RTVSPropertyOp15
 70
     1
102
RTVSPropertyOp16
 70
     1
102
RTVSPropertyOp17
 70
     1
102
RTVSPropertyOp18
 70
     1
102
RTVSPropertyOp19
 70
     1
102
RTVSPropertyOp20
 70
     1
102
RTVSPropertyOp21
 70
     1
102
RTVSPropertyOp22
 70
     1
102
RTVSPropertyOp23
 70
     1
102
RTVSPropertyOp24
 70
     1
102
RTVSPropertyOp25
 70
     1
102
RTVSPropertyOp26
 70
     1
102
RTVSPropertyOp27
 70
     1
  0
XRECORD
  5
47E
102
{ACAD_REACTORS
330
47D
102
}
330
47D
100
AcDbXrecord
280
     1
102
RTVSPropertyOp0
 70
     1
102
RTVSPropertyOp1
 70
     1
102
RTVSPropertyOp2
 70
     1
102
RTVSPropertyOp3
 70
     1
102
RTVSPropertyOp4
 70
     1
102
RTVSPropertyOp5
 70
     1
102
RTVSPropertyOp6
 70
     1
102
RTVSPropertyOp7
 70
     1
102
RTVSPropertyOp8
 70
     1
102
RTVSPropertyOp9
 70
     1
102
RTVSPropertyOp10
 70
     1
102
RTVSPropertyOp11
 70
     1
102
RTVSPropertyOp12
 70
     1
102
RTVSPropertyOp13
 70
     1
102
RTVSPropertyOp14
 70
     1
102
RTVSPropertyOp15
 70
     1
102
RTVSPropertyOp16
 70
     1
102
RTVSPropertyOp17
 70
     1
102
RTVSPropertyOp18
 70
     1
102
RTVSPropertyOp19
 70
     1
102
RTVSPropertyOp20
 70
     1
102
RTVSPropertyOp21
 70
     1
102
RTVSPropertyOp22
 70
     1
102
RTVSPropertyOp23
 70
     1
102
RTVSPropertyOp24
 70
     1
102
RTVSPropertyOp25
 70
     1
102
RTVSPropertyOp26
 70
     1
102
RTVSPropertyOp27
 70
     1
  0
XRECORD
  5
470
102
{ACAD_REACTORS
330
46F
102
}
330
46F
100
AcDbXrecord
280
     1
102
RTVSPropertyOp0
 70
     1
102
RTVSPropertyOp1
 70
     1
102
RTVSPropertyOp2
 70
     1
102
RTVSPropertyOp3
 70
     1
102
RTVSPropertyOp4
 70
     1
102
RTVSPropertyOp5
 70
     1
102
RTVSPropertyOp6
 70
     1
102
RTVSPropertyOp7
 70
     1
102
RTVSPropertyOp8
 70
     1
102
RTVSPropertyOp9
 70
     1
102
RTVSPropertyOp10
 70
     1
102
RTVSPropertyOp11
 70
     1
102
RTVSPropertyOp12
 70
     1
102
RTVSPropertyOp13
 70
     1
102
RTVSPropertyOp14
 70
     1
102
RTVSPropertyOp15
 70
     1
102
RTVSPropertyOp16
 70
     1
102
RTVSPropertyOp17
 70
     1
102
RTVSPropertyOp18
 70
     1
102
RTVSPropertyOp19
 70
     1
102
RTVSPropertyOp20
 70
     1
102
RTVSPropertyOp21
 70
     1
102
RTVSPropertyOp22
 70
     1
102
RTVSPropertyOp23
 70
     1
102
RTVSPropertyOp24
 70
     1
102
RTVSPropertyOp25
 70
     1
102
RTVSPropertyOp26
 70
     1
102
RTVSPropertyOp27
 70
     1
  0
XRECORD
  5
474
102
{ACAD_REACTORS
330
473
102
}
330
473
100
AcDbXrecord
280
     1
102
RTVSPropertyOp0
 70
     1
102
RTVSPropertyOp1
 70
     1
102
RTVSPropertyOp2
 70
     1
102
RTVSPropertyOp3
 70
     1
102
RTVSPropertyOp4
 70
     1
102
RTVSPropertyOp5
 70
     1
102
RTVSPropertyOp6
 70
     1
102
RTVSPropertyOp7
 70
     1
102
RTVSPropertyOp8
 70
     1
102
RTVSPropertyOp9
 70
     1
102
RTVSPropertyOp10
 70
     1
102
RTVSPropertyOp11
 70
     1
102
RTVSPropertyOp12
 70
     1
102
RTVSPropertyOp13
 70
     1
102
RTVSPropertyOp14
 70
     1
102
RTVSPropertyOp15
 70
     1
102
RTVSPropertyOp16
 70
     1
102
RTVSPropertyOp17
 70
     1
102
RTVSPropertyOp18
 70
     1
102
RTVSPropertyOp19
 70
     1
102
RTVSPropertyOp20
 70
     1
102
RTVSPropertyOp21
 70
     1
102
RTVSPropertyOp22
 70
     1
102
RTVSPropertyOp23
 70
     1
102
RTVSPropertyOp24
 70
     1
102
RTVSPropertyOp25
 70
     1
102
RTVSPropertyOp26
 70
     1
102
RTVSPropertyOp27
 70
     1
  0
XRECORD
  5
484
102
{ACAD_REACTORS
330
483
102
}
330
483
100
AcDbXrecord
280
     1
102
RTVSPropertyOp0
 70
     0
102
RTVSPropertyOp1
 70
     0
102
RTVSPropertyOp2
 70
     0
102
RTVSPropertyOp3
 70
     0
102
RTVSPropertyOp4
 70
     0
102
RTVSPropertyOp5
 70
     0
102
RTVSPropertyOp6
 70
     0
102
RTVSPropertyOp7
 70
     0
102
RTVSPropertyOp8
 70
     0
102
RTVSPropertyOp9
 70
     0
102
RTVSPropertyOp10
 70
     0
102
RTVSPropertyOp11
 70
     0
102
RTVSPropertyOp12
 70
     0
102
RTVSPropertyOp13
 70
     0
102
RTVSPropertyOp14
 70
     2
102
RTVSPropertyOp15
 70
     0
102
RTVSPropertyOp16
 70
     0
102
RTVSPropertyOp17
 70
     0
102
RTVSPropertyOp18
 70
     0
102
RTVSPropertyOp19
 70
     0
102
RTVSPropertyOp20
 70
     0
102
RTVSPropertyOp21
 70
     0
102
RTVSPropertyOp22
 70
     0
102
RTVSPropertyOp23
 70
     0
102
RTVSPropertyOp24
 70
     0
102
RTVSPropertyOp25
 70
     0
102
RTVSPropertyOp26
 70
     0
102
RTVSPropertyOp27
 70
     0
  0
XRECORD
  5
47C
102
{ACAD_REACTORS
330
47B
102
}
330
47B
100
AcDbXrecord
280
     1
102
RTVSPropertyOp0
 70
     1
102
RTVSPropertyOp1
 70
     1
102
RTVSPropertyOp2
 70
     1
102
RTVSPropertyOp3
 70
     1
102
RTVSPropertyOp4
 70
     1
102
RTVSPropertyOp5
 70
     1
102
RTVSPropertyOp6
 70
     1
102
RTVSPropertyOp7
 70
     1
102
RTVSPropertyOp8
 70
     1
102
RTVSPropertyOp9
 70
     1
102
RTVSPropertyOp10
 70
     1
102
RTVSPropertyOp11
 70
     1
102
RTVSPropertyOp12
 70
     1
102
RTVSPropertyOp13
 70
     1
102
RTVSPropertyOp14
 70
     1
102
RTVSPropertyOp15
 70
     1
102
RTVSPropertyOp16
 70
     1
102
RTVSPropertyOp17
 70
     1
102
RTVSPropertyOp18
 70
     1
102
RTVSPropertyOp19
 70
     1
102
RTVSPropertyOp20
 70
     1
102
RTVSPropertyOp21
 70
     1
102
RTVSPropertyOp22
 70
     1
102
RTVSPropertyOp23
 70
     1
102
RTVSPropertyOp24
 70
     1
102
RTVSPropertyOp25
 70
     1
102
RTVSPropertyOp26
 70
     1
102
RTVSPropertyOp27
 70
     1
  0
XRECORD
  5
460
102
{ACAD_REACTORS
330
45F
102
}
330
45F
100
AcDbXrecord
280
     1
102
RTVSPropertyOp0
 70
     1
102
RTVSPropertyOp1
 70
     1
102
RTVSPropertyOp2
 70
     1
102
RTVSPropertyOp3
 70
     1
102
RTVSPropertyOp4
 70
     1
102
RTVSPropertyOp5
 70
     1
102
RTVSPropertyOp6
 70
     1
102
RTVSPropertyOp7
 70
     1
102
RTVSPropertyOp8
 70
     1
102
RTVSPropertyOp9
 70
     1
102
RTVSPropertyOp10
 70
     1
102
RTVSPropertyOp11
 70
     1
102
RTVSPropertyOp12
 70
     1
102
RTVSPropertyOp13
 70
     1
102
RTVSPropertyOp14
 70
     1
102
RTVSPropertyOp15
 70
     1
102
RTVSPropertyOp16
 70
     1
102
RTVSPropertyOp17
 70
     1
102
RTVSPropertyOp18
 70
     1
102
RTVSPropertyOp19
 70
     1
102
RTVSPropertyOp20
 70
     1
102
RTVSPropertyOp21
 70
     1
102
RTVSPropertyOp22
 70
     1
102
RTVSPropertyOp23
 70
     1
102
RTVSPropertyOp24
 70
     1
102
RTVSPropertyOp25
 70
     1
102
RTVSPropertyOp26
 70
     1
102
RTVSPropertyOp27
 70
     1
  0
XRECORD
  5
462
102
{ACAD_REACTORS
330
461
102
}
330
461
100
AcDbXrecord
280
     1
102
RTVSPropertyOp0
 70
     1
102
RTVSPropertyOp1
 70
     1
102
RTVSPropertyOp2
 70
     1
102
RTVSPropertyOp3
 70
     1
102
RTVSPropertyOp4
 70
     1
102
RTVSPropertyOp5
 70
     1
102
RTVSPropertyOp6
 70
     1
102
RTVSPropertyOp7
 70
     1
102
RTVSPropertyOp8
 70
     1
102
RTVSPropertyOp9
 70
     1
102
RTVSPropertyOp10
 70
     1
102
RTVSPropertyOp11
 70
     1
102
RTVSPropertyOp12
 70
     1
102
RTVSPropertyOp13
 70
     1
102
RTVSPropertyOp14
 70
     1
102
RTVSPropertyOp15
 70
     1
102
RTVSPropertyOp16
 70
     1
102
RTVSPropertyOp17
 70
     1
102
RTVSPropertyOp18
 70
     1
102
RTVSPropertyOp19
 70
     1
102
RTVSPropertyOp20
 70
     1
102
RTVSPropertyOp21
 70
     1
102
RTVSPropertyOp22
 70
     1
102
RTVSPropertyOp23
 70
     1
102
RTVSPropertyOp24
 70
     1
102
RTVSPropertyOp25
 70
     1
102
RTVSPropertyOp26
 70
     1
102
RTVSPropertyOp27
 70
     1
  0
XRECORD
  5
464
102
{ACAD_REACTORS
330
463
102
}
330
463
100
AcDbXrecord
280
     1
102
RTVSPropertyOp0
 70
     1
102
RTVSPropertyOp1
 70
     1
102
RTVSPropertyOp2
 70
     1
102
RTVSPropertyOp3
 70
     1
102
RTVSPropertyOp4
 70
     1
102
RTVSPropertyOp5
 70
     1
102
RTVSPropertyOp6
 70
     1
102
RTVSPropertyOp7
 70
     1
102
RTVSPropertyOp8
 70
     1
102
RTVSPropertyOp9
 70
     1
102
RTVSPropertyOp10
 70
     1
102
RTVSPropertyOp11
 70
     1
102
RTVSPropertyOp12
 70
     1
102
RTVSPropertyOp13
 70
     1
102
RTVSPropertyOp14
 70
     1
102
RTVSPropertyOp15
 70
     1
102
RTVSPropertyOp16
 70
     1
102
RTVSPropertyOp17
 70
     1
102
RTVSPropertyOp18
 70
     1
102
RTVSPropertyOp19
 70
     1
102
RTVSPropertyOp20
 70
     1
102
RTVSPropertyOp21
 70
     1
102
RTVSPropertyOp22
 70
     1
102
RTVSPropertyOp23
 70
     1
102
RTVSPropertyOp24
 70
     1
102
RTVSPropertyOp25
 70
     1
102
RTVSPropertyOp26
 70
     1
102
RTVSPropertyOp27
 70
     1
  0
XRECORD
  5
466
102
{ACAD_REACTORS
330
465
102
}
330
465
100
AcDbXrecord
280
     1
102
RTVSPropertyOp0
 70
     1
102
RTVSPropertyOp1
 70
     1
102
RTVSPropertyOp2
 70
     1
102
RTVSPropertyOp3
 70
     1
102
RTVSPropertyOp4
 70
     1
102
RTVSPropertyOp5
 70
     1
102
RTVSPropertyOp6
 70
     1
102
RTVSPropertyOp7
 70
     1
102
RTVSPropertyOp8
 70
     1
102
RTVSPropertyOp9
 70
     1
102
RTVSPropertyOp10
 70
     1
102
RTVSPropertyOp11
 70
     1
102
RTVSPropertyOp12
 70
     1
102
RTVSPropertyOp13
 70
     1
102
RTVSPropertyOp14
 70
     1
102
RTVSPropertyOp15
 70
     1
102
RTVSPropertyOp16
 70
     1
102
RTVSPropertyOp17
 70
     1
102
RTVSPropertyOp18
 70
     1
102
RTVSPropertyOp19
 70
     1
102
RTVSPropertyOp20
 70
     1
102
RTVSPropertyOp21
 70
     1
102
RTVSPropertyOp22
 70
     1
102
RTVSPropertyOp23
 70
     1
102
RTVSPropertyOp24
 70
     1
102
RTVSPropertyOp25
 70
     1
102
RTVSPropertyOp26
 70
     1
102
RTVSPropertyOp27
 70
     1
  0
XRECORD
  5
480
102
{ACAD_REACTORS
330
47F
102
}
330
47F
100
AcDbXrecord
280
     1
102
RTVSPropertyOp0
 70
     0
102
RTVSPropertyOp1
 70
     0
102
RTVSPropertyOp2
 70
     0
102
RTVSPropertyOp3
 70
     0
102
RTVSPropertyOp4
 70
     0
102
RTVSPropertyOp5
 70
     0
102
RTVSPropertyOp6
 70
     0
102
RTVSPropertyOp7
 70
     0
102
RTVSPropertyOp8
 70
     0
102
RTVSPropertyOp9
 70
     0
102
RTVSPropertyOp10
 70
     0
102
RTVSPropertyOp11
 70
     0
102
RTVSPropertyOp12
 70
     0
102
RTVSPropertyOp13
 70
     0
102
RTVSPropertyOp14
 70
     2
102
RTVSPropertyOp15
 70
     0
102
RTVSPropertyOp16
 70
     0
102
RTVSPropertyOp17
 70
     0
102
RTVSPropertyOp18
 70
     0
102
RTVSPropertyOp19
 70
     0
102
RTVSPropertyOp20
 70
     0
102
RTVSPropertyOp21
 70
     0
102
RTVSPropertyOp22
 70
     0
102
RTVSPropertyOp23
 70
     0
102
RTVSPropertyOp24
 70
     0
102
RTVSPropertyOp25
 70
     0
102
RTVSPropertyOp26
 70
     0
102
RTVSPropertyOp27
 70
     0
  0
XRECORD
  5
47A
102
{ACAD_REACTORS
330
479
102
}
330
479
100
AcDbXrecord
280
     1
102
RTVSPropertyOp0
 70
     1
102
RTVSPropertyOp1
 70
     1
102
RTVSPropertyOp2
 70
     1
102
RTVSPropertyOp3
 70
     1
102
RTVSPropertyOp4
 70
     1
102
RTVSPropertyOp5
 70
     1
102
RTVSPropertyOp6
 70
     1
102
RTVSPropertyOp7
 70
     1
102
RTVSPropertyOp8
 70
     1
102
RTVSPropertyOp9
 70
     1
102
RTVSPropertyOp10
 70
     1
102
RTVSPropertyOp11
 70
     1
102
RTVSPropertyOp12
 70
     1
102
RTVSPropertyOp13
 70
     1
102
RTVSPropertyOp14
 70
     1
102
RTVSPropertyOp15
 70
     1
102
RTVSPropertyOp16
 70
     1
102
RTVSPropertyOp17
 70
     1
102
RTVSPropertyOp18
 70
     1
102
RTVSPropertyOp19
 70
     1
102
RTVSPropertyOp20
 70
     1
102
RTVSPropertyOp21
 70
     1
102
RTVSPropertyOp22
 70
     1
102
RTVSPropertyOp23
 70
     1
102
RTVSPropertyOp24
 70
     1
102
RTVSPropertyOp25
 70
     1
102
RTVSPropertyOp26
 70
     1
102
RTVSPropertyOp27
 70
     1
  0
XRECORD
  5
482
102
{ACAD_REACTORS
330
481
102
}
330
481
100
AcDbXrecord
280
     1
102
RTVSPropertyOp0
 70
     0
102
RTVSPropertyOp1
 70
     0
102
RTVSPropertyOp2
 70
     0
102
RTVSPropertyOp3
 70
     0
102
RTVSPropertyOp4
 70
     0
102
RTVSPropertyOp5
 70
     0
102
RTVSPropertyOp6
 70
     0
102
RTVSPropertyOp7
 70
     0
102
RTVSPropertyOp8
 70
     0
102
RTVSPropertyOp9
 70
     0
102
RTVSPropertyOp10
 70
     0
102
RTVSPropertyOp11
 70
     0
102
RTVSPropertyOp12
 70
     0
102
RTVSPropertyOp13
 70
     0
102
RTVSPropertyOp14
 70
     2
102
RTVSPropertyOp15
 70
     0
102
RTVSPropertyOp16
 70
     0
102
RTVSPropertyOp17
 70
     0
102
RTVSPropertyOp18
 70
     0
102
RTVSPropertyOp19
 70
     0
102
RTVSPropertyOp20
 70
     0
102
RTVSPropertyOp21
 70
     0
102
RTVSPropertyOp22
 70
     0
102
RTVSPropertyOp23
 70
     0
102
RTVSPropertyOp24
 70
     0
102
RTVSPropertyOp25
 70
     0
102
RTVSPropertyOp26
 70
     0
102
RTVSPropertyOp27
 70
     0
  0
XRECORD
  5
472
102
{ACAD_REACTORS
330
471
102
}
330
471
100
AcDbXrecord
280
     1
102
RTVSPropertyOp0
 70
     1
102
RTVSPropertyOp1
 70
     1
102
RTVSPropertyOp2
 70
     1
102
RTVSPropertyOp3
 70
     1
102
RTVSPropertyOp4
 70
     1
102
RTVSPropertyOp5
 70
     1
102
RTVSPropertyOp6
 70
     1
102
RTVSPropertyOp7
 70
     1
102
RTVSPropertyOp8
 70
     1
102
RTVSPropertyOp9
 70
     1
102
RTVSPropertyOp10
 70
     1
102
RTVSPropertyOp11
 70
     1
102
RTVSPropertyOp12
 70
     1
102
RTVSPropertyOp13
 70
     1
102
RTVSPropertyOp14
 70
     1
102
RTVSPropertyOp15
 70
     1
102
RTVSPropertyOp16
 70
     1
102
RTVSPropertyOp17
 70
     1
102
RTVSPropertyOp18
 70
     1
102
RTVSPropertyOp19
 70
     1
102
RTVSPropertyOp20
 70
     1
102
RTVSPropertyOp21
 70
     1
102
RTVSPropertyOp22
 70
     1
102
RTVSPropertyOp23
 70
     1
102
RTVSPropertyOp24
 70
     1
102
RTVSPropertyOp25
 70
     1
102
RTVSPropertyOp26
 70
     1
102
RTVSPropertyOp27
 70
     1
  0
XRECORD
  5
478
102
{ACAD_REACTORS
330
477
102
}
330
477
100
AcDbXrecord
280
     1
102
RTVSPropertyOp0
 70
     1
102
RTVSPropertyOp1
 70
     1
102
RTVSPropertyOp2
 70
     1
102
RTVSPropertyOp3
 70
     1
102
RTVSPropertyOp4
 70
     1
102
RTVSPropertyOp5
 70
     1
102
RTVSPropertyOp6
 70
     1
102
RTVSPropertyOp7
 70
     1
102
RTVSPropertyOp8
 70
     1
102
RTVSPropertyOp9
 70
     1
102
RTVSPropertyOp10
 70
     1
102
RTVSPropertyOp11
 70
     1
102
RTVSPropertyOp12
 70
     1
102
RTVSPropertyOp13
 70
     1
102
RTVSPropertyOp14
 70
     1
102
RTVSPropertyOp15
 70
     1
102
RTVSPropertyOp16
 70
     1
102
RTVSPropertyOp17
 70
     1
102
RTVSPropertyOp18
 70
     1
102
RTVSPropertyOp19
 70
     1
102
RTVSPropertyOp20
 70
     1
102
RTVSPropertyOp21
 70
     1
102
RTVSPropertyOp22
 70
     1
102
RTVSPropertyOp23
 70
     1
102
RTVSPropertyOp24
 70
     1
102
RTVSPropertyOp25
 70
     1
102
RTVSPropertyOp26
 70
     1
102
RTVSPropertyOp27
 70
     1
  0
ENDSEC
  0
EOF
