  0
SECTION
  2
HEADER
  9
$ACADVER
  1
AC1018
  9
$ACADMAINTVER
 70
   104
  9
$DWGCODEPAGE
  3
ANSI_1252
  9
$LASTSAVEDBY
  1
a06741
  9
$INSBASE
 10
0.0
 20
0.0
 30
0.0
  9
$EXTMIN
 10
2069.786730462617
 20
856.1177982485455
 30
0.0
  9
$EXTMAX
 10
2179.941178448421
 20
1001.763919445514
 30
0.0
  9
$LIMMIN
 10
0.0
 20
0.0
  9
$LIMMAX
 10
420.0
 20
297.0
  9
$ORTHOMODE
 70
     0
  9
$REGENMODE
 70
     1
  9
$FILLMODE
 70
     1
  9
$QTEXTMODE
 70
     0
  9
$MIRRTEXT
 70
     0
  9
$LTSCALE
 40
1.0
  9
$ATTMODE
 70
     1
  9
$TEXTSIZE
 40
2.5
  9
$TRACEWID
 40
1.0
  9
$TEXTSTYLE
  7
Standard
  9
$CLAYER
  8
0
  9
$CELTYPE
  6
ByLayer
  9
$CECOLOR
 62
   256
  9
$CELTSCALE
 40
1.0
  9
$DISPSILH
 70
     0
  9
$DIMSCALE
 40
1.0
  9
$DIMASZ
 40
2.5
  9
$DIMEXO
 40
0.625
  9
$DIMDLI
 40
3.75
  9
$DIMRND
 40
0.0
  9
$DIMDLE
 40
0.0
  9
$DIMEXE
 40
1.25
  9
$DIMTP
 40
0.0
  9
$DIMTM
 40
0.0
  9
$DIMTXT
 40
2.5
  9
$DIMCEN
 40
2.5
  9
$DIMTSZ
 40
0.0
  9
$DIMTOL
 70
     0
  9
$DIMLIM
 70
     0
  9
$DIMTIH
 70
     0
  9
$DIMTOH
 70
     0
  9
$DIMSE1
 70
     0
  9
$DIMSE2
 70
     0
  9
$DIMTAD
 70
     1
  9
$DIMZIN
 70
     8
  9
$DIMBLK
  1

  9
$DIMASO
 70
     1
  9
$DIMSHO
 70
     1
  9
$DIMPOST
  1

  9
$DIMAPOST
  1

  9
$DIMALT
 70
     0
  9
$DIMALTD
 70
     3
  9
$DIMALTF
 40
0.03937007874016
  9
$DIMLFAC
 40
1.0
  9
$DIMTOFL
 70
     1
  9
$DIMTVP
 40
0.0
  9
$DIMTIX
 70
     0
  9
$DIMSOXD
 70
     0
  9
$DIMSAH
 70
     0
  9
$DIMBLK1
  1

  9
$DIMBLK2
  1

  9
$DIMSTYLE
  2
ISO-25
  9
$DIMCLRD
 70
     0
  9
$DIMCLRE
 70
     0
  9
$DIMCLRT
 70
     0
  9
$DIMTFAC
 40
1.0
  9
$DIMGAP
 40
0.625
  9
$DIMJUST
 70
     0
  9
$DIMSD1
 70
     0
  9
$DIMSD2
 70
     0
  9
$DIMTOLJ
 70
     0
  9
$DIMTZIN
 70
     8
  9
$DIMALTZ
 70
     0
  9
$DIMALTTZ
 70
     0
  9
$DIMUPT
 70
     0
  9
$DIMDEC
 70
     2
  9
$DIMTDEC
 70
     2
  9
$DIMALTU
 70
     2
  9
$DIMALTTD
 70
     3
  9
$DIMTXSTY
  7
Standard
  9
$DIMAUNIT
 70
     0
  9
$DIMADEC
 70
     0
  9
$DIMALTRND
 40
0.0
  9
$DIMAZIN
 70
     0
  9
$DIMDSEP
 70
    44
  9
$DIMATFIT
 70
     3
  9
$DIMFRAC
 70
     0
  9
$DIMLDRBLK
  1

  9
$DIMLUNIT
 70
     2
  9
$DIMLWD
 70
    -2
  9
$DIMLWE
 70
    -2
  9
$DIMTMOVE
 70
     0
  9
$LUNITS
 70
     2
  9
$LUPREC
 70
     4
  9
$SKETCHINC
 40
1.0
  9
$FILLETRAD
 40
0.0
  9
$AUNITS
 70
     0
  9
$AUPREC
 70
     0
  9
$MENU
  1
.
  9
$ELEVATION
 40
0.0
  9
$PELEVATION
 40
0.0
  9
$THICKNESS
 40
0.0
  9
$LIMCHECK
 70
     0
  9
$CHAMFERA
 40
0.0
  9
$CHAMFERB
 40
0.0
  9
$CHAMFERC
 40
0.0
  9
$CHAMFERD
 40
0.0
  9
$SKPOLY
 70
     0
  9
$TDCREATE
 40
2456139.517412917
  9
$TDUCREATE
 40
2456139.434079584
  9
$TDUPDATE
 40
2456139.517722384
  9
$TDUUPDATE
 40
2456139.434389051
  9
$TDINDWG
 40
0.0003100347
  9
$TDUSRTIMER
 40
0.0003100000
  9
$USRTIMER
 70
     1
  9
$ANGBASE
 50
0.0
  9
$ANGDIR
 70
     0
  9
$PDMODE
 70
     0
  9
$PDSIZE
 40
0.0
  9
$PLINEWID
 40
0.0
  9
$SPLFRAME
 70
     0
  9
$SPLINETYPE
 70
     6
  9
$SPLINESEGS
 70
     8
  9
$HANDSEED
  5
6D6
  9
$SURFTAB1
 70
     6
  9
$SURFTAB2
 70
     6
  9
$SURFTYPE
 70
     6
  9
$SURFU
 70
     6
  9
$SURFV
 70
     6
  9
$UCSBASE
  2

  9
$UCSNAME
  2

  9
$UCSORG
 10
0.0
 20
0.0
 30
0.0
  9
$UCSXDIR
 10
1.0
 20
0.0
 30
0.0
  9
$UCSYDIR
 10
0.0
 20
1.0
 30
0.0
  9
$UCSORTHOREF
  2

  9
$UCSORTHOVIEW
 70
     0
  9
$UCSORGTOP
 10
0.0
 20
0.0
 30
0.0
  9
$UCSORGBOTTOM
 10
0.0
 20
0.0
 30
0.0
  9
$UCSORGLEFT
 10
0.0
 20
0.0
 30
0.0
  9
$UCSORGRIGHT
 10
0.0
 20
0.0
 30
0.0
  9
$UCSORGFRONT
 10
0.0
 20
0.0
 30
0.0
  9
$UCSORGBACK
 10
0.0
 20
0.0
 30
0.0
  9
$PUCSBASE
  2

  9
$PUCSNAME
  2

  9
$PUCSORG
 10
0.0
 20
0.0
 30
0.0
  9
$PUCSXDIR
 10
1.0
 20
0.0
 30
0.0
  9
$PUCSYDIR
 10
0.0
 20
1.0
 30
0.0
  9
$PUCSORTHOREF
  2

  9
$PUCSORTHOVIEW
 70
     0
  9
$PUCSORGTOP
 10
0.0
 20
0.0
 30
0.0
  9
$PUCSORGBOTTOM
 10
0.0
 20
0.0
 30
0.0
  9
$PUCSORGLEFT
 10
0.0
 20
0.0
 30
0.0
  9
$PUCSORGRIGHT
 10
0.0
 20
0.0
 30
0.0
  9
$PUCSORGFRONT
 10
0.0
 20
0.0
 30
0.0
  9
$PUCSORGBACK
 10
0.0
 20
0.0
 30
0.0
  9
$USERI1
 70
     0
  9
$USERI2
 70
     0
  9
$USERI3
 70
     0
  9
$USERI4
 70
     0
  9
$USERI5
 70
     0
  9
$USERR1
 40
0.0
  9
$USERR2
 40
0.0
  9
$USERR3
 40
0.0
  9
$USERR4
 40
0.0
  9
$USERR5
 40
0.0
  9
$WORLDVIEW
 70
     1
  9
$SHADEDGE
 70
     3
  9
$SHADEDIF
 70
    70
  9
$TILEMODE
 70
     1
  9
$MAXACTVP
 70
    64
  9
$PINSBASE
 10
0.0
 20
0.0
 30
0.0
  9
$PLIMCHECK
 70
     0
  9
$PEXTMIN
 10
0.0
 20
0.0
 30
0.0
  9
$PEXTMAX
 10
0.0
 20
0.0
 30
0.0
  9
$PLIMMIN
 10
0.0
 20
0.0
  9
$PLIMMAX
 10
12.0
 20
9.0
  9
$UNITMODE
 70
     0
  9
$VISRETAIN
 70
     1
  9
$PLINEGEN
 70
     0
  9
$PSLTSCALE
 70
     1
  9
$TREEDEPTH
 70
  3020
  9
$CMLSTYLE
  2
Standard
  9
$CMLJUST
 70
     0
  9
$CMLSCALE
 40
20.0
  9
$PROXYGRAPHICS
 70
     1
  9
$MEASUREMENT
 70
     1
  9
$CELWEIGHT
370
    -1
  9
$ENDCAPS
280
     0
  9
$JOINSTYLE
280
     0
  9
$LWDISPLAY
290
     0
  9
$INSUNITS
 70
     4
  9
$HYPERLINKBASE
  1

  9
$STYLESHEET
  1

  9
$XEDIT
290
     1
  9
$CEPSNTYPE
380
     0
  9
$PSTYLEMODE
290
     1
  9
$FINGERPRINTGUID
  2
{A713A765-C960-4D7D-9448-2D9B3D61348D}
  9
$VERSIONGUID
  2
{63E11B6B-DD73-4604-8B46-003C5EA88CD6}
  9
$EXTNAMES
290
     1
  9
$PSVPSCALE
 40
0.0
  9
$OLESTARTUP
290
     0
  9
$SORTENTS
280
   127
  9
$INDEXCTL
280
     0
  9
$HIDETEXT
280
     1
  9
$XCLIPFRAME
290
     0
  9
$HALOGAP
280
     0
  9
$OBSCOLOR
 70
   257
  9
$OBSLTYPE
280
     0
  9
$INTERSECTIONDISPLAY
280
     0
  9
$INTERSECTIONCOLOR
 70
   257
  9
$DIMASSOC
280
     2
  9
$PROJECTNAME
  1

  0
ENDSEC
  0
SECTION
  2
CLASSES
  0
CLASS
  1
ACDBDICTIONARYWDFLT
  2
AcDbDictionaryWithDefault
  3
ObjectDBX Classes
 90
        0
 91
        1
280
     0
281
     0
  0
CLASS
  1
DICTIONARYVAR
  2
AcDbDictionaryVar
  3
ObjectDBX Classes
 90
        0
 91
       17
280
     0
281
     0
  0
CLASS
  1
TABLESTYLE
  2
AcDbTableStyle
  3
ObjectDBX Classes
 90
     4095
 91
        1
280
     0
281
     0
  0
CLASS
  1
MATERIAL
  2
AcDbMaterial
  3
ObjectDBX Classes
 90
     1153
 91
        3
280
     0
281
     0
  0
CLASS
  1
VISUALSTYLE
  2
AcDbVisualStyle
  3
ObjectDBX Classes
 90
     4095
 91
       19
280
     0
281
     0
  0
CLASS
  1
SCALE
  2
AcDbScale
  3
ObjectDBX Classes
 90
     1153
 91
       17
280
     0
281
     0
  0
CLASS
  1
MLEADERSTYLE
  2
AcDbMLeaderStyle
  3
ACDB_MLEADERSTYLE_CLASS
 90
     4095
 91
        2
280
     0
281
     0
  0
CLASS
  1
CELLSTYLEMAP
  2
AcDbCellStyleMap
  3
ObjectDBX Classes
 90
     1152
 91
        2
280
     0
281
     0
  0
CLASS
  1
EXACXREFPANELOBJECT
  2
ExAcXREFPanelObject
  3
EXAC_ESW
 90
     1025
 91
        0
280
     0
281
     0
  0
CLASS
  1
NPOCOLLECTION
  2
AcDbImpNonPersistentObjectsCollection
  3
ObjectDBX Classes
 90
     1153
 91
        0
280
     0
281
     0
  0
CLASS
  1
LAYER_INDEX
  2
AcDbLayerIndex
  3
ObjectDBX Classes
 90
        0
 91
        0
280
     0
281
     0
  0
CLASS
  1
SPATIAL_INDEX
  2
AcDbSpatialIndex
  3
ObjectDBX Classes
 90
        0
 91
        0
280
     0
281
     0
  0
CLASS
  1
IDBUFFER
  2
AcDbIdBuffer
  3
ObjectDBX Classes
 90
        0
 91
        0
280
     0
281
     0
  0
CLASS
  1
DIMASSOC
  2
AcDbDimAssoc
  3
"AcDbDimAssoc|Product Desc:     AcDim ARX App For Dimension|Company:          Autodesk, Inc.|WEB Address:      www.autodesk.com"
 90
        0
 91
       44
280
     0
281
     0
  0
CLASS
  1
SORTENTSTABLE
  2
AcDbSortentsTable
  3
ObjectDBX Classes
 90
        0
 91
        1
280
     0
281
     0
  0
ENDSEC
  0
SECTION
  2
TABLES
  0
TABLE
  2
VPORT
  5
8
330
0
100
AcDbSymbolTable
 70
     1
  0
VPORT
  5
EA
330
8
100
AcDbSymbolTableRecord
100
AcDbViewportTableRecord
  2
*Active
 70
     0
 10
0.0
 20
0.0
 11
1.0
 21
1.0
 12
2124.863954455519
 22
928.9408588470298
 13
0.0
 23
0.0
 14
10.0
 24
10.0
 15
10.0
 25
10.0
 16
0.0
 26
0.0
 36
1.0
 17
0.0
 27
0.0
 37
0.0
 40
146.811290166544
 41
2.132176234979973
 42
50.0
 43
0.0
 44
0.0
 50
0.0
 51
0.0
 71
     0
 72
  1000
 73
     1
 74
     3
 75
     0
 76
     0
 77
     0
 78
     0
281
     0
 65
     1
110
0.0
120
0.0
130
0.0
111
1.0
121
0.0
131
0.0
112
0.0
122
1.0
132
0.0
 79
     0
146
0.0
  0
ENDTAB
  0
TABLE
  2
LTYPE
  5
5
330
0
100
AcDbSymbolTable
 70
     1
  0
LTYPE
  5
14
330
5
100
AcDbSymbolTableRecord
100
AcDbLinetypeTableRecord
  2
ByBlock
 70
     0
  3

 72
    65
 73
     0
 40
0.0
  0
LTYPE
  5
15
330
5
100
AcDbSymbolTableRecord
100
AcDbLinetypeTableRecord
  2
ByLayer
 70
     0
  3

 72
    65
 73
     0
 40
0.0
  0
LTYPE
  5
16
330
5
100
AcDbSymbolTableRecord
100
AcDbLinetypeTableRecord
  2
Continuous
 70
     0
  3
Solid line
 72
    65
 73
     0
 40
0.0
  0
ENDTAB
  0
TABLE
  2
LAYER
  5
2
102
{ACAD_XDICTIONARY
360
328
102
}
330
0
100
AcDbSymbolTable
 70
     6
  0
LAYER
  5
10
102
{ACAD_XDICTIONARY
360
13C
102
}
330
2
100
AcDbSymbolTableRecord
100
AcDbLayerTableRecord
  2
0
 70
     0
 62
     7
  6
Continuous
370
    -3
390
F
  0
LAYER
  5
316
330
2
100
AcDbSymbolTableRecord
100
AcDbLayerTableRecord
  2
Defpoints
 70
     0
 62
     7
  6
Continuous
290
     0
370
    -3
390
F
  0
LAYER
  5
317
102
{ACAD_XDICTIONARY
360
318
102
}
330
2
100
AcDbSymbolTableRecord
100
AcDbLayerTableRecord
  2
S10_Quote
 70
     0
 62
     7
  6
Continuous
370
    -3
390
F
  0
LAYER
  5
319
102
{ACAD_XDICTIONARY
360
31A
102
}
330
2
100
AcDbSymbolTableRecord
100
AcDbLayerTableRecord
  2
S08_Retino
 70
     0
 62
   252
  6
Continuous
370
    -3
390
F
  0
LAYER
  5
31B
102
{ACAD_XDICTIONARY
360
31C
102
}
330
2
100
AcDbSymbolTableRecord
100
AcDbLayerTableRecord
  2
S07_Prospetto
 70
     0
 62
     1
  6
Continuous
370
    -3
390
F
1001
AcAecLayerStandard
1000

1000

  0
LAYER
  5
31D
102
{ACAD_XDICTIONARY
360
31E
102
}
330
2
100
AcDbSymbolTableRecord
100
AcDbLayerTableRecord
  2
S11_Finiture
 70
     0
 62
     1
  6
Continuous
370
    -3
390
F
  0
ENDTAB
  0
TABLE
  2
STYLE
  5
3
330
0
100
AcDbSymbolTable
 70
     4
  0
STYLE
  5
11
330
3
100
AcDbSymbolTableRecord
100
AcDbTextStyleTableRecord
  2
Standard
 70
     0
 40
0.0
 41
1.0
 50
0.0
 71
     0
 42
2.5
  3
ARIAL.TTF
  4

1001
ACAD
1000
Arial
1071
       34
  0
STYLE
  5
132
330
3
100
AcDbSymbolTableRecord
100
AcDbTextStyleTableRecord
  2
Annotativa
 70
     0
 40
0.0
 41
1.0
 50
0.0
 71
     0
 42
2.5
  3
ARIAL.TTF
  4

1001
AcadAnnotative
1000
AnnotativeData
1002
{
1070
     1
1070
     1
1002
}
1001
ACAD
1000
Arial
1071
       34
  0
STYLE
  5
31F
330
3
100
AcDbSymbolTableRecord
100
AcDbTextStyleTableRecord
  2
ROMANS
 70
     0
 40
0.0
 41
1.0
 50
0.0
 71
     0
 42
0.21
  3
ROMANS.shx
  4

  0
STYLE
  5
320
330
3
100
AcDbSymbolTableRecord
100
AcDbTextStyleTableRecord
  2
wurth
 70
     0
 40
0.0
 41
1.0
 50
0.0
 71
     0
 42
40.0
  3
WuerthBook.ttf
  4

1001
ACAD
1000
Wuerth Book
1071
        2
  0
ENDTAB
  0
TABLE
  2
VIEW
  5
6
330
0
100
AcDbSymbolTable
 70
     0
  0
ENDTAB
  0
TABLE
  2
UCS
  5
7
330
0
100
AcDbSymbolTable
 70
     0
  0
ENDTAB
  0
TABLE
  2
APPID
  5
9
330
0
100
AcDbSymbolTable
 70
    11
  0
APPID
  5
12
330
9
100
AcDbSymbolTableRecord
100
AcDbRegAppTableRecord
  2
ACAD
 70
     0
  0
APPID
  5
9E
330
9
100
AcDbSymbolTableRecord
100
AcDbRegAppTableRecord
  2
ACAD_PSEXT
 70
     0
  0
APPID
  5
133
330
9
100
AcDbSymbolTableRecord
100
AcDbRegAppTableRecord
  2
AcadAnnoPO
 70
     0
  0
APPID
  5
134
330
9
100
AcDbSymbolTableRecord
100
AcDbRegAppTableRecord
  2
AcadAnnotative
 70
     0
  0
APPID
  5
135
330
9
100
AcDbSymbolTableRecord
100
AcDbRegAppTableRecord
  2
ACAD_DSTYLE_DIMJAG
 70
     0
  0
APPID
  5
136
330
9
100
AcDbSymbolTableRecord
100
AcDbRegAppTableRecord
  2
ACAD_DSTYLE_DIMTALN
 70
     0
  0
APPID
  5
165
330
9
100
AcDbSymbolTableRecord
100
AcDbRegAppTableRecord
  2
ACAD_MLEADERVER
 70
     0
  0
APPID
  5
324
330
9
100
AcDbSymbolTableRecord
100
AcDbRegAppTableRecord
  2
AcAecLayerStandard
 70
     0
  0
APPID
  5
325
330
9
100
AcDbSymbolTableRecord
100
AcDbRegAppTableRecord
  2
AcDbDynamicBlockGUID
 70
     0
  0
APPID
  5
326
330
9
100
AcDbSymbolTableRecord
100
AcDbRegAppTableRecord
  2
AcDbBlockRepETag
 70
     0
  0
APPID
  5
327
330
9
100
AcDbSymbolTableRecord
100
AcDbRegAppTableRecord
  2
ACAD_DSTYLE_DIMBREAK
 70
     0
  0
ENDTAB
  0
TABLE
  2
DIMSTYLE
  5
A
330
0
100
AcDbSymbolTable
 70
     6
100
AcDbDimStyleTable
 71
     2
340
27
340
137
  0
DIMSTYLE
105
1B0
330
A
100
AcDbSymbolTableRecord
100
AcDbDimStyleTableRecord
  2
Standard
 70
     0
340
11
  0
DIMSTYLE
105
137
330
A
100
AcDbSymbolTableRecord
100
AcDbDimStyleTableRecord
  2
Annotativa
 70
     0
 40
0.0
 41
2.5
 42
0.625
 43
3.75
 44
1.25
 73
     0
 74
     0
 77
     1
 78
     8
140
2.5
141
2.5
143
0.03937007874016
147
0.625
171
     3
172
     1
271
     2
272
     2
274
     3
278
    44
283
     0
284
     8
340
11
1001
AcadAnnotative
1000
AnnotativeData
1002
{
1070
     1
1070
     1
1002
}
1001
ACAD_DSTYLE_DIMJAG
1070
   388
1040
1.5
1001
ACAD_DSTYLE_DIMTALN
1070
   392
1070
     0
  0
DIMSTYLE
105
27
330
A
100
AcDbSymbolTableRecord
100
AcDbDimStyleTableRecord
  2
ISO-25
 70
     0
 41
2.5
 42
0.625
 43
3.75
 44
1.25
 73
     0
 74
     0
 77
     1
 78
     8
140
2.5
141
2.5
143
0.03937007874016
147
0.625
171
     3
172
     1
271
     2
272
     2
274
     3
278
    44
283
     0
284
     8
340
11
  0
DIMSTYLE
105
321
330
A
100
AcDbSymbolTableRecord
100
AcDbDimStyleTableRecord
  2
mm 1_5
 70
     0
 40
5.0
 41
0.015
 42
0.625
 43
1.0
 44
1.25
 73
     0
 74
     0
 75
     1
 76
     1
 77
     1
 78
     8
140
2.0
141
0.5
143
0.03937007874016
147
0.8
171
     3
172
     1
174
     1
179
     2
271
     1
272
     1
274
     3
283
     0
284
     8
340
31F
342
1F4
  0
DIMSTYLE
105
322
102
{ACAD_REACTORS
330
3E0
330
3E3
330
3E6
330
3E9
330
3EC
330
3EF
330
3F2
330
3F5
330
3F8
330
3FB
330
3FE
330
401
330
404
330
407
330
40A
330
40D
330
410
330
413
330
416
330
419
330
41A
330
41D
330
420
330
4E0
330
4E3
330
4E6
330
4E9
330
4EC
330
4EF
330
4F2
330
4F5
330
4F8
330
4FB
330
4FE
330
501
330
504
330
507
330
50A
330
50D
330
510
330
513
330
516
330
519
330
51A
330
51D
330
520
102
}
330
A
100
AcDbSymbolTableRecord
100
AcDbDimStyleTableRecord
  2
mm 1_1
 70
     0
 41
0.015
 42
0.625
 43
1.0
 44
1.25
 73
     0
 74
     0
 77
     1
 78
     8
140
2.0
141
0.5
143
0.03937007874016
147
0.8
171
     3
172
     1
174
     1
179
     2
271
     2
272
     2
274
     3
283
     0
284
     8
340
320
342
1F4
1001
ACAD_DSTYLE_DIMBREAK
1070
   391
1040
3.75
1001
ACAD_DSTYLE_DIMJAG
1070
   388
1040
1.5
1001
ACAD_DSTYLE_DIMTALN
1070
   392
1070
     0
  0
DIMSTYLE
105
323
330
A
100
AcDbSymbolTableRecord
100
AcDbDimStyleTableRecord
  2
mm 1_1 x4
 70
     0
 41
0.015
 42
0.625
 43
1.0
 44
1.25
 73
     0
 74
     0
 77
     1
 78
     8
140
2.0
141
0.5
143
0.03937007874016
144
0.25
147
0.8
171
     3
172
     1
174
     1
179
     2
271
     2
272
     2
274
     3
283
     0
284
     8
340
320
342
1F4
1001
ACAD_DSTYLE_DIMBREAK
1070
   391
1040
3.75
1001
ACAD_DSTYLE_DIMJAG
1070
   388
1040
1.5
1001
ACAD_DSTYLE_DIMTALN
1070
   392
1070
     0
  0
ENDTAB
  0
TABLE
  2
BLOCK_RECORD
  5
1
330
0
100
AcDbSymbolTable
 70
    49
  0
BLOCK_RECORD
  5
1F
102
{ACAD_XDICTIONARY
360
1CE
102
}
330
1
100
AcDbSymbolTableRecord
100
AcDbBlockTableRecord
  2
*Model_Space
340
22
  0
BLOCK_RECORD
  5
D2
330
1
100
AcDbSymbolTableRecord
100
AcDbBlockTableRecord
  2
*Paper_Space
340
D3
  0
BLOCK_RECORD
  5
D6
330
1
100
AcDbSymbolTableRecord
100
AcDbBlockTableRecord
  2
*Paper_Space0
340
D7
  0
BLOCK_RECORD
  5
1F4
102
{ACAD_XDICTIONARY
360
1F5
102
}
330
1
100
AcDbSymbolTableRecord
100
AcDbBlockTableRecord
  2
A$C79C4041D
340
0
102
{BLKREFS
331
1FF
331
200
331
20B
331
20C
331
217
331
218
331
223
331
224
331
22F
331
230
331
23D
331
23E
331
249
331
24A
331
255
331
256
331
261
331
262
331
26D
331
26E
331
279
331
27A
331
285
331
286
331
291
331
292
331
29D
331
29E
331
2A9
331
2AA
331
2B5
331
2B6
331
2C1
331
2C2
331
2CD
331
2CE
331
2D9
331
2DA
331
2E5
331
2E6
331
2F3
331
2F4
331
301
331
302
331
30F
331
310
331
535
331
536
331
541
331
542
331
54D
331
54E
331
565
331
566
331
573
331
574
331
57F
331
580
331
58B
331
58C
331
597
331
598
331
5A3
331
5A4
331
5BB
331
5BC
331
5C7
331
5C8
331
5D3
331
5D4
331
5DF
331
5E0
331
5EB
331
5EC
331
5F7
331
5F8
331
603
331
604
331
618
331
619
331
626
331
627
331
634
331
635
331
64D
331
64E
331
656
331
657
331
65F
331
660
331
668
331
669
102
}
1001
AcDbDynamicBlockGUID
1000
{93BD5B1E-816B-4960-B1CC-7C46A00E0667}
1001
AcDbBlockRepETag
1070
     1
1071
        2
  0
BLOCK_RECORD
  5
1FA
330
1
100
AcDbSymbolTableRecord
100
AcDbBlockTableRecord
  2
*D2
340
0
  0
BLOCK_RECORD
  5
206
330
1
100
AcDbSymbolTableRecord
100
AcDbBlockTableRecord
  2
*D3
340
0
  0
BLOCK_RECORD
  5
212
330
1
100
AcDbSymbolTableRecord
100
AcDbBlockTableRecord
  2
*D4
340
0
  0
BLOCK_RECORD
  5
21E
330
1
100
AcDbSymbolTableRecord
100
AcDbBlockTableRecord
  2
*D5
340
0
  0
BLOCK_RECORD
  5
22A
330
1
100
AcDbSymbolTableRecord
100
AcDbBlockTableRecord
  2
*D6
340
0
  0
BLOCK_RECORD
  5
236
330
1
100
AcDbSymbolTableRecord
100
AcDbBlockTableRecord
  2
*D7
340
0
  0
BLOCK_RECORD
  5
244
330
1
100
AcDbSymbolTableRecord
100
AcDbBlockTableRecord
  2
*D8
340
0
  0
BLOCK_RECORD
  5
250
330
1
100
AcDbSymbolTableRecord
100
AcDbBlockTableRecord
  2
*D9
340
0
  0
BLOCK_RECORD
  5
25C
330
1
100
AcDbSymbolTableRecord
100
AcDbBlockTableRecord
  2
*D10
340
0
  0
BLOCK_RECORD
  5
268
330
1
100
AcDbSymbolTableRecord
100
AcDbBlockTableRecord
  2
*D11
340
0
  0
BLOCK_RECORD
  5
274
330
1
100
AcDbSymbolTableRecord
100
AcDbBlockTableRecord
  2
*D12
340
0
  0
BLOCK_RECORD
  5
280
330
1
100
AcDbSymbolTableRecord
100
AcDbBlockTableRecord
  2
*D13
340
0
  0
BLOCK_RECORD
  5
28C
330
1
100
AcDbSymbolTableRecord
100
AcDbBlockTableRecord
  2
*D14
340
0
  0
BLOCK_RECORD
  5
298
330
1
100
AcDbSymbolTableRecord
100
AcDbBlockTableRecord
  2
*D15
340
0
  0
BLOCK_RECORD
  5
2A4
330
1
100
AcDbSymbolTableRecord
100
AcDbBlockTableRecord
  2
*D16
340
0
  0
BLOCK_RECORD
  5
2B0
330
1
100
AcDbSymbolTableRecord
100
AcDbBlockTableRecord
  2
*D17
340
0
  0
BLOCK_RECORD
  5
2BC
330
1
100
AcDbSymbolTableRecord
100
AcDbBlockTableRecord
  2
*D18
340
0
  0
BLOCK_RECORD
  5
2C8
330
1
100
AcDbSymbolTableRecord
100
AcDbBlockTableRecord
  2
*D19
340
0
  0
BLOCK_RECORD
  5
2D4
330
1
100
AcDbSymbolTableRecord
100
AcDbBlockTableRecord
  2
*D20
340
0
  0
BLOCK_RECORD
  5
2E0
330
1
100
AcDbSymbolTableRecord
100
AcDbBlockTableRecord
  2
*D21
340
0
  0
BLOCK_RECORD
  5
2EC
330
1
100
AcDbSymbolTableRecord
100
AcDbBlockTableRecord
  2
*D22
340
0
  0
BLOCK_RECORD
  5
2FA
330
1
100
AcDbSymbolTableRecord
100
AcDbBlockTableRecord
  2
*D23
340
0
  0
BLOCK_RECORD
  5
308
330
1
100
AcDbSymbolTableRecord
100
AcDbBlockTableRecord
  2
*D24
340
0
  0
BLOCK_RECORD
  5
523
330
1
100
AcDbSymbolTableRecord
100
AcDbBlockTableRecord
  2
*D26
340
0
  0
BLOCK_RECORD
  5
52F
330
1
100
AcDbSymbolTableRecord
100
AcDbBlockTableRecord
  2
*D27
340
0
  0
BLOCK_RECORD
  5
53B
330
1
100
AcDbSymbolTableRecord
100
AcDbBlockTableRecord
  2
*D28
340
0
  0
BLOCK_RECORD
  5
547
330
1
100
AcDbSymbolTableRecord
100
AcDbBlockTableRecord
  2
*D29
340
0
  0
BLOCK_RECORD
  5
553
330
1
100
AcDbSymbolTableRecord
100
AcDbBlockTableRecord
  2
*D30
340
0
  0
BLOCK_RECORD
  5
55F
330
1
100
AcDbSymbolTableRecord
100
AcDbBlockTableRecord
  2
*D31
340
0
  0
BLOCK_RECORD
  5
56B
330
1
100
AcDbSymbolTableRecord
100
AcDbBlockTableRecord
  2
*D32
340
0
  0
BLOCK_RECORD
  5
579
330
1
100
AcDbSymbolTableRecord
100
AcDbBlockTableRecord
  2
*D33
340
0
  0
BLOCK_RECORD
  5
585
330
1
100
AcDbSymbolTableRecord
100
AcDbBlockTableRecord
  2
*D34
340
0
  0
BLOCK_RECORD
  5
591
330
1
100
AcDbSymbolTableRecord
100
AcDbBlockTableRecord
  2
*D35
340
0
  0
BLOCK_RECORD
  5
59D
330
1
100
AcDbSymbolTableRecord
100
AcDbBlockTableRecord
  2
*D36
340
0
  0
BLOCK_RECORD
  5
5A9
330
1
100
AcDbSymbolTableRecord
100
AcDbBlockTableRecord
  2
*D37
340
0
  0
BLOCK_RECORD
  5
5B5
330
1
100
AcDbSymbolTableRecord
100
AcDbBlockTableRecord
  2
*D38
340
0
  0
BLOCK_RECORD
  5
5C1
330
1
100
AcDbSymbolTableRecord
100
AcDbBlockTableRecord
  2
*D39
340
0
  0
BLOCK_RECORD
  5
5CD
330
1
100
AcDbSymbolTableRecord
100
AcDbBlockTableRecord
  2
*D40
340
0
  0
BLOCK_RECORD
  5
5D9
330
1
100
AcDbSymbolTableRecord
100
AcDbBlockTableRecord
  2
*D41
340
0
  0
BLOCK_RECORD
  5
5E5
330
1
100
AcDbSymbolTableRecord
100
AcDbBlockTableRecord
  2
*D42
340
0
  0
BLOCK_RECORD
  5
5F1
330
1
100
AcDbSymbolTableRecord
100
AcDbBlockTableRecord
  2
*D43
340
0
  0
BLOCK_RECORD
  5
5FD
330
1
100
AcDbSymbolTableRecord
100
AcDbBlockTableRecord
  2
*D44
340
0
  0
BLOCK_RECORD
  5
609
330
1
100
AcDbSymbolTableRecord
100
AcDbBlockTableRecord
  2
*D45
340
0
  0
BLOCK_RECORD
  5
61E
330
1
100
AcDbSymbolTableRecord
100
AcDbBlockTableRecord
  2
*D46
340
0
  0
BLOCK_RECORD
  5
62C
330
1
100
AcDbSymbolTableRecord
100
AcDbBlockTableRecord
  2
*D47
340
0
  0
BLOCK_RECORD
  5
63A
330
1
100
AcDbSymbolTableRecord
100
AcDbBlockTableRecord
  2
*D48
340
0
  0
ENDTAB
  0
ENDSEC
  0
SECTION
  2
BLOCKS
  0
BLOCK
  5
20
330
1F
100
AcDbEntity
  8
0
100
AcDbBlockBegin
  2
*Model_Space
 70
     0
 10
0.0
 20
0.0
 30
0.0
  3
*Model_Space
  1

  0
ENDBLK
  5
21
330
1F
100
AcDbEntity
  8
0
100
AcDbBlockEnd
  0
BLOCK
  5
D4
330
D2
100
AcDbEntity
 67
     1
  8
0
100
AcDbBlockBegin
  2
*Paper_Space
 70
     0
 10
0.0
 20
0.0
 30
0.0
  3
*Paper_Space
  1

  0
ENDBLK
  5
D5
330
D2
100
AcDbEntity
 67
     1
  8
0
100
AcDbBlockEnd
  0
BLOCK
  5
D8
330
D6
100
AcDbEntity
 67
     1
  8
0
100
AcDbBlockBegin
  2
*Paper_Space0
 70
     0
 10
0.0
 20
0.0
 30
0.0
  3
*Paper_Space0
  1

  0
ENDBLK
  5
D9
330
D6
100
AcDbEntity
 67
     1
  8
0
100
AcDbBlockEnd
  0
BLOCK
  5
1F6
330
1F4
100
AcDbEntity
  8
0
 62
     3
100
AcDbBlockBegin
  2
A$C79C4041D
 70
     0
 10
0.0
 20
0.0
 30
0.0
  3
A$C79C4041D
  1

  0
LINE
  5
1F7
330
1F4
100
AcDbEntity
  8
S10_Quote
 62
     4
100
AcDbLine
 10
-20.0
 20
-50.0
 30
0.0
 11
20.0
 21
50.0
 31
0.0
1001
AcDbBlockRepETag
1070
     1
1071
        0
1005
1F7
  0
LINE
  5
1F8
330
1F4
100
AcDbEntity
  8
S10_Quote
100
AcDbLine
 10
0.0
 20
50.0
 30
0.0
 11
0.0
 21
-50.0
 31
0.0
1001
AcDbBlockRepETag
1070
     1
1071
        1
1005
1F8
  0
ENDBLK
  5
1F9
330
1F4
100
AcDbEntity
  8
0
 62
     3
100
AcDbBlockEnd
  0
BLOCK
  5
1FB
330
1FA
100
AcDbEntity
  8
0
100
AcDbBlockBegin
  2
*D2
 70
     1
 10
0.0
 20
0.0
 30
0.0
  3
*D2
  1

  0
LINE
  5
1FC
330
1FA
100
AcDbEntity
  8
S10_Quote
 62
     0
370
    -2
100
AcDbLine
 10
456.6009935654949
 20
3943.901912198982
 30
0.0
 11
456.6009935654949
 21
3950.453570505395
 31
0.0
  0
LINE
  5
1FD
330
1FA
100
AcDbEntity
  8
S10_Quote
 62
     0
370
    -2
100
AcDbLine
 10
487.6009935654949
 20
3943.901912198981
 30
0.0
 11
487.6009935654949
 21
3950.453570505395
 31
0.0
  0
LINE
  5
1FE
330
1FA
100
AcDbEntity
  8
S10_Quote
 62
     0
370
    -2
100
AcDbLine
 10
456.6159935654949
 20
3949.203570505395
 30
0.0
 11
487.585993565495
 21
3949.203570505395
 31
0.0
  0
INSERT
  5
1FF
330
1FA
100
AcDbEntity
  8
S10_Quote
 62
     0
370
    -2
100
AcDbBlockReference
  2
A$C79C4041D
 10
456.6009935654949
 20
3949.203570505395
 30
0.0
 41
0.015
 42
0.015
 43
0.015
 50
180.0
  0
INSERT
  5
200
330
1FA
100
AcDbEntity
  8
S10_Quote
 62
     0
370
    -2
100
AcDbBlockReference
  2
A$C79C4041D
 10
487.6009935654949
 20
3949.203570505395
 30
0.0
 41
0.015
 42
0.015
 43
0.015
  0
MTEXT
  5
201
330
1FA
100
AcDbEntity
  8
S10_Quote
 62
     0
100
AcDbMText
 10
472.1009935654949
 20
3951.01895512078
 30
0.0
 40
2.0
 41
0.0
 71
     5
 72
     1
  1
31
  7
wurth
 73
     1
 44
1.0
  0
POINT
  5
202
330
1FA
100
AcDbEntity
  8
Defpoints
 62
     0
100
AcDbPoint
 10
456.6009935654949
 20
3943.276912198982
 30
0.0
  0
POINT
  5
203
330
1FA
100
AcDbEntity
  8
Defpoints
 62
     0
100
AcDbPoint
 10
487.6009935654949
 20
3943.276912198982
 30
0.0
  0
POINT
  5
204
330
1FA
100
AcDbEntity
  8
Defpoints
 62
     0
100
AcDbPoint
 10
487.6009935654949
 20
3949.203570505395
 30
0.0
  0
ENDBLK
  5
205
330
1FA
100
AcDbEntity
  8
0
100
AcDbBlockEnd
  0
BLOCK
  5
207
330
206
100
AcDbEntity
  8
0
100
AcDbBlockBegin
  2
*D3
 70
     1
 10
0.0
 20
0.0
 30
0.0
  3
*D3
  1

  0
LINE
  5
208
330
206
100
AcDbEntity
  8
S10_Quote
 62
     0
370
    -2
100
AcDbLine
 10
487.6009935654949
 20
3943.901912198981
 30
0.0
 11
487.6009935654949
 21
3950.453570505395
 31
0.0
  0
LINE
  5
209
330
206
100
AcDbEntity
  8
S10_Quote
 62
     0
370
    -2
100
AcDbLine
 10
500.6009935654949
 20
3943.08715372508
 30
0.0
 11
500.6009935654949
 21
3950.453570505395
 31
0.0
  0
LINE
  5
20A
330
206
100
AcDbEntity
  8
S10_Quote
 62
     0
370
    -2
100
AcDbLine
 10
487.6159935654949
 20
3949.203570505395
 30
0.0
 11
500.585993565495
 21
3949.203570505395
 31
0.0
  0
INSERT
  5
20B
330
206
100
AcDbEntity
  8
S10_Quote
 62
     0
370
    -2
100
AcDbBlockReference
  2
A$C79C4041D
 10
487.6009935654949
 20
3949.203570505395
 30
0.0
 41
0.015
 42
0.015
 43
0.015
 50
180.0
  0
INSERT
  5
20C
330
206
100
AcDbEntity
  8
S10_Quote
 62
     0
370
    -2
100
AcDbBlockReference
  2
A$C79C4041D
 10
500.6009935654949
 20
3949.203570505395
 30
0.0
 41
0.015
 42
0.015
 43
0.015
  0
MTEXT
  5
20D
330
206
100
AcDbEntity
  8
S10_Quote
 62
     0
100
AcDbMText
 10
494.1009935654949
 20
3951.01895512078
 30
0.0
 40
2.0
 41
0.0
 71
     5
 72
     1
  1
13
  7
wurth
 73
     1
 44
1.0
  0
POINT
  5
20E
330
206
100
AcDbEntity
  8
Defpoints
 62
     0
100
AcDbPoint
 10
487.6009935654949
 20
3943.276912198982
 30
0.0
  0
POINT
  5
20F
330
206
100
AcDbEntity
  8
Defpoints
 62
     0
100
AcDbPoint
 10
500.6009935654949
 20
3942.46215372508
 30
0.0
  0
POINT
  5
210
330
206
100
AcDbEntity
  8
Defpoints
 62
     0
100
AcDbPoint
 10
500.6009935654949
 20
3949.203570505395
 30
0.0
  0
ENDBLK
  5
211
330
206
100
AcDbEntity
  8
0
100
AcDbBlockEnd
  0
BLOCK
  5
213
330
212
100
AcDbEntity
  8
0
100
AcDbBlockBegin
  2
*D4
 70
     1
 10
0.0
 20
0.0
 30
0.0
  3
*D4
  1

  0
LINE
  5
214
330
212
100
AcDbEntity
  8
S10_Quote
 62
     0
370
    -2
100
AcDbLine
 10
500.6009935654949
 20
3943.08715372508
 30
0.0
 11
500.6009935654949
 21
3950.453570505395
 31
0.0
  0
LINE
  5
215
330
212
100
AcDbEntity
  8
S10_Quote
 62
     0
370
    -2
100
AcDbLine
 10
531.6009935654949
 20
3943.08715542818
 30
0.0
 11
531.6009935654949
 21
3950.453570505395
 31
0.0
  0
LINE
  5
216
330
212
100
AcDbEntity
  8
S10_Quote
 62
     0
370
    -2
100
AcDbLine
 10
500.6159935654949
 20
3949.203570505395
 30
0.0
 11
531.5859935654949
 21
3949.203570505395
 31
0.0
  0
INSERT
  5
217
330
212
100
AcDbEntity
  8
S10_Quote
 62
     0
370
    -2
100
AcDbBlockReference
  2
A$C79C4041D
 10
500.6009935654949
 20
3949.203570505395
 30
0.0
 41
0.015
 42
0.015
 43
0.015
 50
180.0
  0
INSERT
  5
218
330
212
100
AcDbEntity
  8
S10_Quote
 62
     0
370
    -2
100
AcDbBlockReference
  2
A$C79C4041D
 10
531.6009935654949
 20
3949.203570505395
 30
0.0
 41
0.015
 42
0.015
 43
0.015
  0
MTEXT
  5
219
330
212
100
AcDbEntity
  8
S10_Quote
 62
     0
100
AcDbMText
 10
516.1009935654949
 20
3951.01895512078
 30
0.0
 40
2.0
 41
0.0
 71
     5
 72
     1
  1
31
  7
wurth
 73
     1
 44
1.0
  0
POINT
  5
21A
330
212
100
AcDbEntity
  8
Defpoints
 62
     0
100
AcDbPoint
 10
500.6009935654949
 20
3942.46215372508
 30
0.0
  0
POINT
  5
21B
330
212
100
AcDbEntity
  8
Defpoints
 62
     0
100
AcDbPoint
 10
531.6009935654949
 20
3942.462155428181
 30
0.0
  0
POINT
  5
21C
330
212
100
AcDbEntity
  8
Defpoints
 62
     0
100
AcDbPoint
 10
531.6009935654949
 20
3949.203570505395
 30
0.0
  0
ENDBLK
  5
21D
330
212
100
AcDbEntity
  8
0
100
AcDbBlockEnd
  0
BLOCK
  5
21F
330
21E
100
AcDbEntity
  8
0
100
AcDbBlockBegin
  2
*D5
 70
     1
 10
0.0
 20
0.0
 30
0.0
  3
*D5
  1

  0
LINE
  5
220
330
21E
100
AcDbEntity
  8
S10_Quote
 62
     0
370
    -2
100
AcDbLine
 10
456.6009935654949
 20
3943.08710628951
 30
0.0
 11
456.6009935654949
 21
3956.004133090728
 31
0.0
  0
LINE
  5
221
330
21E
100
AcDbEntity
  8
S10_Quote
 62
     0
370
    -2
100
AcDbLine
 10
531.6009935654949
 20
3943.08710628951
 30
0.0
 11
531.6009935654949
 21
3956.004133090728
 31
0.0
  0
LINE
  5
222
330
21E
100
AcDbEntity
  8
S10_Quote
 62
     0
370
    -2
100
AcDbLine
 10
456.6159935654949
 20
3954.754133090728
 30
0.0
 11
531.5859935654949
 21
3954.754133090728
 31
0.0
  0
INSERT
  5
223
330
21E
100
AcDbEntity
  8
S10_Quote
 62
     0
370
    -2
100
AcDbBlockReference
  2
A$C79C4041D
 10
456.6009935654949
 20
3954.754133090728
 30
0.0
 41
0.015
 42
0.015
 43
0.015
 50
180.0
  0
INSERT
  5
224
330
21E
100
AcDbEntity
  8
S10_Quote
 62
     0
370
    -2
100
AcDbBlockReference
  2
A$C79C4041D
 10
531.6009935654949
 20
3954.754133090728
 30
0.0
 41
0.015
 42
0.015
 43
0.015
  0
MTEXT
  5
225
330
21E
100
AcDbEntity
  8
S10_Quote
 62
     0
100
AcDbMText
 10
494.1009935654949
 20
3956.576510713106
 30
0.0
 40
2.0
 41
0.0
 71
     5
 72
     1
  1
75
  7
wurth
 73
     1
 44
1.0
  0
POINT
  5
226
330
21E
100
AcDbEntity
  8
Defpoints
 62
     0
100
AcDbPoint
 10
456.6009935654949
 20
3942.462106289511
 30
0.0
  0
POINT
  5
227
330
21E
100
AcDbEntity
  8
Defpoints
 62
     0
100
AcDbPoint
 10
531.6009935654949
 20
3942.462106289511
 30
0.0
  0
POINT
  5
228
330
21E
100
AcDbEntity
  8
Defpoints
 62
     0
100
AcDbPoint
 10
531.6009935654949
 20
3954.754133090728
 30
0.0
  0
ENDBLK
  5
229
330
21E
100
AcDbEntity
  8
0
100
AcDbBlockEnd
  0
BLOCK
  5
22B
330
22A
100
AcDbEntity
  8
0
100
AcDbBlockBegin
  2
*D6
 70
     1
 10
0.0
 20
0.0
 30
0.0
  3
*D6
  1

  0
LINE
  5
22C
330
22A
100
AcDbEntity
  8
S10_Quote
 62
     0
370
    -2
100
AcDbLine
 10
471.225924072969
 20
3942.812153725084
 30
0.0
 11
472.5903963389021
 21
3942.812153725084
 31
0.0
  0
LINE
  5
22D
330
22A
100
AcDbEntity
  8
S10_Quote
 62
     0
370
    -2
100
AcDbLine
 10
493.4759240729666
 20
3932.612153725081
 30
0.0
 11
470.0903963389021
 21
3932.612153725081
 31
0.0
  0
LINE
  5
22E
330
22A
100
AcDbEntity
  8
S10_Quote
 62
     0
370
    -2
100
AcDbLine
 10
471.3403963389021
 20
3942.797153725084
 30
0.0
 11
471.3403963389021
 21
3932.627153725081
 31
0.0
  0
INSERT
  5
22F
330
22A
100
AcDbEntity
  8
S10_Quote
 62
     0
370
    -2
100
AcDbBlockReference
  2
A$C79C4041D
 10
471.3403963389021
 20
3942.812153725084
 30
0.0
 41
0.015
 42
0.015
 43
0.015
 50
90.0
  0
INSERT
  5
230
330
22A
100
AcDbEntity
  8
S10_Quote
 62
     0
370
    -2
100
AcDbBlockReference
  2
A$C79C4041D
 10
471.3403963389021
 20
3932.612153725081
 30
0.0
 41
0.015
 42
0.015
 43
0.015
 50
270.0
  0
MTEXT
  5
231
330
22A
100
AcDbEntity
  8
S10_Quote
 62
     0
100
AcDbMText
 10
469.5250117235168
 20
3937.712153725082
 30
0.0
 40
2.0
 41
0.0
 71
     5
 72
     1
  1
10.2
  7
wurth
 11
0.0000000000000001
 21
1.0
 31
0.0
 73
     1
 44
1.0
  0
POINT
  5
232
330
22A
100
AcDbEntity
  8
Defpoints
 62
     0
100
AcDbPoint
 10
470.6009240729691
 20
3942.812153725084
 30
0.0
  0
POINT
  5
233
330
22A
100
AcDbEntity
  8
Defpoints
 62
     0
100
AcDbPoint
 10
494.1009240729665
 20
3932.612153725081
 30
0.0
  0
POINT
  5
234
330
22A
100
AcDbEntity
  8
Defpoints
 62
     0
100
AcDbPoint
 10
471.3403963389021
 20
3932.612153725081
 30
0.0
  0
ENDBLK
  5
235
330
22A
100
AcDbEntity
  8
0
100
AcDbBlockEnd
  0
BLOCK
  5
237
330
236
100
AcDbEntity
  8
0
100
AcDbBlockBegin
  2
*D7
 70
     1
 10
0.0
 20
0.0
 30
0.0
  3
*D7
  1

  0
LINE
  5
238
330
236
100
AcDbEntity
  8
S10_Quote
 62
     0
370
    -2
100
AcDbLine
 10
515.4759935654949
 20
3944.412153725081
 30
0.0
 11
513.821776604635
 21
3944.412153725081
 31
0.0
  0
LINE
  5
239
330
236
100
AcDbEntity
  8
S10_Quote
 62
     0
370
    -2
100
AcDbLine
 10
515.4759935654949
 20
3942.812153725083
 30
0.0
 11
513.821776604635
 21
3942.812153725083
 31
0.0
  0
LINE
  5
23A
330
236
100
AcDbEntity
  8
S10_Quote
 62
     0
370
    -2
100
AcDbLine
 10
515.071776604635
 20
3944.427153725081
 30
0.0
 11
515.071776604635
 21
3944.442153725081
 31
0.0
  0
LINE
  5
23B
330
236
100
AcDbEntity
  8
S10_Quote
 62
     0
370
    -2
100
AcDbLine
 10
515.071776604635
 20
3942.797153725083
 30
0.0
 11
515.071776604635
 21
3936.000597172209
 31
0.0
  0
LINE
  5
23C
330
236
100
AcDbEntity
  8
S10_Quote
 62
     0
370
    -2
100
AcDbLine
 10
515.071776604635
 20
3944.412153725081
 30
0.0
 11
515.071776604635
 21
3942.812153725083
 31
0.0
  0
INSERT
  5
23D
330
236
100
AcDbEntity
  8
S10_Quote
 62
     0
370
    -2
100
AcDbBlockReference
  2
A$C79C4041D
 10
515.071776604635
 20
3944.412153725081
 30
0.0
 41
0.015
 42
0.015
 43
0.015
 50
270.0
  0
INSERT
  5
23E
330
236
100
AcDbEntity
  8
S10_Quote
 62
     0
370
    -2
100
AcDbBlockReference
  2
A$C79C4041D
 10
515.071776604635
 20
3942.812153725083
 30
0.0
 41
0.015
 42
0.015
 43
0.015
 50
90.0
  0
MTEXT
  5
23F
330
236
100
AcDbEntity
  8
S10_Quote
 62
     0
100
AcDbMText
 10
513.2563919892497
 20
3938.432065703677
 30
0.0
 40
2.0
 41
0.0
 71
     5
 72
     1
  1
1.6
  7
wurth
 11
0.0000000000000001
 21
1.0
 31
0.0
 73
     1
 44
1.0
  0
POINT
  5
240
330
236
100
AcDbEntity
  8
Defpoints
 62
     0
100
AcDbPoint
 10
516.1009935654949
 20
3944.412153725081
 30
0.0
  0
POINT
  5
241
330
236
100
AcDbEntity
  8
Defpoints
 62
     0
100
AcDbPoint
 10
516.1009935654949
 20
3942.812153725083
 30
0.0
  0
POINT
  5
242
330
236
100
AcDbEntity
  8
Defpoints
 62
     0
100
AcDbPoint
 10
515.071776604635
 20
3942.812153725083
 30
0.0
  0
ENDBLK
  5
243
330
236
100
AcDbEntity
  8
0
100
AcDbBlockEnd
  0
BLOCK
  5
245
330
244
100
AcDbEntity
  8
0
100
AcDbBlockBegin
  2
*D8
 70
     1
 10
0.0
 20
0.0
 30
0.0
  3
*D8
  1

  0
LINE
  5
246
330
244
100
AcDbEntity
  8
S10_Quote
 62
     0
370
    -2
100
AcDbLine
 10
518.2259240729714
 20
3942.812153725084
 30
0.0
 11
522.7579529694515
 21
3942.812153725084
 31
0.0
  0
LINE
  5
247
330
244
100
AcDbEntity
  8
S10_Quote
 62
     0
370
    -2
100
AcDbLine
 10
516.3259240729799
 20
3834.512153725079
 30
0.0
 11
522.7579529694513
 21
3834.512153725079
 31
0.0
  0
LINE
  5
248
330
244
100
AcDbEntity
  8
S10_Quote
 62
     0
370
    -2
100
AcDbLine
 10
521.5079529694515
 20
3942.797153725084
 30
0.0
 11
521.5079529694513
 21
3834.527153725079
 31
0.0
  0
INSERT
  5
249
330
244
100
AcDbEntity
  8
S10_Quote
 62
     0
370
    -2
100
AcDbBlockReference
  2
A$C79C4041D
 10
521.5079529694515
 20
3942.812153725084
 30
0.0
 41
0.015
 42
0.015
 43
0.015
 50
90.0
  0
INSERT
  5
24A
330
244
100
AcDbEntity
  8
S10_Quote
 62
     0
370
    -2
100
AcDbBlockReference
  2
A$C79C4041D
 10
521.5079529694513
 20
3834.512153725079
 30
0.0
 41
0.015
 42
0.015
 43
0.015
 50
270.0
  0
MTEXT
  5
24B
330
244
100
AcDbEntity
  8
S10_Quote
 62
     0
100
AcDbMText
 10
519.6925683540662
 20
3888.662153725081
 30
0.0
 40
2.0
 41
0.0
 71
     5
 72
     1
  1
108.3
  7
wurth
 11
0.0000000000000001
 21
1.0
 31
0.0
 73
     1
 44
1.0
  0
POINT
  5
24C
330
244
100
AcDbEntity
  8
Defpoints
 62
     0
100
AcDbPoint
 10
517.6009240729714
 20
3942.812153725084
 30
0.0
  0
POINT
  5
24D
330
244
100
AcDbEntity
  8
Defpoints
 62
     0
100
AcDbPoint
 10
515.70092407298
 20
3834.512153725079
 30
0.0
  0
POINT
  5
24E
330
244
100
AcDbEntity
  8
Defpoints
 62
     0
100
AcDbPoint
 10
521.5079529694513
 20
3834.512153725079
 30
0.0
  0
ENDBLK
  5
24F
330
244
100
AcDbEntity
  8
0
100
AcDbBlockEnd
  0
BLOCK
  5
251
330
250
100
AcDbEntity
  8
0
100
AcDbBlockBegin
  2
*D9
 70
     1
 10
0.0
 20
0.0
 30
0.0
  3
*D9
  1

  0
LINE
  5
252
330
250
100
AcDbEntity
  8
S10_Quote
 62
     0
370
    -2
100
AcDbLine
 10
460.2009240729684
 20
3888.037153725082
 30
0.0
 11
460.2009240729684
 21
3841.018889663321
 31
0.0
  0
LINE
  5
253
330
250
100
AcDbEntity
  8
S10_Quote
 62
     0
370
    -2
100
AcDbLine
 10
528.0009240729786
 20
3888.037153725082
 30
0.0
 11
528.0009240729786
 21
3841.018889663321
 31
0.0
  0
LINE
  5
254
330
250
100
AcDbEntity
  8
S10_Quote
 62
     0
370
    -2
100
AcDbLine
 10
460.2159240729685
 20
3842.268889663321
 30
0.0
 11
527.9859240729787
 21
3842.268889663321
 31
0.0
  0
INSERT
  5
255
330
250
100
AcDbEntity
  8
S10_Quote
 62
     0
370
    -2
100
AcDbBlockReference
  2
A$C79C4041D
 10
460.2009240729684
 20
3842.268889663321
 30
0.0
 41
0.015
 42
0.015
 43
0.015
 50
180.0
  0
INSERT
  5
256
330
250
100
AcDbEntity
  8
S10_Quote
 62
     0
370
    -2
100
AcDbBlockReference
  2
A$C79C4041D
 10
528.0009240729786
 20
3842.268889663321
 30
0.0
 41
0.015
 42
0.015
 43
0.015
  0
MTEXT
  5
257
330
250
100
AcDbEntity
  8
S10_Quote
 62
     0
100
AcDbMText
 10
494.1009240729735
 20
3844.091267285699
 30
0.0
 40
2.0
 41
0.0
 71
     5
 72
     1
  1
67.8
  7
wurth
 73
     1
 44
1.0
  0
POINT
  5
258
330
250
100
AcDbEntity
  8
Defpoints
 62
     0
100
AcDbPoint
 10
460.2009240729684
 20
3888.662153725081
 30
0.0
  0
POINT
  5
259
330
250
100
AcDbEntity
  8
Defpoints
 62
     0
100
AcDbPoint
 10
528.0009240729786
 20
3888.662153725081
 30
0.0
  0
POINT
  5
25A
330
250
100
AcDbEntity
  8
Defpoints
 62
     0
100
AcDbPoint
 10
528.0009240729786
 20
3842.268889663321
 30
0.0
  0
ENDBLK
  5
25B
330
250
100
AcDbEntity
  8
0
100
AcDbBlockEnd
  0
BLOCK
  5
25D
330
25C
100
AcDbEntity
  8
0
100
AcDbBlockBegin
  2
*D10
 70
     1
 10
0.0
 20
0.0
 30
0.0
  3
*D10
  1

  0
LINE
  5
25E
330
25C
100
AcDbEntity
  8
S10_Quote
 62
     0
370
    -2
100
AcDbLine
 10
460.2009240729684
 20
3835.337153725079
 30
0.0
 11
460.2009240729684
 21
3839.199400483613
 31
0.0
  0
LINE
  5
25F
330
25C
100
AcDbEntity
  8
S10_Quote
 62
     0
370
    -2
100
AcDbLine
 10
484.8009240729656
 20
3834.937153725079
 30
0.0
 11
484.8009240729656
 21
3839.199400483613
 31
0.0
  0
LINE
  5
260
330
25C
100
AcDbEntity
  8
S10_Quote
 62
     0
370
    -2
100
AcDbLine
 10
460.2159240729685
 20
3837.949400483612
 30
0.0
 11
484.7859240729657
 21
3837.949400483612
 31
0.0
  0
INSERT
  5
261
330
25C
100
AcDbEntity
  8
S10_Quote
 62
     0
370
    -2
100
AcDbBlockReference
  2
A$C79C4041D
 10
460.2009240729684
 20
3837.949400483612
 30
0.0
 41
0.015
 42
0.015
 43
0.015
 50
180.0
  0
INSERT
  5
262
330
25C
100
AcDbEntity
  8
S10_Quote
 62
     0
370
    -2
100
AcDbBlockReference
  2
A$C79C4041D
 10
484.8009240729656
 20
3837.949400483612
 30
0.0
 41
0.015
 42
0.015
 43
0.015
  0
MTEXT
  5
263
330
25C
100
AcDbEntity
  8
S10_Quote
 62
     0
100
AcDbMText
 10
472.500924072967
 20
3839.77247740669
 30
0.0
 40
2.0
 41
0.0
 71
     5
 72
     1
  1
24.6
  7
wurth
 73
     1
 44
1.0
  0
POINT
  5
264
330
25C
100
AcDbEntity
  8
Defpoints
 62
     0
100
AcDbPoint
 10
460.2009240729684
 20
3834.712153725078
 30
0.0
  0
POINT
  5
265
330
25C
100
AcDbEntity
  8
Defpoints
 62
     0
100
AcDbPoint
 10
484.8009240729656
 20
3834.312153725079
 30
0.0
  0
POINT
  5
266
330
25C
100
AcDbEntity
  8
Defpoints
 62
     0
100
AcDbPoint
 10
484.8009240729656
 20
3837.949400483612
 30
0.0
  0
ENDBLK
  5
267
330
25C
100
AcDbEntity
  8
0
100
AcDbBlockEnd
  0
BLOCK
  5
269
330
268
100
AcDbEntity
  8
0
100
AcDbBlockBegin
  2
*D11
 70
     1
 10
0.0
 20
0.0
 30
0.0
  3
*D11
  1

  0
LINE
  5
26A
330
268
100
AcDbEntity
  8
S10_Quote
 62
     0
370
    -2
100
AcDbLine
 10
484.8009240729656
 20
3834.937153725079
 30
0.0
 11
484.8009240729656
 21
3839.199400483613
 31
0.0
  0
LINE
  5
26B
330
268
100
AcDbEntity
  8
S10_Quote
 62
     0
370
    -2
100
AcDbLine
 10
503.4009240729814
 20
3831.08715372508
 30
0.0
 11
503.4009240729814
 21
3839.199400483613
 31
0.0
  0
LINE
  5
26C
330
268
100
AcDbEntity
  8
S10_Quote
 62
     0
370
    -2
100
AcDbLine
 10
484.8159240729656
 20
3837.949400483612
 30
0.0
 11
503.3859240729815
 21
3837.949400483612
 31
0.0
  0
INSERT
  5
26D
330
268
100
AcDbEntity
  8
S10_Quote
 62
     0
370
    -2
100
AcDbBlockReference
  2
A$C79C4041D
 10
484.8009240729656
 20
3837.949400483612
 30
0.0
 41
0.015
 42
0.015
 43
0.015
 50
180.0
  0
INSERT
  5
26E
330
268
100
AcDbEntity
  8
S10_Quote
 62
     0
370
    -2
100
AcDbBlockReference
  2
A$C79C4041D
 10
503.4009240729814
 20
3837.949400483612
 30
0.0
 41
0.015
 42
0.015
 43
0.015
  0
MTEXT
  5
26F
330
268
100
AcDbEntity
  8
S10_Quote
 62
     0
100
AcDbMText
 10
494.1009240729735
 20
3839.764785098997
 30
0.0
 40
2.0
 41
0.0
 71
     5
 72
     1
  1
18.6
  7
wurth
 73
     1
 44
1.0
  0
POINT
  5
270
330
268
100
AcDbEntity
  8
Defpoints
 62
     0
100
AcDbPoint
 10
484.8009240729656
 20
3834.312153725079
 30
0.0
  0
POINT
  5
271
330
268
100
AcDbEntity
  8
Defpoints
 62
     0
100
AcDbPoint
 10
503.4009240729814
 20
3830.462153725079
 30
0.0
  0
POINT
  5
272
330
268
100
AcDbEntity
  8
Defpoints
 62
     0
100
AcDbPoint
 10
503.4009240729814
 20
3837.949400483612
 30
0.0
  0
ENDBLK
  5
273
330
268
100
AcDbEntity
  8
0
100
AcDbBlockEnd
  0
BLOCK
  5
275
330
274
100
AcDbEntity
  8
0
100
AcDbBlockBegin
  2
*D12
 70
     1
 10
0.0
 20
0.0
 30
0.0
  3
*D12
  1

  0
LINE
  5
276
330
274
100
AcDbEntity
  8
S10_Quote
 62
     0
370
    -2
100
AcDbLine
 10
503.4009240729814
 20
3831.08715372508
 30
0.0
 11
503.4009240729814
 21
3839.199400483613
 31
0.0
  0
LINE
  5
277
330
274
100
AcDbEntity
  8
S10_Quote
 62
     0
370
    -2
100
AcDbLine
 10
528.0009240729786
 20
3838.574400483613
 30
0.0
 11
528.0009240729786
 21
3839.199400483613
 31
0.0
  0
LINE
  5
278
330
274
100
AcDbEntity
  8
S10_Quote
 62
     0
370
    -2
100
AcDbLine
 10
503.4159240729815
 20
3837.949400483612
 30
0.0
 11
527.9859240729787
 21
3837.949400483612
 31
0.0
  0
INSERT
  5
279
330
274
100
AcDbEntity
  8
S10_Quote
 62
     0
370
    -2
100
AcDbBlockReference
  2
A$C79C4041D
 10
503.4009240729814
 20
3837.949400483612
 30
0.0
 41
0.015
 42
0.015
 43
0.015
 50
180.0
  0
INSERT
  5
27A
330
274
100
AcDbEntity
  8
S10_Quote
 62
     0
370
    -2
100
AcDbBlockReference
  2
A$C79C4041D
 10
528.0009240729786
 20
3837.949400483612
 30
0.0
 41
0.015
 42
0.015
 43
0.015
  0
MTEXT
  5
27B
330
274
100
AcDbEntity
  8
S10_Quote
 62
     0
100
AcDbMText
 10
515.70092407298
 20
3839.77247740669
 30
0.0
 40
2.0
 41
0.0
 71
     5
 72
     1
  1
24.6
  7
wurth
 73
     1
 44
1.0
  0
POINT
  5
27C
330
274
100
AcDbEntity
  8
Defpoints
 62
     0
100
AcDbPoint
 10
503.4009240729814
 20
3830.462153725079
 30
0.0
  0
POINT
  5
27D
330
274
100
AcDbEntity
  8
Defpoints
 62
     0
100
AcDbPoint
 10
528.0009240729786
 20
3837.949400483612
 30
0.0
  0
POINT
  5
27E
330
274
100
AcDbEntity
  8
Defpoints
 62
     0
100
AcDbPoint
 10
528.0009240729786
 20
3837.949400483612
 30
0.0
  0
ENDBLK
  5
27F
330
274
100
AcDbEntity
  8
0
100
AcDbBlockEnd
  0
BLOCK
  5
281
330
280
100
AcDbEntity
  8
0
100
AcDbBlockBegin
  2
*D13
 70
     1
 10
0.0
 20
0.0
 30
0.0
  3
*D13
  1

  0
LINE
  5
282
330
280
100
AcDbEntity
  8
S10_Quote
 62
     0
370
    -2
100
AcDbLine
 10
516.7259935654949
 20
3944.412153725081
 30
0.0
 11
550.7075751316109
 21
3944.412153725081
 31
0.0
  0
LINE
  5
283
330
280
100
AcDbEntity
  8
S10_Quote
 62
     0
370
    -2
100
AcDbLine
 10
494.7259240729684
 20
3824.412153725081
 30
0.0
 11
550.7075751316108
 21
3824.412153725081
 31
0.0
  0
LINE
  5
284
330
280
100
AcDbEntity
  8
S10_Quote
 62
     0
370
    -2
100
AcDbLine
 10
549.4575751316109
 20
3944.397153725081
 30
0.0
 11
549.4575751316108
 21
3824.427153725081
 31
0.0
  0
INSERT
  5
285
330
280
100
AcDbEntity
  8
S10_Quote
 62
     0
370
    -2
100
AcDbBlockReference
  2
A$C79C4041D
 10
549.4575751316109
 20
3944.412153725081
 30
0.0
 41
0.015
 42
0.015
 43
0.015
 50
90.0
  0
INSERT
  5
286
330
280
100
AcDbEntity
  8
S10_Quote
 62
     0
370
    -2
100
AcDbBlockReference
  2
A$C79C4041D
 10
549.4575751316108
 20
3824.412153725081
 30
0.0
 41
0.015
 42
0.015
 43
0.015
 50
270.0
  0
MTEXT
  5
287
330
280
100
AcDbEntity
  8
S10_Quote
 62
     0
100
AcDbMText
 10
547.6421905162257
 20
3884.412153725082
 30
0.0
 40
2.0
 41
0.0
 71
     5
 72
     1
  1
120
  7
wurth
 11
0.0000000000000001
 21
1.0
 31
0.0
 73
     1
 44
1.0
  0
POINT
  5
288
330
280
100
AcDbEntity
  8
Defpoints
 62
     0
100
AcDbPoint
 10
516.1009935654949
 20
3944.412153725081
 30
0.0
  0
POINT
  5
289
330
280
100
AcDbEntity
  8
Defpoints
 62
     0
100
AcDbPoint
 10
494.1009240729683
 20
3824.412153725081
 30
0.0
  0
POINT
  5
28A
330
280
100
AcDbEntity
  8
Defpoints
 62
     0
100
AcDbPoint
 10
549.4575751316108
 20
3824.412153725081
 30
0.0
  0
ENDBLK
  5
28B
330
280
100
AcDbEntity
  8
0
100
AcDbBlockEnd
  0
BLOCK
  5
28D
330
28C
100
AcDbEntity
  8
0
100
AcDbBlockBegin
  2
*D14
 70
     1
 10
0.0
 20
0.0
 30
0.0
  3
*D14
  1

  0
LINE
  5
28E
330
28C
100
AcDbEntity
  8
S10_Quote
 62
     0
370
    -2
100
AcDbLine
 10
471.4759935654949
 20
3944.412153725081
 30
0.0
 11
442.7157145583944
 21
3944.412153725081
 31
0.0
  0
LINE
  5
28F
330
28C
100
AcDbEntity
  8
S10_Quote
 62
     0
370
    -2
100
AcDbLine
 10
454.2491291537283
 20
3851.412153725082
 30
0.0
 11
442.7157145583944
 21
3851.412153725082
 31
0.0
  0
LINE
  5
290
330
28C
100
AcDbEntity
  8
S10_Quote
 62
     0
370
    -2
100
AcDbLine
 10
443.9657145583944
 20
3944.397153725081
 30
0.0
 11
443.9657145583944
 21
3851.427153725082
 31
0.0
  0
INSERT
  5
291
330
28C
100
AcDbEntity
  8
S10_Quote
 62
     0
370
    -2
100
AcDbBlockReference
  2
A$C79C4041D
 10
443.9657145583944
 20
3944.412153725081
 30
0.0
 41
0.015
 42
0.015
 43
0.015
 50
90.0
  0
INSERT
  5
292
330
28C
100
AcDbEntity
  8
S10_Quote
 62
     0
370
    -2
100
AcDbBlockReference
  2
A$C79C4041D
 10
443.9657145583944
 20
3851.412153725082
 30
0.0
 41
0.015
 42
0.015
 43
0.015
 50
270.0
  0
MTEXT
  5
293
330
28C
100
AcDbEntity
  8
S10_Quote
 62
     0
100
AcDbMText
 10
442.1426376353168
 20
3897.912153725081
 30
0.0
 40
2.0
 41
0.0
 71
     5
 72
     1
  1
93
  7
wurth
 11
0.0000000000000001
 21
1.0
 31
0.0
 73
     1
 44
1.0
  0
POINT
  5
294
330
28C
100
AcDbEntity
  8
Defpoints
 62
     0
100
AcDbPoint
 10
472.1009935654949
 20
3944.412153725081
 30
0.0
  0
POINT
  5
295
330
28C
100
AcDbEntity
  8
Defpoints
 62
     0
100
AcDbPoint
 10
454.8741291537282
 20
3851.412153725082
 30
0.0
  0
POINT
  5
296
330
28C
100
AcDbEntity
  8
Defpoints
 62
     0
100
AcDbPoint
 10
443.9657145583944
 20
3851.412153725082
 30
0.0
  0
ENDBLK
  5
297
330
28C
100
AcDbEntity
  8
0
100
AcDbBlockEnd
  0
BLOCK
  5
299
330
298
100
AcDbEntity
  8
0
100
AcDbBlockBegin
  2
*D15
 70
     1
 10
0.0
 20
0.0
 30
0.0
  3
*D15
  1

  0
LINE
  5
29A
330
298
100
AcDbEntity
  8
S10_Quote
 62
     0
370
    -2
100
AcDbLine
 10
454.2491291537281
 20
3851.412153725082
 30
0.0
 11
442.7157145583943
 21
3851.412153725082
 31
0.0
  0
LINE
  5
29B
330
298
100
AcDbEntity
  8
S10_Quote
 62
     0
370
    -2
100
AcDbLine
 10
457.5759240729698
 20
3824.412153725081
 30
0.0
 11
442.7157145583943
 21
3824.412153725081
 31
0.0
  0
LINE
  5
29C
330
298
100
AcDbEntity
  8
S10_Quote
 62
     0
370
    -2
100
AcDbLine
 10
443.9657145583943
 20
3851.397153725082
 30
0.0
 11
443.9657145583943
 21
3824.427153725081
 31
0.0
  0
INSERT
  5
29D
330
298
100
AcDbEntity
  8
S10_Quote
 62
     0
370
    -2
100
AcDbBlockReference
  2
A$C79C4041D
 10
443.9657145583943
 20
3851.412153725082
 30
0.0
 41
0.015
 42
0.015
 43
0.015
 50
90.0
  0
INSERT
  5
29E
330
298
100
AcDbEntity
  8
S10_Quote
 62
     0
370
    -2
100
AcDbBlockReference
  2
A$C79C4041D
 10
443.9657145583943
 20
3824.412153725081
 30
0.0
 41
0.015
 42
0.015
 43
0.015
 50
270.0
  0
MTEXT
  5
29F
330
298
100
AcDbEntity
  8
S10_Quote
 62
     0
100
AcDbMText
 10
442.143336936016
 20
3837.912153725081
 30
0.0
 40
2.0
 41
0.0
 71
     5
 72
     1
  1
27
  7
wurth
 11
0.0000000000000001
 21
1.0
 31
0.0
 73
     1
 44
1.0
  0
POINT
  5
2A0
330
298
100
AcDbEntity
  8
Defpoints
 62
     0
100
AcDbPoint
 10
454.8741291537282
 20
3851.412153725082
 30
0.0
  0
POINT
  5
2A1
330
298
100
AcDbEntity
  8
Defpoints
 62
     0
100
AcDbPoint
 10
458.2009240729697
 20
3824.412153725081
 30
0.0
  0
POINT
  5
2A2
330
298
100
AcDbEntity
  8
Defpoints
 62
     0
100
AcDbPoint
 10
443.9657145583943
 20
3824.412153725081
 30
0.0
  0
ENDBLK
  5
2A3
330
298
100
AcDbEntity
  8
0
100
AcDbBlockEnd
  0
BLOCK
  5
2A5
330
2A4
100
AcDbEntity
  8
0
100
AcDbBlockBegin
  2
*D16
 70
     1
 10
0.0
 20
0.0
 30
0.0
  3
*D16
  1

  0
LINE
  5
2A6
330
2A4
100
AcDbEntity
  8
S10_Quote
 62
     0
370
    -2
100
AcDbLine
 10
451.2009240729712
 20
3824.279129088592
 30
0.0
 11
451.2009240729712
 21
3817.51152346607
 31
0.0
  0
LINE
  5
2A7
330
2A4
100
AcDbEntity
  8
S10_Quote
 62
     0
370
    -2
100
AcDbLine
 10
465.2009240729685
 20
3824.787153725082
 30
0.0
 11
465.2009240729685
 21
3817.51152346607
 31
0.0
  0
LINE
  5
2A8
330
2A4
100
AcDbEntity
  8
S10_Quote
 62
     0
370
    -2
100
AcDbLine
 10
451.2159240729712
 20
3818.76152346607
 30
0.0
 11
465.1859240729685
 21
3818.76152346607
 31
0.0
  0
INSERT
  5
2A9
330
2A4
100
AcDbEntity
  8
S10_Quote
 62
     0
370
    -2
100
AcDbBlockReference
  2
A$C79C4041D
 10
451.2009240729712
 20
3818.76152346607
 30
0.0
 41
0.015
 42
0.015
 43
0.015
 50
180.0
  0
INSERT
  5
2AA
330
2A4
100
AcDbEntity
  8
S10_Quote
 62
     0
370
    -2
100
AcDbBlockReference
  2
A$C79C4041D
 10
465.2009240729685
 20
3818.76152346607
 30
0.0
 41
0.015
 42
0.015
 43
0.015
  0
MTEXT
  5
2AB
330
2A4
100
AcDbEntity
  8
S10_Quote
 62
     0
100
AcDbMText
 10
458.2009240729698
 20
3820.569215773762
 30
0.0
 40
2.0
 41
0.0
 71
     5
 72
     1
  1
14
  7
wurth
 73
     1
 44
1.0
  0
POINT
  5
2AC
330
2A4
100
AcDbEntity
  8
Defpoints
 62
     0
100
AcDbPoint
 10
451.2009240729712
 20
3824.904129088592
 30
0.0
  0
POINT
  5
2AD
330
2A4
100
AcDbEntity
  8
Defpoints
 62
     0
100
AcDbPoint
 10
465.2009240729685
 20
3825.412153725081
 30
0.0
  0
POINT
  5
2AE
330
2A4
100
AcDbEntity
  8
Defpoints
 62
     0
100
AcDbPoint
 10
465.2009240729685
 20
3818.76152346607
 30
0.0
  0
ENDBLK
  5
2AF
330
2A4
100
AcDbEntity
  8
0
100
AcDbBlockEnd
  0
BLOCK
  5
2B1
330
2B0
100
AcDbEntity
  8
0
100
AcDbBlockBegin
  2
*D17
 70
     1
 10
0.0
 20
0.0
 30
0.0
  3
*D17
  1

  0
LINE
  5
2B2
330
2B0
100
AcDbEntity
  8
S10_Quote
 62
     0
370
    -2
100
AcDbLine
 10
465.2009240729685
 20
3824.787153725082
 30
0.0
 11
465.2009240729685
 21
3817.51152346607
 31
0.0
  0
LINE
  5
2B3
330
2B0
100
AcDbEntity
  8
S10_Quote
 62
     0
370
    -2
100
AcDbLine
 10
478.2009240729685
 20
3824.787153725082
 30
0.0
 11
478.2009240729685
 21
3817.51152346607
 31
0.0
  0
LINE
  5
2B4
330
2B0
100
AcDbEntity
  8
S10_Quote
 62
     0
370
    -2
100
AcDbLine
 10
465.2159240729685
 20
3818.76152346607
 30
0.0
 11
478.1859240729685
 21
3818.76152346607
 31
0.0
  0
INSERT
  5
2B5
330
2B0
100
AcDbEntity
  8
S10_Quote
 62
     0
370
    -2
100
AcDbBlockReference
  2
A$C79C4041D
 10
465.2009240729685
 20
3818.76152346607
 30
0.0
 41
0.015
 42
0.015
 43
0.015
 50
180.0
  0
INSERT
  5
2B6
330
2B0
100
AcDbEntity
  8
S10_Quote
 62
     0
370
    -2
100
AcDbBlockReference
  2
A$C79C4041D
 10
478.2009240729685
 20
3818.76152346607
 30
0.0
 41
0.015
 42
0.015
 43
0.015
  0
MTEXT
  5
2B7
330
2B0
100
AcDbEntity
  8
S10_Quote
 62
     0
100
AcDbMText
 10
471.7009240729685
 20
3820.576908081454
 30
0.0
 40
2.0
 41
0.0
 71
     5
 72
     1
  1
13
  7
wurth
 73
     1
 44
1.0
  0
POINT
  5
2B8
330
2B0
100
AcDbEntity
  8
Defpoints
 62
     0
100
AcDbPoint
 10
465.2009240729685
 20
3825.412153725081
 30
0.0
  0
POINT
  5
2B9
330
2B0
100
AcDbEntity
  8
Defpoints
 62
     0
100
AcDbPoint
 10
478.2009240729685
 20
3825.412153725081
 30
0.0
  0
POINT
  5
2BA
330
2B0
100
AcDbEntity
  8
Defpoints
 62
     0
100
AcDbPoint
 10
478.2009240729685
 20
3818.76152346607
 30
0.0
  0
ENDBLK
  5
2BB
330
2B0
100
AcDbEntity
  8
0
100
AcDbBlockEnd
  0
BLOCK
  5
2BD
330
2BC
100
AcDbEntity
  8
0
100
AcDbBlockBegin
  2
*D18
 70
     1
 10
0.0
 20
0.0
 30
0.0
  3
*D18
  1

  0
LINE
  5
2BE
330
2BC
100
AcDbEntity
  8
S10_Quote
 62
     0
370
    -2
100
AcDbLine
 10
478.2009240729685
 20
3824.787153725082
 30
0.0
 11
478.2009240729685
 21
3817.51152346607
 31
0.0
  0
LINE
  5
2BF
330
2BC
100
AcDbEntity
  8
S10_Quote
 62
     0
370
    -2
100
AcDbLine
 10
510.0009240729685
 20
3824.787153725082
 30
0.0
 11
510.0009240729685
 21
3817.51152346607
 31
0.0
  0
LINE
  5
2C0
330
2BC
100
AcDbEntity
  8
S10_Quote
 62
     0
370
    -2
100
AcDbLine
 10
478.2159240729685
 20
3818.76152346607
 30
0.0
 11
509.9859240729684
 21
3818.76152346607
 31
0.0
  0
INSERT
  5
2C1
330
2BC
100
AcDbEntity
  8
S10_Quote
 62
     0
370
    -2
100
AcDbBlockReference
  2
A$C79C4041D
 10
478.2009240729685
 20
3818.76152346607
 30
0.0
 41
0.015
 42
0.015
 43
0.015
 50
180.0
  0
INSERT
  5
2C2
330
2BC
100
AcDbEntity
  8
S10_Quote
 62
     0
370
    -2
100
AcDbBlockReference
  2
A$C79C4041D
 10
510.0009240729685
 20
3818.76152346607
 30
0.0
 41
0.015
 42
0.015
 43
0.015
  0
MTEXT
  5
2C3
330
2BC
100
AcDbEntity
  8
S10_Quote
 62
     0
100
AcDbMText
 10
494.1009240729685
 20
3820.576908081454
 30
0.0
 40
2.0
 41
0.0
 71
     5
 72
     1
  1
31.8
  7
wurth
 73
     1
 44
1.0
  0
POINT
  5
2C4
330
2BC
100
AcDbEntity
  8
Defpoints
 62
     0
100
AcDbPoint
 10
478.2009240729685
 20
3825.412153725081
 30
0.0
  0
POINT
  5
2C5
330
2BC
100
AcDbEntity
  8
Defpoints
 62
     0
100
AcDbPoint
 10
510.0009240729685
 20
3825.412153725081
 30
0.0
  0
POINT
  5
2C6
330
2BC
100
AcDbEntity
  8
Defpoints
 62
     0
100
AcDbPoint
 10
510.0009240729685
 20
3818.76152346607
 30
0.0
  0
ENDBLK
  5
2C7
330
2BC
100
AcDbEntity
  8
0
100
AcDbBlockEnd
  0
BLOCK
  5
2C9
330
2C8
100
AcDbEntity
  8
0
100
AcDbBlockBegin
  2
*D19
 70
     1
 10
0.0
 20
0.0
 30
0.0
  3
*D19
  1

  0
LINE
  5
2CA
330
2C8
100
AcDbEntity
  8
S10_Quote
 62
     0
370
    -2
100
AcDbLine
 10
510.0009240729685
 20
3824.787153725082
 30
0.0
 11
510.0009240729685
 21
3817.51152346607
 31
0.0
  0
LINE
  5
2CB
330
2C8
100
AcDbEntity
  8
S10_Quote
 62
     0
370
    -2
100
AcDbLine
 10
523.0009240729684
 20
3824.787153725082
 30
0.0
 11
523.0009240729684
 21
3817.51152346607
 31
0.0
  0
LINE
  5
2CC
330
2C8
100
AcDbEntity
  8
S10_Quote
 62
     0
370
    -2
100
AcDbLine
 10
510.0159240729684
 20
3818.76152346607
 30
0.0
 11
522.9859240729685
 21
3818.76152346607
 31
0.0
  0
INSERT
  5
2CD
330
2C8
100
AcDbEntity
  8
S10_Quote
 62
     0
370
    -2
100
AcDbBlockReference
  2
A$C79C4041D
 10
510.0009240729685
 20
3818.76152346607
 30
0.0
 41
0.015
 42
0.015
 43
0.015
 50
180.0
  0
INSERT
  5
2CE
330
2C8
100
AcDbEntity
  8
S10_Quote
 62
     0
370
    -2
100
AcDbBlockReference
  2
A$C79C4041D
 10
523.0009240729684
 20
3818.76152346607
 30
0.0
 41
0.015
 42
0.015
 43
0.015
  0
MTEXT
  5
2CF
330
2C8
100
AcDbEntity
  8
S10_Quote
 62
     0
100
AcDbMText
 10
516.5009240729684
 20
3820.576908081454
 30
0.0
 40
2.0
 41
0.0
 71
     5
 72
     1
  1
13
  7
wurth
 73
     1
 44
1.0
  0
POINT
  5
2D0
330
2C8
100
AcDbEntity
  8
Defpoints
 62
     0
100
AcDbPoint
 10
510.0009240729685
 20
3825.412153725081
 30
0.0
  0
POINT
  5
2D1
330
2C8
100
AcDbEntity
  8
Defpoints
 62
     0
100
AcDbPoint
 10
523.0009240729684
 20
3825.412153725081
 30
0.0
  0
POINT
  5
2D2
330
2C8
100
AcDbEntity
  8
Defpoints
 62
     0
100
AcDbPoint
 10
523.0009240729684
 20
3818.76152346607
 30
0.0
  0
ENDBLK
  5
2D3
330
2C8
100
AcDbEntity
  8
0
100
AcDbBlockEnd
  0
BLOCK
  5
2D5
330
2D4
100
AcDbEntity
  8
0
100
AcDbBlockBegin
  2
*D20
 70
     1
 10
0.0
 20
0.0
 30
0.0
  3
*D20
  1

  0
LINE
  5
2D6
330
2D4
100
AcDbEntity
  8
S10_Quote
 62
     0
370
    -2
100
AcDbLine
 10
523.0009240729684
 20
3824.787153725082
 30
0.0
 11
523.0009240729684
 21
3817.51152346607
 31
0.0
  0
LINE
  5
2D7
330
2D4
100
AcDbEntity
  8
S10_Quote
 62
     0
370
    -2
100
AcDbLine
 10
537.0009240729712
 20
3824.279129088592
 30
0.0
 11
537.0009240729712
 21
3817.51152346607
 31
0.0
  0
LINE
  5
2D8
330
2D4
100
AcDbEntity
  8
S10_Quote
 62
     0
370
    -2
100
AcDbLine
 10
523.0159240729684
 20
3818.76152346607
 30
0.0
 11
536.9859240729712
 21
3818.76152346607
 31
0.0
  0
INSERT
  5
2D9
330
2D4
100
AcDbEntity
  8
S10_Quote
 62
     0
370
    -2
100
AcDbBlockReference
  2
A$C79C4041D
 10
523.0009240729684
 20
3818.76152346607
 30
0.0
 41
0.015
 42
0.015
 43
0.015
 50
180.0
  0
INSERT
  5
2DA
330
2D4
100
AcDbEntity
  8
S10_Quote
 62
     0
370
    -2
100
AcDbBlockReference
  2
A$C79C4041D
 10
537.0009240729712
 20
3818.76152346607
 30
0.0
 41
0.015
 42
0.015
 43
0.015
  0
MTEXT
  5
2DB
330
2D4
100
AcDbEntity
  8
S10_Quote
 62
     0
100
AcDbMText
 10
530.0009240729698
 20
3820.569215773762
 30
0.0
 40
2.0
 41
0.0
 71
     5
 72
     1
  1
14
  7
wurth
 73
     1
 44
1.0
  0
POINT
  5
2DC
330
2D4
100
AcDbEntity
  8
Defpoints
 62
     0
100
AcDbPoint
 10
523.0009240729684
 20
3825.412153725081
 30
0.0
  0
POINT
  5
2DD
330
2D4
100
AcDbEntity
  8
Defpoints
 62
     0
100
AcDbPoint
 10
537.0009240729712
 20
3824.904129088592
 30
0.0
  0
POINT
  5
2DE
330
2D4
100
AcDbEntity
  8
Defpoints
 62
     0
100
AcDbPoint
 10
537.0009240729712
 20
3818.76152346607
 30
0.0
  0
ENDBLK
  5
2DF
330
2D4
100
AcDbEntity
  8
0
100
AcDbBlockEnd
  0
BLOCK
  5
2E1
330
2E0
100
AcDbEntity
  8
0
100
AcDbBlockBegin
  2
*D21
 70
     1
 10
0.0
 20
0.0
 30
0.0
  3
*D21
  1

  0
LINE
  5
2E2
330
2E0
100
AcDbEntity
  8
S10_Quote
 62
     0
370
    -2
100
AcDbLine
 10
537.0009240729712
 20
3824.279129088592
 30
0.0
 11
537.0009240729712
 21
3812.519200704949
 31
0.0
  0
LINE
  5
2E3
330
2E0
100
AcDbEntity
  8
S10_Quote
 62
     0
370
    -2
100
AcDbLine
 10
451.2009240729712
 20
3824.279129088592
 30
0.0
 11
451.2009240729712
 21
3812.519200704949
 31
0.0
  0
LINE
  5
2E4
330
2E0
100
AcDbEntity
  8
S10_Quote
 62
     0
370
    -2
100
AcDbLine
 10
536.9859240729712
 20
3813.769200704948
 30
0.0
 11
451.2159240729712
 21
3813.769200704948
 31
0.0
  0
INSERT
  5
2E5
330
2E0
100
AcDbEntity
  8
S10_Quote
 62
     0
370
    -2
100
AcDbBlockReference
  2
A$C79C4041D
 10
537.0009240729712
 20
3813.769200704948
 30
0.0
 41
0.015
 42
0.015
 43
0.015
  0
INSERT
  5
2E6
330
2E0
100
AcDbEntity
  8
S10_Quote
 62
     0
370
    -2
100
AcDbBlockReference
  2
A$C79C4041D
 10
451.2009240729712
 20
3813.769200704948
 30
0.0
 41
0.015
 42
0.015
 43
0.015
 50
180.0
  0
MTEXT
  5
2E7
330
2E0
100
AcDbEntity
  8
S10_Quote
 62
     0
100
AcDbMText
 10
494.1009240729711
 20
3815.584585320333
 30
0.0
 40
2.0
 41
0.0
 71
     5
 72
     1
  1
85.8
  7
wurth
 73
     1
 44
1.0
  0
POINT
  5
2E8
330
2E0
100
AcDbEntity
  8
Defpoints
 62
     0
100
AcDbPoint
 10
537.0009240729712
 20
3824.904129088592
 30
0.0
  0
POINT
  5
2E9
330
2E0
100
AcDbEntity
  8
Defpoints
 62
     0
100
AcDbPoint
 10
451.2009240729712
 20
3824.904129088592
 30
0.0
  0
POINT
  5
2EA
330
2E0
100
AcDbEntity
  8
Defpoints
 62
     0
100
AcDbPoint
 10
451.2009240729712
 20
3813.769200704948
 30
0.0
  0
ENDBLK
  5
2EB
330
2E0
100
AcDbEntity
  8
0
100
AcDbBlockEnd
  0
BLOCK
  5
2ED
330
2EC
100
AcDbEntity
  8
0
 62
     0
100
AcDbBlockBegin
  2
*D22
 70
     1
 10
0.0
 20
0.0
 30
0.0
  3
*D22
  1

  0
LINE
  5
2EE
330
2EC
100
AcDbEntity
  8
S07_Prospetto
 62
     0
370
    -2
100
AcDbLine
 10
458.6009240729713
 20
3895.812889656369
 30
0.0
 11
458.6009240729713
 21
3887.36146677747
 31
0.0
  0
LINE
  5
2EF
330
2EC
100
AcDbEntity
  8
S07_Prospetto
 62
     0
370
    -2
100
AcDbLine
 10
460.2009240729684
 20
3895.812889656369
 30
0.0
 11
460.2009240729684
 21
3887.36146677747
 31
0.0
  0
LINE
  5
2F0
330
2EC
100
AcDbEntity
  8
S07_Prospetto
 62
     0
370
    -2
100
AcDbLine
 10
458.5859240729713
 20
3888.61146677747
 30
0.0
 11
458.5709240729713
 21
3888.61146677747
 31
0.0
  0
LINE
  5
2F1
330
2EC
100
AcDbEntity
  8
S07_Prospetto
 62
     0
370
    -2
100
AcDbLine
 10
460.2159240729685
 20
3888.61146677747
 30
0.0
 11
460.2309240729685
 21
3888.61146677747
 31
0.0
  0
LINE
  5
2F2
330
2EC
100
AcDbEntity
  8
S07_Prospetto
 62
     0
370
    -2
100
AcDbLine
 10
458.6009240729713
 20
3888.61146677747
 30
0.0
 11
460.2009240729684
 21
3888.61146677747
 31
0.0
  0
INSERT
  5
2F3
330
2EC
100
AcDbEntity
  8
S07_Prospetto
 62
     0
370
    -2
100
AcDbBlockReference
  2
A$C79C4041D
 10
458.6009240729713
 20
3888.61146677747
 30
0.0
 41
0.015
 42
0.015
 43
0.015
  0
INSERT
  5
2F4
330
2EC
100
AcDbEntity
  8
S07_Prospetto
 62
     0
370
    -2
100
AcDbBlockReference
  2
A$C79C4041D
 10
460.2009240729684
 20
3888.61146677747
 30
0.0
 41
0.015
 42
0.015
 43
0.015
 50
180.0
  0
MTEXT
  5
2F5
330
2EC
100
AcDbEntity
  8
S07_Prospetto
 62
     0
100
AcDbMText
 10
459.4009240729699
 20
3890.426851392855
 30
0.0
 40
2.0
 41
0.0
 71
     5
 72
     1
  1
1.6
  7
wurth
 73
     1
 44
1.0
  0
POINT
  5
2F6
330
2EC
100
AcDbEntity
  8
Defpoints
 62
     0
100
AcDbPoint
 10
458.6009240729713
 20
3896.43788965637
 30
0.0
  0
POINT
  5
2F7
330
2EC
100
AcDbEntity
  8
Defpoints
 62
     0
100
AcDbPoint
 10
460.2009240729684
 20
3896.43788965637
 30
0.0
  0
POINT
  5
2F8
330
2EC
100
AcDbEntity
  8
Defpoints
 62
     0
100
AcDbPoint
 10
460.2009240729684
 20
3888.61146677747
 30
0.0
  0
ENDBLK
  5
2F9
330
2EC
100
AcDbEntity
  8
0
 62
     0
100
AcDbBlockEnd
  0
BLOCK
  5
2FB
330
2FA
100
AcDbEntity
  8
0
 62
     0
100
AcDbBlockBegin
  2
*D23
 70
     1
 10
0.0
 20
0.0
 30
0.0
  3
*D23
  1

  0
LINE
  5
2FC
330
2FA
100
AcDbEntity
  8
S07_Prospetto
 62
     0
370
    -2
100
AcDbLine
 10
472.3259240729686
 20
3832.912153725082
 30
0.0
 11
496.9021149093179
 21
3832.912153725082
 31
0.0
  0
LINE
  5
2FD
330
2FA
100
AcDbEntity
  8
S07_Prospetto
 62
     0
370
    -2
100
AcDbLine
 10
473.1259240729669
 20
3834.512153725079
 30
0.0
 11
496.9021149093179
 21
3834.512153725079
 31
0.0
  0
LINE
  5
2FE
330
2FA
100
AcDbEntity
  8
S07_Prospetto
 62
     0
370
    -2
100
AcDbLine
 10
495.6521149093179
 20
3832.897153725081
 30
0.0
 11
495.6521149093179
 21
3832.882153725082
 31
0.0
  0
LINE
  5
2FF
330
2FA
100
AcDbEntity
  8
S07_Prospetto
 62
     0
370
    -2
100
AcDbLine
 10
495.6521149093179
 20
3834.527153725079
 30
0.0
 11
495.6521149093179
 21
3834.54215372508
 31
0.0
  0
LINE
  5
300
330
2FA
100
AcDbEntity
  8
S07_Prospetto
 62
     0
370
    -2
100
AcDbLine
 10
495.6521149093179
 20
3832.912153725082
 30
0.0
 11
495.6521149093179
 21
3834.512153725079
 31
0.0
  0
INSERT
  5
301
330
2FA
100
AcDbEntity
  8
S07_Prospetto
 62
     0
370
    -2
100
AcDbBlockReference
  2
A$C79C4041D
 10
495.6521149093179
 20
3832.912153725082
 30
0.0
 41
0.015
 42
0.015
 43
0.015
 50
90.0
  0
INSERT
  5
302
330
2FA
100
AcDbEntity
  8
S07_Prospetto
 62
     0
370
    -2
100
AcDbBlockReference
  2
A$C79C4041D
 10
495.6521149093179
 20
3834.512153725079
 30
0.0
 41
0.015
 42
0.015
 43
0.015
 50
270.0
  0
MTEXT
  5
303
330
2FA
100
AcDbEntity
  8
S07_Prospetto
 62
     0
100
AcDbMText
 10
493.8367302939326
 20
3833.712153725081
 30
0.0
 40
2.0
 41
0.0
 71
     5
 72
     1
  1
1.6
  7
wurth
 11
0.0000000000000001
 21
1.0
 31
0.0
 73
     1
 44
1.0
  0
POINT
  5
304
330
2FA
100
AcDbEntity
  8
Defpoints
 62
     0
100
AcDbPoint
 10
471.7009240729686
 20
3832.912153725082
 30
0.0
  0
POINT
  5
305
330
2FA
100
AcDbEntity
  8
Defpoints
 62
     0
100
AcDbPoint
 10
472.5009240729669
 20
3834.512153725079
 30
0.0
  0
POINT
  5
306
330
2FA
100
AcDbEntity
  8
Defpoints
 62
     0
100
AcDbPoint
 10
495.6521149093179
 20
3834.512153725079
 30
0.0
  0
ENDBLK
  5
307
330
2FA
100
AcDbEntity
  8
0
 62
     0
100
AcDbBlockEnd
  0
BLOCK
  5
309
330
308
100
AcDbEntity
  8
0
 62
     0
100
AcDbBlockBegin
  2
*D24
 70
     1
 10
0.0
 20
0.0
 30
0.0
  3
*D24
  1

  0
LINE
  5
30A
330
308
100
AcDbEntity
  8
S07_Prospetto
 62
     0
370
    -2
100
AcDbLine
 10
493.4759240729684
 20
3824.412153725081
 30
0.0
 11
483.7509240729658
 21
3824.412153725081
 31
0.0
  0
LINE
  5
30B
330
308
100
AcDbEntity
  8
S07_Prospetto
 62
     0
370
    -2
100
AcDbLine
 10
493.4759240729684
 20
3826.412153725082
 30
0.0
 11
483.7509240729658
 21
3826.412153725082
 31
0.0
  0
LINE
  5
30C
330
308
100
AcDbEntity
  8
S07_Prospetto
 62
     0
370
    -2
100
AcDbLine
 10
485.0009240729658
 20
3824.397153725082
 30
0.0
 11
485.0009240729658
 21
3824.382153725081
 31
0.0
  0
LINE
  5
30D
330
308
100
AcDbEntity
  8
S07_Prospetto
 62
     0
370
    -2
100
AcDbLine
 10
485.0009240729658
 20
3826.427153725081
 30
0.0
 11
485.0009240729658
 21
3826.442153725082
 31
0.0
  0
LINE
  5
30E
330
308
100
AcDbEntity
  8
S07_Prospetto
 62
     0
370
    -2
100
AcDbLine
 10
485.0009240729658
 20
3824.412153725081
 30
0.0
 11
485.0009240729658
 21
3826.412153725082
 31
0.0
  0
INSERT
  5
30F
330
308
100
AcDbEntity
  8
S07_Prospetto
 62
     0
370
    -2
100
AcDbBlockReference
  2
A$C79C4041D
 10
485.0009240729658
 20
3824.412153725081
 30
0.0
 41
0.015
 42
0.015
 43
0.015
 50
90.0
  0
INSERT
  5
310
330
308
100
AcDbEntity
  8
S07_Prospetto
 62
     0
370
    -2
100
AcDbBlockReference
  2
A$C79C4041D
 10
485.0009240729658
 20
3826.412153725082
 30
0.0
 41
0.015
 42
0.015
 43
0.015
 50
270.0
  0
MTEXT
  5
311
330
308
100
AcDbEntity
  8
S07_Prospetto
 62
     0
100
AcDbMText
 10
483.2009240729652
 20
3825.412153725081
 30
0.0
 40
2.0
 41
0.0
 71
     5
 72
     1
  1
2
  7
wurth
 11
0.0000000000000001
 21
1.0
 31
0.0
 73
     1
 44
1.0
  0
POINT
  5
312
330
308
100
AcDbEntity
  8
Defpoints
 62
     0
100
AcDbPoint
 10
494.1009240729685
 20
3824.412153725081
 30
0.0
  0
POINT
  5
313
330
308
100
AcDbEntity
  8
Defpoints
 62
     0
100
AcDbPoint
 10
494.1009240729685
 20
3826.412153725082
 30
0.0
  0
POINT
  5
314
330
308
100
AcDbEntity
  8
Defpoints
 62
     0
100
AcDbPoint
 10
485.0009240729658
 20
3826.412153725082
 30
0.0
  0
ENDBLK
  5
315
330
308
100
AcDbEntity
  8
0
 62
     0
100
AcDbBlockEnd
  0
BLOCK
  5
524
330
523
100
AcDbEntity
  8
0
100
AcDbBlockBegin
  2
*D26
 70
     1
 10
0.0
 20
0.0
 30
0.0
  3
*D26
  1

  0
LINE
  5
615
330
523
100
AcDbEntity
  8
S10_Quote
 62
     0
370
    -2
100
AcDbLine
 10
2166.234527389782
 20
867.877726632189
 30
0.0
 11
2166.234527389782
 21
856.1177982485455
 31
0.0
  0
LINE
  5
616
330
523
100
AcDbEntity
  8
S10_Quote
 62
     0
370
    -2
100
AcDbLine
 10
2080.434527389781
 20
867.877726632189
 30
0.0
 11
2080.434527389781
 21
856.1177982485455
 31
0.0
  0
LINE
  5
617
330
523
100
AcDbEntity
  8
S10_Quote
 62
     0
370
    -2
100
AcDbLine
 10
2166.219527389782
 20
857.3677982485456
 30
0.0
 11
2080.449527389781
 21
857.3677982485456
 31
0.0
  0
INSERT
  5
618
330
523
100
AcDbEntity
  8
S10_Quote
 62
     0
370
    -2
100
AcDbBlockReference
  2
A$C79C4041D
 10
2166.234527389782
 20
857.3677982485456
 30
0.0
 41
0.015
 42
0.015
 43
0.015
  0
INSERT
  5
619
330
523
100
AcDbEntity
  8
S10_Quote
 62
     0
370
    -2
100
AcDbBlockReference
  2
A$C79C4041D
 10
2080.434527389781
 20
857.3677982485456
 30
0.0
 41
0.015
 42
0.015
 43
0.015
 50
180.0
  0
MTEXT
  5
61A
330
523
100
AcDbEntity
  8
S10_Quote
 62
     0
100
AcDbMText
 10
2123.334527389782
 20
859.1831828639302
 30
0.0
 40
2.0
 41
0.0
 71
     5
 72
     1
  1
85.8
  7
wurth
 73
     1
 44
1.0
  0
POINT
  5
61B
330
523
100
AcDbEntity
  8
Defpoints
 62
     0
100
AcDbPoint
 10
2166.234527389782
 20
868.502726632189
 30
0.0
  0
POINT
  5
61C
330
523
100
AcDbEntity
  8
Defpoints
 62
     0
100
AcDbPoint
 10
2080.434527389781
 20
868.502726632189
 30
0.0
  0
POINT
  5
61D
330
523
100
AcDbEntity
  8
Defpoints
 62
     0
100
AcDbPoint
 10
2080.434527389781
 20
857.3677982485456
 30
0.0
  0
ENDBLK
  5
525
330
523
100
AcDbEntity
  8
0
100
AcDbBlockEnd
  0
BLOCK
  5
530
330
52F
100
AcDbEntity
  8
0
100
AcDbBlockBegin
  2
*D27
 70
     1
 10
0.0
 20
0.0
 30
0.0
  3
*D27
  1

  0
LINE
  5
532
330
52F
100
AcDbEntity
  8
S10_Quote
 62
     0
370
    -2
100
AcDbLine
 10
2085.834596882305
 20
987.5005097425797
 30
0.0
 11
2085.834596882305
 21
994.0521680489924
 31
0.0
  0
LINE
  5
533
330
52F
100
AcDbEntity
  8
S10_Quote
 62
     0
370
    -2
100
AcDbLine
 10
2116.834596882305
 20
987.5005097425791
 30
0.0
 11
2116.834596882305
 21
994.0521680489924
 31
0.0
  0
LINE
  5
534
330
52F
100
AcDbEntity
  8
S10_Quote
 62
     0
370
    -2
100
AcDbLine
 10
2085.849596882305
 20
992.8021680489923
 30
0.0
 11
2116.819596882305
 21
992.8021680489923
 31
0.0
  0
INSERT
  5
535
330
52F
100
AcDbEntity
  8
S10_Quote
 62
     0
370
    -2
100
AcDbBlockReference
  2
A$C79C4041D
 10
2085.834596882305
 20
992.8021680489923
 30
0.0
 41
0.015
 42
0.015
 43
0.015
 50
180.0
  0
INSERT
  5
536
330
52F
100
AcDbEntity
  8
S10_Quote
 62
     0
370
    -2
100
AcDbBlockReference
  2
A$C79C4041D
 10
2116.834596882305
 20
992.8021680489923
 30
0.0
 41
0.015
 42
0.015
 43
0.015
  0
MTEXT
  5
537
330
52F
100
AcDbEntity
  8
S10_Quote
 62
     0
100
AcDbMText
 10
2101.334596882305
 20
994.6175526643768
 30
0.0
 40
2.0
 41
0.0
 71
     5
 72
     1
  1
31
  7
wurth
 73
     1
 44
1.0
  0
POINT
  5
538
330
52F
100
AcDbEntity
  8
Defpoints
 62
     0
100
AcDbPoint
 10
2085.834596882305
 20
986.8755097425797
 30
0.0
  0
POINT
  5
539
330
52F
100
AcDbEntity
  8
Defpoints
 62
     0
100
AcDbPoint
 10
2116.834596882305
 20
986.8755097425792
 30
0.0
  0
POINT
  5
53A
330
52F
100
AcDbEntity
  8
Defpoints
 62
     0
100
AcDbPoint
 10
2116.834596882305
 20
992.8021680489923
 30
0.0
  0
ENDBLK
  5
531
330
52F
100
AcDbEntity
  8
0
100
AcDbBlockEnd
  0
BLOCK
  5
53C
330
53B
100
AcDbEntity
  8
0
100
AcDbBlockBegin
  2
*D28
 70
     1
 10
0.0
 20
0.0
 30
0.0
  3
*D28
  1

  0
LINE
  5
53E
330
53B
100
AcDbEntity
  8
S10_Quote
 62
     0
370
    -2
100
AcDbLine
 10
2116.834596882305
 20
987.5005097425791
 30
0.0
 11
2116.834596882305
 21
994.0521680489924
 31
0.0
  0
LINE
  5
53F
330
53B
100
AcDbEntity
  8
S10_Quote
 62
     0
370
    -2
100
AcDbLine
 10
2129.834596882305
 20
986.685751268677
 30
0.0
 11
2129.834596882305
 21
994.0521680489924
 31
0.0
  0
LINE
  5
540
330
53B
100
AcDbEntity
  8
S10_Quote
 62
     0
370
    -2
100
AcDbLine
 10
2116.849596882305
 20
992.8021680489923
 30
0.0
 11
2129.819596882305
 21
992.8021680489923
 31
0.0
  0
INSERT
  5
541
330
53B
100
AcDbEntity
  8
S10_Quote
 62
     0
370
    -2
100
AcDbBlockReference
  2
A$C79C4041D
 10
2116.834596882305
 20
992.8021680489923
 30
0.0
 41
0.015
 42
0.015
 43
0.015
 50
180.0
  0
INSERT
  5
542
330
53B
100
AcDbEntity
  8
S10_Quote
 62
     0
370
    -2
100
AcDbBlockReference
  2
A$C79C4041D
 10
2129.834596882305
 20
992.8021680489923
 30
0.0
 41
0.015
 42
0.015
 43
0.015
  0
MTEXT
  5
543
330
53B
100
AcDbEntity
  8
S10_Quote
 62
     0
100
AcDbMText
 10
2123.334596882305
 20
994.6175526643768
 30
0.0
 40
2.0
 41
0.0
 71
     5
 72
     1
  1
13
  7
wurth
 73
     1
 44
1.0
  0
POINT
  5
544
330
53B
100
AcDbEntity
  8
Defpoints
 62
     0
100
AcDbPoint
 10
2116.834596882305
 20
986.8755097425792
 30
0.0
  0
POINT
  5
545
330
53B
100
AcDbEntity
  8
Defpoints
 62
     0
100
AcDbPoint
 10
2129.834596882305
 20
986.0607512686769
 30
0.0
  0
POINT
  5
546
330
53B
100
AcDbEntity
  8
Defpoints
 62
     0
100
AcDbPoint
 10
2129.834596882305
 20
992.8021680489923
 30
0.0
  0
ENDBLK
  5
53D
330
53B
100
AcDbEntity
  8
0
100
AcDbBlockEnd
  0
BLOCK
  5
548
330
547
100
AcDbEntity
  8
0
100
AcDbBlockBegin
  2
*D29
 70
     1
 10
0.0
 20
0.0
 30
0.0
  3
*D29
  1

  0
LINE
  5
54A
330
547
100
AcDbEntity
  8
S10_Quote
 62
     0
370
    -2
100
AcDbLine
 10
2129.834596882305
 20
986.685751268677
 30
0.0
 11
2129.834596882305
 21
994.0521680489924
 31
0.0
  0
LINE
  5
54B
330
547
100
AcDbEntity
  8
S10_Quote
 62
     0
370
    -2
100
AcDbLine
 10
2160.834596882305
 20
986.6857529717776
 30
0.0
 11
2160.834596882305
 21
994.0521680489924
 31
0.0
  0
LINE
  5
54C
330
547
100
AcDbEntity
  8
S10_Quote
 62
     0
370
    -2
100
AcDbLine
 10
2129.849596882305
 20
992.8021680489923
 30
0.0
 11
2160.819596882305
 21
992.8021680489923
 31
0.0
  0
INSERT
  5
54D
330
547
100
AcDbEntity
  8
S10_Quote
 62
     0
370
    -2
100
AcDbBlockReference
  2
A$C79C4041D
 10
2129.834596882305
 20
992.8021680489923
 30
0.0
 41
0.015
 42
0.015
 43
0.015
 50
180.0
  0
INSERT
  5
54E
330
547
100
AcDbEntity
  8
S10_Quote
 62
     0
370
    -2
100
AcDbBlockReference
  2
A$C79C4041D
 10
2160.834596882305
 20
992.8021680489923
 30
0.0
 41
0.015
 42
0.015
 43
0.015
  0
MTEXT
  5
54F
330
547
100
AcDbEntity
  8
S10_Quote
 62
     0
100
AcDbMText
 10
2145.334596882305
 20
994.6175526643768
 30
0.0
 40
2.0
 41
0.0
 71
     5
 72
     1
  1
31
  7
wurth
 73
     1
 44
1.0
  0
POINT
  5
550
330
547
100
AcDbEntity
  8
Defpoints
 62
     0
100
AcDbPoint
 10
2129.834596882305
 20
986.0607512686769
 30
0.0
  0
POINT
  5
551
330
547
100
AcDbEntity
  8
Defpoints
 62
     0
100
AcDbPoint
 10
2160.834596882305
 20
986.0607529717777
 30
0.0
  0
POINT
  5
552
330
547
100
AcDbEntity
  8
Defpoints
 62
     0
100
AcDbPoint
 10
2160.834596882305
 20
992.8021680489923
 30
0.0
  0
ENDBLK
  5
549
330
547
100
AcDbEntity
  8
0
100
AcDbBlockEnd
  0
BLOCK
  5
554
330
553
100
AcDbEntity
  8
0
100
AcDbBlockBegin
  2
*D30
 70
     1
 10
0.0
 20
0.0
 30
0.0
  3
*D30
  1

  0
LINE
  5
665
330
553
100
AcDbEntity
  8
S10_Quote
 62
     0
370
    -2
100
AcDbLine
 10
2085.834596882305
 20
986.6857038331076
 30
0.0
 11
2085.834596882305
 21
999.602730634325
 31
0.0
  0
LINE
  5
666
330
553
100
AcDbEntity
  8
S10_Quote
 62
     0
370
    -2
100
AcDbLine
 10
2160.834596882305
 20
986.6857038331076
 30
0.0
 11
2160.834596882305
 21
999.602730634325
 31
0.0
  0
LINE
  5
667
330
553
100
AcDbEntity
  8
S10_Quote
 62
     0
370
    -2
100
AcDbLine
 10
2085.849596882305
 20
998.3527306343251
 30
0.0
 11
2160.819596882305
 21
998.3527306343251
 31
0.0
  0
INSERT
  5
668
330
553
100
AcDbEntity
  8
S10_Quote
 62
     0
370
    -2
100
AcDbBlockReference
  2
A$C79C4041D
 10
2085.834596882305
 20
998.3527306343251
 30
0.0
 41
0.015
 42
0.015
 43
0.015
 50
180.0
  0
INSERT
  5
669
330
553
100
AcDbEntity
  8
S10_Quote
 62
     0
370
    -2
100
AcDbBlockReference
  2
A$C79C4041D
 10
2160.834596882305
 20
998.3527306343251
 30
0.0
 41
0.015
 42
0.015
 43
0.015
  0
MTEXT
  5
66A
330
553
100
AcDbEntity
  8
S10_Quote
 62
     0
100
AcDbMText
 10
2123.334596882305
 20
1000.175108256702
 30
0.0
 40
2.0
 41
0.0
 71
     5
 72
     1
  1
75
  7
wurth
 73
     1
 44
1.0
  0
POINT
  5
66B
330
553
100
AcDbEntity
  8
Defpoints
 62
     0
100
AcDbPoint
 10
2085.834596882305
 20
986.0607038331076
 30
0.0
  0
POINT
  5
66C
330
553
100
AcDbEntity
  8
Defpoints
 62
     0
100
AcDbPoint
 10
2160.834596882305
 20
986.0607038331076
 30
0.0
  0
POINT
  5
66D
330
553
100
AcDbEntity
  8
Defpoints
 62
     0
100
AcDbPoint
 10
2160.834596882305
 20
998.3527306343251
 30
0.0
  0
ENDBLK
  5
555
330
553
100
AcDbEntity
  8
0
100
AcDbBlockEnd
  0
BLOCK
  5
560
330
55F
100
AcDbEntity
  8
0
100
AcDbBlockBegin
  2
*D31
 70
     1
 10
0.0
 20
0.0
 30
0.0
  3
*D31
  1

  0
LINE
  5
562
330
55F
100
AcDbEntity
  8
S10_Quote
 62
     0
370
    -2
100
AcDbLine
 10
2100.45952738978
 20
986.410751268681
 30
0.0
 11
2101.823999655712
 21
986.410751268681
 31
0.0
  0
LINE
  5
563
330
55F
100
AcDbEntity
  8
S10_Quote
 62
     0
370
    -2
100
AcDbLine
 10
2122.709527389777
 20
976.2107512686784
 30
0.0
 11
2099.323999655712
 21
976.2107512686784
 31
0.0
  0
LINE
  5
564
330
55F
100
AcDbEntity
  8
S10_Quote
 62
     0
370
    -2
100
AcDbLine
 10
2100.573999655712
 20
986.3957512686809
 30
0.0
 11
2100.573999655712
 21
976.2257512686785
 31
0.0
  0
INSERT
  5
565
330
55F
100
AcDbEntity
  8
S10_Quote
 62
     0
370
    -2
100
AcDbBlockReference
  2
A$C79C4041D
 10
2100.573999655712
 20
986.410751268681
 30
0.0
 41
0.015
 42
0.015
 43
0.015
 50
90.0
  0
INSERT
  5
566
330
55F
100
AcDbEntity
  8
S10_Quote
 62
     0
370
    -2
100
AcDbBlockReference
  2
A$C79C4041D
 10
2100.573999655712
 20
976.2107512686784
 30
0.0
 41
0.015
 42
0.015
 43
0.015
 50
270.0
  0
MTEXT
  5
567
330
55F
100
AcDbEntity
  8
S10_Quote
 62
     0
100
AcDbMText
 10
2098.758615040328
 20
981.31075126868
 30
0.0
 40
2.0
 41
0.0
 71
     5
 72
     1
  1
10.2
  7
wurth
 11
0.0000000000000001
 21
1.0
 31
0.0
 73
     1
 44
1.0
  0
POINT
  5
568
330
55F
100
AcDbEntity
  8
Defpoints
 62
     0
100
AcDbPoint
 10
2099.834527389779
 20
986.410751268681
 30
0.0
  0
POINT
  5
569
330
55F
100
AcDbEntity
  8
Defpoints
 62
     0
100
AcDbPoint
 10
2123.334527389777
 20
976.2107512686784
 30
0.0
  0
POINT
  5
56A
330
55F
100
AcDbEntity
  8
Defpoints
 62
     0
100
AcDbPoint
 10
2100.573999655712
 20
976.2107512686784
 30
0.0
  0
ENDBLK
  5
561
330
55F
100
AcDbEntity
  8
0
100
AcDbBlockEnd
  0
BLOCK
  5
56C
330
56B
100
AcDbEntity
  8
0
100
AcDbBlockBegin
  2
*D32
 70
     1
 10
0.0
 20
0.0
 30
0.0
  3
*D32
  1

  0
LINE
  5
56E
330
56B
100
AcDbEntity
  8
S10_Quote
 62
     0
370
    -2
100
AcDbLine
 10
2144.709596882305
 20
988.0107512686782
 30
0.0
 11
2143.055379921445
 21
988.0107512686782
 31
0.0
  0
LINE
  5
56F
330
56B
100
AcDbEntity
  8
S10_Quote
 62
     0
370
    -2
100
AcDbLine
 10
2144.709596882305
 20
986.4107512686805
 30
0.0
 11
2143.055379921445
 21
986.4107512686805
 31
0.0
  0
LINE
  5
570
330
56B
100
AcDbEntity
  8
S10_Quote
 62
     0
370
    -2
100
AcDbLine
 10
2144.305379921445
 20
988.0257512686782
 30
0.0
 11
2144.305379921445
 21
988.0407512686781
 31
0.0
  0
LINE
  5
571
330
56B
100
AcDbEntity
  8
S10_Quote
 62
     0
370
    -2
100
AcDbLine
 10
2144.305379921445
 20
986.3957512686805
 30
0.0
 11
2144.305379921445
 21
979.5991947158055
 31
0.0
  0
LINE
  5
572
330
56B
100
AcDbEntity
  8
S10_Quote
 62
     0
370
    -2
100
AcDbLine
 10
2144.305379921445
 20
988.0107512686782
 30
0.0
 11
2144.305379921445
 21
986.4107512686805
 31
0.0
  0
INSERT
  5
573
330
56B
100
AcDbEntity
  8
S10_Quote
 62
     0
370
    -2
100
AcDbBlockReference
  2
A$C79C4041D
 10
2144.305379921445
 20
988.0107512686782
 30
0.0
 41
0.015
 42
0.015
 43
0.015
 50
270.0
  0
INSERT
  5
574
330
56B
100
AcDbEntity
  8
S10_Quote
 62
     0
370
    -2
100
AcDbBlockReference
  2
A$C79C4041D
 10
2144.305379921445
 20
986.4107512686805
 30
0.0
 41
0.015
 42
0.015
 43
0.015
 50
90.0
  0
MTEXT
  5
575
330
56B
100
AcDbEntity
  8
S10_Quote
 62
     0
100
AcDbMText
 10
2142.48999530606
 20
982.0306632472743
 30
0.0
 40
2.0
 41
0.0
 71
     5
 72
     1
  1
1.6
  7
wurth
 11
0.0000000000000001
 21
1.0
 31
0.0
 73
     1
 44
1.0
  0
POINT
  5
576
330
56B
100
AcDbEntity
  8
Defpoints
 62
     0
100
AcDbPoint
 10
2145.334596882305
 20
988.0107512686782
 30
0.0
  0
POINT
  5
577
330
56B
100
AcDbEntity
  8
Defpoints
 62
     0
100
AcDbPoint
 10
2145.334596882305
 20
986.4107512686805
 30
0.0
  0
POINT
  5
578
330
56B
100
AcDbEntity
  8
Defpoints
 62
     0
100
AcDbPoint
 10
2144.305379921445
 20
986.4107512686805
 30
0.0
  0
ENDBLK
  5
56D
330
56B
100
AcDbEntity
  8
0
100
AcDbBlockEnd
  0
BLOCK
  5
57A
330
579
100
AcDbEntity
  8
0
100
AcDbBlockBegin
  2
*D33
 70
     1
 10
0.0
 20
0.0
 30
0.0
  3
*D33
  1

  0
LINE
  5
57C
330
579
100
AcDbEntity
  8
S10_Quote
 62
     0
370
    -2
100
AcDbLine
 10
2147.459527389782
 20
986.410751268681
 30
0.0
 11
2151.991556286262
 21
986.410751268681
 31
0.0
  0
LINE
  5
57D
330
579
100
AcDbEntity
  8
S10_Quote
 62
     0
370
    -2
100
AcDbLine
 10
2145.55952738979
 20
878.1107512686762
 30
0.0
 11
2151.991556286262
 21
878.1107512686762
 31
0.0
  0
LINE
  5
57E
330
579
100
AcDbEntity
  8
S10_Quote
 62
     0
370
    -2
100
AcDbLine
 10
2150.741556286261
 20
986.3957512686809
 30
0.0
 11
2150.741556286261
 21
878.1257512686762
 31
0.0
  0
INSERT
  5
57F
330
579
100
AcDbEntity
  8
S10_Quote
 62
     0
370
    -2
100
AcDbBlockReference
  2
A$C79C4041D
 10
2150.741556286261
 20
986.410751268681
 30
0.0
 41
0.015
 42
0.015
 43
0.015
 50
90.0
  0
INSERT
  5
580
330
579
100
AcDbEntity
  8
S10_Quote
 62
     0
370
    -2
100
AcDbBlockReference
  2
A$C79C4041D
 10
2150.741556286261
 20
878.1107512686762
 30
0.0
 41
0.015
 42
0.015
 43
0.015
 50
270.0
  0
MTEXT
  5
581
330
579
100
AcDbEntity
  8
S10_Quote
 62
     0
100
AcDbMText
 10
2148.926171670877
 20
932.260751268679
 30
0.0
 40
2.0
 41
0.0
 71
     5
 72
     1
  1
108.3
  7
wurth
 11
0.0000000000000001
 21
1.0
 31
0.0
 73
     1
 44
1.0
  0
POINT
  5
582
330
579
100
AcDbEntity
  8
Defpoints
 62
     0
100
AcDbPoint
 10
2146.834527389782
 20
986.410751268681
 30
0.0
  0
POINT
  5
583
330
579
100
AcDbEntity
  8
Defpoints
 62
     0
100
AcDbPoint
 10
2144.93452738979
 20
878.1107512686762
 30
0.0
  0
POINT
  5
584
330
579
100
AcDbEntity
  8
Defpoints
 62
     0
100
AcDbPoint
 10
2150.741556286261
 20
878.1107512686762
 30
0.0
  0
ENDBLK
  5
57B
330
579
100
AcDbEntity
  8
0
100
AcDbBlockEnd
  0
BLOCK
  5
586
330
585
100
AcDbEntity
  8
0
100
AcDbBlockBegin
  2
*D34
 70
     1
 10
0.0
 20
0.0
 30
0.0
  3
*D34
  1

  0
LINE
  5
588
330
585
100
AcDbEntity
  8
S10_Quote
 62
     0
370
    -2
100
AcDbLine
 10
2089.434527389779
 20
931.6357512686787
 30
0.0
 11
2089.434527389779
 21
884.6174872069182
 31
0.0
  0
LINE
  5
589
330
585
100
AcDbEntity
  8
S10_Quote
 62
     0
370
    -2
100
AcDbLine
 10
2157.234527389789
 20
931.6357512686787
 30
0.0
 11
2157.234527389789
 21
884.6174872069182
 31
0.0
  0
LINE
  5
58A
330
585
100
AcDbEntity
  8
S10_Quote
 62
     0
370
    -2
100
AcDbLine
 10
2089.449527389779
 20
885.8674872069181
 30
0.0
 11
2157.21952738979
 21
885.8674872069181
 31
0.0
  0
INSERT
  5
58B
330
585
100
AcDbEntity
  8
S10_Quote
 62
     0
370
    -2
100
AcDbBlockReference
  2
A$C79C4041D
 10
2089.434527389779
 20
885.8674872069181
 30
0.0
 41
0.015
 42
0.015
 43
0.015
 50
180.0
  0
INSERT
  5
58C
330
585
100
AcDbEntity
  8
S10_Quote
 62
     0
370
    -2
100
AcDbBlockReference
  2
A$C79C4041D
 10
2157.234527389789
 20
885.8674872069181
 30
0.0
 41
0.015
 42
0.015
 43
0.015
  0
MTEXT
  5
58D
330
585
100
AcDbEntity
  8
S10_Quote
 62
     0
100
AcDbMText
 10
2123.334527389784
 20
887.6898648292959
 30
0.0
 40
2.0
 41
0.0
 71
     5
 72
     1
  1
67.8
  7
wurth
 73
     1
 44
1.0
  0
POINT
  5
58E
330
585
100
AcDbEntity
  8
Defpoints
 62
     0
100
AcDbPoint
 10
2089.434527389779
 20
932.2607512686786
 30
0.0
  0
POINT
  5
58F
330
585
100
AcDbEntity
  8
Defpoints
 62
     0
100
AcDbPoint
 10
2157.234527389789
 20
932.2607512686786
 30
0.0
  0
POINT
  5
590
330
585
100
AcDbEntity
  8
Defpoints
 62
     0
100
AcDbPoint
 10
2157.234527389789
 20
885.8674872069181
 30
0.0
  0
ENDBLK
  5
587
330
585
100
AcDbEntity
  8
0
100
AcDbBlockEnd
  0
BLOCK
  5
592
330
591
100
AcDbEntity
  8
0
100
AcDbBlockBegin
  2
*D35
 70
     1
 10
0.0
 20
0.0
 30
0.0
  3
*D35
  1

  0
LINE
  5
594
330
591
100
AcDbEntity
  8
S10_Quote
 62
     0
370
    -2
100
AcDbLine
 10
2089.434527389779
 20
878.9357512686761
 30
0.0
 11
2089.434527389779
 21
882.7979980272099
 31
0.0
  0
LINE
  5
595
330
591
100
AcDbEntity
  8
S10_Quote
 62
     0
370
    -2
100
AcDbLine
 10
2114.034527389776
 20
878.535751268676
 30
0.0
 11
2114.034527389776
 21
882.7979980272099
 31
0.0
  0
LINE
  5
596
330
591
100
AcDbEntity
  8
S10_Quote
 62
     0
370
    -2
100
AcDbLine
 10
2089.449527389779
 20
881.5479980272098
 30
0.0
 11
2114.019527389777
 21
881.5479980272098
 31
0.0
  0
INSERT
  5
597
330
591
100
AcDbEntity
  8
S10_Quote
 62
     0
370
    -2
100
AcDbBlockReference
  2
A$C79C4041D
 10
2089.434527389779
 20
881.5479980272098
 30
0.0
 41
0.015
 42
0.015
 43
0.015
 50
180.0
  0
INSERT
  5
598
330
591
100
AcDbEntity
  8
S10_Quote
 62
     0
370
    -2
100
AcDbBlockReference
  2
A$C79C4041D
 10
2114.034527389776
 20
881.5479980272098
 30
0.0
 41
0.015
 42
0.015
 43
0.015
  0
MTEXT
  5
599
330
591
100
AcDbEntity
  8
S10_Quote
 62
     0
100
AcDbMText
 10
2101.734527389777
 20
883.3710749502866
 30
0.0
 40
2.0
 41
0.0
 71
     5
 72
     1
  1
24.6
  7
wurth
 73
     1
 44
1.0
  0
POINT
  5
59A
330
591
100
AcDbEntity
  8
Defpoints
 62
     0
100
AcDbPoint
 10
2089.434527389779
 20
878.3107512686761
 30
0.0
  0
POINT
  5
59B
330
591
100
AcDbEntity
  8
Defpoints
 62
     0
100
AcDbPoint
 10
2114.034527389776
 20
877.910751268676
 30
0.0
  0
POINT
  5
59C
330
591
100
AcDbEntity
  8
Defpoints
 62
     0
100
AcDbPoint
 10
2114.034527389776
 20
881.5479980272098
 30
0.0
  0
ENDBLK
  5
593
330
591
100
AcDbEntity
  8
0
100
AcDbBlockEnd
  0
BLOCK
  5
59E
330
59D
100
AcDbEntity
  8
0
100
AcDbBlockBegin
  2
*D36
 70
     1
 10
0.0
 20
0.0
 30
0.0
  3
*D36
  1

  0
LINE
  5
5A0
330
59D
100
AcDbEntity
  8
S10_Quote
 62
     0
370
    -2
100
AcDbLine
 10
2114.034527389776
 20
878.535751268676
 30
0.0
 11
2114.034527389776
 21
882.7979980272099
 31
0.0
  0
LINE
  5
5A1
330
59D
100
AcDbEntity
  8
S10_Quote
 62
     0
370
    -2
100
AcDbLine
 10
2132.634527389792
 20
874.6857512686769
 30
0.0
 11
2132.634527389792
 21
882.7979980272099
 31
0.0
  0
LINE
  5
5A2
330
59D
100
AcDbEntity
  8
S10_Quote
 62
     0
370
    -2
100
AcDbLine
 10
2114.049527389776
 20
881.5479980272098
 30
0.0
 11
2132.619527389792
 21
881.5479980272098
 31
0.0
  0
INSERT
  5
5A3
330
59D
100
AcDbEntity
  8
S10_Quote
 62
     0
370
    -2
100
AcDbBlockReference
  2
A$C79C4041D
 10
2114.034527389776
 20
881.5479980272098
 30
0.0
 41
0.015
 42
0.015
 43
0.015
 50
180.0
  0
INSERT
  5
5A4
330
59D
100
AcDbEntity
  8
S10_Quote
 62
     0
370
    -2
100
AcDbBlockReference
  2
A$C79C4041D
 10
2132.634527389792
 20
881.5479980272098
 30
0.0
 41
0.015
 42
0.015
 43
0.015
  0
MTEXT
  5
5A5
330
59D
100
AcDbEntity
  8
S10_Quote
 62
     0
100
AcDbMText
 10
2123.334527389784
 20
883.3633826425943
 30
0.0
 40
2.0
 41
0.0
 71
     5
 72
     1
  1
18.6
  7
wurth
 73
     1
 44
1.0
  0
POINT
  5
5A6
330
59D
100
AcDbEntity
  8
Defpoints
 62
     0
100
AcDbPoint
 10
2114.034527389776
 20
877.910751268676
 30
0.0
  0
POINT
  5
5A7
330
59D
100
AcDbEntity
  8
Defpoints
 62
     0
100
AcDbPoint
 10
2132.634527389792
 20
874.060751268677
 30
0.0
  0
POINT
  5
5A8
330
59D
100
AcDbEntity
  8
Defpoints
 62
     0
100
AcDbPoint
 10
2132.634527389792
 20
881.5479980272098
 30
0.0
  0
ENDBLK
  5
59F
330
59D
100
AcDbEntity
  8
0
100
AcDbBlockEnd
  0
BLOCK
  5
5AA
330
5A9
100
AcDbEntity
  8
0
100
AcDbBlockBegin
  2
*D37
 70
     1
 10
0.0
 20
0.0
 30
0.0
  3
*D37
  1

  0
LINE
  5
65C
330
5A9
100
AcDbEntity
  8
S10_Quote
 62
     0
370
    -2
100
AcDbLine
 10
2132.634527389792
 20
874.6857512686771
 30
0.0
 11
2132.634527389792
 21
882.79799802721
 31
0.0
  0
LINE
  5
65D
330
5A9
100
AcDbEntity
  8
S10_Quote
 62
     0
370
    -2
100
AcDbLine
 10
2157.234527389789
 20
882.1729980272101
 30
0.0
 11
2157.234527389789
 21
882.79799802721
 31
0.0
  0
LINE
  5
65E
330
5A9
100
AcDbEntity
  8
S10_Quote
 62
     0
370
    -2
100
AcDbLine
 10
2132.649527389792
 20
881.5479980272099
 30
0.0
 11
2157.21952738979
 21
881.5479980272099
 31
0.0
  0
INSERT
  5
65F
330
5A9
100
AcDbEntity
  8
S10_Quote
 62
     0
370
    -2
100
AcDbBlockReference
  2
A$C79C4041D
 10
2132.634527389792
 20
881.5479980272099
 30
0.0
 41
0.015
 42
0.015
 43
0.015
 50
180.0
  0
INSERT
  5
660
330
5A9
100
AcDbEntity
  8
S10_Quote
 62
     0
370
    -2
100
AcDbBlockReference
  2
A$C79C4041D
 10
2157.234527389789
 20
881.5479980272099
 30
0.0
 41
0.015
 42
0.015
 43
0.015
  0
MTEXT
  5
661
330
5A9
100
AcDbEntity
  8
S10_Quote
 62
     0
100
AcDbMText
 10
2144.934527389791
 20
883.3710749502868
 30
0.0
 40
2.0
 41
0.0
 71
     5
 72
     1
  1
24.6
  7
wurth
 73
     1
 44
1.0
  0
POINT
  5
662
330
5A9
100
AcDbEntity
  8
Defpoints
 62
     0
100
AcDbPoint
 10
2132.634527389792
 20
874.0607512686771
 30
0.0
  0
POINT
  5
663
330
5A9
100
AcDbEntity
  8
Defpoints
 62
     0
100
AcDbPoint
 10
2157.234527389789
 20
881.5479980272099
 30
0.0
  0
POINT
  5
664
330
5A9
100
AcDbEntity
  8
Defpoints
 62
     0
100
AcDbPoint
 10
2157.234527389789
 20
881.5479980272099
 30
0.0
  0
ENDBLK
  5
5AB
330
5A9
100
AcDbEntity
  8
0
100
AcDbBlockEnd
  0
BLOCK
  5
5B6
330
5B5
100
AcDbEntity
  8
0
100
AcDbBlockBegin
  2
*D38
 70
     1
 10
0.0
 20
0.0
 30
0.0
  3
*D38
  1

  0
LINE
  5
5B8
330
5B5
100
AcDbEntity
  8
S10_Quote
 62
     0
370
    -2
100
AcDbLine
 10
2145.959596882305
 20
988.0107512686782
 30
0.0
 11
2179.941178448421
 21
988.0107512686782
 31
0.0
  0
LINE
  5
5B9
330
5B5
100
AcDbEntity
  8
S10_Quote
 62
     0
370
    -2
100
AcDbLine
 10
2123.959527389779
 20
868.0107512686786
 30
0.0
 11
2179.941178448421
 21
868.0107512686786
 31
0.0
  0
LINE
  5
5BA
330
5B5
100
AcDbEntity
  8
S10_Quote
 62
     0
370
    -2
100
AcDbLine
 10
2178.691178448421
 20
987.9957512686782
 30
0.0
 11
2178.691178448421
 21
868.0257512686786
 31
0.0
  0
INSERT
  5
5BB
330
5B5
100
AcDbEntity
  8
S10_Quote
 62
     0
370
    -2
100
AcDbBlockReference
  2
A$C79C4041D
 10
2178.691178448421
 20
988.0107512686782
 30
0.0
 41
0.015
 42
0.015
 43
0.015
 50
90.0
  0
INSERT
  5
5BC
330
5B5
100
AcDbEntity
  8
S10_Quote
 62
     0
370
    -2
100
AcDbBlockReference
  2
A$C79C4041D
 10
2178.691178448421
 20
868.0107512686786
 30
0.0
 41
0.015
 42
0.015
 43
0.015
 50
270.0
  0
MTEXT
  5
5BD
330
5B5
100
AcDbEntity
  8
S10_Quote
 62
     0
100
AcDbMText
 10
2176.875793833036
 20
928.0107512686788
 30
0.0
 40
2.0
 41
0.0
 71
     5
 72
     1
  1
120
  7
wurth
 11
0.0000000000000001
 21
1.0
 31
0.0
 73
     1
 44
1.0
  0
POINT
  5
5BE
330
5B5
100
AcDbEntity
  8
Defpoints
 62
     0
100
AcDbPoint
 10
2145.334596882305
 20
988.0107512686782
 30
0.0
  0
POINT
  5
5BF
330
5B5
100
AcDbEntity
  8
Defpoints
 62
     0
100
AcDbPoint
 10
2123.334527389779
 20
868.0107512686786
 30
0.0
  0
POINT
  5
5C0
330
5B5
100
AcDbEntity
  8
Defpoints
 62
     0
100
AcDbPoint
 10
2178.691178448421
 20
868.0107512686786
 30
0.0
  0
ENDBLK
  5
5B7
330
5B5
100
AcDbEntity
  8
0
100
AcDbBlockEnd
  0
BLOCK
  5
5C2
330
5C1
100
AcDbEntity
  8
0
100
AcDbBlockBegin
  2
*D39
 70
     1
 10
0.0
 20
0.0
 30
0.0
  3
*D39
  1

  0
LINE
  5
5C4
330
5C1
100
AcDbEntity
  8
S10_Quote
 62
     0
370
    -2
100
AcDbLine
 10
2100.709596882305
 20
988.0107512686782
 30
0.0
 11
2071.949317875205
 21
988.0107512686782
 31
0.0
  0
LINE
  5
5C5
330
5C1
100
AcDbEntity
  8
S10_Quote
 62
     0
370
    -2
100
AcDbLine
 10
2083.482732470538
 20
895.0107512686791
 30
0.0
 11
2071.949317875205
 21
895.0107512686791
 31
0.0
  0
LINE
  5
5C6
330
5C1
100
AcDbEntity
  8
S10_Quote
 62
     0
370
    -2
100
AcDbLine
 10
2073.199317875205
 20
987.9957512686782
 30
0.0
 11
2073.199317875205
 21
895.0257512686791
 31
0.0
  0
INSERT
  5
5C7
330
5C1
100
AcDbEntity
  8
S10_Quote
 62
     0
370
    -2
100
AcDbBlockReference
  2
A$C79C4041D
 10
2073.199317875205
 20
988.0107512686782
 30
0.0
 41
0.015
 42
0.015
 43
0.015
 50
90.0
  0
INSERT
  5
5C8
330
5C1
100
AcDbEntity
  8
S10_Quote
 62
     0
370
    -2
100
AcDbBlockReference
  2
A$C79C4041D
 10
2073.199317875205
 20
895.0107512686791
 30
0.0
 41
0.015
 42
0.015
 43
0.015
 50
270.0
  0
MTEXT
  5
5C9
330
5C1
100
AcDbEntity
  8
S10_Quote
 62
     0
100
AcDbMText
 10
2071.376240952128
 20
941.5107512686789
 30
0.0
 40
2.0
 41
0.0
 71
     5
 72
     1
  1
93
  7
wurth
 11
0.0000000000000001
 21
1.0
 31
0.0
 73
     1
 44
1.0
  0
POINT
  5
5CA
330
5C1
100
AcDbEntity
  8
Defpoints
 62
     0
100
AcDbPoint
 10
2101.334596882305
 20
988.0107512686782
 30
0.0
  0
POINT
  5
5CB
330
5C1
100
AcDbEntity
  8
Defpoints
 62
     0
100
AcDbPoint
 10
2084.107732470538
 20
895.0107512686791
 30
0.0
  0
POINT
  5
5CC
330
5C1
100
AcDbEntity
  8
Defpoints
 62
     0
100
AcDbPoint
 10
2073.199317875205
 20
895.0107512686791
 30
0.0
  0
ENDBLK
  5
5C3
330
5C1
100
AcDbEntity
  8
0
100
AcDbBlockEnd
  0
BLOCK
  5
5CE
330
5CD
100
AcDbEntity
  8
0
100
AcDbBlockBegin
  2
*D40
 70
     1
 10
0.0
 20
0.0
 30
0.0
  3
*D40
  1

  0
LINE
  5
5D0
330
5CD
100
AcDbEntity
  8
S10_Quote
 62
     0
370
    -2
100
AcDbLine
 10
2083.482732470538
 20
895.0107512686791
 30
0.0
 11
2071.949317875205
 21
895.0107512686791
 31
0.0
  0
LINE
  5
5D1
330
5CD
100
AcDbEntity
  8
S10_Quote
 62
     0
370
    -2
100
AcDbLine
 10
2086.80952738978
 20
868.0107512686786
 30
0.0
 11
2071.949317875205
 21
868.0107512686786
 31
0.0
  0
LINE
  5
5D2
330
5CD
100
AcDbEntity
  8
S10_Quote
 62
     0
370
    -2
100
AcDbLine
 10
2073.199317875205
 20
894.9957512686792
 30
0.0
 11
2073.199317875205
 21
868.0257512686786
 31
0.0
  0
INSERT
  5
5D3
330
5CD
100
AcDbEntity
  8
S10_Quote
 62
     0
370
    -2
100
AcDbBlockReference
  2
A$C79C4041D
 10
2073.199317875205
 20
895.0107512686791
 30
0.0
 41
0.015
 42
0.015
 43
0.015
 50
90.0
  0
INSERT
  5
5D4
330
5CD
100
AcDbEntity
  8
S10_Quote
 62
     0
370
    -2
100
AcDbBlockReference
  2
A$C79C4041D
 10
2073.199317875205
 20
868.0107512686786
 30
0.0
 41
0.015
 42
0.015
 43
0.015
 50
270.0
  0
MTEXT
  5
5D5
330
5CD
100
AcDbEntity
  8
S10_Quote
 62
     0
100
AcDbMText
 10
2071.376940252827
 20
881.5107512686791
 30
0.0
 40
2.0
 41
0.0
 71
     5
 72
     1
  1
27
  7
wurth
 11
0.0000000000000001
 21
1.0
 31
0.0
 73
     1
 44
1.0
  0
POINT
  5
5D6
330
5CD
100
AcDbEntity
  8
Defpoints
 62
     0
100
AcDbPoint
 10
2084.107732470538
 20
895.0107512686791
 30
0.0
  0
POINT
  5
5D7
330
5CD
100
AcDbEntity
  8
Defpoints
 62
     0
100
AcDbPoint
 10
2087.43452738978
 20
868.0107512686786
 30
0.0
  0
POINT
  5
5D8
330
5CD
100
AcDbEntity
  8
Defpoints
 62
     0
100
AcDbPoint
 10
2073.199317875205
 20
868.0107512686786
 30
0.0
  0
ENDBLK
  5
5CF
330
5CD
100
AcDbEntity
  8
0
100
AcDbBlockEnd
  0
BLOCK
  5
5DA
330
5D9
100
AcDbEntity
  8
0
100
AcDbBlockBegin
  2
*D41
 70
     1
 10
0.0
 20
0.0
 30
0.0
  3
*D41
  1

  0
LINE
  5
5DC
330
5D9
100
AcDbEntity
  8
S10_Quote
 62
     0
370
    -2
100
AcDbLine
 10
2080.434527389781
 20
867.877726632189
 30
0.0
 11
2080.434527389781
 21
861.1101210096672
 31
0.0
  0
LINE
  5
5DD
330
5D9
100
AcDbEntity
  8
S10_Quote
 62
     0
370
    -2
100
AcDbLine
 10
2094.434527389779
 20
868.3857512686786
 30
0.0
 11
2094.434527389779
 21
861.1101210096672
 31
0.0
  0
LINE
  5
5DE
330
5D9
100
AcDbEntity
  8
S10_Quote
 62
     0
370
    -2
100
AcDbLine
 10
2080.449527389781
 20
862.3601210096671
 30
0.0
 11
2094.419527389779
 21
862.3601210096671
 31
0.0
  0
INSERT
  5
5DF
330
5D9
100
AcDbEntity
  8
S10_Quote
 62
     0
370
    -2
100
AcDbBlockReference
  2
A$C79C4041D
 10
2080.434527389781
 20
862.3601210096671
 30
0.0
 41
0.015
 42
0.015
 43
0.015
 50
180.0
  0
INSERT
  5
5E0
330
5D9
100
AcDbEntity
  8
S10_Quote
 62
     0
370
    -2
100
AcDbBlockReference
  2
A$C79C4041D
 10
2094.434527389779
 20
862.3601210096671
 30
0.0
 41
0.015
 42
0.015
 43
0.015
  0
MTEXT
  5
5E1
330
5D9
100
AcDbEntity
  8
S10_Quote
 62
     0
100
AcDbMText
 10
2087.43452738978
 20
864.1678133173595
 30
0.0
 40
2.0
 41
0.0
 71
     5
 72
     1
  1
14
  7
wurth
 73
     1
 44
1.0
  0
POINT
  5
5E2
330
5D9
100
AcDbEntity
  8
Defpoints
 62
     0
100
AcDbPoint
 10
2080.434527389781
 20
868.502726632189
 30
0.0
  0
POINT
  5
5E3
330
5D9
100
AcDbEntity
  8
Defpoints
 62
     0
100
AcDbPoint
 10
2094.434527389779
 20
869.0107512686786
 30
0.0
  0
POINT
  5
5E4
330
5D9
100
AcDbEntity
  8
Defpoints
 62
     0
100
AcDbPoint
 10
2094.434527389779
 20
862.3601210096671
 30
0.0
  0
ENDBLK
  5
5DB
330
5D9
100
AcDbEntity
  8
0
100
AcDbBlockEnd
  0
BLOCK
  5
5E6
330
5E5
100
AcDbEntity
  8
0
100
AcDbBlockBegin
  2
*D42
 70
     1
 10
0.0
 20
0.0
 30
0.0
  3
*D42
  1

  0
LINE
  5
5E8
330
5E5
100
AcDbEntity
  8
S10_Quote
 62
     0
370
    -2
100
AcDbLine
 10
2094.434527389779
 20
868.3857512686786
 30
0.0
 11
2094.434527389779
 21
861.1101210096672
 31
0.0
  0
LINE
  5
5E9
330
5E5
100
AcDbEntity
  8
S10_Quote
 62
     0
370
    -2
100
AcDbLine
 10
2107.434527389779
 20
868.3857512686786
 30
0.0
 11
2107.434527389779
 21
861.1101210096672
 31
0.0
  0
LINE
  5
5EA
330
5E5
100
AcDbEntity
  8
S10_Quote
 62
     0
370
    -2
100
AcDbLine
 10
2094.449527389778
 20
862.3601210096671
 30
0.0
 11
2107.419527389779
 21
862.3601210096671
 31
0.0
  0
INSERT
  5
5EB
330
5E5
100
AcDbEntity
  8
S10_Quote
 62
     0
370
    -2
100
AcDbBlockReference
  2
A$C79C4041D
 10
2094.434527389779
 20
862.3601210096671
 30
0.0
 41
0.015
 42
0.015
 43
0.015
 50
180.0
  0
INSERT
  5
5EC
330
5E5
100
AcDbEntity
  8
S10_Quote
 62
     0
370
    -2
100
AcDbBlockReference
  2
A$C79C4041D
 10
2107.434527389779
 20
862.3601210096671
 30
0.0
 41
0.015
 42
0.015
 43
0.015
  0
MTEXT
  5
5ED
330
5E5
100
AcDbEntity
  8
S10_Quote
 62
     0
100
AcDbMText
 10
2100.934527389779
 20
864.1755056250516
 30
0.0
 40
2.0
 41
0.0
 71
     5
 72
     1
  1
13
  7
wurth
 73
     1
 44
1.0
  0
POINT
  5
5EE
330
5E5
100
AcDbEntity
  8
Defpoints
 62
     0
100
AcDbPoint
 10
2094.434527389779
 20
869.0107512686786
 30
0.0
  0
POINT
  5
5EF
330
5E5
100
AcDbEntity
  8
Defpoints
 62
     0
100
AcDbPoint
 10
2107.434527389779
 20
869.0107512686786
 30
0.0
  0
POINT
  5
5F0
330
5E5
100
AcDbEntity
  8
Defpoints
 62
     0
100
AcDbPoint
 10
2107.434527389779
 20
862.3601210096671
 30
0.0
  0
ENDBLK
  5
5E7
330
5E5
100
AcDbEntity
  8
0
100
AcDbBlockEnd
  0
BLOCK
  5
5F2
330
5F1
100
AcDbEntity
  8
0
100
AcDbBlockBegin
  2
*D43
 70
     1
 10
0.0
 20
0.0
 30
0.0
  3
*D43
  1

  0
LINE
  5
5F4
330
5F1
100
AcDbEntity
  8
S10_Quote
 62
     0
370
    -2
100
AcDbLine
 10
2107.434527389779
 20
868.3857512686786
 30
0.0
 11
2107.434527389779
 21
861.1101210096672
 31
0.0
  0
LINE
  5
5F5
330
5F1
100
AcDbEntity
  8
S10_Quote
 62
     0
370
    -2
100
AcDbLine
 10
2139.234527389779
 20
868.3857512686786
 30
0.0
 11
2139.234527389779
 21
861.1101210096672
 31
0.0
  0
LINE
  5
5F6
330
5F1
100
AcDbEntity
  8
S10_Quote
 62
     0
370
    -2
100
AcDbLine
 10
2107.449527389779
 20
862.3601210096671
 30
0.0
 11
2139.219527389779
 21
862.3601210096671
 31
0.0
  0
INSERT
  5
5F7
330
5F1
100
AcDbEntity
  8
S10_Quote
 62
     0
370
    -2
100
AcDbBlockReference
  2
A$C79C4041D
 10
2107.434527389779
 20
862.3601210096671
 30
0.0
 41
0.015
 42
0.015
 43
0.015
 50
180.0
  0
INSERT
  5
5F8
330
5F1
100
AcDbEntity
  8
S10_Quote
 62
     0
370
    -2
100
AcDbBlockReference
  2
A$C79C4041D
 10
2139.234527389779
 20
862.3601210096671
 30
0.0
 41
0.015
 42
0.015
 43
0.015
  0
MTEXT
  5
5F9
330
5F1
100
AcDbEntity
  8
S10_Quote
 62
     0
100
AcDbMText
 10
2123.334527389779
 20
864.1755056250516
 30
0.0
 40
2.0
 41
0.0
 71
     5
 72
     1
  1
31.8
  7
wurth
 73
     1
 44
1.0
  0
POINT
  5
5FA
330
5F1
100
AcDbEntity
  8
Defpoints
 62
     0
100
AcDbPoint
 10
2107.434527389779
 20
869.0107512686786
 30
0.0
  0
POINT
  5
5FB
330
5F1
100
AcDbEntity
  8
Defpoints
 62
     0
100
AcDbPoint
 10
2139.234527389779
 20
869.0107512686786
 30
0.0
  0
POINT
  5
5FC
330
5F1
100
AcDbEntity
  8
Defpoints
 62
     0
100
AcDbPoint
 10
2139.234527389779
 20
862.3601210096671
 30
0.0
  0
ENDBLK
  5
5F3
330
5F1
100
AcDbEntity
  8
0
100
AcDbBlockEnd
  0
BLOCK
  5
5FE
330
5FD
100
AcDbEntity
  8
0
100
AcDbBlockBegin
  2
*D44
 70
     1
 10
0.0
 20
0.0
 30
0.0
  3
*D44
  1

  0
LINE
  5
600
330
5FD
100
AcDbEntity
  8
S10_Quote
 62
     0
370
    -2
100
AcDbLine
 10
2139.234527389779
 20
868.3857512686786
 30
0.0
 11
2139.234527389779
 21
861.1101210096672
 31
0.0
  0
LINE
  5
601
330
5FD
100
AcDbEntity
  8
S10_Quote
 62
     0
370
    -2
100
AcDbLine
 10
2152.234527389779
 20
868.3857512686786
 30
0.0
 11
2152.234527389779
 21
861.1101210096672
 31
0.0
  0
LINE
  5
602
330
5FD
100
AcDbEntity
  8
S10_Quote
 62
     0
370
    -2
100
AcDbLine
 10
2139.249527389779
 20
862.3601210096671
 30
0.0
 11
2152.219527389779
 21
862.3601210096671
 31
0.0
  0
INSERT
  5
603
330
5FD
100
AcDbEntity
  8
S10_Quote
 62
     0
370
    -2
100
AcDbBlockReference
  2
A$C79C4041D
 10
2139.234527389779
 20
862.3601210096671
 30
0.0
 41
0.015
 42
0.015
 43
0.015
 50
180.0
  0
INSERT
  5
604
330
5FD
100
AcDbEntity
  8
S10_Quote
 62
     0
370
    -2
100
AcDbBlockReference
  2
A$C79C4041D
 10
2152.234527389779
 20
862.3601210096671
 30
0.0
 41
0.015
 42
0.015
 43
0.015
  0
MTEXT
  5
605
330
5FD
100
AcDbEntity
  8
S10_Quote
 62
     0
100
AcDbMText
 10
2145.734527389779
 20
864.1755056250516
 30
0.0
 40
2.0
 41
0.0
 71
     5
 72
     1
  1
13
  7
wurth
 73
     1
 44
1.0
  0
POINT
  5
606
330
5FD
100
AcDbEntity
  8
Defpoints
 62
     0
100
AcDbPoint
 10
2139.234527389779
 20
869.0107512686786
 30
0.0
  0
POINT
  5
607
330
5FD
100
AcDbEntity
  8
Defpoints
 62
     0
100
AcDbPoint
 10
2152.234527389779
 20
869.0107512686786
 30
0.0
  0
POINT
  5
608
330
5FD
100
AcDbEntity
  8
Defpoints
 62
     0
100
AcDbPoint
 10
2152.234527389779
 20
862.3601210096671
 30
0.0
  0
ENDBLK
  5
5FF
330
5FD
100
AcDbEntity
  8
0
100
AcDbBlockEnd
  0
BLOCK
  5
60A
330
609
100
AcDbEntity
  8
0
100
AcDbBlockBegin
  2
*D45
 70
     1
 10
0.0
 20
0.0
 30
0.0
  3
*D45
  1

  0
LINE
  5
653
330
609
100
AcDbEntity
  8
S10_Quote
 62
     0
370
    -2
100
AcDbLine
 10
2152.234527389779
 20
868.3857512686783
 30
0.0
 11
2152.234527389779
 21
861.110121009667
 31
0.0
  0
LINE
  5
654
330
609
100
AcDbEntity
  8
S10_Quote
 62
     0
370
    -2
100
AcDbLine
 10
2166.234527389782
 20
867.8777266321887
 30
0.0
 11
2166.234527389782
 21
861.110121009667
 31
0.0
  0
LINE
  5
655
330
609
100
AcDbEntity
  8
S10_Quote
 62
     0
370
    -2
100
AcDbLine
 10
2152.249527389779
 20
862.3601210096669
 30
0.0
 11
2166.219527389782
 21
862.3601210096669
 31
0.0
  0
INSERT
  5
656
330
609
100
AcDbEntity
  8
S10_Quote
 62
     0
370
    -2
100
AcDbBlockReference
  2
A$C79C4041D
 10
2152.234527389779
 20
862.3601210096669
 30
0.0
 41
0.015
 42
0.015
 43
0.015
 50
180.0
  0
INSERT
  5
657
330
609
100
AcDbEntity
  8
S10_Quote
 62
     0
370
    -2
100
AcDbBlockReference
  2
A$C79C4041D
 10
2166.234527389782
 20
862.3601210096669
 30
0.0
 41
0.015
 42
0.015
 43
0.015
  0
MTEXT
  5
658
330
609
100
AcDbEntity
  8
S10_Quote
 62
     0
100
AcDbMText
 10
2159.234527389781
 20
864.1678133173591
 30
0.0
 40
2.0
 41
0.0
 71
     5
 72
     1
  1
14
  7
wurth
 73
     1
 44
1.0
  0
POINT
  5
659
330
609
100
AcDbEntity
  8
Defpoints
 62
     0
100
AcDbPoint
 10
2152.234527389779
 20
869.0107512686784
 30
0.0
  0
POINT
  5
65A
330
609
100
AcDbEntity
  8
Defpoints
 62
     0
100
AcDbPoint
 10
2166.234527389782
 20
868.5027266321888
 30
0.0
  0
POINT
  5
65B
330
609
100
AcDbEntity
  8
Defpoints
 62
     0
100
AcDbPoint
 10
2166.234527389782
 20
862.3601210096669
 30
0.0
  0
ENDBLK
  5
60B
330
609
100
AcDbEntity
  8
0
100
AcDbBlockEnd
  0
BLOCK
  5
61F
330
61E
100
AcDbEntity
  8
0
100
AcDbBlockBegin
  2
*D46
 70
     1
 10
0.0
 20
0.0
 30
0.0
  3
*D46
  1

  0
LINE
  5
621
330
61E
100
AcDbEntity
  8
S07_Prospetto
 62
     0
370
    -2
100
AcDbLine
 10
2087.834527389782
 20
939.4114871999668
 30
0.0
 11
2087.834527389782
 21
930.9600643210673
 31
0.0
  0
LINE
  5
622
330
61E
100
AcDbEntity
  8
S07_Prospetto
 62
     0
370
    -2
100
AcDbLine
 10
2089.434527389779
 20
939.4114871999668
 30
0.0
 11
2089.434527389779
 21
930.9600643210673
 31
0.0
  0
LINE
  5
623
330
61E
100
AcDbEntity
  8
S07_Prospetto
 62
     0
370
    -2
100
AcDbLine
 10
2087.819527389782
 20
932.2100643210674
 30
0.0
 11
2087.804527389781
 21
932.2100643210674
 31
0.0
  0
LINE
  5
624
330
61E
100
AcDbEntity
  8
S07_Prospetto
 62
     0
370
    -2
100
AcDbLine
 10
2089.449527389779
 20
932.2100643210674
 30
0.0
 11
2089.464527389779
 21
932.2100643210674
 31
0.0
  0
LINE
  5
625
330
61E
100
AcDbEntity
  8
S07_Prospetto
 62
     0
370
    -2
100
AcDbLine
 10
2087.834527389782
 20
932.2100643210674
 30
0.0
 11
2089.434527389779
 21
932.2100643210674
 31
0.0
  0
INSERT
  5
626
330
61E
100
AcDbEntity
  8
S07_Prospetto
 62
     0
370
    -2
100
AcDbBlockReference
  2
A$C79C4041D
 10
2087.834527389782
 20
932.2100643210674
 30
0.0
 41
0.015
 42
0.015
 43
0.015
  0
INSERT
  5
627
330
61E
100
AcDbEntity
  8
S07_Prospetto
 62
     0
370
    -2
100
AcDbBlockReference
  2
A$C79C4041D
 10
2089.434527389779
 20
932.2100643210674
 30
0.0
 41
0.015
 42
0.015
 43
0.015
 50
180.0
  0
MTEXT
  5
628
330
61E
100
AcDbEntity
  8
S07_Prospetto
 62
     0
100
AcDbMText
 10
2088.634527389781
 20
934.025448936452
 30
0.0
 40
2.0
 41
0.0
 71
     5
 72
     1
  1
1.6
  7
wurth
 73
     1
 44
1.0
  0
POINT
  5
629
330
61E
100
AcDbEntity
  8
Defpoints
 62
     0
100
AcDbPoint
 10
2087.834527389782
 20
940.0364871999668
 30
0.0
  0
POINT
  5
62A
330
61E
100
AcDbEntity
  8
Defpoints
 62
     0
100
AcDbPoint
 10
2089.434527389779
 20
940.0364871999668
 30
0.0
  0
POINT
  5
62B
330
61E
100
AcDbEntity
  8
Defpoints
 62
     0
100
AcDbPoint
 10
2089.434527389779
 20
932.2100643210674
 30
0.0
  0
ENDBLK
  5
620
330
61E
100
AcDbEntity
  8
0
100
AcDbBlockEnd
  0
BLOCK
  5
62D
330
62C
100
AcDbEntity
  8
0
100
AcDbBlockBegin
  2
*D47
 70
     1
 10
0.0
 20
0.0
 30
0.0
  3
*D47
  1

  0
LINE
  5
62F
330
62C
100
AcDbEntity
  8
S07_Prospetto
 62
     0
370
    -2
100
AcDbLine
 10
2101.559527389779
 20
876.5107512686791
 30
0.0
 11
2126.135718226128
 21
876.5107512686791
 31
0.0
  0
LINE
  5
630
330
62C
100
AcDbEntity
  8
S07_Prospetto
 62
     0
370
    -2
100
AcDbLine
 10
2102.359527389777
 20
878.1107512686762
 30
0.0
 11
2126.135718226128
 21
878.1107512686762
 31
0.0
  0
LINE
  5
631
330
62C
100
AcDbEntity
  8
S07_Prospetto
 62
     0
370
    -2
100
AcDbLine
 10
2124.885718226128
 20
876.4957512686791
 30
0.0
 11
2124.885718226128
 21
876.4807512686791
 31
0.0
  0
LINE
  5
632
330
62C
100
AcDbEntity
  8
S07_Prospetto
 62
     0
370
    -2
100
AcDbLine
 10
2124.885718226128
 20
878.1257512686762
 30
0.0
 11
2124.885718226128
 21
878.1407512686762
 31
0.0
  0
LINE
  5
633
330
62C
100
AcDbEntity
  8
S07_Prospetto
 62
     0
370
    -2
100
AcDbLine
 10
2124.885718226128
 20
876.5107512686791
 30
0.0
 11
2124.885718226128
 21
878.1107512686762
 31
0.0
  0
INSERT
  5
634
330
62C
100
AcDbEntity
  8
S07_Prospetto
 62
     0
370
    -2
100
AcDbBlockReference
  2
A$C79C4041D
 10
2124.885718226128
 20
876.5107512686791
 30
0.0
 41
0.015
 42
0.015
 43
0.015
 50
90.0
  0
INSERT
  5
635
330
62C
100
AcDbEntity
  8
S07_Prospetto
 62
     0
370
    -2
100
AcDbBlockReference
  2
A$C79C4041D
 10
2124.885718226128
 20
878.1107512686762
 30
0.0
 41
0.015
 42
0.015
 43
0.015
 50
270.0
  0
MTEXT
  5
636
330
62C
100
AcDbEntity
  8
S07_Prospetto
 62
     0
100
AcDbMText
 10
2123.070333610744
 20
877.3107512686779
 30
0.0
 40
2.0
 41
0.0
 71
     5
 72
     1
  1
1.6
  7
wurth
 11
0.0000000000000001
 21
1.0
 31
0.0
 73
     1
 44
1.0
  0
POINT
  5
637
330
62C
100
AcDbEntity
  8
Defpoints
 62
     0
100
AcDbPoint
 10
2100.934527389779
 20
876.5107512686791
 30
0.0
  0
POINT
  5
638
330
62C
100
AcDbEntity
  8
Defpoints
 62
     0
100
AcDbPoint
 10
2101.734527389777
 20
878.1107512686762
 30
0.0
  0
POINT
  5
639
330
62C
100
AcDbEntity
  8
Defpoints
 62
     0
100
AcDbPoint
 10
2124.885718226128
 20
878.1107512686762
 30
0.0
  0
ENDBLK
  5
62E
330
62C
100
AcDbEntity
  8
0
100
AcDbBlockEnd
  0
BLOCK
  5
63B
330
63A
100
AcDbEntity
  8
0
100
AcDbBlockBegin
  2
*D48
 70
     1
 10
0.0
 20
0.0
 30
0.0
  3
*D48
  1

  0
LINE
  5
648
330
63A
100
AcDbEntity
  8
S07_Prospetto
 62
     0
370
    -2
100
AcDbLine
 10
2122.709527389778
 20
868.0107512686786
 30
0.0
 11
2112.984527389776
 21
868.0107512686786
 31
0.0
  0
LINE
  5
649
330
63A
100
AcDbEntity
  8
S07_Prospetto
 62
     0
370
    -2
100
AcDbLine
 10
2122.709527389778
 20
870.0107512686786
 30
0.0
 11
2112.984527389776
 21
870.0107512686786
 31
0.0
  0
LINE
  5
64A
330
63A
100
AcDbEntity
  8
S07_Prospetto
 62
     0
370
    -2
100
AcDbLine
 10
2114.234527389776
 20
867.9957512686787
 30
0.0
 11
2114.234527389776
 21
867.9807512686787
 31
0.0
  0
LINE
  5
64B
330
63A
100
AcDbEntity
  8
S07_Prospetto
 62
     0
370
    -2
100
AcDbLine
 10
2114.234527389776
 20
870.0257512686786
 30
0.0
 11
2114.234527389776
 21
870.0407512686785
 31
0.0
  0
LINE
  5
64C
330
63A
100
AcDbEntity
  8
S07_Prospetto
 62
     0
370
    -2
100
AcDbLine
 10
2114.234527389776
 20
868.0107512686786
 30
0.0
 11
2114.234527389776
 21
870.0107512686786
 31
0.0
  0
INSERT
  5
64D
330
63A
100
AcDbEntity
  8
S07_Prospetto
 62
     0
370
    -2
100
AcDbBlockReference
  2
A$C79C4041D
 10
2114.234527389776
 20
868.0107512686786
 30
0.0
 41
0.015
 42
0.015
 43
0.015
 50
90.0
  0
INSERT
  5
64E
330
63A
100
AcDbEntity
  8
S07_Prospetto
 62
     0
370
    -2
100
AcDbBlockReference
  2
A$C79C4041D
 10
2114.234527389776
 20
870.0107512686786
 30
0.0
 41
0.015
 42
0.015
 43
0.015
 50
270.0
  0
MTEXT
  5
64F
330
63A
100
AcDbEntity
  8
S07_Prospetto
 62
     0
100
AcDbMText
 10
2112.434527389776
 20
869.010751268679
 30
0.0
 40
2.0
 41
0.0
 71
     5
 72
     1
  1
2
  7
wurth
 11
0.0000000000000001
 21
1.0
 31
0.0
 73
     1
 44
1.0
  0
POINT
  5
650
330
63A
100
AcDbEntity
  8
Defpoints
 62
     0
100
AcDbPoint
 10
2123.334527389779
 20
868.0107512686786
 30
0.0
  0
POINT
  5
651
330
63A
100
AcDbEntity
  8
Defpoints
 62
     0
100
AcDbPoint
 10
2123.334527389779
 20
870.0107512686786
 30
0.0
  0
POINT
  5
652
330
63A
100
AcDbEntity
  8
Defpoints
 62
     0
100
AcDbPoint
 10
2114.234527389776
 20
870.0107512686786
 30
0.0
  0
ENDBLK
  5
63C
330
63A
100
AcDbEntity
  8
0
100
AcDbBlockEnd
  0
ENDSEC
  0
SECTION
  2
ENTITIES
  0
ARC
  5
42B
330
1F
100
AcDbEntity
  8
S10_Quote
 62
     3
100
AcDbCircle
 10
2166.088117228268
 20
894.8107512686792
 30
0.0
 40
0.2000000000000179
100
AcDbArc
 50
29.99999999999729
 51
90.0
  0
ARC
  5
42C
330
1F
100
AcDbEntity
  8
S10_Quote
 62
     3
100
AcDbCircle
 10
2079.693864387857
 20
874.3107512686789
 30
0.0
 40
0.2000000000000308
100
AcDbArc
 50
90.0
 51
132.4999999999976
  0
ARC
  5
42D
330
1F
100
AcDbEntity
  8
S10_Quote
 62
     3
100
AcDbCircle
 10
2080.580937551296
 20
894.8107512686792
 30
0.0
 40
0.2000000000000185
100
AcDbArc
 50
90.0
 51
150.0000000000027
  0
ARC
  5
42E
330
1F
100
AcDbEntity
  8
S10_Quote
 62
     3
100
AcDbCircle
 10
2080.543522118183
 20
888.7107512686789
 30
0.0
 40
0.2000000000000046
100
AcDbArc
 50
219.4222685573802
 51
270.0
  0
ARC
  5
42F
330
1F
100
AcDbEntity
  8
S10_Quote
 62
     3
100
AcDbCircle
 10
2166.975190391707
 20
874.3107512686789
 30
0.0
 40
0.2000000000000313
100
AcDbArc
 50
47.50000000000242
 51
90.0
  0
ARC
  5
430
330
1F
100
AcDbEntity
  8
S10_Quote
 62
     3
100
AcDbCircle
 10
2166.12553266138
 20
888.7107512686789
 30
0.0
 40
0.2000000000000071
100
AcDbArc
 50
270.0
 51
320.5777314426198
  0
LINE
  5
431
330
1F
100
AcDbEntity
  8
S10_Quote
 62
     3
100
AcDbLine
 10
2159.034527389782
 20
895.0107512686791
 30
0.0
 11
2166.088117228268
 21
895.0107512686791
 31
0.0
  0
LINE
  5
432
330
1F
100
AcDbEntity
  8
S10_Quote
 62
     3
100
AcDbLine
 10
2079.693864387857
 20
874.5107512686791
 30
0.0
 11
2081.134527389782
 21
874.5107512686791
 31
0.0
  0
ARC
  5
433
330
1F
100
AcDbEntity
  8
S10_Quote
 62
     3
100
AcDbCircle
 10
2159.034527389782
 20
895.2107512686794
 30
0.0
 40
0.2000000000000002
100
AcDbArc
 50
180.0
 51
270.0
  0
LINE
  5
434
330
1F
100
AcDbEntity
  8
S10_Quote
 62
     3
100
AcDbLine
 10
2158.834527389782
 20
984.8622231312543
 30
0.0
 11
2158.834527389782
 21
895.2107512686794
 31
0.0
  0
ARC
  5
435
330
1F
100
AcDbEntity
  8
S10_Quote
 62
     3
100
AcDbCircle
 10
2159.1345527684
 20
984.8622231312543
 30
0.0
 40
0.3000253786179182
100
AcDbArc
 50
45.00009999999281
 51
180.0
  0
LINE
  5
436
330
1F
100
AcDbEntity
  8
S10_Quote
 62
     3
100
AcDbLine
 10
2160.322459403449
 20
984.0986198617306
 30
0.0
 11
2159.346702377877
 21
985.0743734812745
 31
0.0
  0
ARC
  5
437
330
1F
100
AcDbEntity
  8
S10_Quote
 62
     3
100
AcDbCircle
 10
2160.534593476106
 20
984.310754674877
 30
0.0
 40
0.3000034061989165
100
AcDbArc
 50
225.0000999999928
 51
0.0
  0
LINE
  5
438
102
{ACAD_REACTORS
330
4E8
102
}
330
1F
100
AcDbEntity
  8
S10_Quote
 62
     3
100
AcDbLine
 10
2160.834596882305
 20
987.8107512686783
 30
0.0
 11
2160.834596882305
 21
984.3107546748774
 31
0.0
  0
ARC
  5
439
330
1F
100
AcDbEntity
  8
S10_Quote
 62
     3
100
AcDbCircle
 10
2160.634596882305
 20
987.8107512686783
 30
0.0
 40
0.1999999999999957
100
AcDbArc
 50
0.0
 51
90.0
  0
LINE
  5
43A
102
{ACAD_REACTORS
330
4F1
330
503
102
}
330
1F
100
AcDbEntity
  8
S10_Quote
 62
     3
100
AcDbLine
 10
2130.034596882305
 20
988.0107512686782
 30
0.0
 11
2160.634596882305
 21
988.0107512686782
 31
0.0
  0
ARC
  5
43B
330
1F
100
AcDbEntity
  8
S10_Quote
 62
     3
100
AcDbCircle
 10
2130.034596882305
 20
987.8107512686783
 30
0.0
 40
0.1999999999999879
100
AcDbArc
 50
90.0
 51
180.0
  0
LINE
  5
43C
102
{ACAD_REACTORS
330
4E5
330
4E8
102
}
330
1F
100
AcDbEntity
  8
S10_Quote
 62
     3
100
AcDbLine
 10
2129.834596882305
 20
984.3107512686756
 30
0.0
 11
2129.834596882305
 21
987.8107512686783
 31
0.0
  0
ARC
  5
43D
330
1F
100
AcDbEntity
  8
S10_Quote
 62
     3
100
AcDbCircle
 10
2130.134596882305
 20
984.3107512686756
 30
0.0
 40
0.2999999999999997
100
AcDbArc
 50
180.0
 51
314.9999999999816
  0
LINE
  5
43E
330
1F
100
AcDbEntity
  8
S10_Quote
 62
     3
100
AcDbLine
 10
2131.32249022657
 20
985.0743805442284
 30
0.0
 11
2130.346728916661
 21
984.0986192343198
 31
0.0
  0
ARC
  5
43F
330
1F
100
AcDbEntity
  8
S10_Quote
 62
     3
100
AcDbCircle
 10
2131.534622260926
 20
984.8622485098726
 30
0.0
 40
0.299999999999977
100
AcDbArc
 50
69.96565321635322
 51
134.9999999999816
  0
LINE
  5
440
330
1F
100
AcDbEntity
  8
S10_Quote
 62
     3
100
AcDbLine
 10
2134.703044068611
 20
984.0262089016983
 30
0.0
 11
2131.637397279177
 21
985.1440947367828
 31
0.0
  0
ARC
  5
441
330
1F
100
AcDbEntity
  8
S10_Quote
 62
     3
100
AcDbCircle
 10
2134.634527389777
 20
983.8383114170914
 30
0.0
 40
0.2000000000000046
100
AcDbArc
 50
0.0
 51
69.965653216351
  0
LINE
  5
442
330
1F
100
AcDbEntity
  8
S10_Quote
 62
     3
100
AcDbLine
 10
2134.834527389777
 20
978.0107512686759
 30
0.0
 11
2134.834527389777
 21
983.8383114170914
 31
0.0
  0
ARC
  5
443
330
1F
100
AcDbEntity
  8
S10_Quote
 62
     3
100
AcDbCircle
 10
2134.634527389777
 20
978.0107512686759
 30
0.0
 40
0.1999999999999957
100
AcDbArc
 50
270.0
 51
0.0
  0
LINE
  5
444
330
1F
100
AcDbEntity
  8
S10_Quote
 62
     3
100
AcDbLine
 10
2112.034527389777
 20
977.8107512686757
 30
0.0
 11
2134.634527389777
 21
977.8107512686757
 31
0.0
  0
ARC
  5
445
330
1F
100
AcDbEntity
  8
S10_Quote
 62
     3
100
AcDbCircle
 10
2112.034527389777
 20
978.0107512686759
 30
0.0
 40
0.2000000000000002
100
AcDbArc
 50
180.0
 51
270.0
  0
LINE
  5
446
330
1F
100
AcDbEntity
  8
S10_Quote
 62
     3
100
AcDbLine
 10
2111.834527389777
 20
983.9005797871564
 30
0.0
 11
2111.834527389777
 21
978.0107512686759
 31
0.0
  0
ARC
  5
447
330
1F
100
AcDbEntity
  8
S10_Quote
 62
     3
100
AcDbCircle
 10
2112.034527389777
 20
983.9005797871564
 30
0.0
 40
0.1999999999999902
100
AcDbArc
 50
109.0000000000143
 51
180.0
  0
LINE
  5
448
330
1F
100
AcDbEntity
  8
S10_Quote
 62
     3
100
AcDbLine
 10
2115.036901057348
 20
985.145904082552
 30
0.0
 11
2111.969413758886
 21
984.0896835022762
 31
0.0
  0
ARC
  5
449
330
1F
100
AcDbEntity
  8
S10_Quote
 62
     3
100
AcDbCircle
 10
2115.134571503685
 20
984.8622485098722
 30
0.0
 40
0.3000000000000139
100
AcDbArc
 50
45.00000000001842
 51
109.0000000000143
  0
LINE
  5
44A
330
1F
100
AcDbEntity
  8
S10_Quote
 62
     3
100
AcDbLine
 10
2116.322464847949
 20
984.0986192343198
 30
0.0
 11
2115.346703538041
 21
985.0743805442284
 31
0.0
  0
ARC
  5
44B
330
1F
100
AcDbEntity
  8
S10_Quote
 62
     3
100
AcDbCircle
 10
2116.534596882305
 20
984.3107512686756
 30
0.0
 40
0.3000000000000014
100
AcDbArc
 50
225.0000000000184
 51
0.0
  0
LINE
  5
44C
102
{ACAD_REACTORS
330
4E2
330
4E5
102
}
330
1F
100
AcDbEntity
  8
S10_Quote
 62
     3
100
AcDbLine
 10
2116.834596882305
 20
987.8107512686783
 30
0.0
 11
2116.834596882305
 21
984.3107512686756
 31
0.0
  0
ARC
  5
44D
330
1F
100
AcDbEntity
  8
S10_Quote
 62
     3
100
AcDbCircle
 10
2116.634596882305
 20
987.8107512686783
 30
0.0
 40
0.1999999999999957
100
AcDbArc
 50
0.0
 51
90.0
  0
LINE
  5
44E
102
{ACAD_REACTORS
330
506
102
}
330
1F
100
AcDbEntity
  8
S10_Quote
 62
     3
100
AcDbLine
 10
2086.034596882305
 20
988.0107512686782
 30
0.0
 11
2116.634596882305
 21
988.0107512686782
 31
0.0
  0
ARC
  5
44F
330
1F
100
AcDbEntity
  8
S10_Quote
 62
     3
100
AcDbCircle
 10
2086.034596882305
 20
987.8107512686783
 30
0.0
 40
0.2000000000000091
100
AcDbArc
 50
90.0
 51
180.0
  0
LINE
  5
450
102
{ACAD_REACTORS
330
4E2
330
4EB
102
}
330
1F
100
AcDbEntity
  8
S10_Quote
 62
     3
100
AcDbLine
 10
2085.834596882305
 20
984.3106563975366
 30
0.0
 11
2085.834596882305
 21
987.8107512686783
 31
0.0
  0
ARC
  5
451
330
1F
100
AcDbEntity
  8
S10_Quote
 62
     3
100
AcDbCircle
 10
2086.134502011164
 20
984.3106563975366
 30
0.0
 40
0.2999051288584909
100
AcDbArc
 50
180.0
 51
314.9999000000072
  0
LINE
  5
452
330
1F
100
AcDbEntity
  8
S10_Quote
 62
     3
100
AcDbLine
 10
2087.322352401687
 20
985.0743734812745
 30
0.0
 11
2086.346566591369
 21
984.0985910770855
 31
0.0
  0
ARC
  5
453
330
1F
100
AcDbEntity
  8
S10_Quote
 62
     3
100
AcDbCircle
 10
2087.534502011163
 20
984.8622231312546
 30
0.0
 40
0.3000253786179252
100
AcDbArc
 50
0.0
 51
134.9999000000072
  0
LINE
  5
454
102
{ACAD_REACTORS
330
51C
102
}
330
1F
100
AcDbEntity
  8
S10_Quote
 62
     3
100
AcDbLine
 10
2087.834527389782
 20
895.2107512686794
 30
0.0
 11
2087.834527389782
 21
984.8622231312543
 31
0.0
  0
ARC
  5
455
330
1F
100
AcDbEntity
  8
S10_Quote
 62
     3
100
AcDbCircle
 10
2087.634527389782
 20
895.2107512686794
 30
0.0
 40
0.1999999999999913
100
AcDbArc
 50
270.0
 51
0.0
  0
LINE
  5
456
102
{ACAD_REACTORS
330
506
330
509
102
}
330
1F
100
AcDbEntity
  8
S10_Quote
 62
     3
100
AcDbLine
 10
2080.580937551296
 20
895.0107512686791
 30
0.0
 11
2087.634527389782
 21
895.0107512686791
 31
0.0
  0
LINE
  5
457
330
1F
100
AcDbEntity
  8
S10_Quote
 62
     3
100
AcDbLine
 10
2080.543522118183
 20
888.510751268679
 30
0.0
 11
2081.134527389782
 21
888.510751268679
 31
0.0
  0
ARC
  5
458
330
1F
100
AcDbEntity
  8
S10_Quote
 62
     3
100
AcDbCircle
 10
2081.134527389782
 20
888.7107512686789
 30
0.0
 40
0.1999999999999957
100
AcDbArc
 50
270.0
 51
0.0
  0
LINE
  5
459
330
1F
100
AcDbEntity
  8
S10_Quote
 62
     3
100
AcDbLine
 10
2081.334527389782
 20
892.8107512686787
 30
0.0
 11
2081.334527389782
 21
888.7107512686789
 31
0.0
  0
ARC
  5
45A
330
1F
100
AcDbEntity
  8
S10_Quote
 62
     3
100
AcDbCircle
 10
2081.534527389782
 20
892.8107512686787
 30
0.0
 40
0.199999999999978
100
AcDbArc
 50
90.0
 51
180.0
  0
LINE
  5
45B
330
1F
100
AcDbEntity
  8
S10_Quote
 62
     3
100
AcDbLine
 10
2087.634527389782
 20
893.010751268679
 30
0.0
 11
2081.534527389782
 21
893.010751268679
 31
0.0
  0
ARC
  5
45C
330
1F
100
AcDbEntity
  8
S10_Quote
 62
     3
100
AcDbCircle
 10
2087.634527389782
 20
892.8107512686787
 30
0.0
 40
0.2000000000000002
100
AcDbArc
 50
0.0
 51
90.0
  0
LINE
  5
45D
330
1F
100
AcDbEntity
  8
S10_Quote
 62
     3
100
AcDbLine
 10
2087.834527389782
 20
870.2107512686788
 30
0.0
 11
2087.834527389782
 21
892.8107512686787
 31
0.0
  0
ARC
  5
45E
330
1F
100
AcDbEntity
  8
S10_Quote
 62
     3
100
AcDbCircle
 10
2087.634527389782
 20
870.2107512686788
 30
0.0
 40
0.1999999999999957
100
AcDbArc
 50
270.0
 51
0.0
  0
LINE
  5
45F
330
1F
100
AcDbEntity
  8
S10_Quote
 62
     3
100
AcDbLine
 10
2081.534527389782
 20
870.0107512686791
 30
0.0
 11
2087.634527389782
 21
870.0107512686791
 31
0.0
  0
ARC
  5
460
330
1F
100
AcDbEntity
  8
S10_Quote
 62
     3
100
AcDbCircle
 10
2081.534527389782
 20
870.2107512686788
 30
0.0
 40
0.1999999999999957
100
AcDbArc
 50
180.0
 51
270.0
  0
LINE
  5
461
330
1F
100
AcDbEntity
  8
S10_Quote
 62
     3
100
AcDbLine
 10
2081.334527389782
 20
874.3107512686789
 30
0.0
 11
2081.334527389782
 21
870.2107512686788
 31
0.0
  0
ARC
  5
462
330
1F
100
AcDbEntity
  8
S10_Quote
 62
     3
100
AcDbCircle
 10
2081.134527389782
 20
874.3107512686789
 30
0.0
 40
0.1999999999999957
100
AcDbArc
 50
0.0
 51
90.0
  0
LINE
  5
463
102
{ACAD_REACTORS
330
50C
102
}
330
1F
100
AcDbEntity
  8
S10_Quote
 62
     3
100
AcDbLine
 10
2080.434527389781
 20
868.2107512686783
 30
0.0
 11
2080.434527389781
 21
868.7947019956995
 31
0.0
  0
ARC
  5
464
330
1F
100
AcDbEntity
  8
S10_Quote
 62
     3
100
AcDbCircle
 10
2080.634527389781
 20
868.2107512686783
 30
0.0
 40
0.1999999999999957
100
AcDbArc
 50
180.0
 51
270.0
  0
LINE
  5
465
102
{ACAD_REACTORS
330
509
102
}
330
1F
100
AcDbEntity
  8
S10_Quote
 62
     3
100
AcDbLine
 10
2094.234527389779
 20
868.0107512686786
 30
0.0
 11
2080.634527389781
 21
868.0107512686786
 31
0.0
  0
ARC
  5
466
330
1F
100
AcDbEntity
  8
S10_Quote
 62
     3
100
AcDbCircle
 10
2094.234527389779
 20
868.2107512686783
 30
0.0
 40
0.2000000000000135
100
AcDbArc
 50
270.0
 51
0.0
  0
LINE
  5
467
102
{ACAD_REACTORS
330
50C
330
50F
102
}
330
1F
100
AcDbEntity
  8
S10_Quote
 62
     3
100
AcDbLine
 10
2094.434527389779
 20
869.8107512686787
 30
0.0
 11
2094.434527389779
 21
868.2107512686783
 31
0.0
  0
ARC
  5
468
330
1F
100
AcDbEntity
  8
S10_Quote
 62
     3
100
AcDbCircle
 10
2094.234527389779
 20
869.8107512686787
 30
0.0
 40
0.1999999999999957
100
AcDbArc
 50
0.0
 51
90.0
  0
LINE
  5
469
330
1F
100
AcDbEntity
  8
S10_Quote
 62
     3
100
AcDbLine
 10
2089.634527389779
 20
870.0107512686786
 30
0.0
 11
2094.234527389779
 21
870.0107512686786
 31
0.0
  0
ARC
  5
46A
330
1F
100
AcDbEntity
  8
S10_Quote
 62
     3
100
AcDbCircle
 10
2089.634527389779
 20
870.2107512686785
 30
0.0
 40
0.1999999999999957
100
AcDbArc
 50
180.0
 51
270.0
  0
LINE
  5
46B
330
1F
100
AcDbEntity
  8
S10_Quote
 62
     3
100
AcDbLine
 10
2089.434527389779
 20
876.3107512686788
 30
0.0
 11
2089.434527389779
 21
870.2107512686785
 31
0.0
  0
ARC
  5
46C
330
1F
100
AcDbEntity
  8
S10_Quote
 62
     3
100
AcDbCircle
 10
2089.634527389779
 20
876.3107512686788
 30
0.0
 40
0.2000000000000135
100
AcDbArc
 50
90.0
 51
180.0
  0
LINE
  5
46D
102
{ACAD_REACTORS
330
51F
102
}
330
1F
100
AcDbEntity
  8
S10_Quote
 62
     3
100
AcDbLine
 10
2112.234527389779
 20
876.5107512686791
 30
0.0
 11
2089.634527389779
 21
876.5107512686791
 31
0.0
  0
ARC
  5
46E
330
1F
100
AcDbEntity
  8
S10_Quote
 62
     3
100
AcDbCircle
 10
2112.234527389779
 20
876.3107512686788
 30
0.0
 40
0.199999999999998
100
AcDbArc
 50
0.0
 51
90.0
  0
LINE
  5
46F
330
1F
100
AcDbEntity
  8
S10_Quote
 62
     3
100
AcDbLine
 10
2112.434527389779
 20
870.2107512686785
 30
0.0
 11
2112.434527389779
 21
876.3107512686788
 31
0.0
  0
ARC
  5
470
330
1F
100
AcDbEntity
  8
S10_Quote
 62
     3
100
AcDbCircle
 10
2112.234527389779
 20
870.2107512686785
 30
0.0
 40
0.1999999999999957
100
AcDbArc
 50
270.0
 51
0.0
  0
LINE
  5
471
330
1F
100
AcDbEntity
  8
S10_Quote
 62
     3
100
AcDbLine
 10
2107.634527389778
 20
870.0107512686786
 30
0.0
 11
2112.234527389779
 21
870.0107512686786
 31
0.0
  0
ARC
  5
472
330
1F
100
AcDbEntity
  8
S10_Quote
 62
     3
100
AcDbCircle
 10
2107.634527389778
 20
869.8107512686783
 30
0.0
 40
0.2000000000000002
100
AcDbArc
 50
90.0
 51
180.0
  0
LINE
  5
473
102
{ACAD_REACTORS
330
50F
330
512
102
}
330
1F
100
AcDbEntity
  8
S10_Quote
 62
     3
100
AcDbLine
 10
2107.434527389779
 20
868.2107512686783
 30
0.0
 11
2107.434527389779
 21
869.8107512686787
 31
0.0
  0
ARC
  5
474
330
1F
100
AcDbEntity
  8
S10_Quote
 62
     3
100
AcDbCircle
 10
2107.634527389778
 20
868.2107512686783
 30
0.0
 40
0.1999999999999957
100
AcDbArc
 50
180.0
 51
270.0
  0
LINE
  5
475
102
{ACAD_REACTORS
330
503
330
522
102
}
330
1F
100
AcDbEntity
  8
S10_Quote
 62
     3
100
AcDbLine
 10
2139.034527389779
 20
868.0107512686786
 30
0.0
 11
2107.634527389778
 21
868.0107512686786
 31
0.0
  0
ARC
  5
476
330
1F
100
AcDbEntity
  8
S10_Quote
 62
     3
100
AcDbCircle
 10
2139.034527389779
 20
868.2107512686783
 30
0.0
 40
0.2000000000000091
100
AcDbArc
 50
270.0
 51
0.0
  0
LINE
  5
477
102
{ACAD_REACTORS
330
512
330
515
102
}
330
1F
100
AcDbEntity
  8
S10_Quote
 62
     3
100
AcDbLine
 10
2139.234527389779
 20
869.8107512686787
 30
0.0
 11
2139.234527389779
 21
868.2107512686783
 31
0.0
  0
ARC
  5
478
330
1F
100
AcDbEntity
  8
S10_Quote
 62
     3
100
AcDbCircle
 10
2139.034527389779
 20
869.8107512686787
 30
0.0
 40
0.1999999999999957
100
AcDbArc
 50
0.0
 51
90.0
  0
LINE
  5
479
330
1F
100
AcDbEntity
  8
S10_Quote
 62
     3
100
AcDbLine
 10
2134.434527389789
 20
870.0107512686786
 30
0.0
 11
2139.034527389779
 21
870.0107512686786
 31
0.0
  0
ARC
  5
47A
330
1F
100
AcDbEntity
  8
S10_Quote
 62
     3
100
AcDbCircle
 10
2134.434527389789
 20
870.2107512686785
 30
0.0
 40
0.199999999999998
100
AcDbArc
 50
180.0
 51
270.0
  0
LINE
  5
47B
330
1F
100
AcDbEntity
  8
S10_Quote
 62
     3
100
AcDbLine
 10
2134.234527389789
 20
876.3107512686788
 30
0.0
 11
2134.234527389789
 21
870.2107512686785
 31
0.0
  0
ARC
  5
47C
330
1F
100
AcDbEntity
  8
S10_Quote
 62
     3
100
AcDbCircle
 10
2134.434527389789
 20
876.3107512686788
 30
0.0
 40
0.2000000000000046
100
AcDbArc
 50
90.0
 51
180.0
  0
LINE
  5
47D
330
1F
100
AcDbEntity
  8
S10_Quote
 62
     3
100
AcDbLine
 10
2157.034527389789
 20
876.5107512686791
 30
0.0
 11
2134.434527389789
 21
876.5107512686791
 31
0.0
  0
ARC
  5
47E
330
1F
100
AcDbEntity
  8
S10_Quote
 62
     3
100
AcDbCircle
 10
2157.034527389789
 20
876.3107512686788
 30
0.0
 40
0.1999999999999957
100
AcDbArc
 50
0.0
 51
90.0
  0
LINE
  5
47F
330
1F
100
AcDbEntity
  8
S10_Quote
 62
     3
100
AcDbLine
 10
2157.234527389789
 20
870.2107512686785
 30
0.0
 11
2157.234527389789
 21
876.3107512686788
 31
0.0
  0
ARC
  5
480
330
1F
100
AcDbEntity
  8
S10_Quote
 62
     3
100
AcDbCircle
 10
2157.034527389789
 20
870.2107512686785
 30
0.0
 40
0.2000000000000135
100
AcDbArc
 50
270.0
 51
0.0
  0
LINE
  5
481
330
1F
100
AcDbEntity
  8
S10_Quote
 62
     3
100
AcDbLine
 10
2152.434527389779
 20
870.0107512686786
 30
0.0
 11
2157.034527389789
 21
870.0107512686786
 31
0.0
  0
ARC
  5
482
330
1F
100
AcDbEntity
  8
S10_Quote
 62
     3
100
AcDbCircle
 10
2152.434527389779
 20
869.8107512686783
 30
0.0
 40
0.2000000000000135
100
AcDbArc
 50
90.0
 51
180.0
  0
LINE
  5
483
102
{ACAD_REACTORS
330
515
330
518
102
}
330
1F
100
AcDbEntity
  8
S10_Quote
 62
     3
100
AcDbLine
 10
2152.234527389779
 20
868.2107512686783
 30
0.0
 11
2152.234527389779
 21
869.8107512686783
 31
0.0
  0
ARC
  5
484
330
1F
100
AcDbEntity
  8
S10_Quote
 62
     3
100
AcDbCircle
 10
2152.434527389779
 20
868.2107512686783
 30
0.0
 40
0.2000000000000135
100
AcDbArc
 50
180.0
 51
270.0
  0
LINE
  5
485
330
1F
100
AcDbEntity
  8
S10_Quote
 62
     3
100
AcDbLine
 10
2166.034527389782
 20
868.0107512686786
 30
0.0
 11
2152.434527389779
 21
868.0107512686786
 31
0.0
  0
ARC
  5
486
330
1F
100
AcDbEntity
  8
S10_Quote
 62
     3
100
AcDbCircle
 10
2166.034527389782
 20
868.2107512686783
 30
0.0
 40
0.1999999999999957
100
AcDbArc
 50
270.0
 51
0.0
  0
LINE
  5
487
102
{ACAD_REACTORS
330
518
102
}
330
1F
100
AcDbEntity
  8
S10_Quote
 62
     3
100
AcDbLine
 10
2166.234527389782
 20
868.7947019956995
 30
0.0
 11
2166.234527389782
 21
868.2107512686783
 31
0.0
  0
LINE
  5
488
330
1F
100
AcDbEntity
  8
S10_Quote
 62
     3
100
AcDbLine
 10
2166.975190391707
 20
874.5107512686791
 30
0.0
 11
2165.534527389782
 21
874.5107512686791
 31
0.0
  0
ARC
  5
489
330
1F
100
AcDbEntity
  8
S10_Quote
 62
     3
100
AcDbCircle
 10
2165.534527389782
 20
874.3107512686789
 30
0.0
 40
0.1999999999999957
100
AcDbArc
 50
90.0
 51
180.0
  0
LINE
  5
48A
330
1F
100
AcDbEntity
  8
S10_Quote
 62
     3
100
AcDbLine
 10
2165.334527389782
 20
870.2107512686788
 30
0.0
 11
2165.334527389782
 21
874.3107512686789
 31
0.0
  0
ARC
  5
48B
330
1F
100
AcDbEntity
  8
S10_Quote
 62
     3
100
AcDbCircle
 10
2165.134527389781
 20
870.2107512686788
 30
0.0
 40
0.1999999999999957
100
AcDbArc
 50
270.0
 51
0.0
  0
LINE
  5
48C
330
1F
100
AcDbEntity
  8
S10_Quote
 62
     3
100
AcDbLine
 10
2159.034527389782
 20
870.0107512686791
 30
0.0
 11
2165.134527389781
 21
870.0107512686791
 31
0.0
  0
ARC
  5
48D
330
1F
100
AcDbEntity
  8
S10_Quote
 62
     3
100
AcDbCircle
 10
2159.034527389782
 20
870.2107512686788
 30
0.0
 40
0.199999999999978
100
AcDbArc
 50
180.0
 51
270.0
  0
LINE
  5
48E
330
1F
100
AcDbEntity
  8
S10_Quote
 62
     3
100
AcDbLine
 10
2158.834527389782
 20
892.8107512686787
 30
0.0
 11
2158.834527389782
 21
870.2107512686788
 31
0.0
  0
ARC
  5
48F
330
1F
100
AcDbEntity
  8
S10_Quote
 62
     3
100
AcDbCircle
 10
2159.034527389782
 20
892.8107512686787
 30
0.0
 40
0.1999999999999868
100
AcDbArc
 50
90.0
 51
180.0
  0
LINE
  5
490
330
1F
100
AcDbEntity
  8
S10_Quote
 62
     3
100
AcDbLine
 10
2165.134527389781
 20
893.010751268679
 30
0.0
 11
2159.034527389782
 21
893.010751268679
 31
0.0
  0
ARC
  5
491
330
1F
100
AcDbEntity
  8
S10_Quote
 62
     3
100
AcDbCircle
 10
2165.134527389781
 20
892.8107512686787
 30
0.0
 40
0.2000000000000135
100
AcDbArc
 50
0.0
 51
89.99999999997395
  0
LINE
  5
492
330
1F
100
AcDbEntity
  8
S10_Quote
 62
     3
100
AcDbLine
 10
2165.334527389782
 20
888.7107512686789
 30
0.0
 11
2165.334527389782
 21
892.8107512686787
 31
0.0
  0
ARC
  5
493
330
1F
100
AcDbEntity
  8
S10_Quote
 62
     3
100
AcDbCircle
 10
2165.534527389782
 20
888.7107512686789
 30
0.0
 40
0.2000000000000002
100
AcDbArc
 50
180.0
 51
270.0
  0
LINE
  5
494
330
1F
100
AcDbEntity
  8
S10_Quote
 62
     3
100
AcDbLine
 10
2166.12553266138
 20
888.510751268679
 30
0.0
 11
2165.534527389782
 21
888.510751268679
 31
0.0
  0
HATCH
  5
495
330
1F
100
AcDbEntity
  8
S11_Finiture
100
AcDbHatch
 10
0.0
 20
0.0
 30
0.0
210
0.0
220
0.0
230
1.0
  2
ANSI31
 70
     0
 71
     0
 91
        2
 92
        7
 72
     1
 73
     1
 93
      156
 10
2080.543522118183
 20
888.510751268679
 42
-0.2243408710812545
 10
2080.389024753982
 20
888.5837451095563
 42
0.0352603545293751
 10
2080.369645431305
 20
888.6041944177959
 42
0.0
 10
2079.499409348258
 20
889.4016188694463
 42
-0.4400105308918274
 10
2079.499409348258
 20
889.6965298041701
 42
0.0
 10
2080.369645431305
 20
890.4939542558208
 42
0.4400105308918275
 10
2080.369645431305
 20
890.7888651905446
 42
0.0
 10
2079.499409348258
 20
891.586289642195
 42
-0.4400105308919528
 10
2079.499409348258
 20
891.8812005769186
 42
0.0
 10
2080.369645431305
 20
892.678625028569
 42
0.4400105308918903
 10
2080.369645431305
 20
892.9735359632926
 42
0.0
 10
2079.499409348258
 20
893.770960414943
 42
-0.4400105308917646
 10
2079.499409348258
 20
894.0658713496668
 42
0.0
 10
2080.369645431305
 20
894.8632958013172
 42
0.0765069055043385
 10
2080.407732470539
 20
894.9107512686792
 42
-0.2679491924311126
 10
2080.580937551296
 20
895.0107512686791
 42
0.0
 10
2087.634527389782
 20
895.0107512686795
 42
0.4142135623730951
 10
2087.834527389782
 20
895.2107512686794
 42
0.0
 10
2087.834527389782
 20
984.8622231312546
 42
0.6681780067810348
 10
2087.322352401687
 20
985.074373481275
 42
0.0
 10
2086.346566591369
 20
984.098591077085
 42
-0.6681780067811319
 10
2085.834596882305
 20
984.3106563975366
 42
0.0
 10
2085.834596882305
 20
987.8107512686783
 42
-0.4142135623730948
 10
2086.034596882305
 20
988.0107512686782
 42
0.0
 10
2116.634596882305
 20
988.0107512686782
 42
-0.4142135623730951
 10
2116.834596882305
 20
987.8107512686783
 42
0.0
 10
2116.834596882305
 20
984.3107512686756
 42
-0.6681786379192998
 10
2116.32246484795
 20
984.0986192343198
 42
0.0
 10
2115.34670353804
 20
985.0743805442279
 42
0.2867453857587774
 10
2115.036901057347
 20
985.145904082552
 42
0.0
 10
2111.969413758886
 20
984.0896835022762
 42
0.3201025237009628
 10
2111.834527389777
 20
983.9005797871564
 42
0.0
 10
2111.834527389777
 20
978.0107512686759
 42
0.4142135623730951
 10
2112.034527389777
 20
977.810751268676
 42
0.0
 10
2134.634527389777
 20
977.810751268676
 42
0.4142135623731057
 10
2134.834527389777
 20
978.0107512686759
 42
0.0
 10
2134.834527389777
 20
983.8383114170914
 42
0.3151340318583631
 10
2134.703044068611
 20
984.0262089016983
 42
0.0
 10
2131.637397279178
 20
985.1440947367828
 42
0.2916360249445334
 10
2131.32249022657
 20
985.0743805442284
 42
0.0
 10
2130.346728916661
 20
984.0986192343198
 42
-0.6681786379192984
 10
2129.834596882305
 20
984.3107512686756
 42
0.0
 10
2129.834596882305
 20
987.8107512686783
 42
-0.4142135623730951
 10
2130.034596882305
 20
988.0107512686782
 42
0.0
 10
2160.634596882305
 20
988.0107512686782
 42
-0.4142135623730951
 10
2160.834596882305
 20
987.8107512686783
 42
0.0
 10
2160.834596882305
 20
984.310754674877
 42
-0.6681780067811206
 10
2160.322459403449
 20
984.0986198617306
 42
0.0
 10
2159.346702377877
 20
985.0743734812745
 42
0.6681780067811261
 10
2158.834527389782
 20
984.8622231312543
 42
0.0
 10
2158.834527389782
 20
895.2107512686794
 42
0.4142135623730951
 10
2159.034527389782
 20
895.0107512686795
 42
0.0
 10
2166.088117228268
 20
895.0107512686791
 42
-0.2679491924313224
 10
2166.261322309025
 20
894.9107512686792
 42
0.0765069055044259
 10
2166.299409348258
 20
894.8632958013172
 42
0.0
 10
2167.169645431305
 20
894.0658713496668
 42
-0.4400105308917647
 10
2167.169645431305
 20
893.770960414943
 42
0.0
 10
2166.299409348258
 20
892.9735359632926
 42
0.4400105308918274
 10
2166.299409348258
 20
892.678625028569
 42
0.0
 10
2167.169645431305
 20
891.8812005769186
 42
-0.4400105308918275
 10
2167.169645431305
 20
891.586289642195
 42
0.0
 10
2166.299409348258
 20
890.7888651905446
 42
0.4400105308918274
 10
2166.299409348258
 20
890.4939542558208
 42
0.0
 10
2167.169645431305
 20
889.6965298041701
 42
-0.4400105308918275
 10
2167.169645431305
 20
889.4016188694463
 42
0.0
 10
2166.299409348258
 20
888.6041944177959
 42
0.035260354529397
 10
2166.280030025581
 20
888.5837451095566
 42
-0.2243408710810565
 10
2166.12553266138
 20
888.510751268679
 42
0.0
 10
2165.534527389782
 20
888.510751268679
 42
-0.4142135623730849
 10
2165.334527389782
 20
888.7107512686789
 42
0.0
 10
2165.334527389782
 20
892.8107512686787
 42
0.4142135623731012
 10
2165.134527389781
 20
893.0107512686786
 42
0.0
 10
2159.034527389782
 20
893.0107512686786
 42
0.414213562373116
 10
2158.834527389782
 20
892.8107512686787
 42
0.0
 10
2158.834527389782
 20
870.2107512686788
 42
0.4142135623730889
 10
2159.034527389781
 20
870.0107512686791
 42
0.0
 10
2165.134527389781
 20
870.0107512686791
 42
0.4142135623730951
 10
2165.334527389782
 20
870.2107512686788
 42
0.0
 10
2165.334527389782
 20
874.3107512686789
 42
-0.4142135623730951
 10
2165.534527389782
 20
874.5107512686786
 42
0.0
 10
2166.975190391707
 20
874.5107512686786
 42
-0.1875965641996739
 10
2167.11030843323
 20
874.4582067360406
 42
0.0
 10
2167.169645431304
 20
874.4038343949327
 42
-0.4400105308935223
 10
2167.169645431305
 20
874.1089234602082
 42
0.0
 10
2166.299409348258
 20
873.3114990085578
 42
0.44001053089189
 10
2166.299409348258
 20
873.016588073834
 42
0.0
 10
2167.169645431305
 20
872.2191636221836
 42
-0.4400105308917962
 10
2167.169645431305
 20
871.92425268746
 42
0.0
 10
2166.299409348258
 20
871.1268282358096
 42
0.4400105308917646
 10
2166.299409348258
 20
870.831917301086
 42
0.0
 10
2167.169645431305
 20
870.0344928494356
 42
-0.4400105308918275
 10
2167.169645431305
 20
869.7395819147118
 42
0.0
 10
2166.299409348258
 20
868.9421574630614
 42
0.2102773852970676
 10
2166.234527389782
 20
868.7947019956995
 42
0.0
 10
2166.234527389782
 20
868.2107512686783
 42
-0.4142135623730951
 10
2166.034527389782
 20
868.0107512686786
 42
0.0
 10
2152.434527389779
 20
868.0107512686786
 42
-0.4142135623730951
 10
2152.234527389779
 20
868.2107512686783
 42
0.0
 10
2152.234527389779
 20
869.8107512686783
 42
-0.4142135623730536
 10
2152.434527389779
 20
870.0107512686782
 42
0.0
 10
2157.034527389789
 20
870.0107512686786
 42
0.4142135623730745
 10
2157.234527389789
 20
870.2107512686785
 42
0.0
 10
2157.234527389789
 20
876.3107512686788
 42
0.4142135623730951
 10
2157.034527389789
 20
876.5107512686785
 42
0.0
 10
2134.434527389789
 20
876.5107512686785
 42
0.4142135623731057
 10
2134.234527389789
 20
876.3107512686788
 42
0.0
 10
2134.234527389789
 20
870.2107512686785
 42
0.4142135623730951
 10
2134.434527389789
 20
870.0107512686786
 42
0.0
 10
2139.034527389779
 20
870.0107512686786
 42
-0.4142135623730951
 10
2139.234527389779
 20
869.8107512686787
 42
0.0
 10
2139.234527389779
 20
868.2107512686783
 42
-0.4142135623730951
 10
2139.034527389779
 20
868.0107512686786
 42
0.0
 10
2107.634527389778
 20
868.0107512686786
 42
-0.4142135623730951
 10
2107.434527389779
 20
868.2107512686783
 42
0.0
 10
2107.434527389779
 20
869.8107512686783
 42
-0.4142135623730951
 10
2107.634527389778
 20
870.0107512686782
 42
0.0
 10
2112.234527389779
 20
870.0107512686786
 42
0.4142135623730664
 10
2112.434527389779
 20
870.2107512686785
 42
0.0
 10
2112.434527389779
 20
876.3107512686788
 42
0.4142135623730951
 10
2112.234527389779
 20
876.5107512686785
 42
0.0
 10
2089.634527389779
 20
876.5107512686785
 42
0.4142135623731057
 10
2089.434527389779
 20
876.3107512686788
 42
0.0
 10
2089.434527389779
 20
870.2107512686785
 42
0.4142135623730951
 10
2089.634527389779
 20
870.0107512686786
 42
0.0
 10
2094.234527389779
 20
870.0107512686786
 42
-0.4142135623730951
 10
2094.434527389779
 20
869.8107512686787
 42
0.0
 10
2094.434527389779
 20
868.2107512686783
 42
-0.4142135623730536
 10
2094.234527389779
 20
868.0107512686786
 42
0.0
 10
2080.634527389781
 20
868.0107512686786
 42
-0.4142135623730951
 10
2080.434527389781
 20
868.2107512686783
 42
0.0
 10
2080.434527389781
 20
868.7947019956995
 42
0.2102773852971457
 10
2080.369645431305
 20
868.9421574630614
 42
0.0
 10
2079.499409348258
 20
869.7395819147118
 42
-0.44001053089189
 10
2079.499409348258
 20
870.0344928494356
 42
0.0
 10
2080.369645431305
 20
870.831917301086
 42
0.4400105308917647
 10
2080.369645431305
 20
871.1268282358096
 42
0.0
 10
2079.499409348258
 20
871.92425268746
 42
-0.4400105308917646
 10
2079.499409348258
 20
872.2191636221836
 42
0.0
 10
2080.369645431305
 20
873.016588073834
 42
0.4400105308918275
 10
2080.369645431305
 20
873.3114990085578
 42
0.0
 10
2079.499409348258
 20
874.1089234602082
 42
-0.4400105308916076
 10
2079.499409348258
 20
874.4038343949318
 42
0.0
 10
2079.558746346333
 20
874.4582067360402
 42
-0.1875965642006562
 10
2079.693864387857
 20
874.5107512686786
 42
0.0
 10
2081.134527389782
 20
874.5107512686786
 42
-0.4142135623731888
 10
2081.334527389782
 20
874.3107512686789
 42
0.0
 10
2081.334527389782
 20
870.2107512686788
 42
0.4142135623730951
 10
2081.534527389782
 20
870.0107512686791
 42
0.0
 10
2087.634527389782
 20
870.0107512686791
 42
0.4142135623730951
 10
2087.834527389782
 20
870.2107512686788
 42
0.0
 10
2087.834527389782
 20
892.8107512686787
 42
0.4142135623730951
 10
2087.634527389782
 20
893.0107512686786
 42
0.0
 10
2081.534527389782
 20
893.0107512686786
 42
0.414213562373116
 10
2081.334527389782
 20
892.8107512686787
 42
0.0
 10
2081.334527389782
 20
888.7107512686789
 42
-0.4142135623730951
 10
2081.134527389782
 20
888.510751268679
 42
0.0
 97
        0
 92
       22
 72
     1
 73
     1
 93
       24
 10
2110.23452738978
 20
986.2107512686812
 42
0.0
 10
2110.23452738978
 20
976.4107512686788
 42
0.4142135623730951
 10
2110.43452738978
 20
976.2107512686789
 42
0.0
 10
2136.234527389774
 20
976.2107512686789
 42
0.4142135623731057
 10
2136.434527389774
 20
976.4107512686788
 42
0.0
 10
2136.434527389774
 20
986.2107512686812
 42
-0.4142135623730955
 10
2136.634527389774
 20
986.410751268681
 42
0.0
 10
2157.034527389789
 20
986.410751268681
 42
-0.4142135623730951
 10
2157.234527389789
 20
986.2107512686812
 42
0.0
 10
2157.234527389789
 20
878.3107512686761
 42
-0.4142135623730951
 10
2157.034527389789
 20
878.1107512686762
 42
0.0
 10
2132.834527389792
 20
878.1107512686757
 42
0.4142135623730951
 10
2132.634527389792
 20
877.910751268676
 42
0.0
 10
2132.634527389792
 20
870.2107512686785
 42
-0.4142135623730951
 10
2132.434527389792
 20
870.0107512686786
 42
0.0
 10
2114.234527389776
 20
870.0107512686786
 42
-0.4142135623730951
 10
2114.034527389776
 20
870.2107512686785
 42
0.0
 10
2114.034527389776
 20
877.910751268676
 42
0.4142135623730951
 10
2113.834527389776
 20
878.1107512686757
 42
0.0
 10
2089.634527389779
 20
878.1107512686762
 42
-0.4142135623730898
 10
2089.434527389779
 20
878.3107512686761
 42
0.0
 10
2089.434527389779
 20
986.2107512686812
 42
-0.4142135623730951
 10
2089.634527389779
 20
986.410751268681
 42
0.0
 10
2110.03452738978
 20
986.410751268681
 42
-0.4142135623730955
 97
        0
 75
     0
 76
     1
 52
0.0
 41
0.25
 77
     0
 78
     1
 53
45.0
 43
675.5826756309373
 44
-2367.889458366786
 45
-0.5612660075668221
 46
0.5612660075668221
 79
     0
 47
0.2439490601246609
 98
        2
 10
2111.559990197794
 20
986.8755097425797
 10
2111.559990197794
 20
986.8755097425797
1001
ACAD
1010
0.0
1020
0.0
1030
0.0
  0
LINE
  5
496
102
{ACAD_REACTORS
330
4EE
102
}
330
1F
100
AcDbEntity
  8
S10_Quote
 62
     3
100
AcDbLine
 10
2110.43452738978
 20
976.2107512686784
 30
0.0
 11
2136.234527389774
 21
976.2107512686784
 31
0.0
  0
ARC
  5
497
330
1F
100
AcDbEntity
  8
S10_Quote
 62
     3
100
AcDbCircle
 10
2136.234527389774
 20
976.4107512686788
 30
0.0
 40
0.1999999999999957
100
AcDbArc
 50
270.0
 51
0.0
  0
LINE
  5
498
330
1F
100
AcDbEntity
  8
S10_Quote
 62
     3
100
AcDbLine
 10
2136.434527389774
 20
976.4107512686788
 30
0.0
 11
2136.434527389774
 21
986.2107512686812
 31
0.0
  0
ARC
  5
499
330
1F
100
AcDbEntity
  8
S10_Quote
 62
     3
100
AcDbCircle
 10
2136.634527389774
 20
986.2107512686812
 30
0.0
 40
0.2000000000000068
100
AcDbArc
 50
90.0
 51
180.0
  0
LINE
  5
49A
102
{ACAD_REACTORS
330
4F1
330
4F4
102
}
330
1F
100
AcDbEntity
  8
S10_Quote
 62
     3
100
AcDbLine
 10
2136.634527389774
 20
986.410751268681
 30
0.0
 11
2157.034527389789
 21
986.410751268681
 31
0.0
  0
ARC
  5
49B
330
1F
100
AcDbEntity
  8
S10_Quote
 62
     3
100
AcDbCircle
 10
2157.034527389789
 20
986.2107512686812
 30
0.0
 40
0.1999999999999957
100
AcDbArc
 50
0.0
 51
90.0
  0
LINE
  5
49C
102
{ACAD_REACTORS
330
4F7
330
500
102
}
330
1F
100
AcDbEntity
  8
S10_Quote
 62
     3
100
AcDbLine
 10
2157.234527389789
 20
986.2107512686812
 30
0.0
 11
2157.234527389789
 21
878.3107512686761
 31
0.0
  0
ARC
  5
49D
330
1F
100
AcDbEntity
  8
S10_Quote
 62
     3
100
AcDbCircle
 10
2157.034527389789
 20
878.3107512686761
 30
0.0
 40
0.1999999999999913
100
AcDbArc
 50
270.0
 51
0.0
  0
LINE
  5
49E
102
{ACAD_REACTORS
330
4F4
102
}
330
1F
100
AcDbEntity
  8
S10_Quote
 62
     3
100
AcDbLine
 10
2157.034527389789
 20
878.1107512686762
 30
0.0
 11
2132.834527389792
 21
878.1107512686762
 31
0.0
  0
ARC
  5
49F
330
1F
100
AcDbEntity
  8
S10_Quote
 62
     3
100
AcDbCircle
 10
2132.834527389792
 20
877.910751268676
 30
0.0
 40
0.1999999999999957
100
AcDbArc
 50
90.0
 51
180.0
  0
LINE
  5
4A0
102
{ACAD_REACTORS
330
4FD
330
500
102
}
330
1F
100
AcDbEntity
  8
S10_Quote
 62
     3
100
AcDbLine
 10
2132.634527389792
 20
877.910751268676
 30
0.0
 11
2132.634527389792
 21
870.2107512686785
 31
0.0
  0
ARC
  5
4A1
330
1F
100
AcDbEntity
  8
S10_Quote
 62
     3
100
AcDbCircle
 10
2132.434527389792
 20
870.2107512686785
 30
0.0
 40
0.1999999999999991
100
AcDbArc
 50
270.0
 51
0.0
  0
LINE
  5
4A2
102
{ACAD_REACTORS
330
522
102
}
330
1F
100
AcDbEntity
  8
S10_Quote
 62
     3
100
AcDbLine
 10
2132.434527389792
 20
870.0107512686786
 30
0.0
 11
2114.234527389776
 21
870.0107512686786
 31
0.0
  0
ARC
  5
4A3
330
1F
100
AcDbEntity
  8
S10_Quote
 62
     3
100
AcDbCircle
 10
2114.234527389776
 20
870.2107512686785
 30
0.0
 40
0.2000000000000046
100
AcDbArc
 50
180.0
 51
270.0
  0
LINE
  5
4A4
102
{ACAD_REACTORS
330
4FA
330
4FD
102
}
330
1F
100
AcDbEntity
  8
S10_Quote
 62
     3
100
AcDbLine
 10
2114.034527389776
 20
870.2107512686785
 30
0.0
 11
2114.034527389776
 21
877.910751268676
 31
0.0
  0
ARC
  5
4A5
330
1F
100
AcDbEntity
  8
S10_Quote
 62
     3
100
AcDbCircle
 10
2113.834527389776
 20
877.910751268676
 30
0.0
 40
0.199999999999998
100
AcDbArc
 50
0.0
 51
90.0
  0
LINE
  5
4A6
102
{ACAD_REACTORS
330
51F
102
}
330
1F
100
AcDbEntity
  8
S10_Quote
 62
     3
100
AcDbLine
 10
2113.834527389776
 20
878.1107512686762
 30
0.0
 11
2089.634527389779
 21
878.1107512686762
 31
0.0
  0
ARC
  5
4A7
330
1F
100
AcDbEntity
  8
S10_Quote
 62
     3
100
AcDbCircle
 10
2089.634527389779
 20
878.3107512686761
 30
0.0
 40
0.2000000000000135
100
AcDbArc
 50
180.0
 51
270.0
  0
LINE
  5
4A8
102
{ACAD_REACTORS
330
4F7
330
4FA
330
51C
102
}
330
1F
100
AcDbEntity
  8
S10_Quote
 62
     3
100
AcDbLine
 10
2089.434527389779
 20
878.3107512686761
 30
0.0
 11
2089.434527389779
 21
986.2107512686812
 31
0.0
  0
ARC
  5
4A9
330
1F
100
AcDbEntity
  8
S10_Quote
 62
     3
100
AcDbCircle
 10
2089.634527389779
 20
986.2107512686812
 30
0.0
 40
0.2000000000000091
100
AcDbArc
 50
90.0
 51
180.0
  0
LINE
  5
4AA
102
{ACAD_REACTORS
330
4EE
102
}
330
1F
100
AcDbEntity
  8
S10_Quote
 62
     3
100
AcDbLine
 10
2089.634527389779
 20
986.410751268681
 30
0.0
 11
2110.03452738978
 21
986.410751268681
 31
0.0
  0
ARC
  5
4AB
330
1F
100
AcDbEntity
  8
S10_Quote
 62
     3
100
AcDbCircle
 10
2110.03452738978
 20
986.2107512686812
 30
0.0
 40
0.1999999999999957
100
AcDbArc
 50
0.0
 51
90.0
  0
LINE
  5
4AC
330
1F
100
AcDbEntity
  8
S10_Quote
 62
     3
100
AcDbLine
 10
2110.23452738978
 20
986.2107512686812
 30
0.0
 11
2110.23452738978
 21
976.4107512686788
 31
0.0
  0
ARC
  5
4AD
330
1F
100
AcDbEntity
  8
S10_Quote
 62
     3
100
AcDbCircle
 10
2110.43452738978
 20
976.4107512686788
 30
0.0
 40
0.2000000000000068
100
AcDbArc
 50
180.0
 51
270.0
  0
ARC
  5
4AE
330
1F
100
AcDbEntity
  8
S10_Quote
 62
     3
100
AcDbCircle
 10
2080.234527389782
 20
895.0107512686791
 30
0.0
 40
0.1999999999996964
100
AcDbArc
 50
312.4999999999976
 51
330.0000000000027
  0
LINE
  5
4AF
330
1F
100
AcDbEntity
  8
S10_Quote
 62
     3
100
AcDbLine
 10
2079.499409348258
 20
894.0658713496668
 30
0.0
 11
2080.369645431305
 21
894.8632958013172
 31
0.0
  0
ARC
  5
4B0
330
1F
100
AcDbEntity
  8
S10_Quote
 62
     3
100
AcDbCircle
 10
2079.634527389782
 20
893.9184158823049
 30
0.0
 40
0.1999999999999872
100
AcDbArc
 50
132.4999999999976
 51
227.5000000000024
  0
LINE
  5
4B1
330
1F
100
AcDbEntity
  8
S10_Quote
 62
     3
100
AcDbLine
 10
2080.369645431305
 20
892.9735359632926
 30
0.0
 11
2079.499409348258
 21
893.770960414943
 31
0.0
  0
ARC
  5
4B2
330
1F
100
AcDbEntity
  8
S10_Quote
 62
     3
100
AcDbCircle
 10
2080.234527389782
 20
892.8260804959309
 30
0.0
 40
0.1999999999999872
100
AcDbArc
 50
312.4999999999976
 51
47.50000000000242
  0
LINE
  5
4B3
330
1F
100
AcDbEntity
  8
S10_Quote
 62
     3
100
AcDbLine
 10
2079.499409348258
 20
891.8812005769186
 30
0.0
 11
2080.369645431305
 21
892.6786250285685
 31
0.0
  0
ARC
  5
4B4
330
1F
100
AcDbEntity
  8
S10_Quote
 62
     3
100
AcDbCircle
 10
2079.634527389782
 20
891.7337451095567
 30
0.0
 40
0.1999999999999872
100
AcDbArc
 50
132.4999999999976
 51
227.5000000000024
  0
LINE
  5
4B5
330
1F
100
AcDbEntity
  8
S10_Quote
 62
     3
100
AcDbLine
 10
2080.369645431305
 20
890.7888651905446
 30
0.0
 11
2079.499409348258
 21
891.5862896421945
 31
0.0
  0
ARC
  5
4B6
330
1F
100
AcDbEntity
  8
S10_Quote
 62
     3
100
AcDbCircle
 10
2080.234527389782
 20
890.6414097231827
 30
0.0
 40
0.1999999999999872
100
AcDbArc
 50
312.4999999999976
 51
47.50000000000242
  0
LINE
  5
4B7
330
1F
100
AcDbEntity
  8
S10_Quote
 62
     3
100
AcDbLine
 10
2079.499409348258
 20
889.6965298041704
 30
0.0
 11
2080.369645431305
 21
890.4939542558205
 31
0.0
  0
ARC
  5
4B8
330
1F
100
AcDbEntity
  8
S10_Quote
 62
     3
100
AcDbCircle
 10
2079.634527389782
 20
889.5490743368082
 30
0.0
 40
0.1999999999999872
100
AcDbArc
 50
132.4999999999976
 51
227.5000000000024
  0
LINE
  5
4B9
330
1F
100
AcDbEntity
  8
S10_Quote
 62
     3
100
AcDbLine
 10
2080.369645431305
 20
888.6041944177964
 30
0.0
 11
2079.499409348258
 21
889.4016188694463
 31
0.0
  0
ARC
  5
4BA
330
1F
100
AcDbEntity
  8
S10_Quote
 62
     3
100
AcDbCircle
 10
2080.234527389783
 20
888.4567389504354
 30
0.0
 40
0.1999999999980037
100
AcDbArc
 50
39.42226855734352
 51
47.50000000003923
  0
LINE
  5
4BB
330
1F
100
AcDbEntity
  8
S10_Quote
 62
     3
100
AcDbLine
 10
2079.499409348258
 20
874.4038343949323
 30
0.0
 11
2079.558746346334
 21
874.4582067360411
 31
0.0
  0
ARC
  5
4BC
330
1F
100
AcDbEntity
  8
S10_Quote
 62
     3
100
AcDbCircle
 10
2079.634527389782
 20
874.2563789275701
 30
0.0
 40
0.1999999999999931
100
AcDbArc
 50
132.4999999999976
 51
227.5000000000024
  0
LINE
  5
4BD
330
1F
100
AcDbEntity
  8
S10_Quote
 62
     3
100
AcDbLine
 10
2080.369645431305
 20
873.3114990085582
 30
0.0
 11
2079.499409348258
 21
874.1089234602082
 31
0.0
  0
ARC
  5
4BE
330
1F
100
AcDbEntity
  8
S10_Quote
 62
     3
100
AcDbCircle
 10
2080.234527389782
 20
873.1640435411959
 30
0.0
 40
0.1999999999999872
100
AcDbArc
 50
312.4999999999976
 51
47.50000000000242
  0
LINE
  5
4BF
330
1F
100
AcDbEntity
  8
S10_Quote
 62
     3
100
AcDbLine
 10
2079.499409348258
 20
872.2191636221836
 30
0.0
 11
2080.369645431305
 21
873.016588073834
 31
0.0
  0
ARC
  5
4C0
330
1F
100
AcDbEntity
  8
S10_Quote
 62
     3
100
AcDbCircle
 10
2079.634527389782
 20
872.0717081548219
 30
0.0
 40
0.1999999999999872
100
AcDbArc
 50
132.4999999999976
 51
227.5000000000024
  0
LINE
  5
4C1
330
1F
100
AcDbEntity
  8
S10_Quote
 62
     3
100
AcDbLine
 10
2080.369645431305
 20
871.1268282358096
 30
0.0
 11
2079.499409348258
 21
871.92425268746
 31
0.0
  0
ARC
  5
4C2
330
1F
100
AcDbEntity
  8
S10_Quote
 62
     3
100
AcDbCircle
 10
2080.234527389782
 20
870.9793727684477
 30
0.0
 40
0.1999999999999872
100
AcDbArc
 50
312.4999999999976
 51
47.50000000000242
  0
LINE
  5
4C3
330
1F
100
AcDbEntity
  8
S10_Quote
 62
     3
100
AcDbLine
 10
2079.499409348258
 20
870.0344928494356
 30
0.0
 11
2080.369645431305
 21
870.831917301086
 31
0.0
  0
ARC
  5
4C4
330
1F
100
AcDbEntity
  8
S10_Quote
 62
     3
100
AcDbCircle
 10
2079.634527389782
 20
869.8870373820737
 30
0.0
 40
0.1999999999999931
100
AcDbArc
 50
132.4999999999976
 51
227.5000000000024
  0
LINE
  5
4C5
330
1F
100
AcDbEntity
  8
S10_Quote
 62
     3
100
AcDbLine
 10
2080.369645431305
 20
868.9421574630614
 30
0.0
 11
2079.499409348258
 21
869.7395819147114
 31
0.0
  0
ARC
  5
4C6
330
1F
100
AcDbEntity
  8
S10_Quote
 62
     3
100
AcDbCircle
 10
2080.234527389782
 20
868.7947019956995
 30
0.0
 40
0.1999999999999691
100
AcDbArc
 50
0.0
 51
47.50000000000242
  0
ARC
  5
4C7
330
1F
100
AcDbEntity
  8
S10_Quote
 62
     3
100
AcDbCircle
 10
2166.434527389782
 20
868.7947019956995
 30
0.0
 40
0.1999999999999691
100
AcDbArc
 50
132.4999999999976
 51
180.0
  0
LINE
  5
4C8
330
1F
100
AcDbEntity
  8
S10_Quote
 62
     3
100
AcDbLine
 10
2166.299409348258
 20
868.9421574630614
 30
0.0
 11
2167.169645431305
 21
869.7395819147114
 31
0.0
  0
ARC
  5
4C9
330
1F
100
AcDbEntity
  8
S10_Quote
 62
     3
100
AcDbCircle
 10
2167.034527389782
 20
869.8870373820737
 30
0.0
 40
0.1999999999999931
100
AcDbArc
 50
312.4999999999976
 51
47.50000000000242
  0
LINE
  5
4CA
330
1F
100
AcDbEntity
  8
S10_Quote
 62
     3
100
AcDbLine
 10
2167.169645431305
 20
870.0344928494356
 30
0.0
 11
2166.299409348258
 21
870.831917301086
 31
0.0
  0
ARC
  5
4CB
330
1F
100
AcDbEntity
  8
S10_Quote
 62
     3
100
AcDbCircle
 10
2166.434527389782
 20
870.9793727684477
 30
0.0
 40
0.2000000000000232
100
AcDbArc
 50
132.4999999999976
 51
227.5000000000024
  0
LINE
  5
4CC
330
1F
100
AcDbEntity
  8
S10_Quote
 62
     3
100
AcDbLine
 10
2166.299409348258
 20
871.1268282358096
 30
0.0
 11
2167.169645431305
 21
871.92425268746
 31
0.0
  0
ARC
  5
4CD
330
1F
100
AcDbEntity
  8
S10_Quote
 62
     3
100
AcDbCircle
 10
2167.034527389782
 20
872.0717081548219
 30
0.0
 40
0.1999999999999872
100
AcDbArc
 50
312.4999999999976
 51
47.50000000000242
  0
LINE
  5
4CE
330
1F
100
AcDbEntity
  8
S10_Quote
 62
     3
100
AcDbLine
 10
2167.169645431305
 20
872.2191636221836
 30
0.0
 11
2166.299409348258
 21
873.016588073834
 31
0.0
  0
ARC
  5
4CF
330
1F
100
AcDbEntity
  8
S10_Quote
 62
     3
100
AcDbCircle
 10
2166.434527389782
 20
873.1640435411959
 30
0.0
 40
0.2000000000000171
100
AcDbArc
 50
132.4999999999976
 51
227.5000000000024
  0
LINE
  5
4D0
330
1F
100
AcDbEntity
  8
S10_Quote
 62
     3
100
AcDbLine
 10
2166.299409348258
 20
873.3114990085582
 30
0.0
 11
2167.169645431305
 21
874.1089234602082
 31
0.0
  0
ARC
  5
4D1
330
1F
100
AcDbEntity
  8
S10_Quote
 62
     3
100
AcDbCircle
 10
2167.034527389782
 20
874.2563789275701
 30
0.0
 40
0.1999999999999931
100
AcDbArc
 50
312.4999999999976
 51
47.50000000000242
  0
LINE
  5
4D2
330
1F
100
AcDbEntity
  8
S10_Quote
 62
     3
100
AcDbLine
 10
2167.169645431305
 20
874.4038343949323
 30
0.0
 11
2167.11030843323
 21
874.4582067360411
 31
0.0
  0
ARC
  5
4D3
330
1F
100
AcDbEntity
  8
S10_Quote
 62
     3
100
AcDbCircle
 10
2166.43452738978
 20
888.4567389504354
 30
0.0
 40
0.1999999999980037
100
AcDbArc
 50
132.4999999999608
 51
140.5777314426565
  0
LINE
  5
4D4
330
1F
100
AcDbEntity
  8
S10_Quote
 62
     3
100
AcDbLine
 10
2166.299409348258
 20
888.6041944177964
 30
0.0
 11
2167.169645431305
 21
889.4016188694463
 31
0.0
  0
ARC
  5
4D5
330
1F
100
AcDbEntity
  8
S10_Quote
 62
     3
100
AcDbCircle
 10
2167.034527389782
 20
889.5490743368082
 30
0.0
 40
0.1999999999999872
100
AcDbArc
 50
312.4999999999976
 51
47.50000000000242
  0
LINE
  5
4D6
330
1F
100
AcDbEntity
  8
S10_Quote
 62
     3
100
AcDbLine
 10
2167.169645431305
 20
889.6965298041704
 30
0.0
 11
2166.299409348258
 21
890.4939542558205
 31
0.0
  0
ARC
  5
4D7
330
1F
100
AcDbEntity
  8
S10_Quote
 62
     3
100
AcDbCircle
 10
2166.434527389782
 20
890.6414097231827
 30
0.0
 40
0.2000000000000139
100
AcDbArc
 50
132.4999999999976
 51
227.5000000000024
  0
LINE
  5
4D8
330
1F
100
AcDbEntity
  8
S10_Quote
 62
     3
100
AcDbLine
 10
2166.299409348258
 20
890.7888651905446
 30
0.0
 11
2167.169645431305
 21
891.5862896421945
 31
0.0
  0
ARC
  5
4D9
330
1F
100
AcDbEntity
  8
S10_Quote
 62
     3
100
AcDbCircle
 10
2167.034527389782
 20
891.7337451095567
 30
0.0
 40
0.1999999999999872
100
AcDbArc
 50
312.4999999999976
 51
47.50000000000242
  0
LINE
  5
4DA
330
1F
100
AcDbEntity
  8
S10_Quote
 62
     3
100
AcDbLine
 10
2167.169645431305
 20
891.8812005769186
 30
0.0
 11
2166.299409348258
 21
892.6786250285685
 31
0.0
  0
ARC
  5
4DB
330
1F
100
AcDbEntity
  8
S10_Quote
 62
     3
100
AcDbCircle
 10
2166.434527389782
 20
892.8260804959309
 30
0.0
 40
0.2000000000000139
100
AcDbArc
 50
132.4999999999976
 51
227.5000000000024
  0
LINE
  5
4DC
330
1F
100
AcDbEntity
  8
S10_Quote
 62
     3
100
AcDbLine
 10
2166.299409348258
 20
892.9735359632926
 30
0.0
 11
2167.169645431305
 21
893.770960414943
 31
0.0
  0
ARC
  5
4DD
330
1F
100
AcDbEntity
  8
S10_Quote
 62
     3
100
AcDbCircle
 10
2167.034527389782
 20
893.9184158823049
 30
0.0
 40
0.1999999999999872
100
AcDbArc
 50
312.4999999999976
 51
47.50000000000242
  0
LINE
  5
4DE
330
1F
100
AcDbEntity
  8
S10_Quote
 62
     3
100
AcDbLine
 10
2167.169645431305
 20
894.0658713496668
 30
0.0
 11
2166.299409348258
 21
894.8632958013172
 31
0.0
  0
ARC
  5
4DF
330
1F
100
AcDbEntity
  8
S10_Quote
 62
     3
100
AcDbCircle
 10
2166.434527389782
 20
895.0107512686791
 30
0.0
 40
0.1999999999996964
100
AcDbArc
 50
209.9999999999973
 51
227.5000000000024
  0
DIMENSION
  5
4E0
102
{ACAD_XDICTIONARY
360
4E1
102
}
102
{ACAD_REACTORS
330
4E2
102
}
330
1F
100
AcDbEntity
  8
S10_Quote
100
AcDbDimension
  2
*D27
 10
2116.834596882305
 20
992.8021680489923
 30
0.0
 11
2101.334596882305
 21
994.6175526643768
 31
0.0
 70
    32
 71
     5
 42
31.0
  3
mm 1_1
100
AcDbAlignedDimension
 13
2085.834596882305
 23
986.8755097425797
 33
0.0
 14
2116.834596882305
 24
986.8755097425792
 34
0.0
100
AcDbRotatedDimension
  0
DIMENSION
  5
4E3
102
{ACAD_XDICTIONARY
360
4E4
102
}
102
{ACAD_REACTORS
330
4E5
102
}
330
1F
100
AcDbEntity
  8
S10_Quote
100
AcDbDimension
  2
*D28
 10
2129.834596882305
 20
992.8021680489923
 30
0.0
 11
2123.334596882305
 21
994.6175526643768
 31
0.0
 70
    32
 71
     5
 42
13.0
  3
mm 1_1
100
AcDbAlignedDimension
 13
2116.834596882305
 23
986.8755097425792
 33
0.0
 14
2129.834596882305
 24
986.0607512686769
 34
0.0
100
AcDbRotatedDimension
1001
ACAD
1000
DSTYLE
1002
{
1070
   279
1070
     1
1002
}
  0
DIMENSION
  5
4E6
102
{ACAD_XDICTIONARY
360
4E7
102
}
102
{ACAD_REACTORS
330
4E8
102
}
330
1F
100
AcDbEntity
  8
S10_Quote
100
AcDbDimension
  2
*D29
 10
2160.834596882305
 20
992.8021680489923
 30
0.0
 11
2145.334596882305
 21
994.6175526643768
 31
0.0
 70
    32
 71
     5
 42
31.0
  3
mm 1_1
100
AcDbAlignedDimension
 13
2129.834596882305
 23
986.0607512686769
 33
0.0
 14
2160.834596882305
 24
986.0607529717777
 34
0.0
100
AcDbRotatedDimension
1001
ACAD
1000
DSTYLE
1002
{
1070
   279
1070
     1
1002
}
  0
DIMENSION
  5
4E9
102
{ACAD_XDICTIONARY
360
4EA
102
}
102
{ACAD_REACTORS
330
4EB
102
}
330
1F
100
AcDbEntity
  8
S10_Quote
100
AcDbDimension
  2
*D30
 10
2160.834596882305
 20
998.3527306343251
 30
0.0
 11
2123.334596882305
 21
1000.175108256702
 31
0.0
 70
    32
 71
     5
 42
75.0
  3
mm 1_1
100
AcDbAlignedDimension
 13
2085.834596882305
 23
986.0607038331076
 33
0.0
 14
2160.834596882305
 24
986.0607038331076
 34
0.0
100
AcDbRotatedDimension
  0
DIMENSION
  5
4EC
102
{ACAD_XDICTIONARY
360
4ED
102
}
102
{ACAD_REACTORS
330
4EE
102
}
330
1F
100
AcDbEntity
  8
S10_Quote
100
AcDbDimension
  2
*D31
 10
2100.573999655712
 20
976.2107512686784
 30
0.0
 11
2098.758615040328
 21
981.31075126868
 31
0.0
 70
    32
 71
     5
 42
10.20000000000254
  3
mm 1_1
100
AcDbAlignedDimension
 13
2099.834527389779
 23
986.410751268681
 33
0.0
 14
2123.334527389777
 24
976.2107512686784
 34
0.0
 50
90.0
100
AcDbRotatedDimension
  0
DIMENSION
  5
4EF
102
{ACAD_XDICTIONARY
360
4F0
102
}
102
{ACAD_REACTORS
330
4F1
102
}
330
1F
100
AcDbEntity
  8
S10_Quote
100
AcDbDimension
  2
*D32
 10
2144.305379921445
 20
986.4107512686805
 30
0.0
 11
2144.305379921445
 21
982.0306632472743
 31
0.0
 70
   160
 71
     5
 42
1.599999999997635
  3
mm 1_1
100
AcDbAlignedDimension
 13
2145.334596882305
 23
988.0107512686782
 33
0.0
 14
2145.334596882305
 24
986.4107512686805
 34
0.0
 50
90.0
100
AcDbRotatedDimension
  0
DIMENSION
  5
4F2
102
{ACAD_XDICTIONARY
360
4F3
102
}
102
{ACAD_REACTORS
330
4F4
102
}
330
1F
100
AcDbEntity
  8
S10_Quote
100
AcDbDimension
  2
*D33
 10
2150.741556286261
 20
878.1107512686762
 30
0.0
 11
2148.926171670877
 21
932.260751268679
 31
0.0
 70
    32
 71
     5
 42
108.3000000000047
  3
mm 1_1
100
AcDbAlignedDimension
 13
2146.834527389782
 23
986.410751268681
 33
0.0
 14
2144.93452738979
 24
878.1107512686762
 34
0.0
 50
90.0
100
AcDbRotatedDimension
  0
DIMENSION
  5
4F5
102
{ACAD_XDICTIONARY
360
4F6
102
}
102
{ACAD_REACTORS
330
4F7
102
}
330
1F
100
AcDbEntity
  8
S10_Quote
100
AcDbDimension
  2
*D34
 10
2157.234527389789
 20
885.8674872069181
 30
0.0
 11
2123.334527389784
 21
887.6898648292959
 31
0.0
 70
    32
 71
     5
 42
67.80000000001018
  3
mm 1_1
100
AcDbAlignedDimension
 13
2089.434527389779
 23
932.2607512686786
 33
0.0
 14
2157.234527389789
 24
932.2607512686786
 34
0.0
100
AcDbRotatedDimension
  0
DIMENSION
  5
4F8
102
{ACAD_XDICTIONARY
360
4F9
102
}
102
{ACAD_REACTORS
330
4FA
102
}
330
1F
100
AcDbEntity
  8
S10_Quote
100
AcDbDimension
  2
*D35
 10
2114.034527389776
 20
881.5479980272098
 30
0.0
 11
2101.734527389777
 21
883.3710749502866
 31
0.0
 70
    32
 71
     5
 42
24.59999999999718
  3
mm 1_1
100
AcDbAlignedDimension
 13
2089.434527389779
 23
878.3107512686761
 33
0.0
 14
2114.034527389776
 24
877.910751268676
 34
0.0
100
AcDbRotatedDimension
  0
DIMENSION
  5
4FB
102
{ACAD_XDICTIONARY
360
4FC
102
}
102
{ACAD_REACTORS
330
4FD
102
}
330
1F
100
AcDbEntity
  8
S10_Quote
100
AcDbDimension
  2
*D36
 10
2132.634527389792
 20
881.5479980272098
 30
0.0
 11
2123.334527389784
 21
883.3633826425943
 31
0.0
 70
    32
 71
     5
 42
18.60000000001582
  3
mm 1_1
100
AcDbAlignedDimension
 13
2114.034527389776
 23
877.910751268676
 33
0.0
 14
2132.634527389792
 24
874.060751268677
 34
0.0
100
AcDbRotatedDimension
1001
ACAD
1000
DSTYLE
1002
{
1070
   279
1070
     1
1002
}
  0
DIMENSION
  5
4FE
102
{ACAD_XDICTIONARY
360
4FF
102
}
102
{ACAD_REACTORS
330
500
102
}
330
1F
100
AcDbEntity
  8
S10_Quote
100
AcDbDimension
  2
*D37
 10
2157.234527389789
 20
881.5479980272099
 30
0.0
 11
2144.934527389791
 21
883.3710749502868
 31
0.0
 70
    32
 71
     5
 42
24.59999999999718
  3
mm 1_1
100
AcDbAlignedDimension
 13
2132.634527389792
 23
874.0607512686771
 33
0.0
 14
2157.234527389789
 24
881.5479980272099
 34
0.0
100
AcDbRotatedDimension
1001
ACAD
1000
DSTYLE
1002
{
1070
   279
1070
     1
1002
}
  0
DIMENSION
  5
501
102
{ACAD_XDICTIONARY
360
502
102
}
102
{ACAD_REACTORS
330
503
102
}
330
1F
100
AcDbEntity
  8
S10_Quote
100
AcDbDimension
  2
*D38
 10
2178.691178448421
 20
868.0107512686786
 30
0.0
 11
2176.875793833036
 21
928.0107512686788
 31
0.0
 70
    32
 71
     5
 42
119.9999999999995
  3
mm 1_1
100
AcDbAlignedDimension
 13
2145.334596882305
 23
988.0107512686782
 33
0.0
 14
2123.334527389779
 24
868.0107512686786
 34
0.0
 50
90.0
100
AcDbRotatedDimension
  0
DIMENSION
  5
504
102
{ACAD_XDICTIONARY
360
505
102
}
102
{ACAD_REACTORS
330
506
102
}
330
1F
100
AcDbEntity
  8
S10_Quote
100
AcDbDimension
  2
*D39
 10
2073.199317875205
 20
895.0107512686791
 30
0.0
 11
2071.376240952128
 21
941.5107512686789
 31
0.0
 70
    32
 71
     5
 42
92.9999999999991
  3
mm 1_1
100
AcDbAlignedDimension
 13
2101.334596882305
 23
988.0107512686782
 33
0.0
 14
2084.107732470538
 24
895.0107512686791
 34
0.0
 50
90.0
100
AcDbRotatedDimension
  0
DIMENSION
  5
507
102
{ACAD_XDICTIONARY
360
508
102
}
102
{ACAD_REACTORS
330
509
102
}
330
1F
100
AcDbEntity
  8
S10_Quote
100
AcDbDimension
  2
*D40
 10
2073.199317875205
 20
868.0107512686786
 30
0.0
 11
2071.376940252827
 21
881.5107512686791
 31
0.0
 70
    32
 71
     5
 42
27.00000000000045
  3
mm 1_1
100
AcDbAlignedDimension
 13
2084.107732470538
 23
895.0107512686791
 33
0.0
 14
2087.43452738978
 24
868.0107512686786
 34
0.0
 50
90.0
100
AcDbRotatedDimension
1001
ACAD
1000
DSTYLE
1002
{
1070
   279
1070
     1
1002
}
  0
DIMENSION
  5
50A
102
{ACAD_XDICTIONARY
360
50B
102
}
102
{ACAD_REACTORS
330
50C
102
}
330
1F
100
AcDbEntity
  8
S10_Quote
100
AcDbDimension
  2
*D41
 10
2094.434527389779
 20
862.3601210096671
 30
0.0
 11
2087.43452738978
 21
864.1678133173595
 31
0.0
 70
    32
 71
     5
 42
13.99999999999727
  3
mm 1_1
100
AcDbAlignedDimension
 13
2080.434527389781
 23
868.502726632189
 33
0.0
 14
2094.434527389779
 24
869.0107512686786
 34
0.0
100
AcDbRotatedDimension
  0
DIMENSION
  5
50D
102
{ACAD_XDICTIONARY
360
50E
102
}
102
{ACAD_REACTORS
330
50F
102
}
330
1F
100
AcDbEntity
  8
S10_Quote
100
AcDbDimension
  2
*D42
 10
2107.434527389779
 20
862.3601210096671
 30
0.0
 11
2100.934527389779
 21
864.1755056250516
 31
0.0
 70
    32
 71
     5
 42
13.0
  3
mm 1_1
100
AcDbAlignedDimension
 13
2094.434527389779
 23
869.0107512686786
 33
0.0
 14
2107.434527389779
 24
869.0107512686786
 34
0.0
100
AcDbRotatedDimension
1001
ACAD
1000
DSTYLE
1002
{
1070
   279
1070
     1
1002
}
  0
DIMENSION
  5
510
102
{ACAD_XDICTIONARY
360
511
102
}
102
{ACAD_REACTORS
330
512
102
}
330
1F
100
AcDbEntity
  8
S10_Quote
100
AcDbDimension
  2
*D43
 10
2139.234527389779
 20
862.3601210096671
 30
0.0
 11
2123.334527389779
 21
864.1755056250516
 31
0.0
 70
    32
 71
     5
 42
31.80000000000018
  3
mm 1_1
100
AcDbAlignedDimension
 13
2107.434527389779
 23
869.0107512686786
 33
0.0
 14
2139.234527389779
 24
869.0107512686786
 34
0.0
100
AcDbRotatedDimension
1001
ACAD
1000
DSTYLE
1002
{
1070
   279
1070
     1
1002
}
  0
DIMENSION
  5
513
102
{ACAD_XDICTIONARY
360
514
102
}
102
{ACAD_REACTORS
330
515
102
}
330
1F
100
AcDbEntity
  8
S10_Quote
100
AcDbDimension
  2
*D44
 10
2152.234527389779
 20
862.3601210096671
 30
0.0
 11
2145.734527389779
 21
864.1755056250516
 31
0.0
 70
    32
 71
     5
 42
13.0
  3
mm 1_1
100
AcDbAlignedDimension
 13
2139.234527389779
 23
869.0107512686786
 33
0.0
 14
2152.234527389779
 24
869.0107512686786
 34
0.0
100
AcDbRotatedDimension
1001
ACAD
1000
DSTYLE
1002
{
1070
   279
1070
     1
1002
}
  0
DIMENSION
  5
516
102
{ACAD_XDICTIONARY
360
517
102
}
102
{ACAD_REACTORS
330
518
102
}
330
1F
100
AcDbEntity
  8
S10_Quote
100
AcDbDimension
  2
*D45
 10
2166.234527389782
 20
862.3601210096669
 30
0.0
 11
2159.234527389781
 21
864.1678133173591
 31
0.0
 70
    32
 71
     5
 42
14.00000000000273
  3
mm 1_1
100
AcDbAlignedDimension
 13
2152.234527389779
 23
869.0107512686784
 33
0.0
 14
2166.234527389782
 24
868.5027266321888
 34
0.0
100
AcDbRotatedDimension
1001
ACAD
1000
DSTYLE
1002
{
1070
   279
1070
     1
1002
}
  0
DIMENSION
  5
519
330
1F
100
AcDbEntity
  8
S10_Quote
100
AcDbDimension
  2
*D26
 10
2080.434527389781
 20
857.3677982485456
 30
0.0
 11
2123.334527389782
 21
859.1831828639302
 31
0.0
 70
    32
 71
     5
 42
85.80000000000017
  3
mm 1_1
100
AcDbAlignedDimension
 13
2166.234527389782
 23
868.502726632189
 33
0.0
 14
2080.434527389781
 24
868.502726632189
 34
0.0
100
AcDbRotatedDimension
  0
DIMENSION
  5
51A
102
{ACAD_XDICTIONARY
360
51B
102
}
102
{ACAD_REACTORS
330
51C
102
}
330
1F
100
AcDbEntity
  8
S07_Prospetto
 62
     0
100
AcDbDimension
  2
*D46
 10
2089.434527389779
 20
932.2100643210674
 30
0.0
 11
2088.634527389781
 21
934.025448936452
 31
0.0
 70
    32
 71
     5
 42
1.59999999999718
  3
mm 1_1
100
AcDbAlignedDimension
 13
2087.834527389782
 23
940.0364871999668
 33
0.0
 14
2089.434527389779
 24
940.0364871999668
 34
0.0
100
AcDbRotatedDimension
1001
ACAD
1000
DSTYLE
1002
{
1070
    49
1040
500.0
1070
   290
1070
     1
1070
   345
1005
15
1070
   346
1005
15
1070
   347
1005
15
1002
}
  0
DIMENSION
  5
51D
102
{ACAD_XDICTIONARY
360
51E
102
}
102
{ACAD_REACTORS
330
51F
102
}
330
1F
100
AcDbEntity
  8
S07_Prospetto
 62
     0
100
AcDbDimension
  2
*D47
 10
2124.885718226128
 20
878.1107512686762
 30
0.0
 11
2123.070333610744
 21
877.3107512686779
 31
0.0
 70
    32
 71
     5
 42
1.59999999999718
  3
mm 1_1
100
AcDbAlignedDimension
 13
2100.934527389779
 23
876.5107512686791
 33
0.0
 14
2101.734527389777
 24
878.1107512686762
 34
0.0
 50
90.0
100
AcDbRotatedDimension
1001
ACAD
1000
DSTYLE
1002
{
1070
    49
1040
500.0
1070
   290
1070
     1
1070
   345
1005
15
1070
   346
1005
15
1070
   347
1005
15
1002
}
  0
DIMENSION
  5
520
102
{ACAD_XDICTIONARY
360
521
102
}
102
{ACAD_REACTORS
330
522
102
}
330
1F
100
AcDbEntity
  8
S07_Prospetto
 62
     0
100
AcDbDimension
  2
*D48
 10
2114.234527389776
 20
870.0107512686786
 30
0.0
 11
2112.434527389776
 21
869.010751268679
 31
0.0
 70
    32
 71
     5
 42
2.0
  3
mm 1_1
100
AcDbAlignedDimension
 13
2123.334527389779
 23
868.0107512686786
 33
0.0
 14
2123.334527389779
 24
870.0107512686786
 34
0.0
 50
90.0
100
AcDbRotatedDimension
1001
ACAD
1000
DSTYLE
1002
{
1070
    49
1040
500.0
1070
   290
1070
     1
1070
   345
1005
15
1070
   346
1005
15
1070
   347
1005
15
1002
}
  0
ENDSEC
  0
SECTION
  2
OBJECTS
  0
DICTIONARY
  5
C
330
0
100
AcDbDictionary
281
     1
  3
ACAD_COLOR
350
6B
  3
ACAD_GROUP
350
D
  3
ACAD_LAYOUT
350
1A
  3
ACAD_MATERIAL
350
6A
  3
ACAD_MLEADERSTYLE
350
12D
  3
ACAD_MLINESTYLE
350
17
  3
ACAD_PLOTSETTINGS
350
19
  3
ACAD_PLOTSTYLENAME
350
E
  3
ACAD_SCALELIST
350
10C
  3
ACAD_TABLESTYLE
350
7E
  3
ACAD_VISUALSTYLE
350
EF
  3
ACDB_RECOMPOSE_DATA
350
6A9
  3
AcDbVariableDictionary
350
5E
  0
DICTIONARY
  5
328
330
2
100
AcDbDictionary
280
     1
281
     1
  3
ACAD_LAYERSTATES
360
329
  0
DICTIONARY
  5
13C
330
10
100
AcDbDictionary
280
     1
281
     1
  0
DICTIONARY
  5
318
330
317
100
AcDbDictionary
280
     1
281
     1
  0
DICTIONARY
  5
31A
330
319
100
AcDbDictionary
280
     1
281
     1
  0
DICTIONARY
  5
31C
330
31B
100
AcDbDictionary
280
     1
281
     1
  0
DICTIONARY
  5
31E
330
31D
100
AcDbDictionary
280
     1
281
     1
  0
DICTIONARY
  5
1CE
330
1F
100
AcDbDictionary
280
     1
281
     1
  0
DICTIONARY
  5
1F5
330
1F4
100
AcDbDictionary
280
     1
281
     1
  0
DICTIONARY
  5
4E1
330
4E0
100
AcDbDictionary
280
     1
281
     1
  3
ACAD_DIMASSOC
360
4E2
  0
DICTIONARY
  5
4E4
330
4E3
100
AcDbDictionary
280
     1
281
     1
  3
ACAD_DIMASSOC
360
4E5
  0
DICTIONARY
  5
4E7
330
4E6
100
AcDbDictionary
280
     1
281
     1
  3
ACAD_DIMASSOC
360
4E8
  0
DICTIONARY
  5
4EA
330
4E9
100
AcDbDictionary
280
     1
281
     1
  3
ACAD_DIMASSOC
360
4EB
  0
DICTIONARY
  5
4ED
330
4EC
100
AcDbDictionary
280
     1
281
     1
  3
ACAD_DIMASSOC
360
4EE
  0
DICTIONARY
  5
4F0
330
4EF
100
AcDbDictionary
280
     1
281
     1
  3
ACAD_DIMASSOC
360
4F1
  0
DICTIONARY
  5
4F3
330
4F2
100
AcDbDictionary
280
     1
281
     1
  3
ACAD_DIMASSOC
360
4F4
  0
DICTIONARY
  5
4F6
330
4F5
100
AcDbDictionary
280
     1
281
     1
  3
ACAD_DIMASSOC
360
4F7
  0
DICTIONARY
  5
4F9
330
4F8
100
AcDbDictionary
280
     1
281
     1
  3
ACAD_DIMASSOC
360
4FA
  0
DICTIONARY
  5
4FC
330
4FB
100
AcDbDictionary
280
     1
281
     1
  3
ACAD_DIMASSOC
360
4FD
  0
DICTIONARY
  5
4FF
330
4FE
100
AcDbDictionary
280
     1
281
     1
  3
ACAD_DIMASSOC
360
500
  0
DICTIONARY
  5
502
330
501
100
AcDbDictionary
280
     1
281
     1
  3
ACAD_DIMASSOC
360
503
  0
DICTIONARY
  5
505
330
504
100
AcDbDictionary
280
     1
281
     1
  3
ACAD_DIMASSOC
360
506
  0
DICTIONARY
  5
508
330
507
100
AcDbDictionary
280
     1
281
     1
  3
ACAD_DIMASSOC
360
509
  0
DICTIONARY
  5
50B
330
50A
100
AcDbDictionary
280
     1
281
     1
  3
ACAD_DIMASSOC
360
50C
  0
DICTIONARY
  5
50E
330
50D
100
AcDbDictionary
280
     1
281
     1
  3
ACAD_DIMASSOC
360
50F
  0
DICTIONARY
  5
511
330
510
100
AcDbDictionary
280
     1
281
     1
  3
ACAD_DIMASSOC
360
512
  0
DICTIONARY
  5
514
330
513
100
AcDbDictionary
280
     1
281
     1
  3
ACAD_DIMASSOC
360
515
  0
DICTIONARY
  5
517
330
516
100
AcDbDictionary
280
     1
281
     1
  3
ACAD_DIMASSOC
360
518
  0
DICTIONARY
  5
51B
330
51A
100
AcDbDictionary
280
     1
281
     1
  3
ACAD_DIMASSOC
360
51C
  0
DICTIONARY
  5
51E
330
51D
100
AcDbDictionary
280
     1
281
     1
  3
ACAD_DIMASSOC
360
51F
  0
DICTIONARY
  5
521
330
520
100
AcDbDictionary
280
     1
281
     1
  3
ACAD_DIMASSOC
360
522
  0
DICTIONARY
  5
6B
102
{ACAD_REACTORS
330
C
102
}
330
C
100
AcDbDictionary
281
     1
  0
DICTIONARY
  5
D
102
{ACAD_REACTORS
330
C
102
}
330
C
100
AcDbDictionary
281
     1
  0
DICTIONARY
  5
1A
102
{ACAD_REACTORS
330
C
102
}
330
C
100
AcDbDictionary
281
     1
  3
Layout1
350
D3
  3
Layout2
350
D7
  3
Model
350
22
  0
DICTIONARY
  5
6A
102
{ACAD_REACTORS
330
C
102
}
330
C
100
AcDbDictionary
281
     1
  3
ByBlock
350
ED
  3
ByLayer
350
EC
  3
Global
350
EE
  0
DICTIONARY
  5
12D
102
{ACAD_REACTORS
330
C
102
}
330
C
100
AcDbDictionary
281
     1
  3
Annotativa
350
13B
  3
Standard
350
12E
  0
DICTIONARY
  5
17
102
{ACAD_REACTORS
330
C
102
}
330
C
100
AcDbDictionary
281
     1
  3
Standard
350
18
  0
DICTIONARY
  5
19
102
{ACAD_REACTORS
330
C
102
}
330
C
100
AcDbDictionary
281
     1
  0
ACDBDICTIONARYWDFLT
  5
E
102
{ACAD_REACTORS
330
C
102
}
330
C
100
AcDbDictionary
281
     1
  3
Normal
350
F
100
AcDbDictionaryWithDefault
340
F
  0
DICTIONARY
  5
10C
102
{ACAD_REACTORS
330
C
102
}
330
C
100
AcDbDictionary
281
     1
  3
A0
350
10D
  3
A1
350
1BE
  3
A2
350
1BF
  3
A3
350
1C0
  3
A4
350
1C1
  3
A5
350
1C2
  3
A6
350
1C3
  3
A7
350
1C4
  3
A8
350
1C5
  3
A9
350
1C6
  3
B0
350
1C7
  3
B1
350
1C8
  3
B2
350
1C9
  3
B3
350
1CA
  3
B4
350
1CB
  3
B5
350
1CC
  3
B6
350
1CD
  0
DICTIONARY
  5
7E
102
{ACAD_REACTORS
330
C
102
}
330
C
100
AcDbDictionary
281
     1
  3
Standard
350
7F
  0
DICTIONARY
  5
EF
102
{ACAD_REACTORS
330
C
102
}
330
C
100
AcDbDictionary
281
     1
  3
2dWireframe
350
F5
  3
3D Hidden
350
F7
  3
3dWireframe
350
F6
  3
Basic
350
F4
  3
Brighten
350
FB
  3
ColorChange
350
FF
  3
Conceptual
350
F8
  3
Dim
350
FA
  3
EdgeColorOff
350
1E6
  3
Facepattern
350
FE
  3
Flat
350
F0
  3
FlatWithEdges
350
F1
  3
Gouraud
350
F2
  3
GouraudWithEdges
350
F3
  3
JitterOff
350
1E4
  3
Linepattern
350
FD
  3
OverhangOff
350
1E5
  3
Realistic
350
F9
  3
Thicken
350
FC
  0
XRECORD
  5
6A9
102
{ACAD_REACTORS
330
C
102
}
330
C
100
AcDbXrecord
280
     1
 90
        1
330
7F
  0
DICTIONARY
  5
5E
102
{ACAD_REACTORS
330
C
102
}
330
C
100
AcDbDictionary
281
     1
  3
CANNOSCALE
350
146
  3
CMLEADERSTYLE
350
145
  3
CTABLESTYLE
350
84
  3
DIMASSOC
350
5F
  3
HIDETEXT
350
63
  3
LAYEREVAL
350
1AE
  3
LAYERNOTIFY
350
1AF
  3
LIGHTINGUNITS
350
6A4
  3
MSLTSCALE
350
6A3
  3
PSOLHEIGHT
350
6A6
  3
PSOLWIDTH
350
6A5
  3
XCLIPFRAME
350
6A7
  0
DICTIONARY
  5
329
102
{ACAD_REACTORS
330
328
102
}
330
328
100
AcDbDictionary
281
     1
  0
DIMASSOC
  5
4E2
102
{ACAD_REACTORS
330
4E1
102
}
330
4E1
100
AcDbDimAssoc
330
4E0
 90
        3
 70
     0
 71
     0
  1
AcDbOsnapPointRef
 72
     8
331
450
 73
     2
 91
        0
 40
0.7327953782596685
 10
0.0
 20
0.0
 30
0.0
 75
     1
  1
AcDbOsnapPointRef
 72
     0
 40
0.0
 10
1435.977314566857
 20
3354.764968109365
 30
0.0
 75
     0
  1
AcDbOsnapPointRef
 72
     8
331
44C
 73
     2
 91
        0
 40
0.2672118645995523
 10
0.0
 20
0.0
 30
0.0
 75
     1
  1
AcDbOsnapPointRef
 72
     8
331
450
 73
     2
 91
        0
 40
0.7327953782596685
 10
0.0
 20
0.0
 30
0.0
 75
     1
  1
AcDbOsnapPointRef
 72
     0
 40
0.0
 10
1435.977314566857
 20
3354.764968109365
 30
0.0
 75
     0
  0
DIMASSOC
  5
4E5
102
{ACAD_REACTORS
330
4E4
102
}
330
4E4
100
AcDbDimAssoc
330
4E3
 90
        3
 70
     0
 71
     0
  1
AcDbOsnapPointRef
 72
     8
331
44C
 73
     2
 91
        0
 40
0.2672118645995523
 10
0.0
 20
0.0
 30
0.0
 75
     1
  1
AcDbOsnapPointRef
 72
     0
 40
0.0
 10
1454.251921251368
 20
3353.950209635462
 30
0.0
 75
     0
  1
AcDbOsnapPointRef
 72
     2
331
43C
 73
     2
 91
        0
 40
0.5
 10
0.0
 20
0.0
 30
0.0
 75
     0
  0
DIMASSOC
  5
4E8
102
{ACAD_REACTORS
330
4E7
102
}
330
4E7
100
AcDbDimAssoc
330
4E6
 90
        3
 70
     0
 71
     0
  1
AcDbOsnapPointRef
 72
     2
331
43C
 73
     2
 91
        0
 40
0.5
 10
0.0
 20
0.0
 30
0.0
 75
     0
  1
AcDbOsnapPointRef
 72
     2
331
438
 73
     2
 91
        0
 40
0.500000000000065
 10
0.0
 20
0.0
 30
0.0
 75
     0
  0
DIMASSOC
  5
4EB
102
{ACAD_REACTORS
330
4EA
102
}
330
4EA
100
AcDbDimAssoc
330
4E9
 90
        1
 70
     0
 71
     0
  1
AcDbOsnapPointRef
 72
     2
331
450
 73
     2
 91
        0
 40
0.500000000000065
 10
0.0
 20
0.0
 30
0.0
 75
     0
  0
DIMASSOC
  5
4EE
102
{ACAD_REACTORS
330
4ED
102
}
330
4ED
100
AcDbDimAssoc
330
4EC
 90
        3
 70
     0
 71
     0
  1
AcDbOsnapPointRef
 72
     2
331
4AA
 73
     2
 91
        0
 40
0.5
 10
0.0
 20
0.0
 30
0.0
 75
     0
  1
AcDbOsnapPointRef
 72
     2
331
496
 73
     2
 91
        0
 40
0.4999999999999957
 10
0.0
 20
0.0
 30
0.0
 75
     0
  0
DIMASSOC
  5
4F1
102
{ACAD_REACTORS
330
4F0
102
}
330
4F0
100
AcDbDimAssoc
330
4EF
 90
        3
 70
     0
 71
     0
  1
AcDbOsnapPointRef
 72
     2
331
43A
 73
     2
 91
        0
 40
0.5
 10
0.0
 20
0.0
 30
0.0
 75
     0
  1
AcDbOsnapPointRef
 72
     8
331
49A
 73
     2
 91
        0
 40
0.4264739947315974
 10
0.0
 20
0.0
 30
0.0
 75
     1
  1
AcDbOsnapPointRef
 72
     2
331
43A
 73
     2
 91
        0
 40
0.5
 10
0.0
 20
0.0
 30
0.0
 75
     0
  0
DIMASSOC
  5
4F4
102
{ACAD_REACTORS
330
4F3
102
}
330
4F3
100
AcDbDimAssoc
330
4F2
 90
        3
 70
     0
 71
     0
  1
AcDbOsnapPointRef
 72
     2
331
49A
 73
     2
 91
        0
 40
0.5000000000000055
 10
0.0
 20
0.0
 30
0.0
 75
     0
  1
AcDbOsnapPointRef
 72
     2
331
49E
 73
     2
 91
        0
 40
0.4999999999999952
 10
0.0
 20
0.0
 30
0.0
 75
     0
  0
DIMASSOC
  5
4F7
102
{ACAD_REACTORS
330
4F6
102
}
330
4F6
100
AcDbDimAssoc
330
4F5
 90
        3
 70
     0
 71
     0
  1
AcDbOsnapPointRef
 72
     2
331
4A8
 73
     2
 91
        0
 40
0.5
 10
0.0
 20
0.0
 30
0.0
 75
     0
  1
AcDbOsnapPointRef
 72
     2
331
49C
 73
     2
 91
        0
 40
0.5
 10
0.0
 20
0.0
 30
0.0
 75
     0
  0
DIMASSOC
  5
4FA
102
{ACAD_REACTORS
330
4F9
102
}
330
4F9
100
AcDbDimAssoc
330
4F8
 90
        3
 70
     0
 71
     0
  1
AcDbOsnapPointRef
 72
    13
331
4A8
 73
     2
 91
        0
 40
0.0
 10
0.0
 20
0.0
 30
2.000000000000000E+50
 75
     0
  1
AcDbOsnapPointRef
 72
     1
331
4A4
 73
     2
 91
        0
 40
1.0
 10
0.0
 20
0.0
 30
2.000000000000000E+50
 75
     0
  0
DIMASSOC
  5
4FD
102
{ACAD_REACTORS
330
4FC
102
}
330
4FC
100
AcDbDimAssoc
330
4FB
 90
        3
 70
     0
 71
     0
  1
AcDbOsnapPointRef
 72
     1
331
4A4
 73
     2
 91
        0
 40
1.0
 10
0.0
 20
0.0
 30
2.000000000000000E+50
 75
     0
  1
AcDbOsnapPointRef
 72
     2
331
4A0
 73
     2
 91
        0
 40
0.5000000000000295
 10
0.0
 20
0.0
 30
0.0
 75
     0
  0
DIMASSOC
  5
500
102
{ACAD_REACTORS
330
4FF
102
}
330
4FF
100
AcDbDimAssoc
330
4FE
 90
        3
 70
     0
 71
     0
  1
AcDbOsnapPointRef
 72
     2
331
4A0
 73
     2
 91
        0
 40
0.5000000000000295
 10
0.0
 20
0.0
 30
0.0
 75
     0
  1
AcDbOsnapPointRef
 72
     8
331
49C
 73
     2
 91
        0
 40
0.9699977130812458
 10
0.0
 20
0.0
 30
0.0
 75
     1
  1
AcDbOsnapPointRef
 72
     0
 40
0.0
 10
1457.051851758854
 20
3241.950209635463
 30
0.0
 75
     0
  0
DIMASSOC
  5
503
102
{ACAD_REACTORS
330
502
102
}
330
502
100
AcDbDimAssoc
330
501
 90
        3
 70
     0
 71
     0
  1
AcDbOsnapPointRef
 72
     2
331
43A
 73
     2
 91
        0
 40
0.5
 10
0.0
 20
0.0
 30
0.0
 75
     0
  1
AcDbOsnapPointRef
 72
     2
331
475
 73
     2
 91
        0
 40
0.5000000000000037
 10
0.0
 20
0.0
 30
0.0
 75
     0
  0
DIMASSOC
  5
506
102
{ACAD_REACTORS
330
505
102
}
330
505
100
AcDbDimAssoc
330
504
 90
        3
 70
     0
 71
     0
  1
AcDbOsnapPointRef
 72
     2
331
44E
 73
     2
 91
        0
 40
0.5
 10
0.0
 20
0.0
 30
0.0
 75
     0
  1
AcDbOsnapPointRef
 72
     2
331
456
 73
     2
 91
        0
 40
0.5000000000000161
 10
0.0
 20
0.0
 30
0.0
 75
     0
  0
DIMASSOC
  5
509
102
{ACAD_REACTORS
330
508
102
}
330
508
100
AcDbDimAssoc
330
507
 90
        3
 70
     0
 71
     0
  1
AcDbOsnapPointRef
 72
     2
331
456
 73
     2
 91
        0
 40
0.5000000000000161
 10
0.0
 20
0.0
 30
0.0
 75
     0
  1
AcDbOsnapPointRef
 72
     2
331
465
 73
     2
 91
        0
 40
0.5
 10
0.0
 20
0.0
 30
0.0
 75
     0
  0
DIMASSOC
  5
50C
102
{ACAD_REACTORS
330
50B
102
}
330
50B
100
AcDbDimAssoc
330
50A
 90
        3
 70
     0
 71
     0
  1
AcDbOsnapPointRef
 72
     2
331
463
 73
     2
 91
        0
 40
0.5
 10
0.0
 20
0.0
 30
0.0
 75
     0
  1
AcDbOsnapPointRef
 72
     2
331
467
 73
     2
 91
        0
 40
0.5
 10
0.0
 20
0.0
 30
0.0
 75
     0
  0
DIMASSOC
  5
50F
102
{ACAD_REACTORS
330
50E
102
}
330
50E
100
AcDbDimAssoc
330
50D
 90
        3
 70
     0
 71
     0
  1
AcDbOsnapPointRef
 72
     2
331
467
 73
     2
 91
        0
 40
0.5
 10
0.0
 20
0.0
 30
0.0
 75
     0
  1
AcDbOsnapPointRef
 72
     2
331
473
 73
     2
 91
        0
 40
0.5
 10
0.0
 20
0.0
 30
0.0
 75
     0
  0
DIMASSOC
  5
512
102
{ACAD_REACTORS
330
511
102
}
330
511
100
AcDbDimAssoc
330
510
 90
        3
 70
     0
 71
     0
  1
AcDbOsnapPointRef
 72
     2
331
473
 73
     2
 91
        0
 40
0.5
 10
0.0
 20
0.0
 30
0.0
 75
     0
  1
AcDbOsnapPointRef
 72
     2
331
477
 73
     2
 91
        0
 40
0.5
 10
0.0
 20
0.0
 30
0.0
 75
     0
  0
DIMASSOC
  5
515
102
{ACAD_REACTORS
330
514
102
}
330
514
100
AcDbDimAssoc
330
513
 90
        3
 70
     0
 71
     0
  1
AcDbOsnapPointRef
 72
     2
331
477
 73
     2
 91
        0
 40
0.5
 10
0.0
 20
0.0
 30
0.0
 75
     0
  1
AcDbOsnapPointRef
 72
     2
331
483
 73
     2
 91
        0
 40
0.5000000000001421
 10
0.0
 20
0.0
 30
0.0
 75
     0
  0
DIMASSOC
  5
518
102
{ACAD_REACTORS
330
517
102
}
330
517
100
AcDbDimAssoc
330
516
 90
        3
 70
     0
 71
     0
  1
AcDbOsnapPointRef
 72
     2
331
483
 73
     2
 91
        0
 40
0.5000000000001421
 10
0.0
 20
0.0
 30
0.0
 75
     0
  1
AcDbOsnapPointRef
 72
     2
331
487
 73
     2
 91
        0
 40
0.5
 10
0.0
 20
0.0
 30
0.0
 75
     0
  0
DIMASSOC
  5
51C
102
{ACAD_REACTORS
330
51B
102
}
330
51B
100
AcDbDimAssoc
330
51A
 90
        3
 70
     0
 71
     0
  1
AcDbOsnapPointRef
 72
     2
331
454
 73
     2
 91
        0
 40
0.5
 10
0.0
 20
0.0
 30
0.0
 75
     0
  1
AcDbOsnapPointRef
 72
     8
331
4A8
 73
     2
 91
        0
 40
0.5720642811055404
 10
0.0
 20
0.0
 30
0.0
 75
     1
  1
AcDbOsnapPointRef
 72
     2
331
454
 73
     2
 91
        0
 40
0.5
 10
0.0
 20
0.0
 30
0.0
 75
     0
  0
DIMASSOC
  5
51F
102
{ACAD_REACTORS
330
51E
102
}
330
51E
100
AcDbDimAssoc
330
51D
 90
        3
 70
     0
 71
     0
  1
AcDbOsnapPointRef
 72
     2
331
46D
 73
     2
 91
        0
 40
0.499999999999995
 10
0.0
 20
0.0
 30
0.0
 75
     0
  1
AcDbOsnapPointRef
 72
     2
331
4A6
 73
     2
 91
        0
 40
0.5000000000000047
 10
0.0
 20
0.0
 30
0.0
 75
     0
  0
DIMASSOC
  5
522
102
{ACAD_REACTORS
330
521
102
}
330
521
100
AcDbDimAssoc
330
520
 90
        3
 70
     0
 71
     0
  1
AcDbOsnapPointRef
 72
     2
331
475
 73
     2
 91
        0
 40
0.5000000000000037
 10
0.0
 20
0.0
 30
0.0
 75
     0
  1
AcDbOsnapPointRef
 72
     8
331
4A2
 73
     2
 91
        0
 40
0.5000000000002874
 10
0.0
 20
0.0
 30
0.0
 75
     1
  1
AcDbOsnapPointRef
 72
     2
331
475
 73
     2
 91
        0
 40
0.5000000000000037
 10
0.0
 20
0.0
 30
0.0
 75
     0
  0
LAYOUT
  5
D3
102
{ACAD_REACTORS
330
1A
102
}
330
1A
100
AcDbPlotSettings
  1

  2
C:\Documents and Settings\basas\Application Data\Autodesk\AutoCAD 2005\R16.1\enu\plotters\Default Windows System Printer.pc3
  4

  6

 40
0.0
 41
0.0
 42
0.0
 43
0.0
 44
0.0
 45
0.0
 46
0.0
 47
0.0
 48
0.0
 49
0.0
140
0.0
141
0.0
142
1.0
143
1.0
 70
   688
 72
     0
 73
     0
 74
     5
  7

 75
    16
147
1.0
 76
     0
 77
     2
 78
   300
148
0.0
149
0.0
100
AcDbLayout
  1
Layout1
 70
     1
 71
     1
 10
0.0
 20
0.0
 11
12.0
 21
9.0
 12
0.0
 22
0.0
 32
0.0
 14
0.0
 24
0.0
 34
0.0
 15
0.0
 25
0.0
 35
0.0
146
0.0
 13
0.0
 23
0.0
 33
0.0
 16
1.0
 26
0.0
 36
0.0
 17
0.0
 27
1.0
 37
0.0
 76
     0
330
D2
  0
LAYOUT
  5
D7
102
{ACAD_REACTORS
330
1A
102
}
330
1A
100
AcDbPlotSettings
  1

  2
C:\Documents and Settings\basas\Application Data\Autodesk\AutoCAD 2005\R16.1\enu\plotters\Default Windows System Printer.pc3
  4

  6

 40
0.0
 41
0.0
 42
0.0
 43
0.0
 44
0.0
 45
0.0
 46
0.0
 47
0.0
 48
0.0
 49
0.0
140
0.0
141
0.0
142
1.0
143
1.0
 70
   688
 72
     0
 73
     0
 74
     5
  7

 75
    16
147
1.0
 76
     0
 77
     2
 78
   300
148
0.0
149
0.0
100
AcDbLayout
  1
Layout2
 70
     1
 71
     2
 10
0.0
 20
0.0
 11
12.0
 21
9.0
 12
0.0
 22
0.0
 32
0.0
 14
0.0
 24
0.0
 34
0.0
 15
0.0
 25
0.0
 35
0.0
146
0.0
 13
0.0
 23
0.0
 33
0.0
 16
1.0
 26
0.0
 36
0.0
 17
0.0
 27
1.0
 37
0.0
 76
     0
330
D6
  0
LAYOUT
  5
22
102
{ACAD_REACTORS
330
1A
102
}
330
1A
100
AcDbPlotSettings
  1

  2
none_device
  4
ISO_A4_(210.00_x_297.00_MM)
  6

 40
7.5
 41
20.0
 42
7.5
 43
20.0
 44
210.0
 45
297.0
 46
11.54999923706054
 47
-13.65000009536743
 48
0.0
 49
0.0
140
0.0
141
0.0
142
1.0
143
8.704084754739808
 70
 11952
 72
     1
 73
     0
 74
     0
  7

 75
     0
147
0.1148885871608098
 76
     0
 77
     2
 78
   300
148
0.0
149
0.0
100
AcDbLayout
  1
Model
 70
     1
 71
     0
 10
0.0
 20
0.0
 11
12.0
 21
9.0
 12
0.0
 22
0.0
 32
0.0
 14
0.0
 24
0.0
 34
0.0
 15
0.0
 25
0.0
 35
0.0
146
0.0
 13
0.0
 23
0.0
 33
0.0
 16
1.0
 26
0.0
 36
0.0
 17
0.0
 27
1.0
 37
0.0
 76
     0
330
1F
331
EA
1001
ACAD_PSEXT
1000
None
1000
None
1000
Not applicable
1000
The layout will not be plotted unless a new plotter configuration name is selected.
1070
     0
  0
MATERIAL
  5
ED
102
{ACAD_XDICTIONARY
360
6AD
102
}
102
{ACAD_REACTORS
330
6A
102
}
330
6A
100
AcDbMaterial
  1
ByBlock
  0
MATERIAL
  5
EC
102
{ACAD_XDICTIONARY
360
6AB
102
}
102
{ACAD_REACTORS
330
6A
102
}
330
6A
100
AcDbMaterial
  1
ByLayer
  0
MATERIAL
  5
EE
102
{ACAD_XDICTIONARY
360
173
102
}
102
{ACAD_REACTORS
330
6A
102
}
330
6A
100
AcDbMaterial
  1
Global
 43
0.0007999999797903
 43
0.0
 43
0.0
 43
0.0
 43
0.0
 43
0.0007999999797903
 43
0.0
 43
0.0
 43
0.0
 43
0.0
 43
1.0
 43
0.0
 43
0.0
 43
0.0
 43
0.0
 43
1.0
 49
0.0007999999797903
 49
0.0
 49
0.0
 49
0.0
 49
0.0
 49
0.0007999999797903
 49
0.0
 49
0.0
 49
0.0
 49
0.0
 49
1.0
 49
0.0
 49
0.0
 49
0.0
 49
0.0
 49
1.0
142
0.0007999999797903
142
0.0
142
0.0
142
0.0
142
0.0
142
0.0007999999797903
142
0.0
142
0.0
142
0.0
142
0.0
142
1.0
142
0.0
142
0.0
142
0.0
142
0.0
142
1.0
144
0.0007999999797903
144
0.0
144
0.0
144
0.0
144
0.0
144
0.0007999999797903
144
0.0
144
0.0
144
0.0
144
0.0
144
1.0
144
0.0
144
0.0
144
0.0
144
0.0
144
1.0
1001
ACAD
1070
    -1
1070
     3
1070
     0
1000

1071
        0
1070
     0
  0
MLEADERSTYLE
  5
13B
102
{ACAD_REACTORS
330
12D
102
}
330
12D
100
AcDbMLeaderStyle
170
     2
171
     1
172
     0
 90
        2
 40
0.0
 41
0.0
173
     1
 91
-1056964608
340
14
 92
       -2
290
     1
 42
2.0
291
     1
 43
8.0
  3
Standard
 44
4.0
300

342
11
174
     1
178
     1
175
     1
176
     0
 93
-1056964608
 45
4.0
292
     0
297
     0
 46
4.0
 94
-1056964608
 47
1.0
 49
1.0
140
1.0
293
     1
141
0.0
294
     1
177
     0
142
1.0
295
     0
296
     1
143
3.75
1001
ACAD_MLEADERVER
1070
     2
  0
MLEADERSTYLE
  5
12E
102
{ACAD_REACTORS
330
12D
102
}
330
12D
100
AcDbMLeaderStyle
170
     2
171
     1
172
     0
 90
        2
 40
0.0
 41
0.0
173
     1
 91
-1056964608
340
14
 92
       -2
290
     1
 42
2.0
291
     1
 43
8.0
  3
Standard
 44
4.0
300

342
11
174
     1
178
     1
175
     1
176
     0
 93
-1056964608
 45
4.0
292
     0
297
     0
 46
4.0
 94
-1056964608
 47
1.0
 49
1.0
140
1.0
293
     1
141
0.0
294
     1
177
     0
142
1.0
295
     0
296
     0
143
3.75
1001
ACAD_MLEADERVER
1070
     2
  0
MLINESTYLE
  5
18
102
{ACAD_REACTORS
330
17
102
}
330
17
100
AcDbMlineStyle
  2
STANDARD
 70
     0
  3

 62
   256
 51
90.0
 52
90.0
 71
     2
 49
0.5
 62
   256
  6
BYLAYER
 49
-0.5
 62
   256
  6
BYLAYER
  0
ACDBPLACEHOLDER
  5
F
102
{ACAD_REACTORS
330
E
102
}
330
E
  0
SCALE
  5
10D
102
{ACAD_REACTORS
330
10C
102
}
330
10C
100
AcDbScale
 70
     0
300
1:1
140
1.0
141
1.0
290
     1
  0
SCALE
  5
1BE
102
{ACAD_REACTORS
330
10C
102
}
330
10C
100
AcDbScale
 70
     0
300
1:2
140
1.0
141
2.0
290
     0
  0
SCALE
  5
1BF
102
{ACAD_REACTORS
330
10C
102
}
330
10C
100
AcDbScale
 70
     0
300
1:4
140
1.0
141
4.0
290
     0
  0
SCALE
  5
1C0
102
{ACAD_REACTORS
330
10C
102
}
330
10C
100
AcDbScale
 70
     0
300
1:5
140
1.0
141
5.0
290
     0
  0
SCALE
  5
1C1
102
{ACAD_REACTORS
330
10C
102
}
330
10C
100
AcDbScale
 70
     0
300
1:8
140
1.0
141
8.0
290
     0
  0
SCALE
  5
1C2
102
{ACAD_REACTORS
330
10C
102
}
330
10C
100
AcDbScale
 70
     0
300
1:10
140
1.0
141
10.0
290
     0
  0
SCALE
  5
1C3
102
{ACAD_REACTORS
330
10C
102
}
330
10C
100
AcDbScale
 70
     0
300
1:16
140
1.0
141
16.0
290
     0
  0
SCALE
  5
1C4
102
{ACAD_REACTORS
330
10C
102
}
330
10C
100
AcDbScale
 70
     0
300
1:20
140
1.0
141
20.0
290
     0
  0
SCALE
  5
1C5
102
{ACAD_REACTORS
330
10C
102
}
330
10C
100
AcDbScale
 70
     0
300
1:30
140
1.0
141
30.0
290
     0
  0
SCALE
  5
1C6
102
{ACAD_REACTORS
330
10C
102
}
330
10C
100
AcDbScale
 70
     0
300
1:40
140
1.0
141
40.0
290
     0
  0
SCALE
  5
1C7
102
{ACAD_REACTORS
330
10C
102
}
330
10C
100
AcDbScale
 70
     0
300
1:50
140
1.0
141
50.0
290
     0
  0
SCALE
  5
1C8
102
{ACAD_REACTORS
330
10C
102
}
330
10C
100
AcDbScale
 70
     0
300
1:100
140
1.0
141
100.0
290
     0
  0
SCALE
  5
1C9
102
{ACAD_REACTORS
330
10C
102
}
330
10C
100
AcDbScale
 70
     0
300
2:1
140
2.0
141
1.0
290
     0
  0
SCALE
  5
1CA
102
{ACAD_REACTORS
330
10C
102
}
330
10C
100
AcDbScale
 70
     0
300
4:1
140
4.0
141
1.0
290
     0
  0
SCALE
  5
1CB
102
{ACAD_REACTORS
330
10C
102
}
330
10C
100
AcDbScale
 70
     0
300
8:1
140
8.0
141
1.0
290
     0
  0
SCALE
  5
1CC
102
{ACAD_REACTORS
330
10C
102
}
330
10C
100
AcDbScale
 70
     0
300
10:1
140
10.0
141
1.0
290
     0
  0
SCALE
  5
1CD
102
{ACAD_REACTORS
330
10C
102
}
330
10C
100
AcDbScale
 70
     0
300
100:1
140
100.0
141
1.0
290
     0
  0
TABLESTYLE
  5
7F
102
{ACAD_XDICTIONARY
360
162
102
}
102
{ACAD_REACTORS
330
7E
102
}
330
7E
100
AcDbTableStyle
  3
Standard
 70
     0
 71
     0
 40
1.5
 41
1.5
280
     0
281
     0
  7
Standard
140
4.5
170
     2
 62
     0
 63
     7
283
     0
274
    -2
284
     1
 64
     0
275
    -2
285
     1
 65
     0
276
    -2
286
     1
 66
     0
277
    -2
287
     1
 67
     0
278
    -2
288
     1
 68
     0
279
    -2
289
     1
 69
     0
  7
Standard
140
6.0
170
     5
 62
     0
 63
     7
283
     0
274
    -2
284
     1
 64
     0
275
    -2
285
     1
 65
     0
276
    -2
286
     1
 66
     0
277
    -2
287
     1
 67
     0
278
    -2
288
     1
 68
     0
279
    -2
289
     1
 69
     0
  7
Standard
140
4.5
170
     5
 62
     0
 63
     7
283
     0
274
    -2
284
     1
 64
     0
275
    -2
285
     1
 65
     0
276
    -2
286
     1
 66
     0
277
    -2
287
     1
 67
     0
278
    -2
288
     1
 68
     0
279
    -2
289
     1
 69
     0
  0
VISUALSTYLE
  5
F5
102
{ACAD_XDICTIONARY
360
6BA
102
}
102
{ACAD_REACTORS
330
EF
102
}
330
EF
100
AcDbVisualStyle
  2
2dWireframe
 70
     4
 71
     0
 72
     2
 73
     1
 90
        0
 40
-0.6
 41
-30.0
 62
     5
 63
     7
421
 16777215
 74
     1
 91
        4
 64
     7
 65
   257
 75
     1
175
     1
 42
1.0
 92
        0
 66
   257
 43
1.0
 76
     1
 77
     6
 78
     2
 67
     7
 79
     5
170
     0
171
     0
290
     0
174
     0
 93
        1
 44
0.0
173
     0
291
     0
 45
0.0
1001
ACAD
1000
AcDbSavedByObjectVersion
1070
     0
  0
VISUALSTYLE
  5
F7
102
{ACAD_XDICTIONARY
360
6BE
102
}
102
{ACAD_REACTORS
330
EF
102
}
330
EF
100
AcDbVisualStyle
  2
3D Hidden
 70
     6
 71
     1
 72
     2
 73
     2
 90
        0
 40
-0.6
 41
-30.0
 62
     5
 63
     7
421
 16777215
 74
     2
 91
        2
 64
     7
 65
   257
 75
     2
175
     1
 42
40.0
 92
        0
 66
   257
 43
1.0
 76
     1
 77
     6
 78
     2
 67
     7
 79
     3
170
     0
171
     0
290
     0
174
     0
 93
        1
 44
0.0
173
     0
291
     0
 45
0.0
1001
ACAD
1000
AcDbSavedByObjectVersion
1070
     0
  0
VISUALSTYLE
  5
F6
102
{ACAD_XDICTIONARY
360
6BC
102
}
102
{ACAD_REACTORS
330
EF
102
}
330
EF
100
AcDbVisualStyle
  2
3dWireframe
 70
     5
 71
     0
 72
     2
 73
     1
 90
        0
 40
-0.6
 41
-30.0
 62
     5
 63
     7
421
 16777215
 74
     1
 91
        4
 64
     7
 65
   257
 75
     1
175
     1
 42
1.0
 92
        0
 66
   257
 43
1.0
 76
     1
 77
     6
 78
     2
 67
     7
 79
     5
170
     0
171
     0
290
     0
174
     0
 93
        1
 44
0.0
173
     0
291
     0
 45
0.0
1001
ACAD
1000
AcDbSavedByObjectVersion
1070
     0
  0
VISUALSTYLE
  5
F4
102
{ACAD_XDICTIONARY
360
6B8
102
}
102
{ACAD_REACTORS
330
EF
102
}
330
EF
100
AcDbVisualStyle
  2
Basic
 70
     7
 71
     1
 72
     0
 73
     1
 90
        0
 40
-0.6
 41
-30.0
 62
     5
 63
     7
421
 16777215
 74
     0
 91
        4
 64
     7
 65
   257
 75
     1
175
     1
 42
1.0
 92
        8
 66
     7
 43
1.0
 76
     1
 77
     6
 78
     2
 67
     7
 79
     5
170
     0
171
     0
290
     0
174
     0
 93
        1
 44
0.0
173
     0
291
     1
 45
0.0
1001
ACAD
1000
AcDbSavedByObjectVersion
1070
     0
  0
VISUALSTYLE
  5
FB
102
{ACAD_XDICTIONARY
360
6C6
102
}
102
{ACAD_REACTORS
330
EF
102
}
330
EF
100
AcDbVisualStyle
  2
Brighten
 70
    12
 71
     2
 72
     2
 73
     1
 90
        0
 40
-0.6
 41
-30.0
 62
     5
 63
     7
421
 16777215
 74
     1
 91
        4
 64
     7
 65
   257
 75
     1
175
     1
 42
1.0
 92
        8
 66
     7
 43
1.0
 76
     1
 77
     6
 78
     2
 67
     7
 79
     5
170
     0
171
     0
290
     0
174
     0
 93
        1
 44
50.0
173
     0
291
     1
 45
0.0
1001
ACAD
1000
AcDbSavedByObjectVersion
1070
     0
  0
VISUALSTYLE
  5
FF
102
{ACAD_XDICTIONARY
360
6CE
102
}
102
{ACAD_REACTORS
330
EF
102
}
330
EF
100
AcDbVisualStyle
  2
ColorChange
 70
    16
 71
     2
 72
     2
 73
     3
 90
        0
 40
-0.6
 41
-30.0
 62
     5
 63
     8
421
  8421504
 74
     1
 91
        4
 64
     7
 65
   257
 75
     1
175
     1
 42
1.0
 92
        8
 66
     8
424
  8421504
 43
1.0
 76
     1
 77
     6
 78
     2
 67
     7
 79
     5
170
     0
171
     0
290
     0
174
     0
 93
        1
 44
0.0
173
     0
291
     1
 45
0.0
1001
ACAD
1000
AcDbSavedByObjectVersion
1070
     0
  0
VISUALSTYLE
  5
F8
102
{ACAD_XDICTIONARY
360
6C0
102
}
102
{ACAD_REACTORS
330
EF
102
}
330
EF
100
AcDbVisualStyle
  2
Conceptual
 70
     9
 71
     3
 72
     2
 73
     1
 90
        0
 40
-0.6
 41
-30.0
 62
     5
 63
     7
421
 16777215
 74
     2
 91
        2
 64
     7
 65
   257
 75
     1
175
     1
 42
40.0
 92
        8
 66
     7
 43
1.0
 76
     1
 77
     6
 78
     2
 67
     7
 79
     3
170
     0
171
     0
290
     0
174
     0
 93
        1
 44
0.0
173
     0
291
     0
 45
0.0
1001
ACAD
1000
AcDbSavedByObjectVersion
1070
     0
  0
VISUALSTYLE
  5
FA
102
{ACAD_XDICTIONARY
360
6C4
102
}
102
{ACAD_REACTORS
330
EF
102
}
330
EF
100
AcDbVisualStyle
  2
Dim
 70
    11
 71
     2
 72
     2
 73
     1
 90
        0
 40
-0.6
 41
-30.0
 62
     5
 63
     7
421
 16777215
 74
     1
 91
        4
 64
     7
 65
   257
 75
     1
175
     1
 42
1.0
 92
        8
 66
     7
 43
1.0
 76
     1
 77
     6
 78
     2
 67
     7
 79
     5
170
     0
171
     0
290
     0
174
     0
 93
        1
 44
-50.0
173
     0
291
     1
 45
0.0
1001
ACAD
1000
AcDbSavedByObjectVersion
1070
     0
  0
VISUALSTYLE
  5
1E6
102
{ACAD_XDICTIONARY
360
6D4
102
}
102
{ACAD_REACTORS
330
EF
102
}
330
EF
100
AcDbVisualStyle
  2
EdgeColorOff
 70
    22
 71
     2
 72
     2
 73
     0
 90
        0
 40
-0.6
 41
-30.0
 62
     5
 63
     7
421
 16777215
 74
     1
 91
        4
 64
     7
 65
   257
 75
     1
175
     1
 42
1.0
 92
        8
 66
     7
 43
1.0
 76
     1
 77
     6
 78
     2
 67
     7
 79
     5
170
     0
171
     0
290
     0
174
     0
 93
        1
 44
0.0
173
     0
291
     1
 45
0.0
1001
ACAD
1000
AcDbSavedByObjectVersion
1070
     0
  0
VISUALSTYLE
  5
FE
102
{ACAD_XDICTIONARY
360
6CC
102
}
102
{ACAD_REACTORS
330
EF
102
}
330
EF
100
AcDbVisualStyle
  2
Facepattern
 70
    15
 71
     2
 72
     2
 73
     1
 90
        0
 40
-0.6
 41
-30.0
 62
     5
 63
     7
421
 16777215
 74
     1
 91
        4
 64
     7
 65
   257
 75
     1
175
     1
 42
1.0
 92
        8
 66
     7
 43
1.0
 76
     1
 77
     6
 78
     2
 67
     7
 79
     5
170
     0
171
     0
290
     0
174
     0
 93
        1
 44
0.0
173
     0
291
     1
 45
0.0
1001
ACAD
1000
AcDbSavedByObjectVersion
1070
     0
  0
VISUALSTYLE
  5
F0
102
{ACAD_XDICTIONARY
360
6B0
102
}
102
{ACAD_REACTORS
330
EF
102
}
330
EF
100
AcDbVisualStyle
  2
Flat
 70
     0
 71
     2
 72
     1
 73
     1
 90
        2
 40
-0.6
 41
30.0
 62
     5
 63
     7
421
 16777215
 74
     0
 91
        4
 64
     7
 65
   257
 75
     1
175
     1
 42
1.0
 92
        8
 66
     7
 43
1.0
 76
     1
 77
     6
 78
     2
 67
     7
 79
     5
170
     0
171
     0
290
     0
174
     0
 93
        1
 44
0.0
173
     0
291
     1
 45
0.0
1001
ACAD
1000
AcDbSavedByObjectVersion
1070
     0
  0
VISUALSTYLE
  5
F1
102
{ACAD_XDICTIONARY
360
6B2
102
}
102
{ACAD_REACTORS
330
EF
102
}
330
EF
100
AcDbVisualStyle
  2
FlatWithEdges
 70
     1
 71
     2
 72
     1
 73
     1
 90
        2
 40
-0.6
 41
30.0
 62
     5
 63
     7
421
 16777215
 74
     1
 91
        4
 64
     7
 65
   257
 75
     1
175
     1
 42
1.0
 92
        0
 66
   257
 43
1.0
 76
     1
 77
     6
 78
     2
 67
     7
 79
     5
170
     0
171
     0
290
     0
174
     0
 93
        1
 44
0.0
173
     0
291
     1
 45
0.0
1001
ACAD
1000
AcDbSavedByObjectVersion
1070
     0
  0
VISUALSTYLE
  5
F2
102
{ACAD_XDICTIONARY
360
6B4
102
}
102
{ACAD_REACTORS
330
EF
102
}
330
EF
100
AcDbVisualStyle
  2
Gouraud
 70
     2
 71
     2
 72
     2
 73
     1
 90
        2
 40
-0.6
 41
30.0
 62
     5
 63
     7
421
 16777215
 74
     0
 91
        4
 64
     7
 65
   257
 75
     1
175
     1
 42
1.0
 92
        0
 66
     7
 43
1.0
 76
     1
 77
     6
 78
     2
 67
     7
 79
     5
170
     0
171
     0
290
     0
174
     0
 93
        1
 44
0.0
173
     0
291
     1
 45
0.0
1001
ACAD
1000
AcDbSavedByObjectVersion
1070
     0
  0
VISUALSTYLE
  5
F3
102
{ACAD_XDICTIONARY
360
6B6
102
}
102
{ACAD_REACTORS
330
EF
102
}
330
EF
100
AcDbVisualStyle
  2
GouraudWithEdges
 70
     3
 71
     2
 72
     2
 73
     1
 90
        2
 40
-0.6
 41
30.0
 62
     5
 63
     7
421
 16777215
 74
     1
 91
        4
 64
     7
 65
   257
 75
     1
175
     1
 42
1.0
 92
        0
 66
   257
 43
1.0
 76
     1
 77
     6
 78
     2
 67
     7
 79
     5
170
     0
171
     0
290
     0
174
     0
 93
        1
 44
0.0
173
     0
291
     1
 45
0.0
1001
ACAD
1000
AcDbSavedByObjectVersion
1070
     0
  0
VISUALSTYLE
  5
1E4
102
{ACAD_XDICTIONARY
360
6D0
102
}
102
{ACAD_REACTORS
330
EF
102
}
330
EF
100
AcDbVisualStyle
  2
JitterOff
 70
    20
 71
     2
 72
     2
 73
     0
 90
        0
 40
-0.6
 41
-30.0
 62
     5
 63
     7
421
 16777215
 74
     1
 91
        4
 64
     7
 65
   257
 75
     1
175
     1
 42
1.0
 92
       10
 66
     7
 43
1.0
 76
     1
 77
     6
 78
     2
 67
     7
 79
     5
170
     0
171
     0
290
     0
174
     0
 93
        1
 44
0.0
173
     0
291
     1
 45
0.0
1001
ACAD
1000
AcDbSavedByObjectVersion
1070
     0
  0
VISUALSTYLE
  5
FD
102
{ACAD_XDICTIONARY
360
6CA
102
}
102
{ACAD_REACTORS
330
EF
102
}
330
EF
100
AcDbVisualStyle
  2
Linepattern
 70
    14
 71
     2
 72
     2
 73
     1
 90
        0
 40
-0.6
 41
-30.0
 62
     5
 63
     7
421
 16777215
 74
     1
 91
        4
 64
     7
 65
   257
 75
     7
175
     7
 42
1.0
 92
        8
 66
     7
 43
1.0
 76
     1
 77
     6
 78
     2
 67
     7
 79
     5
170
     0
171
     0
290
     0
174
     0
 93
        1
 44
0.0
173
     0
291
     1
 45
0.0
1001
ACAD
1000
AcDbSavedByObjectVersion
1070
     0
  0
VISUALSTYLE
  5
1E5
102
{ACAD_XDICTIONARY
360
6D2
102
}
102
{ACAD_REACTORS
330
EF
102
}
330
EF
100
AcDbVisualStyle
  2
OverhangOff
 70
    21
 71
     2
 72
     2
 73
     0
 90
        0
 40
-0.6
 41
-30.0
 62
     5
 63
     7
421
 16777215
 74
     1
 91
        4
 64
     7
 65
   257
 75
     1
175
     1
 42
1.0
 92
        9
 66
     7
 43
1.0
 76
     1
 77
     6
 78
     2
 67
     7
 79
     5
170
     0
171
     0
290
     0
174
     0
 93
        1
 44
0.0
173
     0
291
     1
 45
0.0
1001
ACAD
1000
AcDbSavedByObjectVersion
1070
     0
  0
VISUALSTYLE
  5
F9
102
{ACAD_XDICTIONARY
360
6C2
102
}
102
{ACAD_REACTORS
330
EF
102
}
330
EF
100
AcDbVisualStyle
  2
Realistic
 70
     8
 71
     2
 72
     2
 73
     1
 90
        0
 40
-0.6
 41
-30.0
 62
     5
 63
     7
421
 16777215
 74
     1
 91
        0
 64
     7
 65
   257
 75
     1
175
     1
 42
1.0
 92
        8
 66
     8
424
  7895160
 43
1.0
 76
     1
 77
     6
 78
     2
 67
     7
 79
     5
170
     0
171
     0
290
     0
174
     0
 93
       13
 44
0.0
173
     0
291
     0
 45
0.0
1001
ACAD
1000
AcDbSavedByObjectVersion
1070
     0
  0
VISUALSTYLE
  5
FC
102
{ACAD_XDICTIONARY
360
6C8
102
}
102
{ACAD_REACTORS
330
EF
102
}
330
EF
100
AcDbVisualStyle
  2
Thicken
 70
    13
 71
     2
 72
     2
 73
     1
 90
        0
 40
-0.6
 41
-30.0
 62
     5
 63
     7
421
 16777215
 74
     1
 91
        4
 64
     7
 65
   257
 75
     1
175
     1
 42
1.0
 92
       12
 66
     7
 43
1.0
 76
     1
 77
     6
 78
     2
 67
     7
 79
     5
170
     0
171
     0
290
     0
174
     0
 93
        1
 44
0.0
173
     0
291
     1
 45
0.0
1001
ACAD
1000
AcDbSavedByObjectVersion
1070
     0
  0
DICTIONARYVAR
  5
146
102
{ACAD_REACTORS
330
5E
102
}
330
5E
100
DictionaryVariables
280
     0
  1
1:1
  0
DICTIONARYVAR
  5
145
102
{ACAD_REACTORS
330
5E
102
}
330
5E
100
DictionaryVariables
280
     0
  1
STANDARD
  0
DICTIONARYVAR
  5
84
102
{ACAD_REACTORS
330
5E
102
}
330
5E
100
DictionaryVariables
280
     0
  1
STANDARD
  0
DICTIONARYVAR
  5
5F
102
{ACAD_REACTORS
330
5E
102
}
330
5E
100
DictionaryVariables
280
     0
  1
2
  0
DICTIONARYVAR
  5
63
102
{ACAD_REACTORS
330
5E
102
}
330
5E
100
DictionaryVariables
280
     0
  1
1
  0
DICTIONARYVAR
  5
1AE
102
{ACAD_REACTORS
330
5E
102
}
330
5E
100
DictionaryVariables
280
     0
  1
0
  0
DICTIONARYVAR
  5
1AF
102
{ACAD_REACTORS
330
5E
102
}
330
5E
100
DictionaryVariables
280
     0
  1
0
  0
DICTIONARYVAR
  5
6A4
102
{ACAD_REACTORS
330
5E
102
}
330
5E
100
DictionaryVariables
280
     0
  1
2
  0
DICTIONARYVAR
  5
6A3
102
{ACAD_REACTORS
330
5E
102
}
330
5E
100
DictionaryVariables
280
     0
  1
1
  0
DICTIONARYVAR
  5
6A6
102
{ACAD_REACTORS
330
5E
102
}
330
5E
100
DictionaryVariables
280
     0
  1
80.000000
  0
DICTIONARYVAR
  5
6A5
102
{ACAD_REACTORS
330
5E
102
}
330
5E
100
DictionaryVariables
280
     0
  1
5.000000
  0
DICTIONARYVAR
  5
6A7
102
{ACAD_REACTORS
330
5E
102
}
330
5E
100
DictionaryVariables
280
     0
  1
2
  0
DICTIONARY
  5
6AD
330
ED
100
AcDbDictionary
280
     1
281
     1
  3
ACAD_XREC_ROUNDTRIP
360
6AE
  0
DICTIONARY
  5
6AB
330
EC
100
AcDbDictionary
280
     1
281
     1
  3
ACAD_XREC_ROUNDTRIP
360
6AC
  0
DICTIONARY
  5
173
330
EE
100
AcDbDictionary
280
     1
281
     1
  3
ACAD_XREC_ROUNDTRIP
360
6AF
  3
BUMPTILE
360
175
  3
DIFFUSETILE
360
174
  3
OPACITYTILE
360
176
  3
REFLECTIONTILE
360
177
  0
DICTIONARY
  5
162
330
7F
100
AcDbDictionary
280
     1
281
     1
  3
ACAD_ROUNDTRIP_2008_TABLESTYLE_CELLSTYLEMAP
360
6A8
  3
ACAD_XREC_ROUNDTRIP
360
6AA
  0
DICTIONARY
  5
6BA
330
F5
100
AcDbDictionary
280
     1
281
     1
  3
ACAD_XREC_ROUNDTRIP
360
6BB
  0
DICTIONARY
  5
6BE
330
F7
100
AcDbDictionary
280
     1
281
     1
  3
ACAD_XREC_ROUNDTRIP
360
6BF
  0
DICTIONARY
  5
6BC
330
F6
100
AcDbDictionary
280
     1
281
     1
  3
ACAD_XREC_ROUNDTRIP
360
6BD
  0
DICTIONARY
  5
6B8
330
F4
100
AcDbDictionary
280
     1
281
     1
  3
ACAD_XREC_ROUNDTRIP
360
6B9
  0
DICTIONARY
  5
6C6
330
FB
100
AcDbDictionary
280
     1
281
     1
  3
ACAD_XREC_ROUNDTRIP
360
6C7
  0
DICTIONARY
  5
6CE
330
FF
100
AcDbDictionary
280
     1
281
     1
  3
ACAD_XREC_ROUNDTRIP
360
6CF
  0
DICTIONARY
  5
6C0
330
F8
100
AcDbDictionary
280
     1
281
     1
  3
ACAD_XREC_ROUNDTRIP
360
6C1
  0
DICTIONARY
  5
6C4
330
FA
100
AcDbDictionary
280
     1
281
     1
  3
ACAD_XREC_ROUNDTRIP
360
6C5
  0
DICTIONARY
  5
6D4
330
1E6
100
AcDbDictionary
280
     1
281
     1
  3
ACAD_XREC_ROUNDTRIP
360
6D5
  0
DICTIONARY
  5
6CC
330
FE
100
AcDbDictionary
280
     1
281
     1
  3
ACAD_XREC_ROUNDTRIP
360
6CD
  0
DICTIONARY
  5
6B0
330
F0
100
AcDbDictionary
280
     1
281
     1
  3
ACAD_XREC_ROUNDTRIP
360
6B1
  0
DICTIONARY
  5
6B2
330
F1
100
AcDbDictionary
280
     1
281
     1
  3
ACAD_XREC_ROUNDTRIP
360
6B3
  0
DICTIONARY
  5
6B4
330
F2
100
AcDbDictionary
280
     1
281
     1
  3
ACAD_XREC_ROUNDTRIP
360
6B5
  0
DICTIONARY
  5
6B6
330
F3
100
AcDbDictionary
280
     1
281
     1
  3
ACAD_XREC_ROUNDTRIP
360
6B7
  0
DICTIONARY
  5
6D0
330
1E4
100
AcDbDictionary
280
     1
281
     1
  3
ACAD_XREC_ROUNDTRIP
360
6D1
  0
DICTIONARY
  5
6CA
330
FD
100
AcDbDictionary
280
     1
281
     1
  3
ACAD_XREC_ROUNDTRIP
360
6CB
  0
DICTIONARY
  5
6D2
330
1E5
100
AcDbDictionary
280
     1
281
     1
  3
ACAD_XREC_ROUNDTRIP
360
6D3
  0
DICTIONARY
  5
6C2
330
F9
100
AcDbDictionary
280
     1
281
     1
  3
ACAD_XREC_ROUNDTRIP
360
6C3
  0
DICTIONARY
  5
6C8
330
FC
100
AcDbDictionary
280
     1
281
     1
  3
ACAD_XREC_ROUNDTRIP
360
6C9
  0
XRECORD
  5
6AE
102
{ACAD_REACTORS
330
6AD
102
}
330
6AD
100
AcDbXrecord
280
     1
102
MATERIAL
148
0.0
149
0.0
149
0.0
 93
        0
 94
       63
282
     0
 72
     1
 77
     1
171
     1
175
     1
179
     1
273
     0
  0
XRECORD
  5
6AC
102
{ACAD_REACTORS
330
6AB
102
}
330
6AB
100
AcDbXrecord
280
     1
102
MATERIAL
148
0.0
149
0.0
149
0.0
 93
        0
 94
       63
282
     0
 72
     1
 77
     1
171
     1
175
     1
179
     1
273
     0
  0
XRECORD
  5
6AF
102
{ACAD_REACTORS
330
173
102
}
330
173
100
AcDbXrecord
280
     1
102
MATERIAL
148
0.0
149
0.0
149
0.0
 93
        0
 94
       63
282
     0
 72
     1
 77
     1
171
     1
175
     1
179
     1
273
     0
  0
XRECORD
  5
175
102
{ACAD_REACTORS
330
173
102
}
330
173
100
AcDbXrecord
280
     1
270
     1
271
     1
  0
XRECORD
  5
174
102
{ACAD_REACTORS
330
173
102
}
330
173
100
AcDbXrecord
280
     1
270
     1
271
     1
  0
XRECORD
  5
176
102
{ACAD_REACTORS
330
173
102
}
330
173
100
AcDbXrecord
280
     1
270
     1
271
     1
  0
XRECORD
  5
177
102
{ACAD_REACTORS
330
173
102
}
330
173
100
AcDbXrecord
280
     1
270
     1
271
     1
  0
CELLSTYLEMAP
  5
6A8
102
{ACAD_REACTORS
330
162
102
}
330
162
100
AcDbCellStyleMap
 90
        3
300
CELLSTYLE
  1
TABLEFORMAT_BEGIN
 90
        5
170
     1
 91
        0
 92
    32768
 62
   257
 93
        1
300
CONTENTFORMAT
  1
CONTENTFORMAT_BEGIN
 90
        0
 91
        0
 92
      512
 93
        0
300

 40
0.0
140
1.0
 94
        5
 62
     0
340
11
144
6.0
309
CONTENTFORMAT_END
171
     1
301
MARGIN
  1
CELLMARGIN_BEGIN
 40
1.5
 40
1.5
 40
1.5
 40
1.5
 40
4.5
 40
4.5
309
CELLMARGIN_END
 94
        6
 95
        1
302
GRIDFORMAT
  1
GRIDFORMAT_BEGIN
 90
        0
 91
        1
 62
     0
 92
       -2
340
14
 93
        0
 40
1.125
309
GRIDFORMAT_END
 95
        2
302
GRIDFORMAT
  1
GRIDFORMAT_BEGIN
 90
        0
 91
        1
 62
     0
 92
       -2
340
14
 93
        0
 40
1.125
309
GRIDFORMAT_END
 95
        4
302
GRIDFORMAT
  1
GRIDFORMAT_BEGIN
 90
        0
 91
        1
 62
     0
 92
       -2
340
14
 93
        0
 40
1.125
309
GRIDFORMAT_END
 95
        8
302
GRIDFORMAT
  1
GRIDFORMAT_BEGIN
 90
        0
 91
        1
 62
     0
 92
       -2
340
14
 93
        0
 40
1.125
309
GRIDFORMAT_END
 95
       16
302
GRIDFORMAT
  1
GRIDFORMAT_BEGIN
 90
        0
 91
        1
 62
     0
 92
       -2
340
14
 93
        0
 40
1.125
309
GRIDFORMAT_END
 95
       32
302
GRIDFORMAT
  1
GRIDFORMAT_BEGIN
 90
        0
 91
        1
 62
     0
 92
       -2
340
14
 93
        0
 40
1.125
309
GRIDFORMAT_END
309
TABLEFORMAT_END
  1
CELLSTYLE_BEGIN
 90
        1
 91
        1
300
_TITLE
309
CELLSTYLE_END
300
CELLSTYLE
  1
TABLEFORMAT_BEGIN
 90
        5
170
     1
 91
        0
 92
        0
 62
   257
 93
        1
300
CONTENTFORMAT
  1
CONTENTFORMAT_BEGIN
 90
        0
 91
        0
 92
      512
 93
        0
300

 40
0.0
140
1.0
 94
        5
 62
     0
340
11
144
4.5
309
CONTENTFORMAT_END
171
     1
301
MARGIN
  1
CELLMARGIN_BEGIN
 40
1.5
 40
1.5
 40
1.5
 40
1.5
 40
4.5
 40
4.5
309
CELLMARGIN_END
 94
        6
 95
        1
302
GRIDFORMAT
  1
GRIDFORMAT_BEGIN
 90
        0
 91
        1
 62
     0
 92
       -2
340
14
 93
        0
 40
1.125
309
GRIDFORMAT_END
 95
        2
302
GRIDFORMAT
  1
GRIDFORMAT_BEGIN
 90
        0
 91
        1
 62
     0
 92
       -2
340
14
 93
        0
 40
1.125
309
GRIDFORMAT_END
 95
        4
302
GRIDFORMAT
  1
GRIDFORMAT_BEGIN
 90
        0
 91
        1
 62
     0
 92
       -2
340
14
 93
        0
 40
1.125
309
GRIDFORMAT_END
 95
        8
302
GRIDFORMAT
  1
GRIDFORMAT_BEGIN
 90
        0
 91
        1
 62
     0
 92
       -2
340
14
 93
        0
 40
1.125
309
GRIDFORMAT_END
 95
       16
302
GRIDFORMAT
  1
GRIDFORMAT_BEGIN
 90
        0
 91
        1
 62
     0
 92
       -2
340
14
 93
        0
 40
1.125
309
GRIDFORMAT_END
 95
       32
302
GRIDFORMAT
  1
GRIDFORMAT_BEGIN
 90
        0
 91
        1
 62
     0
 92
       -2
340
14
 93
        0
 40
1.125
309
GRIDFORMAT_END
309
TABLEFORMAT_END
  1
CELLSTYLE_BEGIN
 90
        2
 91
        1
300
_HEADER
309
CELLSTYLE_END
300
CELLSTYLE
  1
TABLEFORMAT_BEGIN
 90
        5
170
     1
 91
        0
 92
        0
 62
   257
 93
        1
300
CONTENTFORMAT
  1
CONTENTFORMAT_BEGIN
 90
        0
 91
        0
 92
      512
 93
        0
300

 40
0.0
140
1.0
 94
        2
 62
     0
340
11
144
4.5
309
CONTENTFORMAT_END
171
     1
301
MARGIN
  1
CELLMARGIN_BEGIN
 40
1.5
 40
1.5
 40
1.5
 40
1.5
 40
4.5
 40
4.5
309
CELLMARGIN_END
 94
        6
 95
        1
302
GRIDFORMAT
  1
GRIDFORMAT_BEGIN
 90
        0
 91
        1
 62
     0
 92
       -2
340
14
 93
        0
 40
1.125
309
GRIDFORMAT_END
 95
        2
302
GRIDFORMAT
  1
GRIDFORMAT_BEGIN
 90
        0
 91
        1
 62
     0
 92
       -2
340
14
 93
        0
 40
1.125
309
GRIDFORMAT_END
 95
        4
302
GRIDFORMAT
  1
GRIDFORMAT_BEGIN
 90
        0
 91
        1
 62
     0
 92
       -2
340
14
 93
        0
 40
1.125
309
GRIDFORMAT_END
 95
        8
302
GRIDFORMAT
  1
GRIDFORMAT_BEGIN
 90
        0
 91
        1
 62
     0
 92
       -2
340
14
 93
        0
 40
1.125
309
GRIDFORMAT_END
 95
       16
302
GRIDFORMAT
  1
GRIDFORMAT_BEGIN
 90
        0
 91
        1
 62
     0
 92
       -2
340
14
 93
        0
 40
1.125
309
GRIDFORMAT_END
 95
       32
302
GRIDFORMAT
  1
GRIDFORMAT_BEGIN
 90
        0
 91
        1
 62
     0
 92
       -2
340
14
 93
        0
 40
1.125
309
GRIDFORMAT_END
309
TABLEFORMAT_END
  1
CELLSTYLE_BEGIN
 90
        3
 91
        2
300
_DATA
309
CELLSTYLE_END
  0
XRECORD
  5
6AA
102
{ACAD_REACTORS
330
162
102
}
330
162
100
AcDbXrecord
280
     1
102
ACAD_ROUNDTRIP_PRE2007_TABLESTYLE
 90
      512
 91
        0
  1

 92
      512
 93
        0
  2

 94
      512
 95
        0
  3

  0
XRECORD
  5
6BB
102
{ACAD_REACTORS
330
6BA
102
}
330
6BA
100
AcDbXrecord
280
     1
102
RTVSPropertyOp0
 70
     1
102
RTVSPropertyOp1
 70
     1
102
RTVSPropertyOp2
 70
     1
102
RTVSPropertyOp3
 70
     1
102
RTVSPropertyOp4
 70
     1
102
RTVSPropertyOp5
 70
     1
102
RTVSPropertyOp6
 70
     1
102
RTVSPropertyOp7
 70
     1
102
RTVSPropertyOp8
 70
     1
102
RTVSPropertyOp9
 70
     1
102
RTVSPropertyOp10
 70
     1
102
RTVSPropertyOp11
 70
     1
102
RTVSPropertyOp12
 70
     1
102
RTVSPropertyOp13
 70
     1
102
RTVSPropertyOp14
 70
     1
102
RTVSPropertyOp15
 70
     1
102
RTVSPropertyOp16
 70
     1
102
RTVSPropertyOp17
 70
     1
102
RTVSPropertyOp18
 70
     1
102
RTVSPropertyOp19
 70
     1
102
RTVSPropertyOp20
 70
     1
102
RTVSPropertyOp21
 70
     1
102
RTVSPropertyOp22
 70
     1
102
RTVSPropertyOp23
 70
     1
102
RTVSPropertyOp24
 70
     1
102
RTVSPropertyOp25
 70
     1
102
RTVSPropertyOp26
 70
     1
102
RTVSPropertyOp27
 70
     1
  0
XRECORD
  5
6BF
102
{ACAD_REACTORS
330
6BE
102
}
330
6BE
100
AcDbXrecord
280
     1
102
RTVSPropertyOp0
 70
     1
102
RTVSPropertyOp1
 70
     1
102
RTVSPropertyOp2
 70
     1
102
RTVSPropertyOp3
 70
     1
102
RTVSPropertyOp4
 70
     1
102
RTVSPropertyOp5
 70
     1
102
RTVSPropertyOp6
 70
     1
102
RTVSPropertyOp7
 70
     1
102
RTVSPropertyOp8
 70
     1
102
RTVSPropertyOp9
 70
     1
102
RTVSPropertyOp10
 70
     1
102
RTVSPropertyOp11
 70
     1
102
RTVSPropertyOp12
 70
     1
102
RTVSPropertyOp13
 70
     1
102
RTVSPropertyOp14
 70
     1
102
RTVSPropertyOp15
 70
     1
102
RTVSPropertyOp16
 70
     1
102
RTVSPropertyOp17
 70
     1
102
RTVSPropertyOp18
 70
     1
102
RTVSPropertyOp19
 70
     1
102
RTVSPropertyOp20
 70
     1
102
RTVSPropertyOp21
 70
     1
102
RTVSPropertyOp22
 70
     1
102
RTVSPropertyOp23
 70
     1
102
RTVSPropertyOp24
 70
     1
102
RTVSPropertyOp25
 70
     1
102
RTVSPropertyOp26
 70
     1
102
RTVSPropertyOp27
 70
     1
  0
XRECORD
  5
6BD
102
{ACAD_REACTORS
330
6BC
102
}
330
6BC
100
AcDbXrecord
280
     1
102
RTVSPropertyOp0
 70
     1
102
RTVSPropertyOp1
 70
     1
102
RTVSPropertyOp2
 70
     1
102
RTVSPropertyOp3
 70
     1
102
RTVSPropertyOp4
 70
     1
102
RTVSPropertyOp5
 70
     1
102
RTVSPropertyOp6
 70
     1
102
RTVSPropertyOp7
 70
     1
102
RTVSPropertyOp8
 70
     1
102
RTVSPropertyOp9
 70
     1
102
RTVSPropertyOp10
 70
     1
102
RTVSPropertyOp11
 70
     1
102
RTVSPropertyOp12
 70
     1
102
RTVSPropertyOp13
 70
     1
102
RTVSPropertyOp14
 70
     1
102
RTVSPropertyOp15
 70
     1
102
RTVSPropertyOp16
 70
     1
102
RTVSPropertyOp17
 70
     1
102
RTVSPropertyOp18
 70
     1
102
RTVSPropertyOp19
 70
     1
102
RTVSPropertyOp20
 70
     1
102
RTVSPropertyOp21
 70
     1
102
RTVSPropertyOp22
 70
     1
102
RTVSPropertyOp23
 70
     1
102
RTVSPropertyOp24
 70
     1
102
RTVSPropertyOp25
 70
     1
102
RTVSPropertyOp26
 70
     1
102
RTVSPropertyOp27
 70
     1
  0
XRECORD
  5
6B9
102
{ACAD_REACTORS
330
6B8
102
}
330
6B8
100
AcDbXrecord
280
     1
102
RTVSPropertyOp0
 70
     1
102
RTVSPropertyOp1
 70
     1
102
RTVSPropertyOp2
 70
     1
102
RTVSPropertyOp3
 70
     1
102
RTVSPropertyOp4
 70
     1
102
RTVSPropertyOp5
 70
     1
102
RTVSPropertyOp6
 70
     1
102
RTVSPropertyOp7
 70
     1
102
RTVSPropertyOp8
 70
     1
102
RTVSPropertyOp9
 70
     1
102
RTVSPropertyOp10
 70
     1
102
RTVSPropertyOp11
 70
     1
102
RTVSPropertyOp12
 70
     1
102
RTVSPropertyOp13
 70
     1
102
RTVSPropertyOp14
 70
     1
102
RTVSPropertyOp15
 70
     1
102
RTVSPropertyOp16
 70
     1
102
RTVSPropertyOp17
 70
     1
102
RTVSPropertyOp18
 70
     1
102
RTVSPropertyOp19
 70
     1
102
RTVSPropertyOp20
 70
     1
102
RTVSPropertyOp21
 70
     1
102
RTVSPropertyOp22
 70
     1
102
RTVSPropertyOp23
 70
     1
102
RTVSPropertyOp24
 70
     1
102
RTVSPropertyOp25
 70
     1
102
RTVSPropertyOp26
 70
     1
102
RTVSPropertyOp27
 70
     1
  0
XRECORD
  5
6C7
102
{ACAD_REACTORS
330
6C6
102
}
330
6C6
100
AcDbXrecord
280
     1
102
RTVSPropertyOp0
 70
     1
102
RTVSPropertyOp1
 70
     1
102
RTVSPropertyOp2
 70
     1
102
RTVSPropertyOp3
 70
     1
102
RTVSPropertyOp4
 70
     1
102
RTVSPropertyOp5
 70
     1
102
RTVSPropertyOp6
 70
     1
102
RTVSPropertyOp7
 70
     1
102
RTVSPropertyOp8
 70
     1
102
RTVSPropertyOp9
 70
     1
102
RTVSPropertyOp10
 70
     1
102
RTVSPropertyOp11
 70
     1
102
RTVSPropertyOp12
 70
     1
102
RTVSPropertyOp13
 70
     1
102
RTVSPropertyOp14
 70
     1
102
RTVSPropertyOp15
 70
     1
102
RTVSPropertyOp16
 70
     1
102
RTVSPropertyOp17
 70
     1
102
RTVSPropertyOp18
 70
     1
102
RTVSPropertyOp19
 70
     1
102
RTVSPropertyOp20
 70
     1
102
RTVSPropertyOp21
 70
     1
102
RTVSPropertyOp22
 70
     1
102
RTVSPropertyOp23
 70
     1
102
RTVSPropertyOp24
 70
     1
102
RTVSPropertyOp25
 70
     1
102
RTVSPropertyOp26
 70
     1
102
RTVSPropertyOp27
 70
     1
  0
XRECORD
  5
6CF
102
{ACAD_REACTORS
330
6CE
102
}
330
6CE
100
AcDbXrecord
280
     1
102
RTVSPropertyOp0
 70
     1
102
RTVSPropertyOp1
 70
     1
102
RTVSPropertyOp2
 70
     1
102
RTVSPropertyOp3
 70
     1
102
RTVSPropertyOp4
 70
     1
102
RTVSPropertyOp5
 70
     1
102
RTVSPropertyOp6
 70
     1
102
RTVSPropertyOp7
 70
     1
102
RTVSPropertyOp8
 70
     1
102
RTVSPropertyOp9
 70
     1
102
RTVSPropertyOp10
 70
     1
102
RTVSPropertyOp11
 70
     1
102
RTVSPropertyOp12
 70
     1
102
RTVSPropertyOp13
 70
     1
102
RTVSPropertyOp14
 70
     1
102
RTVSPropertyOp15
 70
     1
102
RTVSPropertyOp16
 70
     1
102
RTVSPropertyOp17
 70
     1
102
RTVSPropertyOp18
 70
     1
102
RTVSPropertyOp19
 70
     1
102
RTVSPropertyOp20
 70
     1
102
RTVSPropertyOp21
 70
     1
102
RTVSPropertyOp22
 70
     1
102
RTVSPropertyOp23
 70
     1
102
RTVSPropertyOp24
 70
     1
102
RTVSPropertyOp25
 70
     1
102
RTVSPropertyOp26
 70
     1
102
RTVSPropertyOp27
 70
     1
  0
XRECORD
  5
6C1
102
{ACAD_REACTORS
330
6C0
102
}
330
6C0
100
AcDbXrecord
280
     1
102
RTVSPropertyOp0
 70
     1
102
RTVSPropertyOp1
 70
     1
102
RTVSPropertyOp2
 70
     1
102
RTVSPropertyOp3
 70
     1
102
RTVSPropertyOp4
 70
     1
102
RTVSPropertyOp5
 70
     1
102
RTVSPropertyOp6
 70
     1
102
RTVSPropertyOp7
 70
     1
102
RTVSPropertyOp8
 70
     1
102
RTVSPropertyOp9
 70
     1
102
RTVSPropertyOp10
 70
     1
102
RTVSPropertyOp11
 70
     1
102
RTVSPropertyOp12
 70
     1
102
RTVSPropertyOp13
 70
     1
102
RTVSPropertyOp14
 70
     1
102
RTVSPropertyOp15
 70
     1
102
RTVSPropertyOp16
 70
     1
102
RTVSPropertyOp17
 70
     1
102
RTVSPropertyOp18
 70
     1
102
RTVSPropertyOp19
 70
     1
102
RTVSPropertyOp20
 70
     1
102
RTVSPropertyOp21
 70
     1
102
RTVSPropertyOp22
 70
     1
102
RTVSPropertyOp23
 70
     1
102
RTVSPropertyOp24
 70
     1
102
RTVSPropertyOp25
 70
     1
102
RTVSPropertyOp26
 70
     1
102
RTVSPropertyOp27
 70
     1
  0
XRECORD
  5
6C5
102
{ACAD_REACTORS
330
6C4
102
}
330
6C4
100
AcDbXrecord
280
     1
102
RTVSPropertyOp0
 70
     1
102
RTVSPropertyOp1
 70
     1
102
RTVSPropertyOp2
 70
     1
102
RTVSPropertyOp3
 70
     1
102
RTVSPropertyOp4
 70
     1
102
RTVSPropertyOp5
 70
     1
102
RTVSPropertyOp6
 70
     1
102
RTVSPropertyOp7
 70
     1
102
RTVSPropertyOp8
 70
     1
102
RTVSPropertyOp9
 70
     1
102
RTVSPropertyOp10
 70
     1
102
RTVSPropertyOp11
 70
     1
102
RTVSPropertyOp12
 70
     1
102
RTVSPropertyOp13
 70
     1
102
RTVSPropertyOp14
 70
     1
102
RTVSPropertyOp15
 70
     1
102
RTVSPropertyOp16
 70
     1
102
RTVSPropertyOp17
 70
     1
102
RTVSPropertyOp18
 70
     1
102
RTVSPropertyOp19
 70
     1
102
RTVSPropertyOp20
 70
     1
102
RTVSPropertyOp21
 70
     1
102
RTVSPropertyOp22
 70
     1
102
RTVSPropertyOp23
 70
     1
102
RTVSPropertyOp24
 70
     1
102
RTVSPropertyOp25
 70
     1
102
RTVSPropertyOp26
 70
     1
102
RTVSPropertyOp27
 70
     1
  0
XRECORD
  5
6D5
102
{ACAD_REACTORS
330
6D4
102
}
330
6D4
100
AcDbXrecord
280
     1
102
RTVSPropertyOp0
 70
     0
102
RTVSPropertyOp1
 70
     0
102
RTVSPropertyOp2
 70
     0
102
RTVSPropertyOp3
 70
     0
102
RTVSPropertyOp4
 70
     0
102
RTVSPropertyOp5
 70
     0
102
RTVSPropertyOp6
 70
     0
102
RTVSPropertyOp7
 70
     0
102
RTVSPropertyOp8
 70
     0
102
RTVSPropertyOp9
 70
     0
102
RTVSPropertyOp10
 70
     0
102
RTVSPropertyOp11
 70
     0
102
RTVSPropertyOp12
 70
     0
102
RTVSPropertyOp13
 70
     0
102
RTVSPropertyOp14
 70
     2
102
RTVSPropertyOp15
 70
     0
102
RTVSPropertyOp16
 70
     0
102
RTVSPropertyOp17
 70
     0
102
RTVSPropertyOp18
 70
     0
102
RTVSPropertyOp19
 70
     0
102
RTVSPropertyOp20
 70
     0
102
RTVSPropertyOp21
 70
     0
102
RTVSPropertyOp22
 70
     0
102
RTVSPropertyOp23
 70
     0
102
RTVSPropertyOp24
 70
     0
102
RTVSPropertyOp25
 70
     0
102
RTVSPropertyOp26
 70
     0
102
RTVSPropertyOp27
 70
     0
  0
XRECORD
  5
6CD
102
{ACAD_REACTORS
330
6CC
102
}
330
6CC
100
AcDbXrecord
280
     1
102
RTVSPropertyOp0
 70
     1
102
RTVSPropertyOp1
 70
     1
102
RTVSPropertyOp2
 70
     1
102
RTVSPropertyOp3
 70
     1
102
RTVSPropertyOp4
 70
     1
102
RTVSPropertyOp5
 70
     1
102
RTVSPropertyOp6
 70
     1
102
RTVSPropertyOp7
 70
     1
102
RTVSPropertyOp8
 70
     1
102
RTVSPropertyOp9
 70
     1
102
RTVSPropertyOp10
 70
     1
102
RTVSPropertyOp11
 70
     1
102
RTVSPropertyOp12
 70
     1
102
RTVSPropertyOp13
 70
     1
102
RTVSPropertyOp14
 70
     1
102
RTVSPropertyOp15
 70
     1
102
RTVSPropertyOp16
 70
     1
102
RTVSPropertyOp17
 70
     1
102
RTVSPropertyOp18
 70
     1
102
RTVSPropertyOp19
 70
     1
102
RTVSPropertyOp20
 70
     1
102
RTVSPropertyOp21
 70
     1
102
RTVSPropertyOp22
 70
     1
102
RTVSPropertyOp23
 70
     1
102
RTVSPropertyOp24
 70
     1
102
RTVSPropertyOp25
 70
     1
102
RTVSPropertyOp26
 70
     1
102
RTVSPropertyOp27
 70
     1
  0
XRECORD
  5
6B1
102
{ACAD_REACTORS
330
6B0
102
}
330
6B0
100
AcDbXrecord
280
     1
102
RTVSPropertyOp0
 70
     1
102
RTVSPropertyOp1
 70
     1
102
RTVSPropertyOp2
 70
     1
102
RTVSPropertyOp3
 70
     1
102
RTVSPropertyOp4
 70
     1
102
RTVSPropertyOp5
 70
     1
102
RTVSPropertyOp6
 70
     1
102
RTVSPropertyOp7
 70
     1
102
RTVSPropertyOp8
 70
     1
102
RTVSPropertyOp9
 70
     1
102
RTVSPropertyOp10
 70
     1
102
RTVSPropertyOp11
 70
     1
102
RTVSPropertyOp12
 70
     1
102
RTVSPropertyOp13
 70
     1
102
RTVSPropertyOp14
 70
     1
102
RTVSPropertyOp15
 70
     1
102
RTVSPropertyOp16
 70
     1
102
RTVSPropertyOp17
 70
     1
102
RTVSPropertyOp18
 70
     1
102
RTVSPropertyOp19
 70
     1
102
RTVSPropertyOp20
 70
     1
102
RTVSPropertyOp21
 70
     1
102
RTVSPropertyOp22
 70
     1
102
RTVSPropertyOp23
 70
     1
102
RTVSPropertyOp24
 70
     1
102
RTVSPropertyOp25
 70
     1
102
RTVSPropertyOp26
 70
     1
102
RTVSPropertyOp27
 70
     1
  0
XRECORD
  5
6B3
102
{ACAD_REACTORS
330
6B2
102
}
330
6B2
100
AcDbXrecord
280
     1
102
RTVSPropertyOp0
 70
     1
102
RTVSPropertyOp1
 70
     1
102
RTVSPropertyOp2
 70
     1
102
RTVSPropertyOp3
 70
     1
102
RTVSPropertyOp4
 70
     1
102
RTVSPropertyOp5
 70
     1
102
RTVSPropertyOp6
 70
     1
102
RTVSPropertyOp7
 70
     1
102
RTVSPropertyOp8
 70
     1
102
RTVSPropertyOp9
 70
     1
102
RTVSPropertyOp10
 70
     1
102
RTVSPropertyOp11
 70
     1
102
RTVSPropertyOp12
 70
     1
102
RTVSPropertyOp13
 70
     1
102
RTVSPropertyOp14
 70
     1
102
RTVSPropertyOp15
 70
     1
102
RTVSPropertyOp16
 70
     1
102
RTVSPropertyOp17
 70
     1
102
RTVSPropertyOp18
 70
     1
102
RTVSPropertyOp19
 70
     1
102
RTVSPropertyOp20
 70
     1
102
RTVSPropertyOp21
 70
     1
102
RTVSPropertyOp22
 70
     1
102
RTVSPropertyOp23
 70
     1
102
RTVSPropertyOp24
 70
     1
102
RTVSPropertyOp25
 70
     1
102
RTVSPropertyOp26
 70
     1
102
RTVSPropertyOp27
 70
     1
  0
XRECORD
  5
6B5
102
{ACAD_REACTORS
330
6B4
102
}
330
6B4
100
AcDbXrecord
280
     1
102
RTVSPropertyOp0
 70
     1
102
RTVSPropertyOp1
 70
     1
102
RTVSPropertyOp2
 70
     1
102
RTVSPropertyOp3
 70
     1
102
RTVSPropertyOp4
 70
     1
102
RTVSPropertyOp5
 70
     1
102
RTVSPropertyOp6
 70
     1
102
RTVSPropertyOp7
 70
     1
102
RTVSPropertyOp8
 70
     1
102
RTVSPropertyOp9
 70
     1
102
RTVSPropertyOp10
 70
     1
102
RTVSPropertyOp11
 70
     1
102
RTVSPropertyOp12
 70
     1
102
RTVSPropertyOp13
 70
     1
102
RTVSPropertyOp14
 70
     1
102
RTVSPropertyOp15
 70
     1
102
RTVSPropertyOp16
 70
     1
102
RTVSPropertyOp17
 70
     1
102
RTVSPropertyOp18
 70
     1
102
RTVSPropertyOp19
 70
     1
102
RTVSPropertyOp20
 70
     1
102
RTVSPropertyOp21
 70
     1
102
RTVSPropertyOp22
 70
     1
102
RTVSPropertyOp23
 70
     1
102
RTVSPropertyOp24
 70
     1
102
RTVSPropertyOp25
 70
     1
102
RTVSPropertyOp26
 70
     1
102
RTVSPropertyOp27
 70
     1
  0
XRECORD
  5
6B7
102
{ACAD_REACTORS
330
6B6
102
}
330
6B6
100
AcDbXrecord
280
     1
102
RTVSPropertyOp0
 70
     1
102
RTVSPropertyOp1
 70
     1
102
RTVSPropertyOp2
 70
     1
102
RTVSPropertyOp3
 70
     1
102
RTVSPropertyOp4
 70
     1
102
RTVSPropertyOp5
 70
     1
102
RTVSPropertyOp6
 70
     1
102
RTVSPropertyOp7
 70
     1
102
RTVSPropertyOp8
 70
     1
102
RTVSPropertyOp9
 70
     1
102
RTVSPropertyOp10
 70
     1
102
RTVSPropertyOp11
 70
     1
102
RTVSPropertyOp12
 70
     1
102
RTVSPropertyOp13
 70
     1
102
RTVSPropertyOp14
 70
     1
102
RTVSPropertyOp15
 70
     1
102
RTVSPropertyOp16
 70
     1
102
RTVSPropertyOp17
 70
     1
102
RTVSPropertyOp18
 70
     1
102
RTVSPropertyOp19
 70
     1
102
RTVSPropertyOp20
 70
     1
102
RTVSPropertyOp21
 70
     1
102
RTVSPropertyOp22
 70
     1
102
RTVSPropertyOp23
 70
     1
102
RTVSPropertyOp24
 70
     1
102
RTVSPropertyOp25
 70
     1
102
RTVSPropertyOp26
 70
     1
102
RTVSPropertyOp27
 70
     1
  0
XRECORD
  5
6D1
102
{ACAD_REACTORS
330
6D0
102
}
330
6D0
100
AcDbXrecord
280
     1
102
RTVSPropertyOp0
 70
     0
102
RTVSPropertyOp1
 70
     0
102
RTVSPropertyOp2
 70
     0
102
RTVSPropertyOp3
 70
     0
102
RTVSPropertyOp4
 70
     0
102
RTVSPropertyOp5
 70
     0
102
RTVSPropertyOp6
 70
     0
102
RTVSPropertyOp7
 70
     0
102
RTVSPropertyOp8
 70
     0
102
RTVSPropertyOp9
 70
     0
102
RTVSPropertyOp10
 70
     0
102
RTVSPropertyOp11
 70
     0
102
RTVSPropertyOp12
 70
     0
102
RTVSPropertyOp13
 70
     0
102
RTVSPropertyOp14
 70
     2
102
RTVSPropertyOp15
 70
     0
102
RTVSPropertyOp16
 70
     0
102
RTVSPropertyOp17
 70
     0
102
RTVSPropertyOp18
 70
     0
102
RTVSPropertyOp19
 70
     0
102
RTVSPropertyOp20
 70
     0
102
RTVSPropertyOp21
 70
     0
102
RTVSPropertyOp22
 70
     0
102
RTVSPropertyOp23
 70
     0
102
RTVSPropertyOp24
 70
     0
102
RTVSPropertyOp25
 70
     0
102
RTVSPropertyOp26
 70
     0
102
RTVSPropertyOp27
 70
     0
  0
XRECORD
  5
6CB
102
{ACAD_REACTORS
330
6CA
102
}
330
6CA
100
AcDbXrecord
280
     1
102
RTVSPropertyOp0
 70
     1
102
RTVSPropertyOp1
 70
     1
102
RTVSPropertyOp2
 70
     1
102
RTVSPropertyOp3
 70
     1
102
RTVSPropertyOp4
 70
     1
102
RTVSPropertyOp5
 70
     1
102
RTVSPropertyOp6
 70
     1
102
RTVSPropertyOp7
 70
     1
102
RTVSPropertyOp8
 70
     1
102
RTVSPropertyOp9
 70
     1
102
RTVSPropertyOp10
 70
     1
102
RTVSPropertyOp11
 70
     1
102
RTVSPropertyOp12
 70
     1
102
RTVSPropertyOp13
 70
     1
102
RTVSPropertyOp14
 70
     1
102
RTVSPropertyOp15
 70
     1
102
RTVSPropertyOp16
 70
     1
102
RTVSPropertyOp17
 70
     1
102
RTVSPropertyOp18
 70
     1
102
RTVSPropertyOp19
 70
     1
102
RTVSPropertyOp20
 70
     1
102
RTVSPropertyOp21
 70
     1
102
RTVSPropertyOp22
 70
     1
102
RTVSPropertyOp23
 70
     1
102
RTVSPropertyOp24
 70
     1
102
RTVSPropertyOp25
 70
     1
102
RTVSPropertyOp26
 70
     1
102
RTVSPropertyOp27
 70
     1
  0
XRECORD
  5
6D3
102
{ACAD_REACTORS
330
6D2
102
}
330
6D2
100
AcDbXrecord
280
     1
102
RTVSPropertyOp0
 70
     0
102
RTVSPropertyOp1
 70
     0
102
RTVSPropertyOp2
 70
     0
102
RTVSPropertyOp3
 70
     0
102
RTVSPropertyOp4
 70
     0
102
RTVSPropertyOp5
 70
     0
102
RTVSPropertyOp6
 70
     0
102
RTVSPropertyOp7
 70
     0
102
RTVSPropertyOp8
 70
     0
102
RTVSPropertyOp9
 70
     0
102
RTVSPropertyOp10
 70
     0
102
RTVSPropertyOp11
 70
     0
102
RTVSPropertyOp12
 70
     0
102
RTVSPropertyOp13
 70
     0
102
RTVSPropertyOp14
 70
     2
102
RTVSPropertyOp15
 70
     0
102
RTVSPropertyOp16
 70
     0
102
RTVSPropertyOp17
 70
     0
102
RTVSPropertyOp18
 70
     0
102
RTVSPropertyOp19
 70
     0
102
RTVSPropertyOp20
 70
     0
102
RTVSPropertyOp21
 70
     0
102
RTVSPropertyOp22
 70
     0
102
RTVSPropertyOp23
 70
     0
102
RTVSPropertyOp24
 70
     0
102
RTVSPropertyOp25
 70
     0
102
RTVSPropertyOp26
 70
     0
102
RTVSPropertyOp27
 70
     0
  0
XRECORD
  5
6C3
102
{ACAD_REACTORS
330
6C2
102
}
330
6C2
100
AcDbXrecord
280
     1
102
RTVSPropertyOp0
 70
     1
102
RTVSPropertyOp1
 70
     1
102
RTVSPropertyOp2
 70
     1
102
RTVSPropertyOp3
 70
     1
102
RTVSPropertyOp4
 70
     1
102
RTVSPropertyOp5
 70
     1
102
RTVSPropertyOp6
 70
     1
102
RTVSPropertyOp7
 70
     1
102
RTVSPropertyOp8
 70
     1
102
RTVSPropertyOp9
 70
     1
102
RTVSPropertyOp10
 70
     1
102
RTVSPropertyOp11
 70
     1
102
RTVSPropertyOp12
 70
     1
102
RTVSPropertyOp13
 70
     1
102
RTVSPropertyOp14
 70
     1
102
RTVSPropertyOp15
 70
     1
102
RTVSPropertyOp16
 70
     1
102
RTVSPropertyOp17
 70
     1
102
RTVSPropertyOp18
 70
     1
102
RTVSPropertyOp19
 70
     1
102
RTVSPropertyOp20
 70
     1
102
RTVSPropertyOp21
 70
     1
102
RTVSPropertyOp22
 70
     1
102
RTVSPropertyOp23
 70
     1
102
RTVSPropertyOp24
 70
     1
102
RTVSPropertyOp25
 70
     1
102
RTVSPropertyOp26
 70
     1
102
RTVSPropertyOp27
 70
     1
  0
XRECORD
  5
6C9
102
{ACAD_REACTORS
330
6C8
102
}
330
6C8
100
AcDbXrecord
280
     1
102
RTVSPropertyOp0
 70
     1
102
RTVSPropertyOp1
 70
     1
102
RTVSPropertyOp2
 70
     1
102
RTVSPropertyOp3
 70
     1
102
RTVSPropertyOp4
 70
     1
102
RTVSPropertyOp5
 70
     1
102
RTVSPropertyOp6
 70
     1
102
RTVSPropertyOp7
 70
     1
102
RTVSPropertyOp8
 70
     1
102
RTVSPropertyOp9
 70
     1
102
RTVSPropertyOp10
 70
     1
102
RTVSPropertyOp11
 70
     1
102
RTVSPropertyOp12
 70
     1
102
RTVSPropertyOp13
 70
     1
102
RTVSPropertyOp14
 70
     1
102
RTVSPropertyOp15
 70
     1
102
RTVSPropertyOp16
 70
     1
102
RTVSPropertyOp17
 70
     1
102
RTVSPropertyOp18
 70
     1
102
RTVSPropertyOp19
 70
     1
102
RTVSPropertyOp20
 70
     1
102
RTVSPropertyOp21
 70
     1
102
RTVSPropertyOp22
 70
     1
102
RTVSPropertyOp23
 70
     1
102
RTVSPropertyOp24
 70
     1
102
RTVSPropertyOp25
 70
     1
102
RTVSPropertyOp26
 70
     1
102
RTVSPropertyOp27
 70
     1
  0
ENDSEC
  0
EOF
