  0
SECTION
  2
HEADER
  9
$ACADVER
  1
AC1018
  9
$ACADMAINTVER
 70
   104
  9
$DWGCODEPAGE
  3
ANSI_1252
  9
$LASTSAVEDBY
  1
a06741
  9
$INSBASE
 10
0.0
 20
0.0
 30
0.0
  9
$EXTMIN
 10
1678.447255226925
 20
955.300290237316
 30
0.0
  9
$EXTMAX
 10
1791.827392526023
 20
1090.574322328896
 30
0.0
  9
$LIMMIN
 10
0.0
 20
0.0
  9
$LIMMAX
 10
420.0
 20
297.0
  9
$ORTHOMODE
 70
     0
  9
$REGENMODE
 70
     1
  9
$FILLMODE
 70
     1
  9
$QTEXTMODE
 70
     0
  9
$MIRRTEXT
 70
     0
  9
$LTSCALE
 40
1.0
  9
$ATTMODE
 70
     1
  9
$TEXTSIZE
 40
2.5
  9
$TRACEWID
 40
1.0
  9
$TEXTSTYLE
  7
Standard
  9
$CLAYER
  8
0
  9
$CELTYPE
  6
ByLayer
  9
$CECOLOR
 62
   256
  9
$CELTSCALE
 40
1.0
  9
$DISPSILH
 70
     0
  9
$DIMSCALE
 40
1.0
  9
$DIMASZ
 40
2.5
  9
$DIMEXO
 40
0.625
  9
$DIMDLI
 40
3.75
  9
$DIMRND
 40
0.0
  9
$DIMDLE
 40
0.0
  9
$DIMEXE
 40
1.25
  9
$DIMTP
 40
0.0
  9
$DIMTM
 40
0.0
  9
$DIMTXT
 40
2.5
  9
$DIMCEN
 40
2.5
  9
$DIMTSZ
 40
0.0
  9
$DIMTOL
 70
     0
  9
$DIMLIM
 70
     0
  9
$DIMTIH
 70
     0
  9
$DIMTOH
 70
     0
  9
$DIMSE1
 70
     0
  9
$DIMSE2
 70
     0
  9
$DIMTAD
 70
     1
  9
$DIMZIN
 70
     8
  9
$DIMBLK
  1

  9
$DIMASO
 70
     1
  9
$DIMSHO
 70
     1
  9
$DIMPOST
  1

  9
$DIMAPOST
  1

  9
$DIMALT
 70
     0
  9
$DIMALTD
 70
     3
  9
$DIMALTF
 40
0.03937007874016
  9
$DIMLFAC
 40
1.0
  9
$DIMTOFL
 70
     1
  9
$DIMTVP
 40
0.0
  9
$DIMTIX
 70
     0
  9
$DIMSOXD
 70
     0
  9
$DIMSAH
 70
     0
  9
$DIMBLK1
  1

  9
$DIMBLK2
  1

  9
$DIMSTYLE
  2
ISO-25
  9
$DIMCLRD
 70
     0
  9
$DIMCLRE
 70
     0
  9
$DIMCLRT
 70
     0
  9
$DIMTFAC
 40
1.0
  9
$DIMGAP
 40
0.625
  9
$DIMJUST
 70
     0
  9
$DIMSD1
 70
     0
  9
$DIMSD2
 70
     0
  9
$DIMTOLJ
 70
     0
  9
$DIMTZIN
 70
     8
  9
$DIMALTZ
 70
     0
  9
$DIMALTTZ
 70
     0
  9
$DIMUPT
 70
     0
  9
$DIMDEC
 70
     2
  9
$DIMTDEC
 70
     2
  9
$DIMALTU
 70
     2
  9
$DIMALTTD
 70
     3
  9
$DIMTXSTY
  7
Standard
  9
$DIMAUNIT
 70
     0
  9
$DIMADEC
 70
     0
  9
$DIMALTRND
 40
0.0
  9
$DIMAZIN
 70
     0
  9
$DIMDSEP
 70
    44
  9
$DIMATFIT
 70
     3
  9
$DIMFRAC
 70
     0
  9
$DIMLDRBLK
  1

  9
$DIMLUNIT
 70
     2
  9
$DIMLWD
 70
    -2
  9
$DIMLWE
 70
    -2
  9
$DIMTMOVE
 70
     0
  9
$LUNITS
 70
     2
  9
$LUPREC
 70
     4
  9
$SKETCHINC
 40
1.0
  9
$FILLETRAD
 40
0.0
  9
$AUNITS
 70
     0
  9
$AUPREC
 70
     0
  9
$MENU
  1
.
  9
$ELEVATION
 40
0.0
  9
$PELEVATION
 40
0.0
  9
$THICKNESS
 40
0.0
  9
$LIMCHECK
 70
     0
  9
$CHAMFERA
 40
0.0
  9
$CHAMFERB
 40
0.0
  9
$CHAMFERC
 40
0.0
  9
$CHAMFERD
 40
0.0
  9
$SKPOLY
 70
     0
  9
$TDCREATE
 40
2456139.519177685
  9
$TDUCREATE
 40
2456139.435844352
  9
$TDUPDATE
 40
2456139.519517535
  9
$TDUUPDATE
 40
2456139.436184201
  9
$TDINDWG
 40
0.0003402662
  9
$TDUSRTIMER
 40
0.0003402199
  9
$USRTIMER
 70
     1
  9
$ANGBASE
 50
0.0
  9
$ANGDIR
 70
     0
  9
$PDMODE
 70
     0
  9
$PDSIZE
 40
0.0
  9
$PLINEWID
 40
0.0
  9
$SPLFRAME
 70
     0
  9
$SPLINETYPE
 70
     6
  9
$SPLINESEGS
 70
     8
  9
$HANDSEED
  5
545
  9
$SURFTAB1
 70
     6
  9
$SURFTAB2
 70
     6
  9
$SURFTYPE
 70
     6
  9
$SURFU
 70
     6
  9
$SURFV
 70
     6
  9
$UCSBASE
  2

  9
$UCSNAME
  2

  9
$UCSORG
 10
0.0
 20
0.0
 30
0.0
  9
$UCSXDIR
 10
1.0
 20
0.0
 30
0.0
  9
$UCSYDIR
 10
0.0
 20
1.0
 30
0.0
  9
$UCSORTHOREF
  2

  9
$UCSORTHOVIEW
 70
     0
  9
$UCSORGTOP
 10
0.0
 20
0.0
 30
0.0
  9
$UCSORGBOTTOM
 10
0.0
 20
0.0
 30
0.0
  9
$UCSORGLEFT
 10
0.0
 20
0.0
 30
0.0
  9
$UCSORGRIGHT
 10
0.0
 20
0.0
 30
0.0
  9
$UCSORGFRONT
 10
0.0
 20
0.0
 30
0.0
  9
$UCSORGBACK
 10
0.0
 20
0.0
 30
0.0
  9
$PUCSBASE
  2

  9
$PUCSNAME
  2

  9
$PUCSORG
 10
0.0
 20
0.0
 30
0.0
  9
$PUCSXDIR
 10
1.0
 20
0.0
 30
0.0
  9
$PUCSYDIR
 10
0.0
 20
1.0
 30
0.0
  9
$PUCSORTHOREF
  2

  9
$PUCSORTHOVIEW
 70
     0
  9
$PUCSORGTOP
 10
0.0
 20
0.0
 30
0.0
  9
$PUCSORGBOTTOM
 10
0.0
 20
0.0
 30
0.0
  9
$PUCSORGLEFT
 10
0.0
 20
0.0
 30
0.0
  9
$PUCSORGRIGHT
 10
0.0
 20
0.0
 30
0.0
  9
$PUCSORGFRONT
 10
0.0
 20
0.0
 30
0.0
  9
$PUCSORGBACK
 10
0.0
 20
0.0
 30
0.0
  9
$USERI1
 70
     0
  9
$USERI2
 70
     0
  9
$USERI3
 70
     0
  9
$USERI4
 70
     0
  9
$USERI5
 70
     0
  9
$USERR1
 40
0.0
  9
$USERR2
 40
0.0
  9
$USERR3
 40
0.0
  9
$USERR4
 40
0.0
  9
$USERR5
 40
0.0
  9
$WORLDVIEW
 70
     1
  9
$SHADEDGE
 70
     3
  9
$SHADEDIF
 70
    70
  9
$TILEMODE
 70
     1
  9
$MAXACTVP
 70
    64
  9
$PINSBASE
 10
0.0
 20
0.0
 30
0.0
  9
$PLIMCHECK
 70
     0
  9
$PEXTMIN
 10
0.0
 20
0.0
 30
0.0
  9
$PEXTMAX
 10
0.0
 20
0.0
 30
0.0
  9
$PLIMMIN
 10
0.0
 20
0.0
  9
$PLIMMAX
 10
12.0
 20
9.0
  9
$UNITMODE
 70
     0
  9
$VISRETAIN
 70
     1
  9
$PLINEGEN
 70
     0
  9
$PSLTSCALE
 70
     1
  9
$TREEDEPTH
 70
  3020
  9
$CMLSTYLE
  2
Standard
  9
$CMLJUST
 70
     0
  9
$CMLSCALE
 40
20.0
  9
$PROXYGRAPHICS
 70
     1
  9
$MEASUREMENT
 70
     1
  9
$CELWEIGHT
370
    -1
  9
$ENDCAPS
280
     0
  9
$JOINSTYLE
280
     0
  9
$LWDISPLAY
290
     0
  9
$INSUNITS
 70
     4
  9
$HYPERLINKBASE
  1

  9
$STYLESHEET
  1

  9
$XEDIT
290
     1
  9
$CEPSNTYPE
380
     0
  9
$PSTYLEMODE
290
     1
  9
$FINGERPRINTGUID
  2
{F515F4D1-E84D-4491-955C-851CAD5D730F}
  9
$VERSIONGUID
  2
{3642FE29-78FF-4A0C-8AA5-7FD5AC5E4752}
  9
$EXTNAMES
290
     1
  9
$PSVPSCALE
 40
0.0
  9
$OLESTARTUP
290
     0
  9
$SORTENTS
280
   127
  9
$INDEXCTL
280
     0
  9
$HIDETEXT
280
     1
  9
$XCLIPFRAME
290
     0
  9
$HALOGAP
280
     0
  9
$OBSCOLOR
 70
   257
  9
$OBSLTYPE
280
     0
  9
$INTERSECTIONDISPLAY
280
     0
  9
$INTERSECTIONCOLOR
 70
   257
  9
$DIMASSOC
280
     2
  9
$PROJECTNAME
  1

  0
ENDSEC
  0
SECTION
  2
CLASSES
  0
CLASS
  1
ACDBDICTIONARYWDFLT
  2
AcDbDictionaryWithDefault
  3
ObjectDBX Classes
 90
        0
 91
        1
280
     0
281
     0
  0
CLASS
  1
DICTIONARYVAR
  2
AcDbDictionaryVar
  3
ObjectDBX Classes
 90
        0
 91
       17
280
     0
281
     0
  0
CLASS
  1
TABLESTYLE
  2
AcDbTableStyle
  3
ObjectDBX Classes
 90
     4095
 91
        1
280
     0
281
     0
  0
CLASS
  1
MATERIAL
  2
AcDbMaterial
  3
ObjectDBX Classes
 90
     1153
 91
        3
280
     0
281
     0
  0
CLASS
  1
VISUALSTYLE
  2
AcDbVisualStyle
  3
ObjectDBX Classes
 90
     4095
 91
       19
280
     0
281
     0
  0
CLASS
  1
SCALE
  2
AcDbScale
  3
ObjectDBX Classes
 90
     1153
 91
       17
280
     0
281
     0
  0
CLASS
  1
MLEADERSTYLE
  2
AcDbMLeaderStyle
  3
ACDB_MLEADERSTYLE_CLASS
 90
     4095
 91
        2
280
     0
281
     0
  0
CLASS
  1
CELLSTYLEMAP
  2
AcDbCellStyleMap
  3
ObjectDBX Classes
 90
     1152
 91
        2
280
     0
281
     0
  0
CLASS
  1
EXACXREFPANELOBJECT
  2
ExAcXREFPanelObject
  3
EXAC_ESW
 90
     1025
 91
        0
280
     0
281
     0
  0
CLASS
  1
NPOCOLLECTION
  2
AcDbImpNonPersistentObjectsCollection
  3
ObjectDBX Classes
 90
     1153
 91
        0
280
     0
281
     0
  0
CLASS
  1
LAYER_INDEX
  2
AcDbLayerIndex
  3
ObjectDBX Classes
 90
        0
 91
        0
280
     0
281
     0
  0
CLASS
  1
SPATIAL_INDEX
  2
AcDbSpatialIndex
  3
ObjectDBX Classes
 90
        0
 91
        0
280
     0
281
     0
  0
CLASS
  1
IDBUFFER
  2
AcDbIdBuffer
  3
ObjectDBX Classes
 90
        0
 91
        0
280
     0
281
     0
  0
CLASS
  1
SORTENTSTABLE
  2
AcDbSortentsTable
  3
ObjectDBX Classes
 90
        0
 91
        1
280
     0
281
     0
  0
ENDSEC
  0
SECTION
  2
TABLES
  0
TABLE
  2
VPORT
  5
8
330
0
100
AcDbSymbolTable
 70
     1
  0
VPORT
  5
EA
330
8
100
AcDbSymbolTableRecord
100
AcDbViewportTableRecord
  2
*Active
 70
     0
 10
0.0
 20
0.0
 11
1.0
 21
1.0
 12
1735.137323876475
 22
1022.937306283106
 13
0.0
 23
0.0
 14
10.0
 24
10.0
 15
10.0
 25
10.0
 16
0.0
 26
0.0
 36
1.0
 17
0.0
 27
0.0
 37
0.0
 40
136.3562243483128
 41
2.132176234979973
 42
50.0
 43
0.0
 44
0.0
 50
0.0
 51
0.0
 71
     0
 72
  1000
 73
     1
 74
     3
 75
     0
 76
     0
 77
     0
 78
     0
281
     0
 65
     1
110
0.0
120
0.0
130
0.0
111
1.0
121
0.0
131
0.0
112
0.0
122
1.0
132
0.0
 79
     0
146
0.0
  0
ENDTAB
  0
TABLE
  2
LTYPE
  5
5
330
0
100
AcDbSymbolTable
 70
     1
  0
LTYPE
  5
14
330
5
100
AcDbSymbolTableRecord
100
AcDbLinetypeTableRecord
  2
ByBlock
 70
     0
  3

 72
    65
 73
     0
 40
0.0
  0
LTYPE
  5
15
330
5
100
AcDbSymbolTableRecord
100
AcDbLinetypeTableRecord
  2
ByLayer
 70
     0
  3

 72
    65
 73
     0
 40
0.0
  0
LTYPE
  5
16
330
5
100
AcDbSymbolTableRecord
100
AcDbLinetypeTableRecord
  2
Continuous
 70
     0
  3
Solid line
 72
    65
 73
     0
 40
0.0
  0
ENDTAB
  0
TABLE
  2
LAYER
  5
2
102
{ACAD_XDICTIONARY
360
2CA
102
}
330
0
100
AcDbSymbolTable
 70
     4
  0
LAYER
  5
10
102
{ACAD_XDICTIONARY
360
13C
102
}
330
2
100
AcDbSymbolTableRecord
100
AcDbLayerTableRecord
  2
0
 70
     0
 62
     7
  6
Continuous
370
    -3
390
F
  0
LAYER
  5
2BD
330
2
100
AcDbSymbolTableRecord
100
AcDbLayerTableRecord
  2
Defpoints
 70
     0
 62
     7
  6
Continuous
290
     0
370
    -3
390
F
  0
LAYER
  5
2BE
102
{ACAD_XDICTIONARY
360
2BF
102
}
330
2
100
AcDbSymbolTableRecord
100
AcDbLayerTableRecord
  2
S10_Quote
 70
     0
 62
     7
  6
Continuous
370
    -3
390
F
  0
LAYER
  5
2C0
102
{ACAD_XDICTIONARY
360
2C1
102
}
330
2
100
AcDbSymbolTableRecord
100
AcDbLayerTableRecord
  2
S08_Retino
 70
     0
 62
   252
  6
Continuous
370
    -3
390
F
  0
ENDTAB
  0
TABLE
  2
STYLE
  5
3
330
0
100
AcDbSymbolTable
 70
     4
  0
STYLE
  5
11
330
3
100
AcDbSymbolTableRecord
100
AcDbTextStyleTableRecord
  2
Standard
 70
     0
 40
0.0
 41
1.0
 50
0.0
 71
     0
 42
2.5
  3
ARIAL.TTF
  4

1001
ACAD
1000
Arial
1071
       34
  0
STYLE
  5
132
330
3
100
AcDbSymbolTableRecord
100
AcDbTextStyleTableRecord
  2
Annotativa
 70
     0
 40
0.0
 41
1.0
 50
0.0
 71
     0
 42
2.5
  3
ARIAL.TTF
  4

1001
AcadAnnotative
1000
AnnotativeData
1002
{
1070
     1
1070
     1
1002
}
1001
ACAD
1000
Arial
1071
       34
  0
STYLE
  5
2C2
330
3
100
AcDbSymbolTableRecord
100
AcDbTextStyleTableRecord
  2
ROMANS
 70
     0
 40
0.0
 41
1.0
 50
0.0
 71
     0
 42
0.21
  3
ROMANS.shx
  4

  0
STYLE
  5
2C3
330
3
100
AcDbSymbolTableRecord
100
AcDbTextStyleTableRecord
  2
wurth
 70
     0
 40
0.0
 41
1.0
 50
0.0
 71
     0
 42
40.0
  3
WuerthBook.ttf
  4

1001
ACAD
1000
Wuerth Book
1071
        2
  0
ENDTAB
  0
TABLE
  2
VIEW
  5
6
330
0
100
AcDbSymbolTable
 70
     0
  0
ENDTAB
  0
TABLE
  2
UCS
  5
7
330
0
100
AcDbSymbolTable
 70
     0
  0
ENDTAB
  0
TABLE
  2
APPID
  5
9
330
0
100
AcDbSymbolTable
 70
    10
  0
APPID
  5
12
330
9
100
AcDbSymbolTableRecord
100
AcDbRegAppTableRecord
  2
ACAD
 70
     0
  0
APPID
  5
9E
330
9
100
AcDbSymbolTableRecord
100
AcDbRegAppTableRecord
  2
ACAD_PSEXT
 70
     0
  0
APPID
  5
133
330
9
100
AcDbSymbolTableRecord
100
AcDbRegAppTableRecord
  2
AcadAnnoPO
 70
     0
  0
APPID
  5
134
330
9
100
AcDbSymbolTableRecord
100
AcDbRegAppTableRecord
  2
AcadAnnotative
 70
     0
  0
APPID
  5
135
330
9
100
AcDbSymbolTableRecord
100
AcDbRegAppTableRecord
  2
ACAD_DSTYLE_DIMJAG
 70
     0
  0
APPID
  5
136
330
9
100
AcDbSymbolTableRecord
100
AcDbRegAppTableRecord
  2
ACAD_DSTYLE_DIMTALN
 70
     0
  0
APPID
  5
165
330
9
100
AcDbSymbolTableRecord
100
AcDbRegAppTableRecord
  2
ACAD_MLEADERVER
 70
     0
  0
APPID
  5
2C7
330
9
100
AcDbSymbolTableRecord
100
AcDbRegAppTableRecord
  2
AcDbDynamicBlockGUID
 70
     0
  0
APPID
  5
2C8
330
9
100
AcDbSymbolTableRecord
100
AcDbRegAppTableRecord
  2
AcDbBlockRepETag
 70
     0
  0
APPID
  5
2C9
330
9
100
AcDbSymbolTableRecord
100
AcDbRegAppTableRecord
  2
ACAD_DSTYLE_DIMBREAK
 70
     0
  0
ENDTAB
  0
TABLE
  2
DIMSTYLE
  5
A
330
0
100
AcDbSymbolTable
 70
     6
100
AcDbDimStyleTable
 71
     2
340
27
340
137
  0
DIMSTYLE
105
1B0
330
A
100
AcDbSymbolTableRecord
100
AcDbDimStyleTableRecord
  2
Standard
 70
     0
340
11
  0
DIMSTYLE
105
137
330
A
100
AcDbSymbolTableRecord
100
AcDbDimStyleTableRecord
  2
Annotativa
 70
     0
 40
0.0
 41
2.5
 42
0.625
 43
3.75
 44
1.25
 73
     0
 74
     0
 77
     1
 78
     8
140
2.5
141
2.5
143
0.03937007874016
147
0.625
171
     3
172
     1
271
     2
272
     2
274
     3
278
    44
283
     0
284
     8
340
11
1001
AcadAnnotative
1000
AnnotativeData
1002
{
1070
     1
1070
     1
1002
}
1001
ACAD_DSTYLE_DIMJAG
1070
   388
1040
1.5
1001
ACAD_DSTYLE_DIMTALN
1070
   392
1070
     0
  0
DIMSTYLE
105
27
330
A
100
AcDbSymbolTableRecord
100
AcDbDimStyleTableRecord
  2
ISO-25
 70
     0
 41
2.5
 42
0.625
 43
3.75
 44
1.25
 73
     0
 74
     0
 77
     1
 78
     8
140
2.5
141
2.5
143
0.03937007874016
147
0.625
171
     3
172
     1
271
     2
272
     2
274
     3
278
    44
283
     0
284
     8
340
11
  0
DIMSTYLE
105
2C4
330
A
100
AcDbSymbolTableRecord
100
AcDbDimStyleTableRecord
  2
mm 1_5
 70
     0
 40
5.0
 41
0.015
 42
0.625
 43
1.0
 44
1.25
 73
     0
 74
     0
 75
     1
 76
     1
 77
     1
 78
     8
140
2.0
141
0.5
143
0.03937007874016
147
0.8
171
     3
172
     1
174
     1
179
     2
271
     1
272
     1
274
     3
283
     0
284
     8
340
2C2
342
1F4
  0
DIMSTYLE
105
2C5
102
{ACAD_REACTORS
330
322
330
315
330
324
330
323
330
31F
330
320
330
31D
330
31B
330
31C
330
31E
330
321
330
318
330
31A
330
319
330
317
330
316
330
376
330
377
330
378
330
379
330
37A
330
37B
330
37C
330
37D
330
37E
330
37F
330
380
330
381
330
382
330
383
330
384
330
385
102
}
330
A
100
AcDbSymbolTableRecord
100
AcDbDimStyleTableRecord
  2
mm 1_1
 70
     0
 41
0.015
 42
0.625
 43
1.0
 44
1.25
 73
     0
 74
     0
 77
     1
 78
     8
140
2.0
141
0.5
143
0.03937007874016
147
0.8
171
     3
172
     1
174
     1
179
     2
271
     2
272
     2
274
     3
283
     0
284
     8
340
2C3
342
1F4
1001
ACAD_DSTYLE_DIMBREAK
1070
   391
1040
3.75
1001
ACAD_DSTYLE_DIMJAG
1070
   388
1040
1.5
1001
ACAD_DSTYLE_DIMTALN
1070
   392
1070
     0
  0
DIMSTYLE
105
2C6
330
A
100
AcDbSymbolTableRecord
100
AcDbDimStyleTableRecord
  2
mm 1_1 x4
 70
     0
 41
0.015
 42
0.625
 43
1.0
 44
1.25
 73
     0
 74
     0
 77
     1
 78
     8
140
2.0
141
0.5
143
0.03937007874016
144
0.25
147
0.8
171
     3
172
     1
174
     1
179
     2
271
     2
272
     2
274
     3
283
     0
284
     8
340
2C3
342
1F4
1001
ACAD_DSTYLE_DIMBREAK
1070
   391
1040
3.75
1001
ACAD_DSTYLE_DIMJAG
1070
   388
1040
1.5
1001
ACAD_DSTYLE_DIMTALN
1070
   392
1070
     0
  0
ENDTAB
  0
TABLE
  2
BLOCK_RECORD
  5
1
330
0
100
AcDbSymbolTable
 70
    35
  0
BLOCK_RECORD
  5
1F
102
{ACAD_XDICTIONARY
360
1CE
102
}
330
1
100
AcDbSymbolTableRecord
100
AcDbBlockTableRecord
  2
*Model_Space
340
22
  0
BLOCK_RECORD
  5
D2
330
1
100
AcDbSymbolTableRecord
100
AcDbBlockTableRecord
  2
*Paper_Space
340
D3
  0
BLOCK_RECORD
  5
D6
330
1
100
AcDbSymbolTableRecord
100
AcDbBlockTableRecord
  2
*Paper_Space0
340
D7
  0
BLOCK_RECORD
  5
1F4
102
{ACAD_XDICTIONARY
360
1F5
102
}
330
1
100
AcDbSymbolTableRecord
100
AcDbBlockTableRecord
  2
A$C79C4041D
340
0
102
{BLKREFS
331
1FF
331
200
331
20B
331
20C
331
217
331
218
331
223
331
224
331
22F
331
230
331
23B
331
23C
331
247
331
248
331
254
331
255
331
262
331
263
331
26E
331
26F
331
27A
331
27B
331
286
331
287
331
292
331
293
331
29E
331
29F
331
2AA
331
2AB
331
2B6
331
2B7
331
44D
331
44E
331
456
331
457
331
45F
331
460
331
468
331
469
331
471
331
472
331
47A
331
47B
331
483
331
484
331
48D
331
48E
331
498
331
499
331
4A1
331
4A2
331
4AA
331
4AB
331
4B3
331
4B4
331
4BC
331
4BD
331
4C5
331
4C6
331
4CE
331
4CF
331
4D7
331
4D8
102
}
1001
AcDbDynamicBlockGUID
1000
{93BD5B1E-816B-4960-B1CC-7C46A00E0667}
1001
AcDbBlockRepETag
1070
     1
1071
        2
  0
BLOCK_RECORD
  5
1FA
330
1
100
AcDbSymbolTableRecord
100
AcDbBlockTableRecord
  2
*D2
340
0
  0
BLOCK_RECORD
  5
206
330
1
100
AcDbSymbolTableRecord
100
AcDbBlockTableRecord
  2
*D3
340
0
  0
BLOCK_RECORD
  5
212
330
1
100
AcDbSymbolTableRecord
100
AcDbBlockTableRecord
  2
*D4
340
0
  0
BLOCK_RECORD
  5
21E
330
1
100
AcDbSymbolTableRecord
100
AcDbBlockTableRecord
  2
*D5
340
0
  0
BLOCK_RECORD
  5
22A
330
1
100
AcDbSymbolTableRecord
100
AcDbBlockTableRecord
  2
*D6
340
0
  0
BLOCK_RECORD
  5
236
330
1
100
AcDbSymbolTableRecord
100
AcDbBlockTableRecord
  2
*D7
340
0
  0
BLOCK_RECORD
  5
242
330
1
100
AcDbSymbolTableRecord
100
AcDbBlockTableRecord
  2
*D8
340
0
  0
BLOCK_RECORD
  5
24E
330
1
100
AcDbSymbolTableRecord
100
AcDbBlockTableRecord
  2
*D9
340
0
  0
BLOCK_RECORD
  5
25B
330
1
100
AcDbSymbolTableRecord
100
AcDbBlockTableRecord
  2
*D10
340
0
  0
BLOCK_RECORD
  5
269
330
1
100
AcDbSymbolTableRecord
100
AcDbBlockTableRecord
  2
*D11
340
0
  0
BLOCK_RECORD
  5
275
330
1
100
AcDbSymbolTableRecord
100
AcDbBlockTableRecord
  2
*D12
340
0
  0
BLOCK_RECORD
  5
281
330
1
100
AcDbSymbolTableRecord
100
AcDbBlockTableRecord
  2
*D13
340
0
  0
BLOCK_RECORD
  5
28D
330
1
100
AcDbSymbolTableRecord
100
AcDbBlockTableRecord
  2
*D14
340
0
  0
BLOCK_RECORD
  5
299
330
1
100
AcDbSymbolTableRecord
100
AcDbBlockTableRecord
  2
*D15
340
0
  0
BLOCK_RECORD
  5
2A5
330
1
100
AcDbSymbolTableRecord
100
AcDbBlockTableRecord
  2
*D16
340
0
  0
BLOCK_RECORD
  5
2B1
330
1
100
AcDbSymbolTableRecord
100
AcDbBlockTableRecord
  2
*D17
340
0
  0
BLOCK_RECORD
  5
387
330
1
100
AcDbSymbolTableRecord
100
AcDbBlockTableRecord
  2
*D19
340
0
  0
BLOCK_RECORD
  5
393
330
1
100
AcDbSymbolTableRecord
100
AcDbBlockTableRecord
  2
*D20
340
0
  0
BLOCK_RECORD
  5
39F
330
1
100
AcDbSymbolTableRecord
100
AcDbBlockTableRecord
  2
*D21
340
0
  0
BLOCK_RECORD
  5
3AB
330
1
100
AcDbSymbolTableRecord
100
AcDbBlockTableRecord
  2
*D22
340
0
  0
BLOCK_RECORD
  5
3B7
330
1
100
AcDbSymbolTableRecord
100
AcDbBlockTableRecord
  2
*D23
340
0
  0
BLOCK_RECORD
  5
3C3
330
1
100
AcDbSymbolTableRecord
100
AcDbBlockTableRecord
  2
*D24
340
0
  0
BLOCK_RECORD
  5
3CF
330
1
100
AcDbSymbolTableRecord
100
AcDbBlockTableRecord
  2
*D25
340
0
  0
BLOCK_RECORD
  5
3DB
330
1
100
AcDbSymbolTableRecord
100
AcDbBlockTableRecord
  2
*D26
340
0
  0
BLOCK_RECORD
  5
3E8
330
1
100
AcDbSymbolTableRecord
100
AcDbBlockTableRecord
  2
*D27
340
0
  0
BLOCK_RECORD
  5
3F6
330
1
100
AcDbSymbolTableRecord
100
AcDbBlockTableRecord
  2
*D28
340
0
  0
BLOCK_RECORD
  5
402
330
1
100
AcDbSymbolTableRecord
100
AcDbBlockTableRecord
  2
*D29
340
0
  0
BLOCK_RECORD
  5
40E
330
1
100
AcDbSymbolTableRecord
100
AcDbBlockTableRecord
  2
*D30
340
0
  0
BLOCK_RECORD
  5
41A
330
1
100
AcDbSymbolTableRecord
100
AcDbBlockTableRecord
  2
*D31
340
0
  0
BLOCK_RECORD
  5
426
330
1
100
AcDbSymbolTableRecord
100
AcDbBlockTableRecord
  2
*D32
340
0
  0
BLOCK_RECORD
  5
432
330
1
100
AcDbSymbolTableRecord
100
AcDbBlockTableRecord
  2
*D33
340
0
  0
BLOCK_RECORD
  5
43E
330
1
100
AcDbSymbolTableRecord
100
AcDbBlockTableRecord
  2
*D34
340
0
  0
ENDTAB
  0
ENDSEC
  0
SECTION
  2
BLOCKS
  0
BLOCK
  5
20
330
1F
100
AcDbEntity
  8
0
100
AcDbBlockBegin
  2
*Model_Space
 70
     0
 10
0.0
 20
0.0
 30
0.0
  3
*Model_Space
  1

  0
ENDBLK
  5
21
330
1F
100
AcDbEntity
  8
0
100
AcDbBlockEnd
  0
BLOCK
  5
D4
330
D2
100
AcDbEntity
 67
     1
  8
0
100
AcDbBlockBegin
  2
*Paper_Space
 70
     0
 10
0.0
 20
0.0
 30
0.0
  3
*Paper_Space
  1

  0
ENDBLK
  5
D5
330
D2
100
AcDbEntity
 67
     1
  8
0
100
AcDbBlockEnd
  0
BLOCK
  5
D8
330
D6
100
AcDbEntity
 67
     1
  8
0
100
AcDbBlockBegin
  2
*Paper_Space0
 70
     0
 10
0.0
 20
0.0
 30
0.0
  3
*Paper_Space0
  1

  0
ENDBLK
  5
D9
330
D6
100
AcDbEntity
 67
     1
  8
0
100
AcDbBlockEnd
  0
BLOCK
  5
1F6
330
1F4
100
AcDbEntity
  8
0
 62
     3
100
AcDbBlockBegin
  2
A$C79C4041D
 70
     0
 10
0.0
 20
0.0
 30
0.0
  3
A$C79C4041D
  1

  0
LINE
  5
1F7
330
1F4
100
AcDbEntity
  8
S10_Quote
 62
     4
100
AcDbLine
 10
-20.0
 20
-50.0
 30
0.0
 11
20.0
 21
50.0
 31
0.0
1001
AcDbBlockRepETag
1070
     1
1071
        0
1005
1F7
  0
LINE
  5
1F8
330
1F4
100
AcDbEntity
  8
S10_Quote
100
AcDbLine
 10
0.0
 20
50.0
 30
0.0
 11
0.0
 21
-50.0
 31
0.0
1001
AcDbBlockRepETag
1070
     1
1071
        1
1005
1F8
  0
ENDBLK
  5
1F9
330
1F4
100
AcDbEntity
  8
0
 62
     3
100
AcDbBlockEnd
  0
BLOCK
  5
1FB
330
1FA
100
AcDbEntity
  8
0
100
AcDbBlockBegin
  2
*D2
 70
     1
 10
0.0
 20
0.0
 30
0.0
  3
*D2
  1

  0
LINE
  5
1FC
330
1FA
100
AcDbEntity
  8
S10_Quote
 62
     0
370
    -2
100
AcDbLine
 10
771.1867236868213
 20
3952.351970355535
 30
0.0
 11
757.779591126789
 21
3952.351970355535
 31
0.0
  0
LINE
  5
1FD
330
1FA
100
AcDbEntity
  8
S10_Quote
 62
     0
370
    -2
100
AcDbLine
 10
775.1867236868213
 20
3948.451970355534
 30
0.0
 11
757.779591126789
 21
3948.451970355534
 31
0.0
  0
LINE
  5
1FE
330
1FA
100
AcDbEntity
  8
S10_Quote
 62
     0
370
    -2
100
AcDbLine
 10
759.0295911267889
 20
3952.336970355535
 30
0.0
 11
759.0295911267889
 21
3948.466970355534
 31
0.0
  0
INSERT
  5
1FF
330
1FA
100
AcDbEntity
  8
S10_Quote
 62
     0
370
    -2
100
AcDbBlockReference
  2
A$C79C4041D
 10
759.0295911267889
 20
3952.351970355535
 30
0.0
 41
0.015
 42
0.015
 43
0.015
 50
90.0
  0
INSERT
  5
200
330
1FA
100
AcDbEntity
  8
S10_Quote
 62
     0
370
    -2
100
AcDbBlockReference
  2
A$C79C4041D
 10
759.0295911267889
 20
3948.451970355534
 30
0.0
 41
0.015
 42
0.015
 43
0.015
 50
270.0
  0
MTEXT
  5
201
330
1FA
100
AcDbEntity
  8
S10_Quote
 62
     0
100
AcDbMText
 10
756.1834372806345
 20
3948.641830495395
 30
0.0
 40
2.0
 41
0.0
 71
     1
 72
     1
  1
3.9
  7
wurth
 11
0.0000000000000001
 21
1.0
 31
0.0
 73
     1
 44
1.0
  0
POINT
  5
202
330
1FA
100
AcDbEntity
  8
Defpoints
 62
     0
100
AcDbPoint
 10
771.8117236868213
 20
3952.351970355535
 30
0.0
  0
POINT
  5
203
330
1FA
100
AcDbEntity
  8
Defpoints
 62
     0
100
AcDbPoint
 10
775.8117236868213
 20
3948.451970355534
 30
0.0
  0
POINT
  5
204
330
1FA
100
AcDbEntity
  8
Defpoints
 62
     0
100
AcDbPoint
 10
759.0295911267889
 20
3948.451970355534
 30
0.0
  0
ENDBLK
  5
205
330
1FA
100
AcDbEntity
  8
0
100
AcDbBlockEnd
  0
BLOCK
  5
207
330
206
100
AcDbEntity
  8
0
100
AcDbBlockBegin
  2
*D3
 70
     1
 10
0.0
 20
0.0
 30
0.0
  3
*D3
  1

  0
LINE
  5
208
330
206
100
AcDbEntity
  8
S10_Quote
 62
     0
370
    -2
100
AcDbLine
 10
775.1867236868213
 20
3848.751968662191
 30
0.0
 11
760.5617236868219
 21
3848.751968662191
 31
0.0
  0
LINE
  5
209
330
206
100
AcDbEntity
  8
S10_Quote
 62
     0
370
    -2
100
AcDbLine
 10
771.1867236868213
 20
3866.251968662191
 30
0.0
 11
760.5617236868219
 21
3866.251968662191
 31
0.0
  0
LINE
  5
20A
330
206
100
AcDbEntity
  8
S10_Quote
 62
     0
370
    -2
100
AcDbLine
 10
761.8117236868219
 20
3848.766968662191
 30
0.0
 11
761.8117236868219
 21
3866.236968662191
 31
0.0
  0
INSERT
  5
20B
330
206
100
AcDbEntity
  8
S10_Quote
 62
     0
370
    -2
100
AcDbBlockReference
  2
A$C79C4041D
 10
761.8117236868219
 20
3848.751968662191
 30
0.0
 41
0.015
 42
0.015
 43
0.015
 50
270.0
  0
INSERT
  5
20C
330
206
100
AcDbEntity
  8
S10_Quote
 62
     0
370
    -2
100
AcDbBlockReference
  2
A$C79C4041D
 10
761.8117236868219
 20
3866.251968662191
 30
0.0
 41
0.015
 42
0.015
 43
0.015
 50
90.0
  0
MTEXT
  5
20D
330
206
100
AcDbEntity
  8
S10_Quote
 62
     0
100
AcDbMText
 10
758.9669684420661
 20
3855.12294768317
 30
0.0
 40
2.0
 41
0.0
 71
     1
 72
     1
  1
17.5
  7
wurth
 11
0.0000000000000001
 21
1.0
 31
0.0
 73
     1
 44
1.0
  0
POINT
  5
20E
330
206
100
AcDbEntity
  8
Defpoints
 62
     0
100
AcDbPoint
 10
775.8117236868213
 20
3848.751968662191
 30
0.0
  0
POINT
  5
20F
330
206
100
AcDbEntity
  8
Defpoints
 62
     0
100
AcDbPoint
 10
771.8117236868213
 20
3866.251968662191
 30
0.0
  0
POINT
  5
210
330
206
100
AcDbEntity
  8
Defpoints
 62
     0
100
AcDbPoint
 10
761.8117236868219
 20
3866.251968662191
 30
0.0
  0
ENDBLK
  5
211
330
206
100
AcDbEntity
  8
0
100
AcDbBlockEnd
  0
BLOCK
  5
213
330
212
100
AcDbEntity
  8
0
100
AcDbBlockBegin
  2
*D4
 70
     1
 10
0.0
 20
0.0
 30
0.0
  3
*D4
  1

  0
LINE
  5
214
330
212
100
AcDbEntity
  8
S10_Quote
 62
     0
370
    -2
100
AcDbLine
 10
771.1867236868213
 20
3952.351970355535
 30
0.0
 11
750.628789184926
 21
3952.351970355535
 31
0.0
  0
LINE
  5
215
330
212
100
AcDbEntity
  8
S10_Quote
 62
     0
370
    -2
100
AcDbLine
 10
774.1867236868213
 20
3845.951968662191
 30
0.0
 11
750.628789184926
 21
3845.951968662191
 31
0.0
  0
LINE
  5
216
330
212
100
AcDbEntity
  8
S10_Quote
 62
     0
370
    -2
100
AcDbLine
 10
751.878789184926
 20
3952.336970355535
 30
0.0
 11
751.878789184926
 21
3845.966968662191
 31
0.0
  0
INSERT
  5
217
330
212
100
AcDbEntity
  8
S10_Quote
 62
     0
370
    -2
100
AcDbBlockReference
  2
A$C79C4041D
 10
751.878789184926
 20
3952.351970355535
 30
0.0
 41
0.015
 42
0.015
 43
0.015
 50
90.0
  0
INSERT
  5
218
330
212
100
AcDbEntity
  8
S10_Quote
 62
     0
370
    -2
100
AcDbBlockReference
  2
A$C79C4041D
 10
751.878789184926
 20
3845.951968662191
 30
0.0
 41
0.015
 42
0.015
 43
0.015
 50
270.0
  0
MTEXT
  5
219
330
212
100
AcDbEntity
  8
S10_Quote
 62
     0
100
AcDbMText
 10
749.0326353387716
 20
3895.930291187184
 30
0.0
 40
2.0
 41
0.0
 71
     1
 72
     1
  1
106.4
  7
wurth
 11
0.0000000000000001
 21
1.0
 31
0.0
 73
     1
 44
1.0
  0
POINT
  5
21A
330
212
100
AcDbEntity
  8
Defpoints
 62
     0
100
AcDbPoint
 10
771.8117236868213
 20
3952.351970355535
 30
0.0
  0
POINT
  5
21B
330
212
100
AcDbEntity
  8
Defpoints
 62
     0
100
AcDbPoint
 10
774.8117236868213
 20
3845.951968662191
 30
0.0
  0
POINT
  5
21C
330
212
100
AcDbEntity
  8
Defpoints
 62
     0
100
AcDbPoint
 10
751.878789184926
 20
3845.951968662191
 30
0.0
  0
ENDBLK
  5
21D
330
212
100
AcDbEntity
  8
0
100
AcDbBlockEnd
  0
BLOCK
  5
21F
330
21E
100
AcDbEntity
  8
0
100
AcDbBlockBegin
  2
*D5
 70
     1
 10
0.0
 20
0.0
 30
0.0
  3
*D5
  1

  0
LINE
  5
220
330
21E
100
AcDbEntity
  8
S10_Quote
 62
     0
370
    -2
100
AcDbLine
 10
796.9117237100179
 20
3837.426968662191
 30
0.0
 11
796.9117237100179
 21
3826.801968662191
 31
0.0
  0
LINE
  5
221
330
21E
100
AcDbEntity
  8
S10_Quote
 62
     0
370
    -2
100
AcDbLine
 10
813.5117237100178
 20
3837.426968662191
 30
0.0
 11
813.5117237100178
 21
3826.801968662191
 31
0.0
  0
LINE
  5
222
330
21E
100
AcDbEntity
  8
S10_Quote
 62
     0
370
    -2
100
AcDbLine
 10
796.9267237100178
 20
3828.051968662191
 30
0.0
 11
813.4967237100179
 21
3828.051968662191
 31
0.0
  0
INSERT
  5
223
330
21E
100
AcDbEntity
  8
S10_Quote
 62
     0
370
    -2
100
AcDbBlockReference
  2
A$C79C4041D
 10
796.9117237100179
 20
3828.051968662191
 30
0.0
 41
0.015
 42
0.015
 43
0.015
 50
180.0
  0
INSERT
  5
224
330
21E
100
AcDbEntity
  8
S10_Quote
 62
     0
370
    -2
100
AcDbBlockReference
  2
A$C79C4041D
 10
813.5117237100178
 20
3828.051968662191
 30
0.0
 41
0.015
 42
0.015
 43
0.015
  0
MTEXT
  5
225
330
21E
100
AcDbEntity
  8
S10_Quote
 62
     0
100
AcDbMText
 10
802.7879474862412
 20
3830.88273789296
 30
0.0
 40
2.0
 41
0.0
 71
     1
 72
     1
  1
16.6
  7
wurth
 73
     1
 44
1.0
  0
POINT
  5
226
330
21E
100
AcDbEntity
  8
Defpoints
 62
     0
100
AcDbPoint
 10
796.9117237100179
 20
3838.051968662191
 30
0.0
  0
POINT
  5
227
330
21E
100
AcDbEntity
  8
Defpoints
 62
     0
100
AcDbPoint
 10
813.5117237100178
 20
3838.051968662191
 30
0.0
  0
POINT
  5
228
330
21E
100
AcDbEntity
  8
Defpoints
 62
     0
100
AcDbPoint
 10
813.5117237100178
 20
3828.051968662191
 30
0.0
  0
ENDBLK
  5
229
330
21E
100
AcDbEntity
  8
0
100
AcDbBlockEnd
  0
BLOCK
  5
22B
330
22A
100
AcDbEntity
  8
0
100
AcDbBlockBegin
  2
*D6
 70
     1
 10
0.0
 20
0.0
 30
0.0
  3
*D6
  1

  0
LINE
  5
22C
330
22A
100
AcDbEntity
  8
S10_Quote
 62
     0
370
    -2
100
AcDbLine
 10
771.611723686821
 20
3844.426968662191
 30
0.0
 11
771.611723686821
 21
3817.377938263954
 31
0.0
  0
LINE
  5
22D
330
22A
100
AcDbEntity
  8
S10_Quote
 62
     0
370
    -2
100
AcDbLine
 10
838.8117236868213
 20
3844.426968662191
 30
0.0
 11
838.8117236868213
 21
3817.377938263954
 31
0.0
  0
LINE
  5
22E
330
22A
100
AcDbEntity
  8
S10_Quote
 62
     0
370
    -2
100
AcDbLine
 10
771.626723686821
 20
3818.627938263954
 30
0.0
 11
838.7967236868213
 21
3818.627938263954
 31
0.0
  0
INSERT
  5
22F
330
22A
100
AcDbEntity
  8
S10_Quote
 62
     0
370
    -2
100
AcDbBlockReference
  2
A$C79C4041D
 10
771.611723686821
 20
3818.627938263954
 30
0.0
 41
0.015
 42
0.015
 43
0.015
 50
180.0
  0
INSERT
  5
230
330
22A
100
AcDbEntity
  8
S10_Quote
 62
     0
370
    -2
100
AcDbBlockReference
  2
A$C79C4041D
 10
838.8117236868213
 20
3818.627938263954
 30
0.0
 41
0.015
 42
0.015
 43
0.015
  0
MTEXT
  5
231
330
22A
100
AcDbEntity
  8
S10_Quote
 62
     0
100
AcDbMText
 10
802.6886467637444
 20
3821.472693508709
 30
0.0
 40
2.0
 41
0.0
 71
     1
 72
     1
  1
67.2
  7
wurth
 73
     1
 44
1.0
  0
POINT
  5
232
330
22A
100
AcDbEntity
  8
Defpoints
 62
     0
100
AcDbPoint
 10
771.611723686821
 20
3845.051968662191
 30
0.0
  0
POINT
  5
233
330
22A
100
AcDbEntity
  8
Defpoints
 62
     0
100
AcDbPoint
 10
838.8117236868213
 20
3845.051968662191
 30
0.0
  0
POINT
  5
234
330
22A
100
AcDbEntity
  8
Defpoints
 62
     0
100
AcDbPoint
 10
838.8117236868213
 20
3818.627938263954
 30
0.0
  0
ENDBLK
  5
235
330
22A
100
AcDbEntity
  8
0
100
AcDbBlockEnd
  0
BLOCK
  5
237
330
236
100
AcDbEntity
  8
0
100
AcDbBlockBegin
  2
*D7
 70
     1
 10
0.0
 20
0.0
 30
0.0
  3
*D7
  1

  0
LINE
  5
238
330
236
100
AcDbEntity
  8
S10_Quote
 62
     0
370
    -2
100
AcDbLine
 10
823.2294604067899
 20
3845.951968662191
 30
0.0
 11
823.8544604067906
 21
3845.951968662191
 31
0.0
  0
LINE
  5
239
330
236
100
AcDbEntity
  8
S10_Quote
 62
     0
370
    -2
100
AcDbLine
 10
813.9367237100175
 20
3837.851968662191
 30
0.0
 11
823.8544604067906
 21
3837.851968662191
 31
0.0
  0
LINE
  5
23A
330
236
100
AcDbEntity
  8
S10_Quote
 62
     0
370
    -2
100
AcDbLine
 10
822.6044604067906
 20
3845.936968662191
 30
0.0
 11
822.6044604067904
 21
3837.86696866219
 31
0.0
  0
INSERT
  5
23B
330
236
100
AcDbEntity
  8
S10_Quote
 62
     0
370
    -2
100
AcDbBlockReference
  2
A$C79C4041D
 10
822.6044604067906
 20
3845.951968662191
 30
0.0
 41
0.015
 42
0.015
 43
0.015
 50
90.0
  0
INSERT
  5
23C
330
236
100
AcDbEntity
  8
S10_Quote
 62
     0
370
    -2
100
AcDbBlockReference
  2
A$C79C4041D
 10
822.6044604067904
 20
3837.851968662191
 30
0.0
 41
0.015
 42
0.015
 43
0.015
 50
270.0
  0
MTEXT
  5
23D
330
236
100
AcDbEntity
  8
S10_Quote
 62
     0
100
AcDbMText
 10
819.7736911760207
 20
3840.420849781072
 30
0.0
 40
2.0
 41
0.0
 71
     1
 72
     1
  1
8.1
  7
wurth
 11
0.0000000000000001
 21
1.0
 31
0.0
 73
     1
 44
1.0
  0
POINT
  5
23E
330
236
100
AcDbEntity
  8
Defpoints
 62
     0
100
AcDbPoint
 10
822.6044604067899
 20
3845.951968662191
 30
0.0
  0
POINT
  5
23F
330
236
100
AcDbEntity
  8
Defpoints
 62
     0
100
AcDbPoint
 10
813.3117237100176
 20
3837.851968662191
 30
0.0
  0
POINT
  5
240
330
236
100
AcDbEntity
  8
Defpoints
 62
     0
100
AcDbPoint
 10
822.6044604067904
 20
3837.851968662191
 30
0.0
  0
ENDBLK
  5
241
330
236
100
AcDbEntity
  8
0
100
AcDbBlockEnd
  0
BLOCK
  5
243
330
242
100
AcDbEntity
  8
0
100
AcDbBlockBegin
  2
*D8
 70
     1
 10
0.0
 20
0.0
 30
0.0
  3
*D8
  1

  0
LINE
  5
244
330
242
100
AcDbEntity
  8
S10_Quote
 62
     0
370
    -2
100
AcDbLine
 10
839.2367236868215
 20
3844.851968662191
 30
0.0
 11
850.3636314613386
 21
3844.851968662191
 31
0.0
  0
LINE
  5
245
330
242
100
AcDbEntity
  8
S10_Quote
 62
     0
370
    -2
100
AcDbLine
 10
839.236723686821
 20
3866.251968662191
 30
0.0
 11
850.3636314613386
 21
3866.251968662191
 31
0.0
  0
LINE
  5
246
330
242
100
AcDbEntity
  8
S10_Quote
 62
     0
370
    -2
100
AcDbLine
 10
849.1136314613386
 20
3844.866968662191
 30
0.0
 11
849.1136314613386
 21
3866.236968662191
 31
0.0
  0
INSERT
  5
247
330
242
100
AcDbEntity
  8
S10_Quote
 62
     0
370
    -2
100
AcDbBlockReference
  2
A$C79C4041D
 10
849.1136314613386
 20
3844.851968662191
 30
0.0
 41
0.015
 42
0.015
 43
0.015
 50
270.0
  0
INSERT
  5
248
330
242
100
AcDbEntity
  8
S10_Quote
 62
     0
370
    -2
100
AcDbBlockReference
  2
A$C79C4041D
 10
849.1136314613386
 20
3866.251968662191
 30
0.0
 41
0.015
 42
0.015
 43
0.015
 50
90.0
  0
MTEXT
  5
249
330
242
100
AcDbEntity
  8
S10_Quote
 62
     0
100
AcDbMText
 10
846.2702748179813
 20
3852.974346284569
 30
0.0
 40
2.0
 41
0.0
 71
     1
 72
     1
  1
21.4
  7
wurth
 11
0.0000000000000001
 21
1.0
 31
0.0
 73
     1
 44
1.0
  0
POINT
  5
24A
330
242
100
AcDbEntity
  8
Defpoints
 62
     0
100
AcDbPoint
 10
838.6117236868214
 20
3844.851968662191
 30
0.0
  0
POINT
  5
24B
330
242
100
AcDbEntity
  8
Defpoints
 62
     0
100
AcDbPoint
 10
838.611723686821
 20
3866.251968662191
 30
0.0
  0
POINT
  5
24C
330
242
100
AcDbEntity
  8
Defpoints
 62
     0
100
AcDbPoint
 10
849.1136314613386
 20
3866.251968662191
 30
0.0
  0
ENDBLK
  5
24D
330
242
100
AcDbEntity
  8
0
100
AcDbBlockEnd
  0
BLOCK
  5
24F
330
24E
100
AcDbEntity
  8
0
100
AcDbBlockBegin
  2
*D9
 70
     1
 10
0.0
 20
0.0
 30
0.0
  3
*D9
  1

  0
LINE
  5
250
330
24E
100
AcDbEntity
  8
S10_Quote
 62
     0
370
    -2
100
AcDbLine
 10
838.8117236868213
 20
3859.347781949363
 30
0.0
 11
838.8117236868213
 21
3861.812026534292
 31
0.0
  0
LINE
  5
251
330
24E
100
AcDbEntity
  8
S10_Quote
 62
     0
370
    -2
100
AcDbLine
 10
834.8117236868214
 20
3859.347781949363
 30
0.0
 11
834.8117236868214
 21
3861.812026534292
 31
0.0
  0
LINE
  5
252
330
24E
100
AcDbEntity
  8
S10_Quote
 62
     0
370
    -2
100
AcDbLine
 10
838.7967236868213
 20
3860.562026534291
 30
0.0
 11
834.8267236868213
 21
3860.562026534291
 31
0.0
  0
LINE
  5
253
330
24E
100
AcDbEntity
  8
S10_Quote
 62
     0
370
    -2
100
AcDbLine
 10
834.8117236868214
 20
3860.562026534291
 30
0.0
 11
824.6006197210945
 21
3860.562026534291
 31
0.0
  0
INSERT
  5
254
330
24E
100
AcDbEntity
  8
S10_Quote
 62
     0
370
    -2
100
AcDbBlockReference
  2
A$C79C4041D
 10
838.8117236868213
 20
3860.562026534291
 30
0.0
 41
0.015
 42
0.015
 43
0.015
  0
INSERT
  5
255
330
24E
100
AcDbEntity
  8
S10_Quote
 62
     0
370
    -2
100
AcDbBlockReference
  2
A$C79C4041D
 10
834.8117236868214
 20
3860.562026534291
 30
0.0
 41
0.015
 42
0.015
 43
0.015
 50
180.0
  0
MTEXT
  5
256
330
24E
100
AcDbEntity
  8
S10_Quote
 62
     0
100
AcDbMText
 10
825.4006197210946
 20
3863.377411149676
 30
0.0
 40
2.0
 41
0.0
 71
     1
 72
     1
  1
4
  7
wurth
 73
     1
 44
1.0
  0
POINT
  5
257
330
24E
100
AcDbEntity
  8
Defpoints
 62
     0
100
AcDbPoint
 10
838.8117236868213
 20
3858.722781949363
 30
0.0
  0
POINT
  5
258
330
24E
100
AcDbEntity
  8
Defpoints
 62
     0
100
AcDbPoint
 10
834.8117236868214
 20
3858.722781949363
 30
0.0
  0
POINT
  5
259
330
24E
100
AcDbEntity
  8
Defpoints
 62
     0
100
AcDbPoint
 10
834.8117236868214
 20
3860.562026534291
 30
0.0
  0
ENDBLK
  5
25A
330
24E
100
AcDbEntity
  8
0
100
AcDbBlockEnd
  0
BLOCK
  5
25C
330
25B
100
AcDbEntity
  8
0
100
AcDbBlockBegin
  2
*D10
 70
     1
 10
0.0
 20
0.0
 30
0.0
  3
*D10
  1

  0
LINE
  5
25D
330
25B
100
AcDbEntity
  8
S10_Quote
 62
     0
370
    -2
100
AcDbLine
 10
838.8117236868213
 20
3866.676968662191
 30
0.0
 11
838.8117236868213
 21
3876.332702125328
 31
0.0
  0
LINE
  5
25E
330
25B
100
AcDbEntity
  8
S10_Quote
 62
     0
370
    -2
100
AcDbLine
 10
837.6117236868214
 20
3875.707702125327
 30
0.0
 11
837.6117236868214
 21
3876.332702125328
 31
0.0
  0
LINE
  5
25F
330
25B
100
AcDbEntity
  8
S10_Quote
 62
     0
370
    -2
100
AcDbLine
 10
837.5967236868214
 20
3875.082702125327
 30
0.0
 11
837.5817236868215
 21
3875.082702125327
 31
0.0
  0
LINE
  5
260
330
25B
100
AcDbEntity
  8
S10_Quote
 62
     0
370
    -2
100
AcDbLine
 10
838.8267236868212
 20
3875.082702125327
 30
0.0
 11
849.748437033139
 21
3875.082702125327
 31
0.0
  0
LINE
  5
261
330
25B
100
AcDbEntity
  8
S10_Quote
 62
     0
370
    -2
100
AcDbLine
 10
837.6117236868214
 20
3875.082702125327
 30
0.0
 11
838.8117236868213
 21
3875.082702125327
 31
0.0
  0
INSERT
  5
262
330
25B
100
AcDbEntity
  8
S10_Quote
 62
     0
370
    -2
100
AcDbBlockReference
  2
A$C79C4041D
 10
837.6117236868214
 20
3875.082702125327
 30
0.0
 41
0.015
 42
0.015
 43
0.015
  0
INSERT
  5
263
330
25B
100
AcDbEntity
  8
S10_Quote
 62
     0
370
    -2
100
AcDbBlockReference
  2
A$C79C4041D
 10
838.8117236868213
 20
3875.082702125327
 30
0.0
 41
0.015
 42
0.015
 43
0.015
 50
180.0
  0
MTEXT
  5
264
330
25B
100
AcDbEntity
  8
S10_Quote
 62
     0
100
AcDbMText
 10
845.7750104597124
 20
3877.910674153299
 30
0.0
 40
2.0
 41
0.0
 71
     1
 72
     1
  1
1.2
  7
wurth
 73
     1
 44
1.0
  0
POINT
  5
265
330
25B
100
AcDbEntity
  8
Defpoints
 62
     0
100
AcDbPoint
 10
838.8117236868213
 20
3866.051968662191
 30
0.0
  0
POINT
  5
266
330
25B
100
AcDbEntity
  8
Defpoints
 62
     0
100
AcDbPoint
 10
837.6117236868214
 20
3875.082702125327
 30
0.0
  0
POINT
  5
267
330
25B
100
AcDbEntity
  8
Defpoints
 62
     0
100
AcDbPoint
 10
837.6117236868214
 20
3875.082702125327
 30
0.0
  0
ENDBLK
  5
268
330
25B
100
AcDbEntity
  8
0
100
AcDbBlockEnd
  0
BLOCK
  5
26A
330
269
100
AcDbEntity
  8
0
100
AcDbBlockBegin
  2
*D11
 70
     1
 10
0.0
 20
0.0
 30
0.0
  3
*D11
  1

  0
LINE
  5
26B
330
269
100
AcDbEntity
  8
S10_Quote
 62
     0
370
    -2
100
AcDbLine
 10
837.6117236868214
 20
3884.163603773752
 30
0.0
 11
837.6117236868214
 21
3884.788603773752
 31
0.0
  0
LINE
  5
26C
330
269
100
AcDbEntity
  8
S10_Quote
 62
     0
370
    -2
100
AcDbLine
 10
772.8117236868213
 20
3884.163603773752
 30
0.0
 11
772.8117236868213
 21
3884.788603773752
 31
0.0
  0
LINE
  5
26D
330
269
100
AcDbEntity
  8
S10_Quote
 62
     0
370
    -2
100
AcDbLine
 10
837.5967236868214
 20
3883.538603773752
 30
0.0
 11
772.8267236868213
 21
3883.538603773752
 31
0.0
  0
INSERT
  5
26E
330
269
100
AcDbEntity
  8
S10_Quote
 62
     0
370
    -2
100
AcDbBlockReference
  2
A$C79C4041D
 10
837.6117236868214
 20
3883.538603773752
 30
0.0
 41
0.015
 42
0.015
 43
0.015
  0
INSERT
  5
26F
330
269
100
AcDbEntity
  8
S10_Quote
 62
     0
370
    -2
100
AcDbBlockReference
  2
A$C79C4041D
 10
772.8117236868213
 20
3883.538603773752
 30
0.0
 41
0.015
 42
0.015
 43
0.015
 50
180.0
  0
MTEXT
  5
270
330
269
100
AcDbEntity
  8
S10_Quote
 62
     0
100
AcDbMText
 10
802.678157253255
 20
3886.384757619906
 30
0.0
 40
2.0
 41
0.0
 71
     1
 72
     1
  1
64.8
  7
wurth
 73
     1
 44
1.0
  0
POINT
  5
271
330
269
100
AcDbEntity
  8
Defpoints
 62
     0
100
AcDbPoint
 10
837.6117236868214
 20
3883.538603773752
 30
0.0
  0
POINT
  5
272
330
269
100
AcDbEntity
  8
Defpoints
 62
     0
100
AcDbPoint
 10
772.8117236868213
 20
3883.538603773752
 30
0.0
  0
POINT
  5
273
330
269
100
AcDbEntity
  8
Defpoints
 62
     0
100
AcDbPoint
 10
772.8117236868213
 20
3883.538603773752
 30
0.0
  0
ENDBLK
  5
274
330
269
100
AcDbEntity
  8
0
100
AcDbBlockEnd
  0
BLOCK
  5
276
330
275
100
AcDbEntity
  8
0
100
AcDbBlockBegin
  2
*D12
 70
     1
 10
0.0
 20
0.0
 30
0.0
  3
*D12
  1

  0
LINE
  5
277
330
275
100
AcDbEntity
  8
S10_Quote
 62
     0
370
    -2
100
AcDbLine
 10
839.236723686821
 20
3952.351970355535
 30
0.0
 11
850.3636314613386
 21
3952.351970355535
 31
0.0
  0
LINE
  5
278
330
275
100
AcDbEntity
  8
S10_Quote
 62
     0
370
    -2
100
AcDbLine
 10
839.236723686821
 20
3949.351970355535
 30
0.0
 11
850.3636314613386
 21
3949.351970355535
 31
0.0
  0
LINE
  5
279
330
275
100
AcDbEntity
  8
S10_Quote
 62
     0
370
    -2
100
AcDbLine
 10
849.1136314613386
 20
3952.336970355535
 30
0.0
 11
849.1136314613386
 21
3949.366970355534
 31
0.0
  0
INSERT
  5
27A
330
275
100
AcDbEntity
  8
S10_Quote
 62
     0
370
    -2
100
AcDbBlockReference
  2
A$C79C4041D
 10
849.1136314613386
 20
3952.351970355535
 30
0.0
 41
0.015
 42
0.015
 43
0.015
 50
90.0
  0
INSERT
  5
27B
330
275
100
AcDbEntity
  8
S10_Quote
 62
     0
370
    -2
100
AcDbBlockReference
  2
A$C79C4041D
 10
849.1136314613386
 20
3949.351970355535
 30
0.0
 41
0.015
 42
0.015
 43
0.015
 50
270.0
  0
MTEXT
  5
27C
330
275
100
AcDbEntity
  8
S10_Quote
 62
     0
100
AcDbMText
 10
846.2828622305687
 20
3950.272949376513
 30
0.0
 40
2.0
 41
0.0
 71
     1
 72
     1
  1
3
  7
wurth
 11
0.0000000000000001
 21
1.0
 31
0.0
 73
     1
 44
1.0
  0
POINT
  5
27D
330
275
100
AcDbEntity
  8
Defpoints
 62
     0
100
AcDbPoint
 10
838.611723686821
 20
3952.351970355535
 30
0.0
  0
POINT
  5
27E
330
275
100
AcDbEntity
  8
Defpoints
 62
     0
100
AcDbPoint
 10
838.611723686821
 20
3949.351970355535
 30
0.0
  0
POINT
  5
27F
330
275
100
AcDbEntity
  8
Defpoints
 62
     0
100
AcDbPoint
 10
849.1136314613386
 20
3949.351970355535
 30
0.0
  0
ENDBLK
  5
280
330
275
100
AcDbEntity
  8
0
100
AcDbBlockEnd
  0
BLOCK
  5
282
330
281
100
AcDbEntity
  8
0
100
AcDbBlockBegin
  2
*D13
 70
     1
 10
0.0
 20
0.0
 30
0.0
  3
*D13
  1

  0
LINE
  5
283
330
281
100
AcDbEntity
  8
S10_Quote
 62
     0
370
    -2
100
AcDbLine
 10
839.236723686821
 20
3952.351970355535
 30
0.0
 11
861.8617236868217
 21
3952.351970355535
 31
0.0
  0
LINE
  5
284
330
281
100
AcDbEntity
  8
S10_Quote
 62
     0
370
    -2
100
AcDbLine
 10
839.2367236868215
 20
3844.851968662191
 30
0.0
 11
861.8617236868217
 21
3844.851968662191
 31
0.0
  0
LINE
  5
285
330
281
100
AcDbEntity
  8
S10_Quote
 62
     0
370
    -2
100
AcDbLine
 10
860.6117236868216
 20
3952.336970355535
 30
0.0
 11
860.6117236868216
 21
3844.866968662191
 31
0.0
  0
INSERT
  5
286
330
281
100
AcDbEntity
  8
S10_Quote
 62
     0
370
    -2
100
AcDbBlockReference
  2
A$C79C4041D
 10
860.6117236868216
 20
3952.351970355535
 30
0.0
 41
0.015
 42
0.015
 43
0.015
 50
90.0
  0
INSERT
  5
287
330
281
100
AcDbEntity
  8
S10_Quote
 62
     0
370
    -2
100
AcDbBlockReference
  2
A$C79C4041D
 10
860.6117236868216
 20
3844.851968662191
 30
0.0
 41
0.015
 42
0.015
 43
0.015
 50
270.0
  0
MTEXT
  5
288
330
281
100
AcDbEntity
  8
S10_Quote
 62
     0
100
AcDbMText
 10
857.7669684420659
 20
3895.430640837534
 30
0.0
 40
2.0
 41
0.0
 71
     1
 72
     1
  1
107.5
  7
wurth
 11
0.0000000000000001
 21
1.0
 31
0.0
 73
     1
 44
1.0
  0
POINT
  5
289
330
281
100
AcDbEntity
  8
Defpoints
 62
     0
100
AcDbPoint
 10
838.611723686821
 20
3952.351970355535
 30
0.0
  0
POINT
  5
28A
330
281
100
AcDbEntity
  8
Defpoints
 62
     0
100
AcDbPoint
 10
838.6117236868214
 20
3844.851968662191
 30
0.0
  0
POINT
  5
28B
330
281
100
AcDbEntity
  8
Defpoints
 62
     0
100
AcDbPoint
 10
860.6117236868216
 20
3844.851968662191
 30
0.0
  0
ENDBLK
  5
28C
330
281
100
AcDbEntity
  8
0
100
AcDbBlockEnd
  0
BLOCK
  5
28E
330
28D
100
AcDbEntity
  8
0
100
AcDbBlockBegin
  2
*D14
 70
     1
 10
0.0
 20
0.0
 30
0.0
  3
*D14
  1

  0
LINE
  5
28F
330
28D
100
AcDbEntity
  8
S10_Quote
 62
     0
370
    -2
100
AcDbLine
 10
799.7117237100176
 20
3849.176968662192
 30
0.0
 11
799.7117237100176
 21
3857.079678926139
 31
0.0
  0
LINE
  5
290
330
28D
100
AcDbEntity
  8
S10_Quote
 62
     0
370
    -2
100
AcDbLine
 10
810.7117237100176
 20
3849.176968662192
 30
0.0
 11
810.7117237100176
 21
3857.079678926139
 31
0.0
  0
LINE
  5
291
330
28D
100
AcDbEntity
  8
S10_Quote
 62
     0
370
    -2
100
AcDbLine
 10
799.7267237100175
 20
3855.82967892614
 30
0.0
 11
810.6967237100176
 21
3855.82967892614
 31
0.0
  0
INSERT
  5
292
330
28D
100
AcDbEntity
  8
S10_Quote
 62
     0
370
    -2
100
AcDbBlockReference
  2
A$C79C4041D
 10
799.7117237100176
 20
3855.82967892614
 30
0.0
 41
0.015
 42
0.015
 43
0.015
 50
180.0
  0
INSERT
  5
293
330
28D
100
AcDbEntity
  8
S10_Quote
 62
     0
370
    -2
100
AcDbBlockReference
  2
A$C79C4041D
 10
810.7117237100176
 20
3855.82967892614
 30
0.0
 41
0.015
 42
0.015
 43
0.015
  0
MTEXT
  5
294
330
28D
100
AcDbEntity
  8
S10_Quote
 62
     0
100
AcDbMText
 10
804.1543810526748
 20
3858.62967892614
 30
0.0
 40
2.0
 41
0.0
 71
     1
 72
     1
  1
11
  7
wurth
 73
     1
 44
1.0
  0
POINT
  5
295
330
28D
100
AcDbEntity
  8
Defpoints
 62
     0
100
AcDbPoint
 10
799.7117237100176
 20
3848.551968662191
 30
0.0
  0
POINT
  5
296
330
28D
100
AcDbEntity
  8
Defpoints
 62
     0
100
AcDbPoint
 10
810.7117237100176
 20
3848.551968662191
 30
0.0
  0
POINT
  5
297
330
28D
100
AcDbEntity
  8
Defpoints
 62
     0
100
AcDbPoint
 10
810.7117237100176
 20
3855.82967892614
 30
0.0
  0
ENDBLK
  5
298
330
28D
100
AcDbEntity
  8
0
100
AcDbBlockEnd
  0
BLOCK
  5
29A
330
299
100
AcDbEntity
  8
0
100
AcDbBlockBegin
  2
*D15
 70
     1
 10
0.0
 20
0.0
 30
0.0
  3
*D15
  1

  0
LINE
  5
29B
330
299
100
AcDbEntity
  8
S10_Quote
 62
     0
370
    -2
100
AcDbLine
 10
798.1458801289184
 20
3941.051971301853
 30
0.0
 11
797.5208794736186
 21
3941.051971301853
 31
0.0
  0
LINE
  5
29C
330
299
100
AcDbEntity
  8
S10_Quote
 62
     0
370
    -2
100
AcDbLine
 10
791.0367236868212
 20
3952.351970355535
 30
0.0
 11
800.0208794736186
 21
3952.351970355535
 31
0.0
  0
LINE
  5
29D
330
299
100
AcDbEntity
  8
S10_Quote
 62
     0
370
    -2
100
AcDbLine
 10
798.7708794736186
 20
3941.066971301853
 30
0.0
 11
798.7708794736186
 21
3952.336970355535
 31
0.0
  0
INSERT
  5
29E
330
299
100
AcDbEntity
  8
S10_Quote
 62
     0
370
    -2
100
AcDbBlockReference
  2
A$C79C4041D
 10
798.7708794736186
 20
3941.051971301853
 30
0.0
 41
0.015
 42
0.015
 43
0.015
 50
270.0
  0
INSERT
  5
29F
330
299
100
AcDbEntity
  8
S10_Quote
 62
     0
370
    -2
100
AcDbBlockReference
  2
A$C79C4041D
 10
798.7708794736186
 20
3952.351970355535
 30
0.0
 41
0.015
 42
0.015
 43
0.015
 50
90.0
  0
MTEXT
  5
2A0
330
299
100
AcDbEntity
  8
S10_Quote
 62
     0
100
AcDbMText
 10
795.9401102428487
 20
3944.340432851913
 30
0.0
 40
2.0
 41
0.0
 71
     1
 72
     1
  1
11.3
  7
wurth
 11
0.0000000000000001
 21
1.0
 31
0.0
 73
     1
 44
1.0
  0
POINT
  5
2A1
330
299
100
AcDbEntity
  8
Defpoints
 62
     0
100
AcDbPoint
 10
798.7708801289183
 20
3941.051971301853
 30
0.0
  0
POINT
  5
2A2
330
299
100
AcDbEntity
  8
Defpoints
 62
     0
100
AcDbPoint
 10
790.4117236868212
 20
3952.351970355535
 30
0.0
  0
POINT
  5
2A3
330
299
100
AcDbEntity
  8
Defpoints
 62
     0
100
AcDbPoint
 10
798.7708794736186
 20
3952.351970355535
 30
0.0
  0
ENDBLK
  5
2A4
330
299
100
AcDbEntity
  8
0
100
AcDbBlockEnd
  0
BLOCK
  5
2A6
330
2A5
100
AcDbEntity
  8
0
100
AcDbBlockBegin
  2
*D16
 70
     1
 10
0.0
 20
0.0
 30
0.0
  3
*D16
  1

  0
LINE
  5
2A7
330
2A5
100
AcDbEntity
  8
S10_Quote
 62
     0
370
    -2
100
AcDbLine
 10
822.611723686821
 20
3937.826974043775
 30
0.0
 11
822.611723686821
 21
3927.201974043775
 31
0.0
  0
LINE
  5
2A8
330
2A5
100
AcDbEntity
  8
S10_Quote
 62
     0
370
    -2
100
AcDbLine
 10
819.8117236868208
 20
3940.626973719025
 30
0.0
 11
819.8117236868208
 21
3927.201974043775
 31
0.0
  0
LINE
  5
2A9
330
2A5
100
AcDbEntity
  8
S10_Quote
 62
     0
370
    -2
100
AcDbLine
 10
822.5967236868211
 20
3928.451974043775
 30
0.0
 11
819.8267236868208
 21
3928.451974043775
 31
0.0
  0
INSERT
  5
2AA
330
2A5
100
AcDbEntity
  8
S10_Quote
 62
     0
370
    -2
100
AcDbBlockReference
  2
A$C79C4041D
 10
822.611723686821
 20
3928.451974043775
 30
0.0
 41
0.015
 42
0.015
 43
0.015
  0
INSERT
  5
2AB
330
2A5
100
AcDbEntity
  8
S10_Quote
 62
     0
370
    -2
100
AcDbBlockReference
  2
A$C79C4041D
 10
819.8117236868208
 20
3928.451974043775
 30
0.0
 41
0.015
 42
0.015
 43
0.015
 50
180.0
  0
MTEXT
  5
2AC
330
2A5
100
AcDbEntity
  8
S10_Quote
 62
     0
100
AcDbMText
 10
819.4662691413665
 20
3931.282743274545
 30
0.0
 40
2.0
 41
0.0
 71
     1
 72
     1
  1
2.8
  7
wurth
 73
     1
 44
1.0
  0
POINT
  5
2AD
330
2A5
100
AcDbEntity
  8
Defpoints
 62
     0
100
AcDbPoint
 10
822.611723686821
 20
3938.451974043776
 30
0.0
  0
POINT
  5
2AE
330
2A5
100
AcDbEntity
  8
Defpoints
 62
     0
100
AcDbPoint
 10
819.8117236868208
 20
3941.251973719025
 30
0.0
  0
POINT
  5
2AF
330
2A5
100
AcDbEntity
  8
Defpoints
 62
     0
100
AcDbPoint
 10
819.8117236868208
 20
3928.451974043775
 30
0.0
  0
ENDBLK
  5
2B0
330
2A5
100
AcDbEntity
  8
0
100
AcDbBlockEnd
  0
BLOCK
  5
2B2
330
2B1
100
AcDbEntity
  8
0
100
AcDbBlockBegin
  2
*D17
 70
     1
 10
0.0
 20
0.0
 30
0.0
  3
*D17
  1

  0
LINE
  5
2B3
330
2B1
100
AcDbEntity
  8
S10_Quote
 62
     0
370
    -2
100
AcDbLine
 10
819.8117236868208
 20
3940.626973719025
 30
0.0
 11
819.8117236868208
 21
3927.201974043775
 31
0.0
  0
LINE
  5
2B4
330
2B1
100
AcDbEntity
  8
S10_Quote
 62
     0
370
    -2
100
AcDbLine
 10
790.611723686821
 20
3940.626970378731
 30
0.0
 11
790.611723686821
 21
3927.201974043775
 31
0.0
  0
LINE
  5
2B5
330
2B1
100
AcDbEntity
  8
S10_Quote
 62
     0
370
    -2
100
AcDbLine
 10
819.7967236868208
 20
3928.451974043775
 30
0.0
 11
790.626723686821
 21
3928.451974043775
 31
0.0
  0
INSERT
  5
2B6
330
2B1
100
AcDbEntity
  8
S10_Quote
 62
     0
370
    -2
100
AcDbBlockReference
  2
A$C79C4041D
 10
819.8117236868208
 20
3928.451974043775
 30
0.0
 41
0.015
 42
0.015
 43
0.015
  0
INSERT
  5
2B7
330
2B1
100
AcDbEntity
  8
S10_Quote
 62
     0
370
    -2
100
AcDbBlockReference
  2
A$C79C4041D
 10
790.611723686821
 20
3928.451974043775
 30
0.0
 41
0.015
 42
0.015
 43
0.015
 50
180.0
  0
MTEXT
  5
2B8
330
2B1
100
AcDbEntity
  8
S10_Quote
 62
     0
100
AcDbMText
 10
802.6844509595482
 20
3931.29812788993
 30
0.0
 40
2.0
 41
0.0
 71
     1
 72
     1
  1
29.2
  7
wurth
 73
     1
 44
1.0
  0
POINT
  5
2B9
330
2B1
100
AcDbEntity
  8
Defpoints
 62
     0
100
AcDbPoint
 10
819.8117236868208
 20
3941.251973719025
 30
0.0
  0
POINT
  5
2BA
330
2B1
100
AcDbEntity
  8
Defpoints
 62
     0
100
AcDbPoint
 10
790.611723686821
 20
3941.251970378731
 30
0.0
  0
POINT
  5
2BB
330
2B1
100
AcDbEntity
  8
Defpoints
 62
     0
100
AcDbPoint
 10
790.611723686821
 20
3928.451974043775
 30
0.0
  0
ENDBLK
  5
2BC
330
2B1
100
AcDbEntity
  8
0
100
AcDbBlockEnd
  0
BLOCK
  5
388
330
387
100
AcDbEntity
  8
0
100
AcDbBlockBegin
  2
*D19
 70
     1
 10
0.0
 20
0.0
 30
0.0
  3
*D19
  1

  0
LINE
  5
44A
330
387
100
AcDbEntity
  8
S10_Quote
 62
     0
370
    -2
100
AcDbLine
 10
1701.152392526024
 20
1090.274322328896
 30
0.0
 11
1687.745259965991
 21
1090.274322328896
 31
0.0
  0
LINE
  5
44B
330
387
100
AcDbEntity
  8
S10_Quote
 62
     0
370
    -2
100
AcDbLine
 10
1705.152392526024
 20
1086.374322328896
 30
0.0
 11
1687.745259965991
 21
1086.374322328896
 31
0.0
  0
LINE
  5
44C
330
387
100
AcDbEntity
  8
S10_Quote
 62
     0
370
    -2
100
AcDbLine
 10
1688.995259965991
 20
1090.259322328896
 30
0.0
 11
1688.995259965991
 21
1086.389322328896
 31
0.0
  0
INSERT
  5
44D
330
387
100
AcDbEntity
  8
S10_Quote
 62
     0
370
    -2
100
AcDbBlockReference
  2
A$C79C4041D
 10
1688.995259965991
 20
1090.274322328896
 30
0.0
 41
0.015
 42
0.015
 43
0.015
 50
90.0
  0
INSERT
  5
44E
330
387
100
AcDbEntity
  8
S10_Quote
 62
     0
370
    -2
100
AcDbBlockReference
  2
A$C79C4041D
 10
1688.995259965991
 20
1086.374322328896
 30
0.0
 41
0.015
 42
0.015
 43
0.015
 50
270.0
  0
MTEXT
  5
44F
330
387
100
AcDbEntity
  8
S10_Quote
 62
     0
100
AcDbMText
 10
1686.149106119836
 20
1086.564182468757
 30
0.0
 40
2.0
 41
0.0
 71
     1
 72
     1
  1
3.9
  7
wurth
 11
0.0000000000000001
 21
1.0
 31
0.0
 73
     1
 44
1.0
  0
POINT
  5
450
330
387
100
AcDbEntity
  8
Defpoints
 62
     0
100
AcDbPoint
 10
1701.777392526024
 20
1090.274322328896
 30
0.0
  0
POINT
  5
451
330
387
100
AcDbEntity
  8
Defpoints
 62
     0
100
AcDbPoint
 10
1705.777392526024
 20
1086.374322328896
 30
0.0
  0
POINT
  5
452
330
387
100
AcDbEntity
  8
Defpoints
 62
     0
100
AcDbPoint
 10
1688.995259965991
 20
1086.374322328896
 30
0.0
  0
ENDBLK
  5
389
330
387
100
AcDbEntity
  8
0
100
AcDbBlockEnd
  0
BLOCK
  5
394
330
393
100
AcDbEntity
  8
0
100
AcDbBlockBegin
  2
*D20
 70
     1
 10
0.0
 20
0.0
 30
0.0
  3
*D20
  1

  0
LINE
  5
453
330
393
100
AcDbEntity
  8
S10_Quote
 62
     0
370
    -2
100
AcDbLine
 10
1705.152392526024
 20
986.6743206355527
 30
0.0
 11
1690.527392526024
 21
986.6743206355527
 31
0.0
  0
LINE
  5
454
330
393
100
AcDbEntity
  8
S10_Quote
 62
     0
370
    -2
100
AcDbLine
 10
1701.152392526024
 20
1004.174320635552
 30
0.0
 11
1690.527392526024
 21
1004.174320635552
 31
0.0
  0
LINE
  5
455
330
393
100
AcDbEntity
  8
S10_Quote
 62
     0
370
    -2
100
AcDbLine
 10
1691.777392526024
 20
986.6893206355527
 30
0.0
 11
1691.777392526024
 21
1004.159320635553
 31
0.0
  0
INSERT
  5
456
330
393
100
AcDbEntity
  8
S10_Quote
 62
     0
370
    -2
100
AcDbBlockReference
  2
A$C79C4041D
 10
1691.777392526024
 20
986.6743206355527
 30
0.0
 41
0.015
 42
0.015
 43
0.015
 50
270.0
  0
INSERT
  5
457
330
393
100
AcDbEntity
  8
S10_Quote
 62
     0
370
    -2
100
AcDbBlockReference
  2
A$C79C4041D
 10
1691.777392526024
 20
1004.174320635552
 30
0.0
 41
0.015
 42
0.015
 43
0.015
 50
90.0
  0
MTEXT
  5
458
330
393
100
AcDbEntity
  8
S10_Quote
 62
     0
100
AcDbMText
 10
1688.932637281268
 20
993.0452996565318
 30
0.0
 40
2.0
 41
0.0
 71
     1
 72
     1
  1
17.5
  7
wurth
 11
0.0000000000000001
 21
1.0
 31
0.0
 73
     1
 44
1.0
  0
POINT
  5
459
330
393
100
AcDbEntity
  8
Defpoints
 62
     0
100
AcDbPoint
 10
1705.777392526024
 20
986.6743206355527
 30
0.0
  0
POINT
  5
45A
330
393
100
AcDbEntity
  8
Defpoints
 62
     0
100
AcDbPoint
 10
1701.777392526024
 20
1004.174320635552
 30
0.0
  0
POINT
  5
45B
330
393
100
AcDbEntity
  8
Defpoints
 62
     0
100
AcDbPoint
 10
1691.777392526024
 20
1004.174320635552
 30
0.0
  0
ENDBLK
  5
395
330
393
100
AcDbEntity
  8
0
100
AcDbBlockEnd
  0
BLOCK
  5
3A0
330
39F
100
AcDbEntity
  8
0
100
AcDbBlockBegin
  2
*D21
 70
     1
 10
0.0
 20
0.0
 30
0.0
  3
*D21
  1

  0
LINE
  5
45C
330
39F
100
AcDbEntity
  8
S10_Quote
 62
     0
370
    -2
100
AcDbLine
 10
1701.152392526024
 20
1090.274322328896
 30
0.0
 11
1680.594458024128
 21
1090.274322328896
 31
0.0
  0
LINE
  5
45D
330
39F
100
AcDbEntity
  8
S10_Quote
 62
     0
370
    -2
100
AcDbLine
 10
1704.152392526023
 20
983.8743206355525
 30
0.0
 11
1680.594458024128
 21
983.8743206355525
 31
0.0
  0
LINE
  5
45E
330
39F
100
AcDbEntity
  8
S10_Quote
 62
     0
370
    -2
100
AcDbLine
 10
1681.844458024128
 20
1090.259322328896
 30
0.0
 11
1681.844458024128
 21
983.8893206355525
 31
0.0
  0
INSERT
  5
45F
330
39F
100
AcDbEntity
  8
S10_Quote
 62
     0
370
    -2
100
AcDbBlockReference
  2
A$C79C4041D
 10
1681.844458024128
 20
1090.274322328896
 30
0.0
 41
0.015
 42
0.015
 43
0.015
 50
90.0
  0
INSERT
  5
460
330
39F
100
AcDbEntity
  8
S10_Quote
 62
     0
370
    -2
100
AcDbBlockReference
  2
A$C79C4041D
 10
1681.844458024128
 20
983.8743206355525
 30
0.0
 41
0.015
 42
0.015
 43
0.015
 50
270.0
  0
MTEXT
  5
461
330
39F
100
AcDbEntity
  8
S10_Quote
 62
     0
100
AcDbMText
 10
1678.998304177974
 20
1033.852643160546
 30
0.0
 40
2.0
 41
0.0
 71
     1
 72
     1
  1
106.4
  7
wurth
 11
0.0000000000000001
 21
1.0
 31
0.0
 73
     1
 44
1.0
  0
POINT
  5
462
330
39F
100
AcDbEntity
  8
Defpoints
 62
     0
100
AcDbPoint
 10
1701.777392526024
 20
1090.274322328896
 30
0.0
  0
POINT
  5
463
330
39F
100
AcDbEntity
  8
Defpoints
 62
     0
100
AcDbPoint
 10
1704.777392526024
 20
983.8743206355525
 30
0.0
  0
POINT
  5
464
330
39F
100
AcDbEntity
  8
Defpoints
 62
     0
100
AcDbPoint
 10
1681.844458024128
 20
983.8743206355525
 30
0.0
  0
ENDBLK
  5
3A1
330
39F
100
AcDbEntity
  8
0
100
AcDbBlockEnd
  0
BLOCK
  5
3AC
330
3AB
100
AcDbEntity
  8
0
100
AcDbBlockBegin
  2
*D22
 70
     1
 10
0.0
 20
0.0
 30
0.0
  3
*D22
  1

  0
LINE
  5
465
330
3AB
100
AcDbEntity
  8
S10_Quote
 62
     0
370
    -2
100
AcDbLine
 10
1726.87739254922
 20
975.3493206355528
 30
0.0
 11
1726.87739254922
 21
964.7243206355529
 31
0.0
  0
LINE
  5
466
330
3AB
100
AcDbEntity
  8
S10_Quote
 62
     0
370
    -2
100
AcDbLine
 10
1743.47739254922
 20
975.3493206355528
 30
0.0
 11
1743.47739254922
 21
964.7243206355529
 31
0.0
  0
LINE
  5
467
330
3AB
100
AcDbEntity
  8
S10_Quote
 62
     0
370
    -2
100
AcDbLine
 10
1726.89239254922
 20
965.9743206355528
 30
0.0
 11
1743.46239254922
 21
965.9743206355528
 31
0.0
  0
INSERT
  5
468
330
3AB
100
AcDbEntity
  8
S10_Quote
 62
     0
370
    -2
100
AcDbBlockReference
  2
A$C79C4041D
 10
1726.87739254922
 20
965.9743206355528
 30
0.0
 41
0.015
 42
0.015
 43
0.015
 50
180.0
  0
INSERT
  5
469
330
3AB
100
AcDbEntity
  8
S10_Quote
 62
     0
370
    -2
100
AcDbBlockReference
  2
A$C79C4041D
 10
1743.47739254922
 20
965.9743206355528
 30
0.0
 41
0.015
 42
0.015
 43
0.015
  0
MTEXT
  5
46A
330
3AB
100
AcDbEntity
  8
S10_Quote
 62
     0
100
AcDbMText
 10
1732.753616325444
 20
968.805089866322
 30
0.0
 40
2.0
 41
0.0
 71
     1
 72
     1
  1
16.6
  7
wurth
 73
     1
 44
1.0
  0
POINT
  5
46B
330
3AB
100
AcDbEntity
  8
Defpoints
 62
     0
100
AcDbPoint
 10
1726.87739254922
 20
975.9743206355528
 30
0.0
  0
POINT
  5
46C
330
3AB
100
AcDbEntity
  8
Defpoints
 62
     0
100
AcDbPoint
 10
1743.47739254922
 20
975.9743206355528
 30
0.0
  0
POINT
  5
46D
330
3AB
100
AcDbEntity
  8
Defpoints
 62
     0
100
AcDbPoint
 10
1743.47739254922
 20
965.9743206355528
 30
0.0
  0
ENDBLK
  5
3AD
330
3AB
100
AcDbEntity
  8
0
100
AcDbBlockEnd
  0
BLOCK
  5
3B8
330
3B7
100
AcDbEntity
  8
0
100
AcDbBlockBegin
  2
*D23
 70
     1
 10
0.0
 20
0.0
 30
0.0
  3
*D23
  1

  0
LINE
  5
46E
330
3B7
100
AcDbEntity
  8
S10_Quote
 62
     0
370
    -2
100
AcDbLine
 10
1701.577392526023
 20
982.3493206355529
 30
0.0
 11
1701.577392526023
 21
955.300290237316
 31
0.0
  0
LINE
  5
46F
330
3B7
100
AcDbEntity
  8
S10_Quote
 62
     0
370
    -2
100
AcDbLine
 10
1768.777392526024
 20
982.3493206355529
 30
0.0
 11
1768.777392526024
 21
955.300290237316
 31
0.0
  0
LINE
  5
470
330
3B7
100
AcDbEntity
  8
S10_Quote
 62
     0
370
    -2
100
AcDbLine
 10
1701.592392526023
 20
956.5502902373159
 30
0.0
 11
1768.762392526024
 21
956.5502902373159
 31
0.0
  0
INSERT
  5
471
330
3B7
100
AcDbEntity
  8
S10_Quote
 62
     0
370
    -2
100
AcDbBlockReference
  2
A$C79C4041D
 10
1701.577392526023
 20
956.5502902373159
 30
0.0
 41
0.015
 42
0.015
 43
0.015
 50
180.0
  0
INSERT
  5
472
330
3B7
100
AcDbEntity
  8
S10_Quote
 62
     0
370
    -2
100
AcDbBlockReference
  2
A$C79C4041D
 10
1768.777392526024
 20
956.5502902373159
 30
0.0
 41
0.015
 42
0.015
 43
0.015
  0
MTEXT
  5
473
330
3B7
100
AcDbEntity
  8
S10_Quote
 62
     0
100
AcDbMText
 10
1732.654315602947
 20
959.3950454820712
 30
0.0
 40
2.0
 41
0.0
 71
     1
 72
     1
  1
67.2
  7
wurth
 73
     1
 44
1.0
  0
POINT
  5
474
330
3B7
100
AcDbEntity
  8
Defpoints
 62
     0
100
AcDbPoint
 10
1701.577392526023
 20
982.9743206355528
 30
0.0
  0
POINT
  5
475
330
3B7
100
AcDbEntity
  8
Defpoints
 62
     0
100
AcDbPoint
 10
1768.777392526024
 20
982.9743206355528
 30
0.0
  0
POINT
  5
476
330
3B7
100
AcDbEntity
  8
Defpoints
 62
     0
100
AcDbPoint
 10
1768.777392526024
 20
956.5502902373159
 30
0.0
  0
ENDBLK
  5
3B9
330
3B7
100
AcDbEntity
  8
0
100
AcDbBlockEnd
  0
BLOCK
  5
3C4
330
3C3
100
AcDbEntity
  8
0
100
AcDbBlockBegin
  2
*D24
 70
     1
 10
0.0
 20
0.0
 30
0.0
  3
*D24
  1

  0
LINE
  5
477
330
3C3
100
AcDbEntity
  8
S10_Quote
 62
     0
370
    -2
100
AcDbLine
 10
1753.195129245992
 20
983.8743206355529
 30
0.0
 11
1753.820129245992
 21
983.8743206355529
 31
0.0
  0
LINE
  5
478
330
3C3
100
AcDbEntity
  8
S10_Quote
 62
     0
370
    -2
100
AcDbLine
 10
1743.90239254922
 20
975.7743206355526
 30
0.0
 11
1753.820129245992
 21
975.7743206355526
 31
0.0
  0
LINE
  5
479
330
3C3
100
AcDbEntity
  8
S10_Quote
 62
     0
370
    -2
100
AcDbLine
 10
1752.570129245992
 20
983.8593206355529
 30
0.0
 11
1752.570129245992
 21
975.7893206355525
 31
0.0
  0
INSERT
  5
47A
330
3C3
100
AcDbEntity
  8
S10_Quote
 62
     0
370
    -2
100
AcDbBlockReference
  2
A$C79C4041D
 10
1752.570129245992
 20
983.8743206355529
 30
0.0
 41
0.015
 42
0.015
 43
0.015
 50
90.0
  0
INSERT
  5
47B
330
3C3
100
AcDbEntity
  8
S10_Quote
 62
     0
370
    -2
100
AcDbBlockReference
  2
A$C79C4041D
 10
1752.570129245992
 20
975.7743206355526
 30
0.0
 41
0.015
 42
0.015
 43
0.015
 50
270.0
  0
MTEXT
  5
47C
330
3C3
100
AcDbEntity
  8
S10_Quote
 62
     0
100
AcDbMText
 10
1749.739360015223
 20
978.343201754434
 30
0.0
 40
2.0
 41
0.0
 71
     1
 72
     1
  1
8.1
  7
wurth
 11
0.0000000000000001
 21
1.0
 31
0.0
 73
     1
 44
1.0
  0
POINT
  5
47D
330
3C3
100
AcDbEntity
  8
Defpoints
 62
     0
100
AcDbPoint
 10
1752.570129245992
 20
983.8743206355529
 30
0.0
  0
POINT
  5
47E
330
3C3
100
AcDbEntity
  8
Defpoints
 62
     0
100
AcDbPoint
 10
1743.27739254922
 20
975.7743206355526
 30
0.0
  0
POINT
  5
47F
330
3C3
100
AcDbEntity
  8
Defpoints
 62
     0
100
AcDbPoint
 10
1752.570129245992
 20
975.7743206355526
 30
0.0
  0
ENDBLK
  5
3C5
330
3C3
100
AcDbEntity
  8
0
100
AcDbBlockEnd
  0
BLOCK
  5
3D0
330
3CF
100
AcDbEntity
  8
0
100
AcDbBlockBegin
  2
*D25
 70
     1
 10
0.0
 20
0.0
 30
0.0
  3
*D25
  1

  0
LINE
  5
480
330
3CF
100
AcDbEntity
  8
S10_Quote
 62
     0
370
    -2
100
AcDbLine
 10
1769.202392526024
 20
982.7743206355526
 30
0.0
 11
1780.329300300541
 21
982.7743206355526
 31
0.0
  0
LINE
  5
481
330
3CF
100
AcDbEntity
  8
S10_Quote
 62
     0
370
    -2
100
AcDbLine
 10
1769.202392526023
 20
1004.174320635552
 30
0.0
 11
1780.329300300541
 21
1004.174320635552
 31
0.0
  0
LINE
  5
482
330
3CF
100
AcDbEntity
  8
S10_Quote
 62
     0
370
    -2
100
AcDbLine
 10
1779.07930030054
 20
982.7893206355525
 30
0.0
 11
1779.07930030054
 21
1004.159320635553
 31
0.0
  0
INSERT
  5
483
330
3CF
100
AcDbEntity
  8
S10_Quote
 62
     0
370
    -2
100
AcDbBlockReference
  2
A$C79C4041D
 10
1779.07930030054
 20
982.7743206355526
 30
0.0
 41
0.015
 42
0.015
 43
0.015
 50
270.0
  0
INSERT
  5
484
330
3CF
100
AcDbEntity
  8
S10_Quote
 62
     0
370
    -2
100
AcDbBlockReference
  2
A$C79C4041D
 10
1779.07930030054
 20
1004.174320635552
 30
0.0
 41
0.015
 42
0.015
 43
0.015
 50
90.0
  0
MTEXT
  5
485
330
3CF
100
AcDbEntity
  8
S10_Quote
 62
     0
100
AcDbMText
 10
1776.235943657184
 20
990.8966982579306
 30
0.0
 40
2.0
 41
0.0
 71
     1
 72
     1
  1
21.4
  7
wurth
 11
0.0000000000000001
 21
1.0
 31
0.0
 73
     1
 44
1.0
  0
POINT
  5
486
330
3CF
100
AcDbEntity
  8
Defpoints
 62
     0
100
AcDbPoint
 10
1768.577392526024
 20
982.7743206355526
 30
0.0
  0
POINT
  5
487
330
3CF
100
AcDbEntity
  8
Defpoints
 62
     0
100
AcDbPoint
 10
1768.577392526023
 20
1004.174320635552
 30
0.0
  0
POINT
  5
488
330
3CF
100
AcDbEntity
  8
Defpoints
 62
     0
100
AcDbPoint
 10
1779.07930030054
 20
1004.174320635552
 30
0.0
  0
ENDBLK
  5
3D1
330
3CF
100
AcDbEntity
  8
0
100
AcDbBlockEnd
  0
BLOCK
  5
3DC
330
3DB
100
AcDbEntity
  8
0
100
AcDbBlockBegin
  2
*D26
 70
     1
 10
0.0
 20
0.0
 30
0.0
  3
*D26
  1

  0
LINE
  5
489
330
3DB
100
AcDbEntity
  8
S10_Quote
 62
     0
370
    -2
100
AcDbLine
 10
1768.777392526024
 20
997.2701339227246
 30
0.0
 11
1768.777392526024
 21
999.7343785076532
 31
0.0
  0
LINE
  5
48A
330
3DB
100
AcDbEntity
  8
S10_Quote
 62
     0
370
    -2
100
AcDbLine
 10
1764.777392526024
 20
997.2701339227246
 30
0.0
 11
1764.777392526024
 21
999.7343785076532
 31
0.0
  0
LINE
  5
48B
330
3DB
100
AcDbEntity
  8
S10_Quote
 62
     0
370
    -2
100
AcDbLine
 10
1768.762392526024
 20
998.4843785076533
 30
0.0
 11
1764.792392526024
 21
998.4843785076533
 31
0.0
  0
LINE
  5
48C
330
3DB
100
AcDbEntity
  8
S10_Quote
 62
     0
370
    -2
100
AcDbLine
 10
1764.777392526024
 20
998.4843785076533
 30
0.0
 11
1754.566288560297
 21
998.4843785076533
 31
0.0
  0
INSERT
  5
48D
330
3DB
100
AcDbEntity
  8
S10_Quote
 62
     0
370
    -2
100
AcDbBlockReference
  2
A$C79C4041D
 10
1768.777392526024
 20
998.4843785076533
 30
0.0
 41
0.015
 42
0.015
 43
0.015
  0
INSERT
  5
48E
330
3DB
100
AcDbEntity
  8
S10_Quote
 62
     0
370
    -2
100
AcDbBlockReference
  2
A$C79C4041D
 10
1764.777392526024
 20
998.4843785076533
 30
0.0
 41
0.015
 42
0.015
 43
0.015
 50
180.0
  0
MTEXT
  5
48F
330
3DB
100
AcDbEntity
  8
S10_Quote
 62
     0
100
AcDbMText
 10
1755.366288560297
 20
1001.299763123038
 30
0.0
 40
2.0
 41
0.0
 71
     1
 72
     1
  1
4
  7
wurth
 73
     1
 44
1.0
  0
POINT
  5
490
330
3DB
100
AcDbEntity
  8
Defpoints
 62
     0
100
AcDbPoint
 10
1768.777392526024
 20
996.6451339227246
 30
0.0
  0
POINT
  5
491
330
3DB
100
AcDbEntity
  8
Defpoints
 62
     0
100
AcDbPoint
 10
1764.777392526024
 20
996.6451339227246
 30
0.0
  0
POINT
  5
492
330
3DB
100
AcDbEntity
  8
Defpoints
 62
     0
100
AcDbPoint
 10
1764.777392526024
 20
998.4843785076533
 30
0.0
  0
ENDBLK
  5
3DD
330
3DB
100
AcDbEntity
  8
0
100
AcDbBlockEnd
  0
BLOCK
  5
3E9
330
3E8
100
AcDbEntity
  8
0
100
AcDbBlockBegin
  2
*D27
 70
     1
 10
0.0
 20
0.0
 30
0.0
  3
*D27
  1

  0
LINE
  5
493
330
3E8
100
AcDbEntity
  8
S10_Quote
 62
     0
370
    -2
100
AcDbLine
 10
1768.777392526024
 20
1004.599320635553
 30
0.0
 11
1768.777392526024
 21
1014.255054098689
 31
0.0
  0
LINE
  5
494
330
3E8
100
AcDbEntity
  8
S10_Quote
 62
     0
370
    -2
100
AcDbLine
 10
1767.577392526024
 20
1013.630054098689
 30
0.0
 11
1767.577392526024
 21
1014.255054098689
 31
0.0
  0
LINE
  5
495
330
3E8
100
AcDbEntity
  8
S10_Quote
 62
     0
370
    -2
100
AcDbLine
 10
1767.562392526024
 20
1013.005054098689
 30
0.0
 11
1767.547392526024
 21
1013.005054098689
 31
0.0
  0
LINE
  5
496
330
3E8
100
AcDbEntity
  8
S10_Quote
 62
     0
370
    -2
100
AcDbLine
 10
1768.792392526024
 20
1013.005054098689
 30
0.0
 11
1779.714105872341
 21
1013.005054098689
 31
0.0
  0
LINE
  5
497
330
3E8
100
AcDbEntity
  8
S10_Quote
 62
     0
370
    -2
100
AcDbLine
 10
1767.577392526024
 20
1013.005054098689
 30
0.0
 11
1768.777392526024
 21
1013.005054098689
 31
0.0
  0
INSERT
  5
498
330
3E8
100
AcDbEntity
  8
S10_Quote
 62
     0
370
    -2
100
AcDbBlockReference
  2
A$C79C4041D
 10
1767.577392526024
 20
1013.005054098689
 30
0.0
 41
0.015
 42
0.015
 43
0.015
  0
INSERT
  5
499
330
3E8
100
AcDbEntity
  8
S10_Quote
 62
     0
370
    -2
100
AcDbBlockReference
  2
A$C79C4041D
 10
1768.777392526024
 20
1013.005054098689
 30
0.0
 41
0.015
 42
0.015
 43
0.015
 50
180.0
  0
MTEXT
  5
49A
330
3E8
100
AcDbEntity
  8
S10_Quote
 62
     0
100
AcDbMText
 10
1775.740679298914
 20
1015.833026126661
 30
0.0
 40
2.0
 41
0.0
 71
     1
 72
     1
  1
1.2
  7
wurth
 73
     1
 44
1.0
  0
POINT
  5
49B
330
3E8
100
AcDbEntity
  8
Defpoints
 62
     0
100
AcDbPoint
 10
1768.777392526024
 20
1003.974320635553
 30
0.0
  0
POINT
  5
49C
330
3E8
100
AcDbEntity
  8
Defpoints
 62
     0
100
AcDbPoint
 10
1767.577392526024
 20
1013.005054098689
 30
0.0
  0
POINT
  5
49D
330
3E8
100
AcDbEntity
  8
Defpoints
 62
     0
100
AcDbPoint
 10
1767.577392526024
 20
1013.005054098689
 30
0.0
  0
ENDBLK
  5
3EA
330
3E8
100
AcDbEntity
  8
0
100
AcDbBlockEnd
  0
BLOCK
  5
3F7
330
3F6
100
AcDbEntity
  8
0
100
AcDbBlockBegin
  2
*D28
 70
     1
 10
0.0
 20
0.0
 30
0.0
  3
*D28
  1

  0
LINE
  5
49E
330
3F6
100
AcDbEntity
  8
S10_Quote
 62
     0
370
    -2
100
AcDbLine
 10
1767.577392526024
 20
1022.085955747113
 30
0.0
 11
1767.577392526024
 21
1022.710955747113
 31
0.0
  0
LINE
  5
49F
330
3F6
100
AcDbEntity
  8
S10_Quote
 62
     0
370
    -2
100
AcDbLine
 10
1702.777392526024
 20
1022.085955747113
 30
0.0
 11
1702.777392526024
 21
1022.710955747113
 31
0.0
  0
LINE
  5
4A0
330
3F6
100
AcDbEntity
  8
S10_Quote
 62
     0
370
    -2
100
AcDbLine
 10
1767.562392526024
 20
1021.460955747113
 30
0.0
 11
1702.792392526024
 21
1021.460955747113
 31
0.0
  0
INSERT
  5
4A1
330
3F6
100
AcDbEntity
  8
S10_Quote
 62
     0
370
    -2
100
AcDbBlockReference
  2
A$C79C4041D
 10
1767.577392526024
 20
1021.460955747113
 30
0.0
 41
0.015
 42
0.015
 43
0.015
  0
INSERT
  5
4A2
330
3F6
100
AcDbEntity
  8
S10_Quote
 62
     0
370
    -2
100
AcDbBlockReference
  2
A$C79C4041D
 10
1702.777392526024
 20
1021.460955747113
 30
0.0
 41
0.015
 42
0.015
 43
0.015
 50
180.0
  0
MTEXT
  5
4A3
330
3F6
100
AcDbEntity
  8
S10_Quote
 62
     0
100
AcDbMText
 10
1732.643826092457
 20
1024.307109593267
 30
0.0
 40
2.0
 41
0.0
 71
     1
 72
     1
  1
64.8
  7
wurth
 73
     1
 44
1.0
  0
POINT
  5
4A4
330
3F6
100
AcDbEntity
  8
Defpoints
 62
     0
100
AcDbPoint
 10
1767.577392526024
 20
1021.460955747113
 30
0.0
  0
POINT
  5
4A5
330
3F6
100
AcDbEntity
  8
Defpoints
 62
     0
100
AcDbPoint
 10
1702.777392526024
 20
1021.460955747113
 30
0.0
  0
POINT
  5
4A6
330
3F6
100
AcDbEntity
  8
Defpoints
 62
     0
100
AcDbPoint
 10
1702.777392526024
 20
1021.460955747113
 30
0.0
  0
ENDBLK
  5
3F8
330
3F6
100
AcDbEntity
  8
0
100
AcDbBlockEnd
  0
BLOCK
  5
403
330
402
100
AcDbEntity
  8
0
100
AcDbBlockBegin
  2
*D29
 70
     1
 10
0.0
 20
0.0
 30
0.0
  3
*D29
  1

  0
LINE
  5
4A7
330
402
100
AcDbEntity
  8
S10_Quote
 62
     0
370
    -2
100
AcDbLine
 10
1769.202392526023
 20
1090.274322328896
 30
0.0
 11
1780.329300300541
 21
1090.274322328896
 31
0.0
  0
LINE
  5
4A8
330
402
100
AcDbEntity
  8
S10_Quote
 62
     0
370
    -2
100
AcDbLine
 10
1769.202392526023
 20
1087.274322328896
 30
0.0
 11
1780.329300300541
 21
1087.274322328896
 31
0.0
  0
LINE
  5
4A9
330
402
100
AcDbEntity
  8
S10_Quote
 62
     0
370
    -2
100
AcDbLine
 10
1779.07930030054
 20
1090.259322328896
 30
0.0
 11
1779.07930030054
 21
1087.289322328896
 31
0.0
  0
INSERT
  5
4AA
330
402
100
AcDbEntity
  8
S10_Quote
 62
     0
370
    -2
100
AcDbBlockReference
  2
A$C79C4041D
 10
1779.07930030054
 20
1090.274322328896
 30
0.0
 41
0.015
 42
0.015
 43
0.015
 50
90.0
  0
INSERT
  5
4AB
330
402
100
AcDbEntity
  8
S10_Quote
 62
     0
370
    -2
100
AcDbBlockReference
  2
A$C79C4041D
 10
1779.07930030054
 20
1087.274322328896
 30
0.0
 41
0.015
 42
0.015
 43
0.015
 50
270.0
  0
MTEXT
  5
4AC
330
402
100
AcDbEntity
  8
S10_Quote
 62
     0
100
AcDbMText
 10
1776.248531069771
 20
1088.195301349875
 30
0.0
 40
2.0
 41
0.0
 71
     1
 72
     1
  1
3
  7
wurth
 11
0.0000000000000001
 21
1.0
 31
0.0
 73
     1
 44
1.0
  0
POINT
  5
4AD
330
402
100
AcDbEntity
  8
Defpoints
 62
     0
100
AcDbPoint
 10
1768.577392526023
 20
1090.274322328896
 30
0.0
  0
POINT
  5
4AE
330
402
100
AcDbEntity
  8
Defpoints
 62
     0
100
AcDbPoint
 10
1768.577392526023
 20
1087.274322328896
 30
0.0
  0
POINT
  5
4AF
330
402
100
AcDbEntity
  8
Defpoints
 62
     0
100
AcDbPoint
 10
1779.07930030054
 20
1087.274322328896
 30
0.0
  0
ENDBLK
  5
404
330
402
100
AcDbEntity
  8
0
100
AcDbBlockEnd
  0
BLOCK
  5
40F
330
40E
100
AcDbEntity
  8
0
100
AcDbBlockBegin
  2
*D30
 70
     1
 10
0.0
 20
0.0
 30
0.0
  3
*D30
  1

  0
LINE
  5
4B0
330
40E
100
AcDbEntity
  8
S10_Quote
 62
     0
370
    -2
100
AcDbLine
 10
1769.202392526023
 20
1090.274322328896
 30
0.0
 11
1791.827392526023
 21
1090.274322328896
 31
0.0
  0
LINE
  5
4B1
330
40E
100
AcDbEntity
  8
S10_Quote
 62
     0
370
    -2
100
AcDbLine
 10
1769.202392526024
 20
982.7743206355526
 30
0.0
 11
1791.827392526023
 21
982.7743206355526
 31
0.0
  0
LINE
  5
4B2
330
40E
100
AcDbEntity
  8
S10_Quote
 62
     0
370
    -2
100
AcDbLine
 10
1790.577392526024
 20
1090.259322328896
 30
0.0
 11
1790.577392526024
 21
982.7893206355525
 31
0.0
  0
INSERT
  5
4B3
330
40E
100
AcDbEntity
  8
S10_Quote
 62
     0
370
    -2
100
AcDbBlockReference
  2
A$C79C4041D
 10
1790.577392526024
 20
1090.274322328896
 30
0.0
 41
0.015
 42
0.015
 43
0.015
 50
90.0
  0
INSERT
  5
4B4
330
40E
100
AcDbEntity
  8
S10_Quote
 62
     0
370
    -2
100
AcDbBlockReference
  2
A$C79C4041D
 10
1790.577392526024
 20
982.7743206355526
 30
0.0
 41
0.015
 42
0.015
 43
0.015
 50
270.0
  0
MTEXT
  5
4B5
330
40E
100
AcDbEntity
  8
S10_Quote
 62
     0
100
AcDbMText
 10
1787.732637281268
 20
1033.352992810895
 30
0.0
 40
2.0
 41
0.0
 71
     1
 72
     1
  1
107.5
  7
wurth
 11
0.0000000000000001
 21
1.0
 31
0.0
 73
     1
 44
1.0
  0
POINT
  5
4B6
330
40E
100
AcDbEntity
  8
Defpoints
 62
     0
100
AcDbPoint
 10
1768.577392526023
 20
1090.274322328896
 30
0.0
  0
POINT
  5
4B7
330
40E
100
AcDbEntity
  8
Defpoints
 62
     0
100
AcDbPoint
 10
1768.577392526024
 20
982.7743206355526
 30
0.0
  0
POINT
  5
4B8
330
40E
100
AcDbEntity
  8
Defpoints
 62
     0
100
AcDbPoint
 10
1790.577392526024
 20
982.7743206355526
 30
0.0
  0
ENDBLK
  5
410
330
40E
100
AcDbEntity
  8
0
100
AcDbBlockEnd
  0
BLOCK
  5
41B
330
41A
100
AcDbEntity
  8
0
100
AcDbBlockBegin
  2
*D31
 70
     1
 10
0.0
 20
0.0
 30
0.0
  3
*D31
  1

  0
LINE
  5
4B9
330
41A
100
AcDbEntity
  8
S10_Quote
 62
     0
370
    -2
100
AcDbLine
 10
1729.67739254922
 20
987.0993206355528
 30
0.0
 11
1729.67739254922
 21
995.0020308995012
 31
0.0
  0
LINE
  5
4BA
330
41A
100
AcDbEntity
  8
S10_Quote
 62
     0
370
    -2
100
AcDbLine
 10
1740.67739254922
 20
987.0993206355528
 30
0.0
 11
1740.67739254922
 21
995.0020308995012
 31
0.0
  0
LINE
  5
4BB
330
41A
100
AcDbEntity
  8
S10_Quote
 62
     0
370
    -2
100
AcDbLine
 10
1729.69239254922
 20
993.7520308995013
 30
0.0
 11
1740.66239254922
 21
993.7520308995013
 31
0.0
  0
INSERT
  5
4BC
330
41A
100
AcDbEntity
  8
S10_Quote
 62
     0
370
    -2
100
AcDbBlockReference
  2
A$C79C4041D
 10
1729.67739254922
 20
993.7520308995013
 30
0.0
 41
0.015
 42
0.015
 43
0.015
 50
180.0
  0
INSERT
  5
4BD
330
41A
100
AcDbEntity
  8
S10_Quote
 62
     0
370
    -2
100
AcDbBlockReference
  2
A$C79C4041D
 10
1740.67739254922
 20
993.7520308995013
 30
0.0
 41
0.015
 42
0.015
 43
0.015
  0
MTEXT
  5
4BE
330
41A
100
AcDbEntity
  8
S10_Quote
 62
     0
100
AcDbMText
 10
1734.120049891877
 20
996.5520308995012
 30
0.0
 40
2.0
 41
0.0
 71
     1
 72
     1
  1
11
  7
wurth
 73
     1
 44
1.0
  0
POINT
  5
4BF
330
41A
100
AcDbEntity
  8
Defpoints
 62
     0
100
AcDbPoint
 10
1729.67739254922
 20
986.4743206355528
 30
0.0
  0
POINT
  5
4C0
330
41A
100
AcDbEntity
  8
Defpoints
 62
     0
100
AcDbPoint
 10
1740.67739254922
 20
986.4743206355528
 30
0.0
  0
POINT
  5
4C1
330
41A
100
AcDbEntity
  8
Defpoints
 62
     0
100
AcDbPoint
 10
1740.67739254922
 20
993.7520308995013
 30
0.0
  0
ENDBLK
  5
41C
330
41A
100
AcDbEntity
  8
0
100
AcDbBlockEnd
  0
BLOCK
  5
427
330
426
100
AcDbEntity
  8
0
100
AcDbBlockBegin
  2
*D32
 70
     1
 10
0.0
 20
0.0
 30
0.0
  3
*D32
  1

  0
LINE
  5
4C2
330
426
100
AcDbEntity
  8
S10_Quote
 62
     0
370
    -2
100
AcDbLine
 10
1728.111548968121
 20
1078.974323275215
 30
0.0
 11
1727.48654831282
 21
1078.974323275215
 31
0.0
  0
LINE
  5
4C3
330
426
100
AcDbEntity
  8
S10_Quote
 62
     0
370
    -2
100
AcDbLine
 10
1721.002392526024
 20
1090.274322328896
 30
0.0
 11
1729.98654831282
 21
1090.274322328896
 31
0.0
  0
LINE
  5
4C4
330
426
100
AcDbEntity
  8
S10_Quote
 62
     0
370
    -2
100
AcDbLine
 10
1728.73654831282
 20
1078.989323275215
 30
0.0
 11
1728.73654831282
 21
1090.259322328896
 31
0.0
  0
INSERT
  5
4C5
330
426
100
AcDbEntity
  8
S10_Quote
 62
     0
370
    -2
100
AcDbBlockReference
  2
A$C79C4041D
 10
1728.73654831282
 20
1078.974323275215
 30
0.0
 41
0.015
 42
0.015
 43
0.015
 50
270.0
  0
INSERT
  5
4C6
330
426
100
AcDbEntity
  8
S10_Quote
 62
     0
370
    -2
100
AcDbBlockReference
  2
A$C79C4041D
 10
1728.73654831282
 20
1090.274322328896
 30
0.0
 41
0.015
 42
0.015
 43
0.015
 50
90.0
  0
MTEXT
  5
4C7
330
426
100
AcDbEntity
  8
S10_Quote
 62
     0
100
AcDbMText
 10
1725.905779082051
 20
1082.262784825275
 30
0.0
 40
2.0
 41
0.0
 71
     1
 72
     1
  1
11.3
  7
wurth
 11
0.0000000000000001
 21
1.0
 31
0.0
 73
     1
 44
1.0
  0
POINT
  5
4C8
330
426
100
AcDbEntity
  8
Defpoints
 62
     0
100
AcDbPoint
 10
1728.736548968121
 20
1078.974323275215
 30
0.0
  0
POINT
  5
4C9
330
426
100
AcDbEntity
  8
Defpoints
 62
     0
100
AcDbPoint
 10
1720.377392526023
 20
1090.274322328896
 30
0.0
  0
POINT
  5
4CA
330
426
100
AcDbEntity
  8
Defpoints
 62
     0
100
AcDbPoint
 10
1728.73654831282
 20
1090.274322328896
 30
0.0
  0
ENDBLK
  5
428
330
426
100
AcDbEntity
  8
0
100
AcDbBlockEnd
  0
BLOCK
  5
433
330
432
100
AcDbEntity
  8
0
100
AcDbBlockBegin
  2
*D33
 70
     1
 10
0.0
 20
0.0
 30
0.0
  3
*D33
  1

  0
LINE
  5
4CB
330
432
100
AcDbEntity
  8
S10_Quote
 62
     0
370
    -2
100
AcDbLine
 10
1752.577392526023
 20
1075.749326017137
 30
0.0
 11
1752.577392526023
 21
1065.124326017137
 31
0.0
  0
LINE
  5
4CC
330
432
100
AcDbEntity
  8
S10_Quote
 62
     0
370
    -2
100
AcDbLine
 10
1749.777392526023
 20
1078.549325692386
 30
0.0
 11
1749.777392526023
 21
1065.124326017137
 31
0.0
  0
LINE
  5
4CD
330
432
100
AcDbEntity
  8
S10_Quote
 62
     0
370
    -2
100
AcDbLine
 10
1752.562392526023
 20
1066.374326017137
 30
0.0
 11
1749.792392526023
 21
1066.374326017137
 31
0.0
  0
INSERT
  5
4CE
330
432
100
AcDbEntity
  8
S10_Quote
 62
     0
370
    -2
100
AcDbBlockReference
  2
A$C79C4041D
 10
1752.577392526023
 20
1066.374326017137
 30
0.0
 41
0.015
 42
0.015
 43
0.015
  0
INSERT
  5
4CF
330
432
100
AcDbEntity
  8
S10_Quote
 62
     0
370
    -2
100
AcDbBlockReference
  2
A$C79C4041D
 10
1749.777392526023
 20
1066.374326017137
 30
0.0
 41
0.015
 42
0.015
 43
0.015
 50
180.0
  0
MTEXT
  5
4D0
330
432
100
AcDbEntity
  8
S10_Quote
 62
     0
100
AcDbMText
 10
1749.431937980569
 20
1069.205095247906
 30
0.0
 40
2.0
 41
0.0
 71
     1
 72
     1
  1
2.8
  7
wurth
 73
     1
 44
1.0
  0
POINT
  5
4D1
330
432
100
AcDbEntity
  8
Defpoints
 62
     0
100
AcDbPoint
 10
1752.577392526023
 20
1076.374326017137
 30
0.0
  0
POINT
  5
4D2
330
432
100
AcDbEntity
  8
Defpoints
 62
     0
100
AcDbPoint
 10
1749.777392526023
 20
1079.174325692386
 30
0.0
  0
POINT
  5
4D3
330
432
100
AcDbEntity
  8
Defpoints
 62
     0
100
AcDbPoint
 10
1749.777392526023
 20
1066.374326017137
 30
0.0
  0
ENDBLK
  5
434
330
432
100
AcDbEntity
  8
0
100
AcDbBlockEnd
  0
BLOCK
  5
43F
330
43E
100
AcDbEntity
  8
0
100
AcDbBlockBegin
  2
*D34
 70
     1
 10
0.0
 20
0.0
 30
0.0
  3
*D34
  1

  0
LINE
  5
4D4
330
43E
100
AcDbEntity
  8
S10_Quote
 62
     0
370
    -2
100
AcDbLine
 10
1749.777392526023
 20
1078.549325692386
 30
0.0
 11
1749.777392526023
 21
1065.124326017137
 31
0.0
  0
LINE
  5
4D5
330
43E
100
AcDbEntity
  8
S10_Quote
 62
     0
370
    -2
100
AcDbLine
 10
1720.577392526023
 20
1078.549322352092
 30
0.0
 11
1720.577392526023
 21
1065.124326017137
 31
0.0
  0
LINE
  5
4D6
330
43E
100
AcDbEntity
  8
S10_Quote
 62
     0
370
    -2
100
AcDbLine
 10
1749.762392526023
 20
1066.374326017137
 30
0.0
 11
1720.592392526024
 21
1066.374326017137
 31
0.0
  0
INSERT
  5
4D7
330
43E
100
AcDbEntity
  8
S10_Quote
 62
     0
370
    -2
100
AcDbBlockReference
  2
A$C79C4041D
 10
1749.777392526023
 20
1066.374326017137
 30
0.0
 41
0.015
 42
0.015
 43
0.015
  0
INSERT
  5
4D8
330
43E
100
AcDbEntity
  8
S10_Quote
 62
     0
370
    -2
100
AcDbBlockReference
  2
A$C79C4041D
 10
1720.577392526023
 20
1066.374326017137
 30
0.0
 41
0.015
 42
0.015
 43
0.015
 50
180.0
  0
MTEXT
  5
4D9
330
43E
100
AcDbEntity
  8
S10_Quote
 62
     0
100
AcDbMText
 10
1732.650119798751
 20
1069.220479863291
 30
0.0
 40
2.0
 41
0.0
 71
     1
 72
     1
  1
29.2
  7
wurth
 73
     1
 44
1.0
  0
POINT
  5
4DA
330
43E
100
AcDbEntity
  8
Defpoints
 62
     0
100
AcDbPoint
 10
1749.777392526023
 20
1079.174325692386
 30
0.0
  0
POINT
  5
4DB
330
43E
100
AcDbEntity
  8
Defpoints
 62
     0
100
AcDbPoint
 10
1720.577392526023
 20
1079.174322352092
 30
0.0
  0
POINT
  5
4DC
330
43E
100
AcDbEntity
  8
Defpoints
 62
     0
100
AcDbPoint
 10
1720.577392526023
 20
1066.374326017137
 30
0.0
  0
ENDBLK
  5
440
330
43E
100
AcDbEntity
  8
0
100
AcDbBlockEnd
  0
ENDSEC
  0
SECTION
  2
ENTITIES
  0
ARC
  5
32E
330
1F
100
AcDbEntity
  8
S10_Quote
 62
     3
100
AcDbCircle
 10
1740.47739254922
 20
978.7743206355527
 30
0.0
 40
0.2000000000000046
100
AcDbArc
 50
270.0
 51
0.0
  0
ARC
  5
32F
330
1F
100
AcDbEntity
  8
S10_Quote
 62
     3
100
AcDbCircle
 10
1729.87739254922
 20
978.7743206355527
 30
0.0
 40
0.1999999999999991
100
AcDbArc
 50
180.0
 51
270.0
  0
LINE
  5
330
330
1F
100
AcDbEntity
  8
S10_Quote
 62
     3
100
AcDbLine
 10
1740.67739254922
 20
986.4743206355528
 30
0.0
 11
1740.67739254922
 21
978.7743206355527
 31
0.0
  0
LINE
  5
331
330
1F
100
AcDbEntity
  8
S10_Quote
 62
     3
100
AcDbLine
 10
1740.47739254922
 20
978.5743206355528
 30
0.0
 11
1729.87739254922
 21
978.5743206355528
 31
0.0
  0
ARC
  5
332
330
1F
100
AcDbEntity
  8
S10_Quote
 62
     3
100
AcDbCircle
 10
1705.777392526024
 20
1086.174322328896
 30
0.0
 40
0.2000000000000002
100
AcDbArc
 50
90.0
 51
180.0
  0
LINE
  5
333
330
1F
100
AcDbEntity
  8
S10_Quote
 62
     3
100
AcDbLine
 10
1705.777392526024
 20
1086.374322328896
 30
0.0
 11
1717.577392526023
 21
1086.374322328896
 31
0.0
  0
ARC
  5
334
330
1F
100
AcDbEntity
  8
S10_Quote
 62
     3
100
AcDbCircle
 10
1717.577392526023
 20
1086.174322328896
 30
0.0
 40
0.1999999999999957
100
AcDbArc
 50
0.0
 51
90.0
  0
LINE
  5
335
330
1F
100
AcDbEntity
  8
S10_Quote
 62
     3
100
AcDbLine
 10
1717.777392526024
 20
1086.174322328896
 30
0.0
 11
1717.777392526024
 21
1076.374322027342
 31
0.0
  0
ARC
  5
336
330
1F
100
AcDbEntity
  8
S10_Quote
 62
     3
100
AcDbCircle
 10
1717.977392526023
 20
1076.374322027342
 30
0.0
 40
0.1999999999999957
100
AcDbArc
 50
180.0
 51
270.0000066453021
  0
LINE
  5
337
330
1F
100
AcDbEntity
  8
S10_Quote
 62
     3
100
AcDbLine
 10
1701.777392526024
 20
1090.274322328896
 30
0.0
 11
1720.377392526023
 21
1090.274322328896
 31
0.0
  0
ARC
  5
338
330
1F
100
AcDbEntity
  8
S10_Quote
 62
     3
100
AcDbCircle
 10
1701.777392526024
 20
1090.074322328896
 30
0.0
 40
0.2000000000000002
100
AcDbArc
 50
90.0
 51
180.0
  0
LINE
  5
339
330
1F
100
AcDbEntity
  8
S10_Quote
 62
     3
100
AcDbLine
 10
1701.577392526023
 20
1087.474322328896
 30
0.0
 11
1701.577392526023
 21
1090.074322328896
 31
0.0
  0
ARC
  5
33A
330
1F
100
AcDbEntity
  8
S10_Quote
 62
     3
100
AcDbCircle
 10
1701.777392526024
 20
1087.474322328896
 30
0.0
 40
0.1999999999999957
100
AcDbArc
 50
180.0
 51
270.0
  0
LINE
  5
33B
330
1F
100
AcDbEntity
  8
S10_Quote
 62
     3
100
AcDbLine
 10
1702.577392526023
 20
1087.274322328896
 30
0.0
 11
1701.777392526024
 21
1087.274322328896
 31
0.0
  0
ARC
  5
33C
330
1F
100
AcDbEntity
  8
S10_Quote
 62
     3
100
AcDbCircle
 10
1702.577392526023
 20
1087.074322328896
 30
0.0
 40
0.2000000000000002
100
AcDbArc
 50
0.0
 51
90.0
  0
LINE
  5
33D
330
1F
100
AcDbEntity
  8
S10_Quote
 62
     3
100
AcDbLine
 10
1702.777392526024
 20
1004.374320635552
 30
0.0
 11
1702.777392526024
 21
1087.074322328896
 31
0.0
  0
ARC
  5
33E
330
1F
100
AcDbEntity
  8
S10_Quote
 62
     3
100
AcDbCircle
 10
1702.577392526023
 20
1004.374320635552
 30
0.0
 40
0.2000000000000002
100
AcDbArc
 50
270.0
 51
0.0
  0
LINE
  5
33F
330
1F
100
AcDbEntity
  8
S10_Quote
 62
     3
100
AcDbLine
 10
1701.777392526024
 20
1004.174320635552
 30
0.0
 11
1702.577392526023
 21
1004.174320635552
 31
0.0
  0
ARC
  5
340
330
1F
100
AcDbEntity
  8
S10_Quote
 62
     3
100
AcDbCircle
 10
1701.777392526024
 20
1003.974320635553
 30
0.0
 40
0.2000000000000002
100
AcDbArc
 50
90.0
 51
180.0
  0
LINE
  5
341
330
1F
100
AcDbEntity
  8
S10_Quote
 62
     3
100
AcDbLine
 10
1701.577392526023
 20
982.9743206355528
 30
0.0
 11
1701.577392526023
 21
1003.974320635553
 31
0.0
  0
ARC
  5
342
330
1F
100
AcDbEntity
  8
S10_Quote
 62
     3
100
AcDbCircle
 10
1701.777392526024
 20
982.9743206355528
 30
0.0
 40
0.1999999999999868
100
AcDbArc
 50
180.0
 51
270.000000000013
  0
LINE
  5
343
330
1F
100
AcDbEntity
  8
S10_Quote
 62
     3
100
AcDbLine
 10
1704.377392526023
 20
982.7743206355526
 30
0.0
 11
1701.777392526024
 21
982.7743206355526
 31
0.0
  0
ARC
  5
344
330
1F
100
AcDbEntity
  8
S10_Quote
 62
     3
100
AcDbCircle
 10
1704.377392526023
 20
982.9743206355528
 30
0.0
 40
0.2000000000000002
100
AcDbArc
 50
270.0
 51
0.0
  0
LINE
  5
345
330
1F
100
AcDbEntity
  8
S10_Quote
 62
     3
100
AcDbLine
 10
1704.577392526023
 20
983.6743206355526
 30
0.0
 11
1704.577392526023
 21
982.9743206355528
 31
0.0
  0
ARC
  5
346
330
1F
100
AcDbEntity
  8
S10_Quote
 62
     3
100
AcDbCircle
 10
1704.777392526024
 20
983.6743206355526
 30
0.0
 40
0.1999999999999957
100
AcDbArc
 50
90.0
 51
180.0
  0
LINE
  5
347
330
1F
100
AcDbEntity
  8
S10_Quote
 62
     3
100
AcDbLine
 10
1726.67739254922
 20
983.8743206355525
 30
0.0
 11
1704.777392526024
 21
983.8743206355525
 31
0.0
  0
ARC
  5
348
330
1F
100
AcDbEntity
  8
S10_Quote
 62
     3
100
AcDbCircle
 10
1726.67739254922
 20
983.6743206355526
 30
0.0
 40
0.2000000000000002
100
AcDbArc
 50
0.0
 51
90.0
  0
LINE
  5
349
330
1F
100
AcDbEntity
  8
S10_Quote
 62
     3
100
AcDbLine
 10
1726.87739254922
 20
975.9743206355528
 30
0.0
 11
1726.87739254922
 21
983.6743206355526
 31
0.0
  0
ARC
  5
34A
330
1F
100
AcDbEntity
  8
S10_Quote
 62
     3
100
AcDbCircle
 10
1727.07739254922
 20
975.9743206355528
 30
0.0
 40
0.1999999999999957
100
AcDbArc
 50
180.0
 51
270.0
  0
LINE
  5
34B
330
1F
100
AcDbEntity
  8
S10_Quote
 62
     3
100
AcDbLine
 10
1743.27739254922
 20
975.7743206355526
 30
0.0
 11
1727.07739254922
 21
975.7743206355526
 31
0.0
  0
ARC
  5
34C
330
1F
100
AcDbEntity
  8
S10_Quote
 62
     3
100
AcDbCircle
 10
1743.27739254922
 20
975.9743206355528
 30
0.0
 40
0.1999999999999957
100
AcDbArc
 50
270.0
 51
0.0
  0
LINE
  5
34D
330
1F
100
AcDbEntity
  8
S10_Quote
 62
     3
100
AcDbLine
 10
1743.47739254922
 20
983.6743206355526
 30
0.0
 11
1743.47739254922
 21
975.9743206355528
 31
0.0
  0
ARC
  5
34E
330
1F
100
AcDbEntity
  8
S10_Quote
 62
     3
100
AcDbCircle
 10
1743.67739254922
 20
983.6743206355526
 30
0.0
 40
0.2000000000000046
100
AcDbArc
 50
90.0
 51
180.0
  0
LINE
  5
34F
330
1F
100
AcDbEntity
  8
S10_Quote
 62
     3
100
AcDbLine
 10
1765.577392572417
 20
983.8743206355529
 30
0.0
 11
1743.67739254922
 21
983.8743206355525
 31
0.0
  0
ARC
  5
350
330
1F
100
AcDbEntity
  8
S10_Quote
 62
     3
100
AcDbCircle
 10
1765.577392572417
 20
983.6743206355526
 30
0.0
 40
0.2000000000000002
100
AcDbArc
 50
0.0
 51
90.0
  0
LINE
  5
351
330
1F
100
AcDbEntity
  8
S10_Quote
 62
     3
100
AcDbLine
 10
1765.777392572417
 20
982.9743206355528
 30
0.0
 11
1765.777392572417
 21
983.6743206355526
 31
0.0
  0
ARC
  5
352
330
1F
100
AcDbEntity
  8
S10_Quote
 62
     3
100
AcDbCircle
 10
1765.977392572416
 20
982.9743206355528
 30
0.0
 40
0.1999999999999957
100
AcDbArc
 50
180.0
 51
270.0
  0
LINE
  5
353
330
1F
100
AcDbEntity
  8
S10_Quote
 62
     3
100
AcDbLine
 10
1768.577392526024
 20
982.7743206355526
 30
0.0
 11
1765.977392572416
 21
982.7743206355526
 31
0.0
  0
ARC
  5
354
330
1F
100
AcDbEntity
  8
S10_Quote
 62
     3
100
AcDbCircle
 10
1768.577392526024
 20
982.9743206355528
 30
0.0
 40
0.2000000000000002
100
AcDbArc
 50
270.0
 51
0.0
  0
LINE
  5
355
330
1F
100
AcDbEntity
  8
S10_Quote
 62
     3
100
AcDbLine
 10
1768.777392526024
 20
1003.974320635553
 30
0.0
 11
1768.777392526024
 21
982.9743206355528
 31
0.0
  0
ARC
  5
356
330
1F
100
AcDbEntity
  8
S10_Quote
 62
     3
100
AcDbCircle
 10
1768.577392526023
 20
1003.974320635553
 30
0.0
 40
0.2000000000000002
100
AcDbArc
 50
0.0
 51
90.0
  0
LINE
  5
357
330
1F
100
AcDbEntity
  8
S10_Quote
 62
     3
100
AcDbLine
 10
1767.777392526024
 20
1004.174320635552
 30
0.0
 11
1768.577392526024
 21
1004.174320635552
 31
0.0
  0
ARC
  5
358
330
1F
100
AcDbEntity
  8
S10_Quote
 62
     3
100
AcDbCircle
 10
1767.777392526024
 20
1004.374320635553
 30
0.0
 40
0.1999999999999824
100
AcDbArc
 50
180.0
 51
270.0
  0
LINE
  5
359
330
1F
100
AcDbEntity
  8
S10_Quote
 62
     3
100
AcDbLine
 10
1767.577392526023
 20
1087.074322328896
 30
0.0
 11
1767.577392526024
 21
1004.374320635553
 31
0.0
  0
ARC
  5
35A
330
1F
100
AcDbEntity
  8
S10_Quote
 62
     3
100
AcDbCircle
 10
1767.777392526024
 20
1087.074322328896
 30
0.0
 40
0.1999999999999957
100
AcDbArc
 50
90.0
 51
180.0
  0
LINE
  5
35B
330
1F
100
AcDbEntity
  8
S10_Quote
 62
     3
100
AcDbLine
 10
1768.577392526023
 20
1087.274322328896
 30
0.0
 11
1767.777392526024
 21
1087.274322328896
 31
0.0
  0
ARC
  5
35C
330
1F
100
AcDbEntity
  8
S10_Quote
 62
     3
100
AcDbCircle
 10
1768.577392526023
 20
1087.474322328896
 30
0.0
 40
0.2000000000000002
100
AcDbArc
 50
270.0
 51
0.0
  0
LINE
  5
35D
330
1F
100
AcDbEntity
  8
S10_Quote
 62
     3
100
AcDbLine
 10
1768.777392526024
 20
1090.074322328896
 30
0.0
 11
1768.777392526024
 21
1087.474322328896
 31
0.0
  0
ARC
  5
35E
330
1F
100
AcDbEntity
  8
S10_Quote
 62
     3
100
AcDbCircle
 10
1768.577392526023
 20
1090.074322328896
 30
0.0
 40
0.1999999999999957
100
AcDbArc
 50
0.0
 51
90.0
  0
LINE
  5
35F
330
1F
100
AcDbEntity
  8
S10_Quote
 62
     3
100
AcDbLine
 10
1749.977392526023
 20
1090.274322328896
 30
0.0
 11
1768.577392526023
 21
1090.274322328896
 31
0.0
  0
ARC
  5
360
330
1F
100
AcDbEntity
  8
S10_Quote
 62
     3
100
AcDbCircle
 10
1749.977392526023
 20
1090.074322328896
 30
0.0
 40
0.2000000000000002
100
AcDbArc
 50
90.0
 51
180.0
  0
LINE
  5
361
330
1F
100
AcDbEntity
  8
S10_Quote
 62
     3
100
AcDbLine
 10
1749.777392526023
 20
1079.174325692386
 30
0.0
 11
1749.777392526023
 21
1090.074322328896
 31
0.0
  0
ARC
  5
362
330
1F
100
AcDbEntity
  8
S10_Quote
 62
     3
100
AcDbCircle
 10
1749.577392526023
 20
1079.174325692386
 30
0.0
 40
0.1999999999999793
100
AcDbArc
 50
270.0000066453021
 51
0.0
  0
LINE
  5
363
330
1F
100
AcDbEntity
  8
S10_Quote
 62
     3
100
AcDbLine
 10
1720.77739254922
 20
1078.974322352093
 30
0.0
 11
1749.57739254922
 21
1078.974325692386
 31
0.0
  0
ARC
  5
364
330
1F
100
AcDbEntity
  8
S10_Quote
 62
     3
100
AcDbCircle
 10
1720.777392526024
 20
1079.174322352092
 30
0.0
 40
0.1999999999999913
100
AcDbArc
 50
180.0
 51
270.0000066453021
  0
LINE
  5
365
330
1F
100
AcDbEntity
  8
S10_Quote
 62
     3
100
AcDbLine
 10
1720.577392526023
 20
1090.074322328896
 30
0.0
 11
1720.577392526023
 21
1079.174322352092
 31
0.0
  0
ARC
  5
366
330
1F
100
AcDbEntity
  8
S10_Quote
 62
     3
100
AcDbCircle
 10
1720.377392526023
 20
1090.074322328896
 30
0.0
 40
0.1999999999999957
100
AcDbArc
 50
0.0
 51
90.0
  0
LINE
  5
367
330
1F
100
AcDbEntity
  8
S10_Quote
 62
     3
100
AcDbLine
 10
1705.577392526023
 20
986.8743206355524
 30
0.0
 11
1705.577392526023
 21
1086.174322328896
 31
0.0
  0
LINE
  5
368
330
1F
100
AcDbEntity
  8
S10_Quote
 62
     3
100
AcDbLine
 10
1717.97739254922
 20
1076.174322027342
 30
0.0
 11
1752.37739254922
 21
1076.174326017137
 31
0.0
  0
ARC
  5
369
330
1F
100
AcDbEntity
  8
S10_Quote
 62
     3
100
AcDbCircle
 10
1752.377392526024
 20
1076.374326017137
 30
0.0
 40
0.1999999999999971
100
AcDbArc
 50
270.0000066452891
 51
0.0
  0
LINE
  5
36A
330
1F
100
AcDbEntity
  8
S10_Quote
 62
     3
100
AcDbLine
 10
1752.577392526023
 20
1076.374326017137
 30
0.0
 11
1752.577392526023
 21
1086.174322328896
 31
0.0
  0
ARC
  5
36B
330
1F
100
AcDbEntity
  8
S10_Quote
 62
     3
100
AcDbCircle
 10
1752.777392526023
 20
1086.174322328896
 30
0.0
 40
0.199999999999998
100
AcDbArc
 50
90.0
 51
180.0
  0
LINE
  5
36C
330
1F
100
AcDbEntity
  8
S10_Quote
 62
     3
100
AcDbLine
 10
1752.777392526023
 20
1086.374322328896
 30
0.0
 11
1764.577392526024
 21
1086.374322328896
 31
0.0
  0
ARC
  5
36D
330
1F
100
AcDbEntity
  8
S10_Quote
 62
     3
100
AcDbCircle
 10
1764.577392526024
 20
1086.174322328896
 30
0.0
 40
0.1999999999999957
100
AcDbArc
 50
0.0
 51
90.0
  0
LINE
  5
36E
330
1F
100
AcDbEntity
  8
S10_Quote
 62
     3
100
AcDbLine
 10
1764.777392526024
 20
1086.174322328896
 30
0.0
 11
1764.777392526024
 21
986.874320635553
 31
0.0
  0
ARC
  5
36F
330
1F
100
AcDbEntity
  8
S10_Quote
 62
     3
100
AcDbCircle
 10
1764.577392526024
 20
986.874320635553
 30
0.0
 40
0.2000000000000002
100
AcDbArc
 50
270.0
 51
0.0
  0
LINE
  5
370
330
1F
100
AcDbEntity
  8
S10_Quote
 62
     3
100
AcDbLine
 10
1764.577392526024
 20
986.6743206355527
 30
0.0
 11
1740.87739254922
 21
986.6743206355527
 31
0.0
  0
ARC
  5
371
330
1F
100
AcDbEntity
  8
S10_Quote
 62
     3
100
AcDbCircle
 10
1740.87739254922
 20
986.4743206355528
 30
0.0
 40
0.1999999999999957
100
AcDbArc
 50
90.0
 51
180.0
  0
LINE
  5
372
330
1F
100
AcDbEntity
  8
S10_Quote
 62
     3
100
AcDbLine
 10
1729.67739254922
 20
978.7743206355527
 30
0.0
 11
1729.67739254922
 21
986.4743206355528
 31
0.0
  0
ARC
  5
373
330
1F
100
AcDbEntity
  8
S10_Quote
 62
     3
100
AcDbCircle
 10
1729.47739254922
 20
986.4743206355528
 30
0.0
 40
0.1999999999999968
100
AcDbArc
 50
0.0
 51
90.0
  0
LINE
  5
374
330
1F
100
AcDbEntity
  8
S10_Quote
 62
     3
100
AcDbLine
 10
1729.47739254922
 20
986.6743206355527
 30
0.0
 11
1705.777392526024
 21
986.6743206355527
 31
0.0
  0
ARC
  5
375
330
1F
100
AcDbEntity
  8
S10_Quote
 62
     3
100
AcDbCircle
 10
1705.777392526024
 20
986.8743206355524
 30
0.0
 40
0.1999999999999957
100
AcDbArc
 50
180.0
 51
270.0
  0
DIMENSION
  5
376
330
1F
100
AcDbEntity
  8
S10_Quote
100
AcDbDimension
  2
*D19
 10
1688.995259965991
 20
1086.374322328896
 30
0.0
 11
1688.995259965991
 21
1088.324322328896
 31
0.0
 70
   160
  1
<>
 42
3.90000000000009
  3
mm 1_1
100
AcDbAlignedDimension
 13
1701.777392526024
 23
1090.274322328896
 33
0.0
 14
1705.777392526024
 24
1086.374322328896
 34
0.0
 50
270.0
100
AcDbRotatedDimension
  0
DIMENSION
  5
377
330
1F
100
AcDbEntity
  8
S10_Quote
100
AcDbDimension
  2
*D20
 10
1691.777392526024
 20
1004.174320635552
 30
0.0
 11
1691.777392526024
 21
995.4243206355526
 31
0.0
 70
   160
  1
<>
 42
17.5
  3
mm 1_1
100
AcDbAlignedDimension
 13
1705.777392526024
 23
986.6743206355527
 33
0.0
 14
1701.777392526024
 24
1004.174320635552
 34
0.0
 50
90.0
100
AcDbRotatedDimension
  0
DIMENSION
  5
378
330
1F
100
AcDbEntity
  8
S10_Quote
100
AcDbDimension
  2
*D21
 10
1681.844458024128
 20
983.8743206355525
 30
0.0
 11
1681.844458024128
 21
1037.074321482224
 31
0.0
 70
   160
  1
<>
 42
106.4000016933438
  3
mm 1_1
100
AcDbAlignedDimension
 13
1701.777392526024
 23
1090.274322328896
 33
0.0
 14
1704.777392526024
 24
983.8743206355525
 34
0.0
 50
270.0
100
AcDbRotatedDimension
  0
DIMENSION
  5
379
330
1F
100
AcDbEntity
  8
S10_Quote
100
AcDbDimension
  2
*D22
 10
1743.47739254922
 20
965.9743206355528
 30
0.0
 11
1735.17739254922
 21
965.9743206355528
 31
0.0
 70
   160
  1
<>
 42
16.59999999999991
  3
mm 1_1
100
AcDbAlignedDimension
 13
1726.87739254922
 23
975.9743206355528
 33
0.0
 14
1743.47739254922
 24
975.9743206355528
 34
0.0
100
AcDbRotatedDimension
  0
DIMENSION
  5
37A
330
1F
100
AcDbEntity
  8
S10_Quote
100
AcDbDimension
  2
*D23
 10
1768.777392526024
 20
956.5502902373159
 30
0.0
 11
1735.177392526024
 21
956.5502902373159
 31
0.0
 70
   160
  1
<>
 42
67.20000000000027
  3
mm 1_1
100
AcDbAlignedDimension
 13
1701.577392526023
 23
982.9743206355528
 33
0.0
 14
1768.777392526024
 24
982.9743206355528
 34
0.0
100
AcDbRotatedDimension
  0
DIMENSION
  5
37B
330
1F
100
AcDbEntity
  8
S10_Quote
100
AcDbDimension
  2
*D24
 10
1752.570129245992
 20
975.7743206355526
 30
0.0
 11
1752.570129245992
 21
979.8243206355527
 31
0.0
 70
   160
  1
<>
 42
8.100000000000363
  3
mm 1_1
100
AcDbAlignedDimension
 13
1752.570129245992
 23
983.8743206355529
 33
0.0
 14
1743.27739254922
 24
975.7743206355526
 34
0.0
 50
90.0
100
AcDbRotatedDimension
  0
DIMENSION
  5
37C
330
1F
100
AcDbEntity
  8
S10_Quote
100
AcDbDimension
  2
*D25
 10
1779.07930030054
 20
1004.174320635552
 30
0.0
 11
1779.07930030054
 21
993.4743206355529
 31
0.0
 70
   160
  1
<>
 42
21.40000000000009
  3
mm 1_1
100
AcDbAlignedDimension
 13
1768.577392526024
 23
982.7743206355526
 33
0.0
 14
1768.577392526023
 24
1004.174320635552
 34
0.0
 50
90.0
100
AcDbRotatedDimension
  0
DIMENSION
  5
37D
330
1F
100
AcDbEntity
  8
S10_Quote
100
AcDbDimension
  2
*D26
 10
1764.777392526024
 20
998.4843785076533
 30
0.0
 11
1756.079575273584
 21
998.4843785076533
 31
0.0
 70
   160
  1
<>
 42
4.0
  3
mm 1_1
100
AcDbAlignedDimension
 13
1768.777392526024
 23
996.6451339227246
 33
0.0
 14
1764.777392526024
 24
996.6451339227246
 34
0.0
 50
180.0
100
AcDbRotatedDimension
  0
DIMENSION
  5
37E
330
1F
100
AcDbEntity
  8
S10_Quote
100
AcDbDimension
  2
*D27
 10
1767.577392526024
 20
1013.005054098689
 30
0.0
 11
1777.327392585628
 21
1013.005054098689
 31
0.0
 70
   160
  1
<>
 42
1.199999999999818
  3
mm 1_1
100
AcDbAlignedDimension
 13
1768.777392526024
 23
1003.974320635553
 33
0.0
 14
1767.577392526024
 24
1013.005054098689
 34
0.0
 50
180.0
100
AcDbRotatedDimension
  0
DIMENSION
  5
37F
330
1F
100
AcDbEntity
  8
S10_Quote
100
AcDbDimension
  2
*D28
 10
1702.777392526024
 20
1021.460955747113
 30
0.0
 11
1735.177392526024
 21
1021.460955747113
 31
0.0
 70
   160
  1
<>
 42
64.80000000000018
  3
mm 1_1
100
AcDbAlignedDimension
 13
1767.577392526024
 23
1021.460955747113
 33
0.0
 14
1702.777392526024
 24
1021.460955747113
 34
0.0
 50
180.0
100
AcDbRotatedDimension
  0
DIMENSION
  5
380
330
1F
100
AcDbEntity
  8
S10_Quote
100
AcDbDimension
  2
*D29
 10
1779.07930030054
 20
1087.274322328896
 30
0.0
 11
1779.07930030054
 21
1088.774322328896
 31
0.0
 70
   160
  1
<>
 42
3.0
  3
mm 1_1
100
AcDbAlignedDimension
 13
1768.577392526023
 23
1090.274322328896
 33
0.0
 14
1768.577392526023
 24
1087.274322328896
 34
0.0
 50
270.0
100
AcDbRotatedDimension
  0
DIMENSION
  5
381
330
1F
100
AcDbEntity
  8
S10_Quote
100
AcDbDimension
  2
*D30
 10
1790.577392526024
 20
982.7743206355526
 30
0.0
 11
1790.577392526023
 21
1036.524321482224
 31
0.0
 70
   160
  1
<>
 42
107.5000016933437
  3
mm 1_1
100
AcDbAlignedDimension
 13
1768.577392526023
 23
1090.274322328896
 33
0.0
 14
1768.577392526024
 24
982.7743206355526
 34
0.0
 50
270.0
100
AcDbRotatedDimension
  0
DIMENSION
  5
382
330
1F
100
AcDbEntity
  8
S10_Quote
100
AcDbDimension
  2
*D31
 10
1740.67739254922
 20
993.7520308995013
 30
0.0
 11
1735.17739254922
 21
993.7520308995013
 31
0.0
 70
   160
  1
<>
 42
11.0
  3
mm 1_1
100
AcDbAlignedDimension
 13
1729.67739254922
 23
986.4743206355528
 33
0.0
 14
1740.67739254922
 24
986.4743206355528
 34
0.0
100
AcDbRotatedDimension
  0
DIMENSION
  5
383
330
1F
100
AcDbEntity
  8
S10_Quote
100
AcDbDimension
  2
*D32
 10
1728.73654831282
 20
1090.274322328896
 30
0.0
 11
1728.73654831282
 21
1084.624323286813
 31
0.0
 70
   160
  1
<>
 42
11.2999990536814
  3
mm 1_1
100
AcDbAlignedDimension
 13
1728.736548968121
 23
1078.974323275215
 33
0.0
 14
1720.377392526023
 24
1090.274322328896
 34
0.0
 50
270.0000066453021
100
AcDbRotatedDimension
  0
DIMENSION
  5
384
330
1F
100
AcDbEntity
  8
S10_Quote
100
AcDbDimension
  2
*D33
 10
1749.777392526023
 20
1066.374326017137
 30
0.0
 11
1751.177392526023
 21
1066.374326017137
 31
0.0
 70
   160
  1
<>
 42
2.800000000000181
  3
mm 1_1
100
AcDbAlignedDimension
 13
1752.577392526023
 23
1076.374326017137
 33
0.0
 14
1749.777392526023
 24
1079.174325692386
 34
0.0
100
AcDbRotatedDimension
  0
DIMENSION
  5
385
330
1F
100
AcDbEntity
  8
S10_Quote
100
AcDbDimension
  2
*D34
 10
1720.577392526023
 20
1066.374326017137
 30
0.0
 11
1735.177392526023
 21
1066.374326017137
 31
0.0
 70
   160
  1
<>
 42
29.19999999999982
  3
mm 1_1
100
AcDbAlignedDimension
 13
1749.777392526023
 23
1079.174325692386
 33
0.0
 14
1720.577392526023
 24
1079.174322352092
 34
0.0
100
AcDbRotatedDimension
  0
HATCH
  5
386
330
1F
100
AcDbEntity
  8
S10_Quote
 62
     1
100
AcDbHatch
 10
0.0
 20
0.0
 30
0.0
210
0.0
220
0.0
230
1.0
  2
ANSI31
 70
     0
 71
     0
 91
        7
 92
        7
 72
     1
 73
     1
 93
       48
 10
1720.577392526024
 20
1090.074322328896
 42
0.4142135623730951
 10
1720.377392526024
 20
1090.274322328895
 42
0.0
 10
1701.777392526024
 20
1090.274322328895
 42
0.414213562373103
 10
1701.577392526023
 20
1090.074322328896
 42
0.0
 10
1701.577392526023
 20
1087.474322328896
 42
0.4142135623730951
 10
1701.777392526024
 20
1087.274322328896
 42
0.0
 10
1702.577392526023
 20
1087.274322328896
 42
-0.4142135623730951
 10
1702.777392526024
 20
1087.074322328896
 42
0.0
 10
1702.777392526024
 20
1004.374320635552
 42
-0.4142135623730951
 10
1702.577392526023
 20
1004.174320635552
 42
0.0
 10
1701.777392526024
 20
1004.174320635552
 42
0.4142135623730951
 10
1701.577392526023
 20
1003.974320635553
 42
0.0
 10
1701.577392526024
 20
982.9743206355528
 42
0.4142135623730863
 10
1701.777392526024
 20
982.7743206355531
 42
0.0
 10
1704.377392526023
 20
982.7743206355531
 42
0.4142135623731472
 10
1704.577392526023
 20
982.9743206355528
 42
0.0
 10
1704.577392526023
 20
983.6743206355526
 42
-0.4142135623730951
 10
1704.777392526023
 20
983.8743206355525
 42
0.0
 10
1726.67739254922
 20
983.8743206355525
 42
-0.4142135623730951
 10
1726.87739254922
 20
983.6743206355526
 42
0.0
 10
1726.87739254922
 20
975.9743206355528
 42
0.4142135623730951
 10
1727.07739254922
 20
975.7743206355531
 42
0.0
 10
1743.27739254922
 20
975.7743206355531
 42
0.4142135623731054
 10
1743.47739254922
 20
975.9743206355528
 42
0.0
 10
1743.47739254922
 20
983.6743206355526
 42
-0.4142135623730901
 10
1743.67739254922
 20
983.8743206355525
 42
0.0
 10
1765.577392572417
 20
983.8743206355525
 42
-0.4142135623731054
 10
1765.777392572417
 20
983.6743206355526
 42
0.0
 10
1765.777392572417
 20
982.9743206355528
 42
0.4142135623732198
 10
1765.977392572416
 20
982.7743206355531
 42
0.0
 10
1768.577392526024
 20
982.7743206355531
 42
0.4142135623731578
 10
1768.777392526024
 20
982.9743206355528
 42
0.0
 10
1768.777392526024
 20
1003.974320635553
 42
0.4142135623730951
 10
1768.577392526023
 20
1004.174320635552
 42
0.0
 10
1767.777392526024
 20
1004.174320635553
 42
-0.4142135623730951
 10
1767.577392526024
 20
1004.374320635553
 42
0.0
 10
1767.577392526023
 20
1087.074322328896
 42
-0.4142135623730955
 10
1767.777392526024
 20
1087.274322328896
 42
0.0
 10
1768.577392526024
 20
1087.274322328896
 42
0.4142135623729287
 10
1768.777392526024
 20
1087.474322328896
 42
0.0
 10
1768.777392526024
 20
1090.074322328896
 42
0.4142135623730951
 10
1768.577392526023
 20
1090.274322328895
 42
0.0
 10
1749.977392526023
 20
1090.274322328895
 42
0.4142135623731054
 10
1749.777392526023
 20
1090.074322328896
 42
0.0
 10
1749.777392526024
 20
1079.174325692386
 42
-0.414213528402626
 10
1749.57739254922
 20
1078.974325692386
 42
0.0
 10
1720.77739254922
 20
1078.974322352093
 42
-0.4142135963435624
 10
1720.577392526023
 20
1079.174322352092
 42
0.0
 97
        0
 92
       22
 72
     1
 73
     1
 93
       24
 10
1717.577392526024
 20
1086.374322328896
 42
-0.4142135623730951
 10
1717.777392526024
 20
1086.174322328896
 42
0.0
 10
1717.777392526024
 20
1076.374322027342
 42
0.4142135963435583
 10
1717.97739254922
 20
1076.174322027342
 42
0.0
 10
1752.37739254922
 20
1076.174326017137
 42
0.41421352840263
 10
1752.577392526023
 20
1076.374326017137
 42
0.0
 10
1752.577392526023
 20
1086.174322328896
 42
-0.4142135623730951
 10
1752.777392526023
 20
1086.374322328896
 42
0.0
 10
1764.577392526024
 20
1086.374322328896
 42
-0.4142135623730951
 10
1764.777392526024
 20
1086.174322328896
 42
0.0
 10
1764.777392526024
 20
986.874320635553
 42
-0.4142135623730951
 10
1764.577392526024
 20
986.6743206355531
 42
0.0
 10
1740.87739254922
 20
986.6743206355527
 42
0.4142135623730898
 10
1740.67739254922
 20
986.4743206355528
 42
0.0
 10
1740.67739254922
 20
978.7743206355527
 42
-0.4142135623730951
 10
1740.47739254922
 20
978.5743206355528
 42
0.0
 10
1729.87739254922
 20
978.5743206355528
 42
-0.4142135623730951
 10
1729.67739254922
 20
978.7743206355527
 42
0.0
 10
1729.67739254922
 20
986.4743206355528
 42
0.4142135623730951
 10
1729.47739254922
 20
986.6743206355527
 42
0.0
 10
1705.777392526023
 20
986.6743206355527
 42
-0.4142135623730951
 10
1705.577392526023
 20
986.8743206355524
 42
0.0
 10
1705.577392526023
 20
1086.174322328896
 42
-0.4142135623730951
 10
1705.777392526023
 20
1086.374322328896
 42
0.0
 97
        0
 92
      136
 93
        4
 72
     1
 10
1754.831323525332
 20
998.1144484377232
 11
1757.415938909947
 21
998.1144484377232
 72
     1
 10
1757.415938909947
 20
998.1144484377232
 11
1757.415938909947
 21
1002.350812074087
 72
     1
 10
1757.415938909947
 20
1002.350812074087
 11
1754.831323525332
 21
1002.350812074087
 72
     1
 10
1754.831323525332
 20
1002.350812074087
 11
1754.831323525332
 21
998.1144484377232
 97
        0
 92
      136
 93
        4
 72
     1
 10
1732.009560358191
 20
1021.121794907952
 11
1738.413756162387
 21
1021.121794907952
 72
     1
 10
1738.413756162387
 20
1021.121794907952
 11
1738.413756162387
 21
1025.358158544316
 72
     1
 10
1738.413756162387
 20
1025.358158544316
 11
1732.009560358191
 21
1025.358158544316
 72
     1
 10
1732.009560358191
 20
1025.358158544316
 11
1732.009560358191
 21
1021.121794907952
 97
        0
 92
      136
 93
        4
 72
     1
 10
1733.197672269499
 20
993.3821008295712
 11
1737.36690303873
 21
993.3821008295712
 72
     1
 10
1737.366903038731
 20
993.3821008295712
 11
1737.366903038731
 21
997.6184644659351
 72
     1
 10
1737.366903038731
 20
997.6184644659351
 11
1733.1976722695
 21
997.6184644659351
 72
     1
 10
1733.197672269499
 20
997.6184644659351
 11
1733.197672269499
 21
993.3821008295712
 97
        0
 92
      136
 93
        4
 72
     1
 10
1748.806063854695
 20
1066.035165177976
 11
1753.625644274275
 21
1066.035165177976
 72
     1
 10
1753.625644274275
 20
1066.035165177976
 11
1753.625644274275
 21
1070.27152881434
 72
     1
 10
1753.625644274275
 20
1070.27152881434
 11
1748.806063854695
 21
1070.27152881434
 72
     1
 10
1748.806063854695
 20
1070.27152881434
 11
1748.806063854695
 21
1066.035165177976
 97
        0
 92
      136
 93
        4
 72
     1
 10
1732.024245672876
 20
1066.050549793361
 11
1738.428441477072
 21
1066.050549793361
 72
     1
 10
1738.428441477072
 20
1066.050549793361
 11
1738.428441477072
 21
1070.286913429725
 72
     1
 10
1738.428441477072
 20
1070.286913429725
 11
1732.024245672876
 21
1070.286913429725
 72
     1
 10
1732.024245672876
 20
1070.286913429725
 11
1732.024245672876
 21
1066.050549793361
 97
        0
 75
     0
 76
     1
 52
0.0
 41
0.25
 77
     0
 78
     1
 53
45.0
 43
803.6130793167696
 44
-2251.93000225726
 45
-0.5612660075668221
 46
0.5612660075668221
 79
     0
 47
0.2530089358087886
 98
        2
 10
1715.913286689466
 20
1088.264209161152
 10
1715.913286689466
 20
1088.264209161152
1001
ACAD
1010
0.0
1020
0.0
1030
0.0
  0
ENDSEC
  0
SECTION
  2
OBJECTS
  0
DICTIONARY
  5
C
330
0
100
AcDbDictionary
281
     1
  3
ACAD_COLOR
350
6B
  3
ACAD_GROUP
350
D
  3
ACAD_LAYOUT
350
1A
  3
ACAD_MATERIAL
350
6A
  3
ACAD_MLEADERSTYLE
350
12D
  3
ACAD_MLINESTYLE
350
17
  3
ACAD_PLOTSETTINGS
350
19
  3
ACAD_PLOTSTYLENAME
350
E
  3
ACAD_SCALELIST
350
10C
  3
ACAD_TABLESTYLE
350
7E
  3
ACAD_VISUALSTYLE
350
EF
  3
ACDB_RECOMPOSE_DATA
350
518
  3
AcDbVariableDictionary
350
5E
  0
DICTIONARY
  5
2CA
330
2
100
AcDbDictionary
280
     1
281
     1
  3
ACAD_LAYERSTATES
360
2CB
  0
DICTIONARY
  5
13C
330
10
100
AcDbDictionary
280
     1
281
     1
  0
DICTIONARY
  5
2BF
330
2BE
100
AcDbDictionary
280
     1
281
     1
  0
DICTIONARY
  5
2C1
330
2C0
100
AcDbDictionary
280
     1
281
     1
  0
DICTIONARY
  5
1CE
330
1F
100
AcDbDictionary
280
     1
281
     1
  0
DICTIONARY
  5
1F5
330
1F4
100
AcDbDictionary
280
     1
281
     1
  0
DICTIONARY
  5
6B
102
{ACAD_REACTORS
330
C
102
}
330
C
100
AcDbDictionary
281
     1
  0
DICTIONARY
  5
D
102
{ACAD_REACTORS
330
C
102
}
330
C
100
AcDbDictionary
281
     1
  0
DICTIONARY
  5
1A
102
{ACAD_REACTORS
330
C
102
}
330
C
100
AcDbDictionary
281
     1
  3
Layout1
350
D3
  3
Layout2
350
D7
  3
Model
350
22
  0
DICTIONARY
  5
6A
102
{ACAD_REACTORS
330
C
102
}
330
C
100
AcDbDictionary
281
     1
  3
ByBlock
350
ED
  3
ByLayer
350
EC
  3
Global
350
EE
  0
DICTIONARY
  5
12D
102
{ACAD_REACTORS
330
C
102
}
330
C
100
AcDbDictionary
281
     1
  3
Annotativa
350
13B
  3
Standard
350
12E
  0
DICTIONARY
  5
17
102
{ACAD_REACTORS
330
C
102
}
330
C
100
AcDbDictionary
281
     1
  3
Standard
350
18
  0
DICTIONARY
  5
19
102
{ACAD_REACTORS
330
C
102
}
330
C
100
AcDbDictionary
281
     1
  0
ACDBDICTIONARYWDFLT
  5
E
102
{ACAD_REACTORS
330
C
102
}
330
C
100
AcDbDictionary
281
     1
  3
Normal
350
F
100
AcDbDictionaryWithDefault
340
F
  0
DICTIONARY
  5
10C
102
{ACAD_REACTORS
330
C
102
}
330
C
100
AcDbDictionary
281
     1
  3
A0
350
10D
  3
A1
350
1BE
  3
A2
350
1BF
  3
A3
350
1C0
  3
A4
350
1C1
  3
A5
350
1C2
  3
A6
350
1C3
  3
A7
350
1C4
  3
A8
350
1C5
  3
A9
350
1C6
  3
B0
350
1C7
  3
B1
350
1C8
  3
B2
350
1C9
  3
B3
350
1CA
  3
B4
350
1CB
  3
B5
350
1CC
  3
B6
350
1CD
  0
DICTIONARY
  5
7E
102
{ACAD_REACTORS
330
C
102
}
330
C
100
AcDbDictionary
281
     1
  3
Standard
350
7F
  0
DICTIONARY
  5
EF
102
{ACAD_REACTORS
330
C
102
}
330
C
100
AcDbDictionary
281
     1
  3
2dWireframe
350
F5
  3
3D Hidden
350
F7
  3
3dWireframe
350
F6
  3
Basic
350
F4
  3
Brighten
350
FB
  3
ColorChange
350
FF
  3
Conceptual
350
F8
  3
Dim
350
FA
  3
EdgeColorOff
350
1E6
  3
Facepattern
350
FE
  3
Flat
350
F0
  3
FlatWithEdges
350
F1
  3
Gouraud
350
F2
  3
GouraudWithEdges
350
F3
  3
JitterOff
350
1E4
  3
Linepattern
350
FD
  3
OverhangOff
350
1E5
  3
Realistic
350
F9
  3
Thicken
350
FC
  0
XRECORD
  5
518
102
{ACAD_REACTORS
330
C
102
}
330
C
100
AcDbXrecord
280
     1
 90
        1
330
7F
  0
DICTIONARY
  5
5E
102
{ACAD_REACTORS
330
C
102
}
330
C
100
AcDbDictionary
281
     1
  3
CANNOSCALE
350
146
  3
CMLEADERSTYLE
350
145
  3
CTABLESTYLE
350
84
  3
DIMASSOC
350
5F
  3
HIDETEXT
350
63
  3
LAYEREVAL
350
1AE
  3
LAYERNOTIFY
350
1AF
  3
LIGHTINGUNITS
350
513
  3
MSLTSCALE
350
512
  3
PSOLHEIGHT
350
515
  3
PSOLWIDTH
350
514
  3
XCLIPFRAME
350
516
  0
DICTIONARY
  5
2CB
102
{ACAD_REACTORS
330
2CA
102
}
330
2CA
100
AcDbDictionary
281
     1
  0
LAYOUT
  5
D3
102
{ACAD_REACTORS
330
1A
102
}
330
1A
100
AcDbPlotSettings
  1

  2
C:\Documents and Settings\basas\Application Data\Autodesk\AutoCAD 2005\R16.1\enu\plotters\Default Windows System Printer.pc3
  4

  6

 40
0.0
 41
0.0
 42
0.0
 43
0.0
 44
0.0
 45
0.0
 46
0.0
 47
0.0
 48
0.0
 49
0.0
140
0.0
141
0.0
142
1.0
143
1.0
 70
   688
 72
     0
 73
     0
 74
     5
  7

 75
    16
147
1.0
 76
     0
 77
     2
 78
   300
148
0.0
149
0.0
100
AcDbLayout
  1
Layout1
 70
     1
 71
     1
 10
0.0
 20
0.0
 11
12.0
 21
9.0
 12
0.0
 22
0.0
 32
0.0
 14
0.0
 24
0.0
 34
0.0
 15
0.0
 25
0.0
 35
0.0
146
0.0
 13
0.0
 23
0.0
 33
0.0
 16
1.0
 26
0.0
 36
0.0
 17
0.0
 27
1.0
 37
0.0
 76
     0
330
D2
  0
LAYOUT
  5
D7
102
{ACAD_REACTORS
330
1A
102
}
330
1A
100
AcDbPlotSettings
  1

  2
C:\Documents and Settings\basas\Application Data\Autodesk\AutoCAD 2005\R16.1\enu\plotters\Default Windows System Printer.pc3
  4

  6

 40
0.0
 41
0.0
 42
0.0
 43
0.0
 44
0.0
 45
0.0
 46
0.0
 47
0.0
 48
0.0
 49
0.0
140
0.0
141
0.0
142
1.0
143
1.0
 70
   688
 72
     0
 73
     0
 74
     5
  7

 75
    16
147
1.0
 76
     0
 77
     2
 78
   300
148
0.0
149
0.0
100
AcDbLayout
  1
Layout2
 70
     1
 71
     2
 10
0.0
 20
0.0
 11
12.0
 21
9.0
 12
0.0
 22
0.0
 32
0.0
 14
0.0
 24
0.0
 34
0.0
 15
0.0
 25
0.0
 35
0.0
146
0.0
 13
0.0
 23
0.0
 33
0.0
 16
1.0
 26
0.0
 36
0.0
 17
0.0
 27
1.0
 37
0.0
 76
     0
330
D6
  0
LAYOUT
  5
22
102
{ACAD_REACTORS
330
1A
102
}
330
1A
100
AcDbPlotSettings
  1

  2
none_device
  4
ISO_A4_(210.00_x_297.00_MM)
  6

 40
7.5
 41
20.0
 42
7.5
 43
20.0
 44
210.0
 45
297.0
 46
11.54999923706054
 47
-13.65000009536743
 48
0.0
 49
0.0
140
0.0
141
0.0
142
1.0
143
8.704084754739808
 70
 11952
 72
     1
 73
     0
 74
     0
  7

 75
     0
147
0.1148885871608098
 76
     0
 77
     2
 78
   300
148
0.0
149
0.0
100
AcDbLayout
  1
Model
 70
     1
 71
     0
 10
0.0
 20
0.0
 11
12.0
 21
9.0
 12
0.0
 22
0.0
 32
0.0
 14
0.0
 24
0.0
 34
0.0
 15
0.0
 25
0.0
 35
0.0
146
0.0
 13
0.0
 23
0.0
 33
0.0
 16
1.0
 26
0.0
 36
0.0
 17
0.0
 27
1.0
 37
0.0
 76
     0
330
1F
331
EA
1001
ACAD_PSEXT
1000
None
1000
None
1000
Not applicable
1000
The layout will not be plotted unless a new plotter configuration name is selected.
1070
     0
  0
MATERIAL
  5
ED
102
{ACAD_XDICTIONARY
360
51C
102
}
102
{ACAD_REACTORS
330
6A
102
}
330
6A
100
AcDbMaterial
  1
ByBlock
  0
MATERIAL
  5
EC
102
{ACAD_XDICTIONARY
360
51A
102
}
102
{ACAD_REACTORS
330
6A
102
}
330
6A
100
AcDbMaterial
  1
ByLayer
  0
MATERIAL
  5
EE
102
{ACAD_XDICTIONARY
360
173
102
}
102
{ACAD_REACTORS
330
6A
102
}
330
6A
100
AcDbMaterial
  1
Global
 43
0.0007999999797903
 43
0.0
 43
0.0
 43
0.0
 43
0.0
 43
0.0007999999797903
 43
0.0
 43
0.0
 43
0.0
 43
0.0
 43
1.0
 43
0.0
 43
0.0
 43
0.0
 43
0.0
 43
1.0
 49
0.0007999999797903
 49
0.0
 49
0.0
 49
0.0
 49
0.0
 49
0.0007999999797903
 49
0.0
 49
0.0
 49
0.0
 49
0.0
 49
1.0
 49
0.0
 49
0.0
 49
0.0
 49
0.0
 49
1.0
142
0.0007999999797903
142
0.0
142
0.0
142
0.0
142
0.0
142
0.0007999999797903
142
0.0
142
0.0
142
0.0
142
0.0
142
1.0
142
0.0
142
0.0
142
0.0
142
0.0
142
1.0
144
0.0007999999797903
144
0.0
144
0.0
144
0.0
144
0.0
144
0.0007999999797903
144
0.0
144
0.0
144
0.0
144
0.0
144
1.0
144
0.0
144
0.0
144
0.0
144
0.0
144
1.0
1001
ACAD
1070
    -1
1070
     3
1070
     0
1000

1071
        0
1070
     0
  0
MLEADERSTYLE
  5
13B
102
{ACAD_REACTORS
330
12D
102
}
330
12D
100
AcDbMLeaderStyle
170
     2
171
     1
172
     0
 90
        2
 40
0.0
 41
0.0
173
     1
 91
-1056964608
340
14
 92
       -2
290
     1
 42
2.0
291
     1
 43
8.0
  3
Standard
 44
4.0
300

342
11
174
     1
178
     1
175
     1
176
     0
 93
-1056964608
 45
4.0
292
     0
297
     0
 46
4.0
 94
-1056964608
 47
1.0
 49
1.0
140
1.0
293
     1
141
0.0
294
     1
177
     0
142
1.0
295
     0
296
     1
143
3.75
1001
ACAD_MLEADERVER
1070
     2
  0
MLEADERSTYLE
  5
12E
102
{ACAD_REACTORS
330
12D
102
}
330
12D
100
AcDbMLeaderStyle
170
     2
171
     1
172
     0
 90
        2
 40
0.0
 41
0.0
173
     1
 91
-1056964608
340
14
 92
       -2
290
     1
 42
2.0
291
     1
 43
8.0
  3
Standard
 44
4.0
300

342
11
174
     1
178
     1
175
     1
176
     0
 93
-1056964608
 45
4.0
292
     0
297
     0
 46
4.0
 94
-1056964608
 47
1.0
 49
1.0
140
1.0
293
     1
141
0.0
294
     1
177
     0
142
1.0
295
     0
296
     0
143
3.75
1001
ACAD_MLEADERVER
1070
     2
  0
MLINESTYLE
  5
18
102
{ACAD_REACTORS
330
17
102
}
330
17
100
AcDbMlineStyle
  2
STANDARD
 70
     0
  3

 62
   256
 51
90.0
 52
90.0
 71
     2
 49
0.5
 62
   256
  6
BYLAYER
 49
-0.5
 62
   256
  6
BYLAYER
  0
ACDBPLACEHOLDER
  5
F
102
{ACAD_REACTORS
330
E
102
}
330
E
  0
SCALE
  5
10D
102
{ACAD_REACTORS
330
10C
102
}
330
10C
100
AcDbScale
 70
     0
300
1:1
140
1.0
141
1.0
290
     1
  0
SCALE
  5
1BE
102
{ACAD_REACTORS
330
10C
102
}
330
10C
100
AcDbScale
 70
     0
300
1:2
140
1.0
141
2.0
290
     0
  0
SCALE
  5
1BF
102
{ACAD_REACTORS
330
10C
102
}
330
10C
100
AcDbScale
 70
     0
300
1:4
140
1.0
141
4.0
290
     0
  0
SCALE
  5
1C0
102
{ACAD_REACTORS
330
10C
102
}
330
10C
100
AcDbScale
 70
     0
300
1:5
140
1.0
141
5.0
290
     0
  0
SCALE
  5
1C1
102
{ACAD_REACTORS
330
10C
102
}
330
10C
100
AcDbScale
 70
     0
300
1:8
140
1.0
141
8.0
290
     0
  0
SCALE
  5
1C2
102
{ACAD_REACTORS
330
10C
102
}
330
10C
100
AcDbScale
 70
     0
300
1:10
140
1.0
141
10.0
290
     0
  0
SCALE
  5
1C3
102
{ACAD_REACTORS
330
10C
102
}
330
10C
100
AcDbScale
 70
     0
300
1:16
140
1.0
141
16.0
290
     0
  0
SCALE
  5
1C4
102
{ACAD_REACTORS
330
10C
102
}
330
10C
100
AcDbScale
 70
     0
300
1:20
140
1.0
141
20.0
290
     0
  0
SCALE
  5
1C5
102
{ACAD_REACTORS
330
10C
102
}
330
10C
100
AcDbScale
 70
     0
300
1:30
140
1.0
141
30.0
290
     0
  0
SCALE
  5
1C6
102
{ACAD_REACTORS
330
10C
102
}
330
10C
100
AcDbScale
 70
     0
300
1:40
140
1.0
141
40.0
290
     0
  0
SCALE
  5
1C7
102
{ACAD_REACTORS
330
10C
102
}
330
10C
100
AcDbScale
 70
     0
300
1:50
140
1.0
141
50.0
290
     0
  0
SCALE
  5
1C8
102
{ACAD_REACTORS
330
10C
102
}
330
10C
100
AcDbScale
 70
     0
300
1:100
140
1.0
141
100.0
290
     0
  0
SCALE
  5
1C9
102
{ACAD_REACTORS
330
10C
102
}
330
10C
100
AcDbScale
 70
     0
300
2:1
140
2.0
141
1.0
290
     0
  0
SCALE
  5
1CA
102
{ACAD_REACTORS
330
10C
102
}
330
10C
100
AcDbScale
 70
     0
300
4:1
140
4.0
141
1.0
290
     0
  0
SCALE
  5
1CB
102
{ACAD_REACTORS
330
10C
102
}
330
10C
100
AcDbScale
 70
     0
300
8:1
140
8.0
141
1.0
290
     0
  0
SCALE
  5
1CC
102
{ACAD_REACTORS
330
10C
102
}
330
10C
100
AcDbScale
 70
     0
300
10:1
140
10.0
141
1.0
290
     0
  0
SCALE
  5
1CD
102
{ACAD_REACTORS
330
10C
102
}
330
10C
100
AcDbScale
 70
     0
300
100:1
140
100.0
141
1.0
290
     0
  0
TABLESTYLE
  5
7F
102
{ACAD_XDICTIONARY
360
162
102
}
102
{ACAD_REACTORS
330
7E
102
}
330
7E
100
AcDbTableStyle
  3
Standard
 70
     0
 71
     0
 40
1.5
 41
1.5
280
     0
281
     0
  7
Standard
140
4.5
170
     2
 62
     0
 63
     7
283
     0
274
    -2
284
     1
 64
     0
275
    -2
285
     1
 65
     0
276
    -2
286
     1
 66
     0
277
    -2
287
     1
 67
     0
278
    -2
288
     1
 68
     0
279
    -2
289
     1
 69
     0
  7
Standard
140
6.0
170
     5
 62
     0
 63
     7
283
     0
274
    -2
284
     1
 64
     0
275
    -2
285
     1
 65
     0
276
    -2
286
     1
 66
     0
277
    -2
287
     1
 67
     0
278
    -2
288
     1
 68
     0
279
    -2
289
     1
 69
     0
  7
Standard
140
4.5
170
     5
 62
     0
 63
     7
283
     0
274
    -2
284
     1
 64
     0
275
    -2
285
     1
 65
     0
276
    -2
286
     1
 66
     0
277
    -2
287
     1
 67
     0
278
    -2
288
     1
 68
     0
279
    -2
289
     1
 69
     0
  0
VISUALSTYLE
  5
F5
102
{ACAD_XDICTIONARY
360
529
102
}
102
{ACAD_REACTORS
330
EF
102
}
330
EF
100
AcDbVisualStyle
  2
2dWireframe
 70
     4
 71
     0
 72
     2
 73
     1
 90
        0
 40
-0.6
 41
-30.0
 62
     5
 63
     7
421
 16777215
 74
     1
 91
        4
 64
     7
 65
   257
 75
     1
175
     1
 42
1.0
 92
        0
 66
   257
 43
1.0
 76
     1
 77
     6
 78
     2
 67
     7
 79
     5
170
     0
171
     0
290
     0
174
     0
 93
        1
 44
0.0
173
     0
291
     0
 45
0.0
1001
ACAD
1000
AcDbSavedByObjectVersion
1070
     0
  0
VISUALSTYLE
  5
F7
102
{ACAD_XDICTIONARY
360
52D
102
}
102
{ACAD_REACTORS
330
EF
102
}
330
EF
100
AcDbVisualStyle
  2
3D Hidden
 70
     6
 71
     1
 72
     2
 73
     2
 90
        0
 40
-0.6
 41
-30.0
 62
     5
 63
     7
421
 16777215
 74
     2
 91
        2
 64
     7
 65
   257
 75
     2
175
     1
 42
40.0
 92
        0
 66
   257
 43
1.0
 76
     1
 77
     6
 78
     2
 67
     7
 79
     3
170
     0
171
     0
290
     0
174
     0
 93
        1
 44
0.0
173
     0
291
     0
 45
0.0
1001
ACAD
1000
AcDbSavedByObjectVersion
1070
     0
  0
VISUALSTYLE
  5
F6
102
{ACAD_XDICTIONARY
360
52B
102
}
102
{ACAD_REACTORS
330
EF
102
}
330
EF
100
AcDbVisualStyle
  2
3dWireframe
 70
     5
 71
     0
 72
     2
 73
     1
 90
        0
 40
-0.6
 41
-30.0
 62
     5
 63
     7
421
 16777215
 74
     1
 91
        4
 64
     7
 65
   257
 75
     1
175
     1
 42
1.0
 92
        0
 66
   257
 43
1.0
 76
     1
 77
     6
 78
     2
 67
     7
 79
     5
170
     0
171
     0
290
     0
174
     0
 93
        1
 44
0.0
173
     0
291
     0
 45
0.0
1001
ACAD
1000
AcDbSavedByObjectVersion
1070
     0
  0
VISUALSTYLE
  5
F4
102
{ACAD_XDICTIONARY
360
527
102
}
102
{ACAD_REACTORS
330
EF
102
}
330
EF
100
AcDbVisualStyle
  2
Basic
 70
     7
 71
     1
 72
     0
 73
     1
 90
        0
 40
-0.6
 41
-30.0
 62
     5
 63
     7
421
 16777215
 74
     0
 91
        4
 64
     7
 65
   257
 75
     1
175
     1
 42
1.0
 92
        8
 66
     7
 43
1.0
 76
     1
 77
     6
 78
     2
 67
     7
 79
     5
170
     0
171
     0
290
     0
174
     0
 93
        1
 44
0.0
173
     0
291
     1
 45
0.0
1001
ACAD
1000
AcDbSavedByObjectVersion
1070
     0
  0
VISUALSTYLE
  5
FB
102
{ACAD_XDICTIONARY
360
535
102
}
102
{ACAD_REACTORS
330
EF
102
}
330
EF
100
AcDbVisualStyle
  2
Brighten
 70
    12
 71
     2
 72
     2
 73
     1
 90
        0
 40
-0.6
 41
-30.0
 62
     5
 63
     7
421
 16777215
 74
     1
 91
        4
 64
     7
 65
   257
 75
     1
175
     1
 42
1.0
 92
        8
 66
     7
 43
1.0
 76
     1
 77
     6
 78
     2
 67
     7
 79
     5
170
     0
171
     0
290
     0
174
     0
 93
        1
 44
50.0
173
     0
291
     1
 45
0.0
1001
ACAD
1000
AcDbSavedByObjectVersion
1070
     0
  0
VISUALSTYLE
  5
FF
102
{ACAD_XDICTIONARY
360
53D
102
}
102
{ACAD_REACTORS
330
EF
102
}
330
EF
100
AcDbVisualStyle
  2
ColorChange
 70
    16
 71
     2
 72
     2
 73
     3
 90
        0
 40
-0.6
 41
-30.0
 62
     5
 63
     8
421
  8421504
 74
     1
 91
        4
 64
     7
 65
   257
 75
     1
175
     1
 42
1.0
 92
        8
 66
     8
424
  8421504
 43
1.0
 76
     1
 77
     6
 78
     2
 67
     7
 79
     5
170
     0
171
     0
290
     0
174
     0
 93
        1
 44
0.0
173
     0
291
     1
 45
0.0
1001
ACAD
1000
AcDbSavedByObjectVersion
1070
     0
  0
VISUALSTYLE
  5
F8
102
{ACAD_XDICTIONARY
360
52F
102
}
102
{ACAD_REACTORS
330
EF
102
}
330
EF
100
AcDbVisualStyle
  2
Conceptual
 70
     9
 71
     3
 72
     2
 73
     1
 90
        0
 40
-0.6
 41
-30.0
 62
     5
 63
     7
421
 16777215
 74
     2
 91
        2
 64
     7
 65
   257
 75
     1
175
     1
 42
40.0
 92
        8
 66
     7
 43
1.0
 76
     1
 77
     6
 78
     2
 67
     7
 79
     3
170
     0
171
     0
290
     0
174
     0
 93
        1
 44
0.0
173
     0
291
     0
 45
0.0
1001
ACAD
1000
AcDbSavedByObjectVersion
1070
     0
  0
VISUALSTYLE
  5
FA
102
{ACAD_XDICTIONARY
360
533
102
}
102
{ACAD_REACTORS
330
EF
102
}
330
EF
100
AcDbVisualStyle
  2
Dim
 70
    11
 71
     2
 72
     2
 73
     1
 90
        0
 40
-0.6
 41
-30.0
 62
     5
 63
     7
421
 16777215
 74
     1
 91
        4
 64
     7
 65
   257
 75
     1
175
     1
 42
1.0
 92
        8
 66
     7
 43
1.0
 76
     1
 77
     6
 78
     2
 67
     7
 79
     5
170
     0
171
     0
290
     0
174
     0
 93
        1
 44
-50.0
173
     0
291
     1
 45
0.0
1001
ACAD
1000
AcDbSavedByObjectVersion
1070
     0
  0
VISUALSTYLE
  5
1E6
102
{ACAD_XDICTIONARY
360
543
102
}
102
{ACAD_REACTORS
330
EF
102
}
330
EF
100
AcDbVisualStyle
  2
EdgeColorOff
 70
    22
 71
     2
 72
     2
 73
     0
 90
        0
 40
-0.6
 41
-30.0
 62
     5
 63
     7
421
 16777215
 74
     1
 91
        4
 64
     7
 65
   257
 75
     1
175
     1
 42
1.0
 92
        8
 66
     7
 43
1.0
 76
     1
 77
     6
 78
     2
 67
     7
 79
     5
170
     0
171
     0
290
     0
174
     0
 93
        1
 44
0.0
173
     0
291
     1
 45
0.0
1001
ACAD
1000
AcDbSavedByObjectVersion
1070
     0
  0
VISUALSTYLE
  5
FE
102
{ACAD_XDICTIONARY
360
53B
102
}
102
{ACAD_REACTORS
330
EF
102
}
330
EF
100
AcDbVisualStyle
  2
Facepattern
 70
    15
 71
     2
 72
     2
 73
     1
 90
        0
 40
-0.6
 41
-30.0
 62
     5
 63
     7
421
 16777215
 74
     1
 91
        4
 64
     7
 65
   257
 75
     1
175
     1
 42
1.0
 92
        8
 66
     7
 43
1.0
 76
     1
 77
     6
 78
     2
 67
     7
 79
     5
170
     0
171
     0
290
     0
174
     0
 93
        1
 44
0.0
173
     0
291
     1
 45
0.0
1001
ACAD
1000
AcDbSavedByObjectVersion
1070
     0
  0
VISUALSTYLE
  5
F0
102
{ACAD_XDICTIONARY
360
51F
102
}
102
{ACAD_REACTORS
330
EF
102
}
330
EF
100
AcDbVisualStyle
  2
Flat
 70
     0
 71
     2
 72
     1
 73
     1
 90
        2
 40
-0.6
 41
30.0
 62
     5
 63
     7
421
 16777215
 74
     0
 91
        4
 64
     7
 65
   257
 75
     1
175
     1
 42
1.0
 92
        8
 66
     7
 43
1.0
 76
     1
 77
     6
 78
     2
 67
     7
 79
     5
170
     0
171
     0
290
     0
174
     0
 93
        1
 44
0.0
173
     0
291
     1
 45
0.0
1001
ACAD
1000
AcDbSavedByObjectVersion
1070
     0
  0
VISUALSTYLE
  5
F1
102
{ACAD_XDICTIONARY
360
521
102
}
102
{ACAD_REACTORS
330
EF
102
}
330
EF
100
AcDbVisualStyle
  2
FlatWithEdges
 70
     1
 71
     2
 72
     1
 73
     1
 90
        2
 40
-0.6
 41
30.0
 62
     5
 63
     7
421
 16777215
 74
     1
 91
        4
 64
     7
 65
   257
 75
     1
175
     1
 42
1.0
 92
        0
 66
   257
 43
1.0
 76
     1
 77
     6
 78
     2
 67
     7
 79
     5
170
     0
171
     0
290
     0
174
     0
 93
        1
 44
0.0
173
     0
291
     1
 45
0.0
1001
ACAD
1000
AcDbSavedByObjectVersion
1070
     0
  0
VISUALSTYLE
  5
F2
102
{ACAD_XDICTIONARY
360
523
102
}
102
{ACAD_REACTORS
330
EF
102
}
330
EF
100
AcDbVisualStyle
  2
Gouraud
 70
     2
 71
     2
 72
     2
 73
     1
 90
        2
 40
-0.6
 41
30.0
 62
     5
 63
     7
421
 16777215
 74
     0
 91
        4
 64
     7
 65
   257
 75
     1
175
     1
 42
1.0
 92
        0
 66
     7
 43
1.0
 76
     1
 77
     6
 78
     2
 67
     7
 79
     5
170
     0
171
     0
290
     0
174
     0
 93
        1
 44
0.0
173
     0
291
     1
 45
0.0
1001
ACAD
1000
AcDbSavedByObjectVersion
1070
     0
  0
VISUALSTYLE
  5
F3
102
{ACAD_XDICTIONARY
360
525
102
}
102
{ACAD_REACTORS
330
EF
102
}
330
EF
100
AcDbVisualStyle
  2
GouraudWithEdges
 70
     3
 71
     2
 72
     2
 73
     1
 90
        2
 40
-0.6
 41
30.0
 62
     5
 63
     7
421
 16777215
 74
     1
 91
        4
 64
     7
 65
   257
 75
     1
175
     1
 42
1.0
 92
        0
 66
   257
 43
1.0
 76
     1
 77
     6
 78
     2
 67
     7
 79
     5
170
     0
171
     0
290
     0
174
     0
 93
        1
 44
0.0
173
     0
291
     1
 45
0.0
1001
ACAD
1000
AcDbSavedByObjectVersion
1070
     0
  0
VISUALSTYLE
  5
1E4
102
{ACAD_XDICTIONARY
360
53F
102
}
102
{ACAD_REACTORS
330
EF
102
}
330
EF
100
AcDbVisualStyle
  2
JitterOff
 70
    20
 71
     2
 72
     2
 73
     0
 90
        0
 40
-0.6
 41
-30.0
 62
     5
 63
     7
421
 16777215
 74
     1
 91
        4
 64
     7
 65
   257
 75
     1
175
     1
 42
1.0
 92
       10
 66
     7
 43
1.0
 76
     1
 77
     6
 78
     2
 67
     7
 79
     5
170
     0
171
     0
290
     0
174
     0
 93
        1
 44
0.0
173
     0
291
     1
 45
0.0
1001
ACAD
1000
AcDbSavedByObjectVersion
1070
     0
  0
VISUALSTYLE
  5
FD
102
{ACAD_XDICTIONARY
360
539
102
}
102
{ACAD_REACTORS
330
EF
102
}
330
EF
100
AcDbVisualStyle
  2
Linepattern
 70
    14
 71
     2
 72
     2
 73
     1
 90
        0
 40
-0.6
 41
-30.0
 62
     5
 63
     7
421
 16777215
 74
     1
 91
        4
 64
     7
 65
   257
 75
     7
175
     7
 42
1.0
 92
        8
 66
     7
 43
1.0
 76
     1
 77
     6
 78
     2
 67
     7
 79
     5
170
     0
171
     0
290
     0
174
     0
 93
        1
 44
0.0
173
     0
291
     1
 45
0.0
1001
ACAD
1000
AcDbSavedByObjectVersion
1070
     0
  0
VISUALSTYLE
  5
1E5
102
{ACAD_XDICTIONARY
360
541
102
}
102
{ACAD_REACTORS
330
EF
102
}
330
EF
100
AcDbVisualStyle
  2
OverhangOff
 70
    21
 71
     2
 72
     2
 73
     0
 90
        0
 40
-0.6
 41
-30.0
 62
     5
 63
     7
421
 16777215
 74
     1
 91
        4
 64
     7
 65
   257
 75
     1
175
     1
 42
1.0
 92
        9
 66
     7
 43
1.0
 76
     1
 77
     6
 78
     2
 67
     7
 79
     5
170
     0
171
     0
290
     0
174
     0
 93
        1
 44
0.0
173
     0
291
     1
 45
0.0
1001
ACAD
1000
AcDbSavedByObjectVersion
1070
     0
  0
VISUALSTYLE
  5
F9
102
{ACAD_XDICTIONARY
360
531
102
}
102
{ACAD_REACTORS
330
EF
102
}
330
EF
100
AcDbVisualStyle
  2
Realistic
 70
     8
 71
     2
 72
     2
 73
     1
 90
        0
 40
-0.6
 41
-30.0
 62
     5
 63
     7
421
 16777215
 74
     1
 91
        0
 64
     7
 65
   257
 75
     1
175
     1
 42
1.0
 92
        8
 66
     8
424
  7895160
 43
1.0
 76
     1
 77
     6
 78
     2
 67
     7
 79
     5
170
     0
171
     0
290
     0
174
     0
 93
       13
 44
0.0
173
     0
291
     0
 45
0.0
1001
ACAD
1000
AcDbSavedByObjectVersion
1070
     0
  0
VISUALSTYLE
  5
FC
102
{ACAD_XDICTIONARY
360
537
102
}
102
{ACAD_REACTORS
330
EF
102
}
330
EF
100
AcDbVisualStyle
  2
Thicken
 70
    13
 71
     2
 72
     2
 73
     1
 90
        0
 40
-0.6
 41
-30.0
 62
     5
 63
     7
421
 16777215
 74
     1
 91
        4
 64
     7
 65
   257
 75
     1
175
     1
 42
1.0
 92
       12
 66
     7
 43
1.0
 76
     1
 77
     6
 78
     2
 67
     7
 79
     5
170
     0
171
     0
290
     0
174
     0
 93
        1
 44
0.0
173
     0
291
     1
 45
0.0
1001
ACAD
1000
AcDbSavedByObjectVersion
1070
     0
  0
DICTIONARYVAR
  5
146
102
{ACAD_REACTORS
330
5E
102
}
330
5E
100
DictionaryVariables
280
     0
  1
1:1
  0
DICTIONARYVAR
  5
145
102
{ACAD_REACTORS
330
5E
102
}
330
5E
100
DictionaryVariables
280
     0
  1
STANDARD
  0
DICTIONARYVAR
  5
84
102
{ACAD_REACTORS
330
5E
102
}
330
5E
100
DictionaryVariables
280
     0
  1
STANDARD
  0
DICTIONARYVAR
  5
5F
102
{ACAD_REACTORS
330
5E
102
}
330
5E
100
DictionaryVariables
280
     0
  1
2
  0
DICTIONARYVAR
  5
63
102
{ACAD_REACTORS
330
5E
102
}
330
5E
100
DictionaryVariables
280
     0
  1
1
  0
DICTIONARYVAR
  5
1AE
102
{ACAD_REACTORS
330
5E
102
}
330
5E
100
DictionaryVariables
280
     0
  1
0
  0
DICTIONARYVAR
  5
1AF
102
{ACAD_REACTORS
330
5E
102
}
330
5E
100
DictionaryVariables
280
     0
  1
0
  0
DICTIONARYVAR
  5
513
102
{ACAD_REACTORS
330
5E
102
}
330
5E
100
DictionaryVariables
280
     0
  1
2
  0
DICTIONARYVAR
  5
512
102
{ACAD_REACTORS
330
5E
102
}
330
5E
100
DictionaryVariables
280
     0
  1
1
  0
DICTIONARYVAR
  5
515
102
{ACAD_REACTORS
330
5E
102
}
330
5E
100
DictionaryVariables
280
     0
  1
80.000000
  0
DICTIONARYVAR
  5
514
102
{ACAD_REACTORS
330
5E
102
}
330
5E
100
DictionaryVariables
280
     0
  1
5.000000
  0
DICTIONARYVAR
  5
516
102
{ACAD_REACTORS
330
5E
102
}
330
5E
100
DictionaryVariables
280
     0
  1
2
  0
DICTIONARY
  5
51C
330
ED
100
AcDbDictionary
280
     1
281
     1
  3
ACAD_XREC_ROUNDTRIP
360
51D
  0
DICTIONARY
  5
51A
330
EC
100
AcDbDictionary
280
     1
281
     1
  3
ACAD_XREC_ROUNDTRIP
360
51B
  0
DICTIONARY
  5
173
330
EE
100
AcDbDictionary
280
     1
281
     1
  3
ACAD_XREC_ROUNDTRIP
360
51E
  3
BUMPTILE
360
175
  3
DIFFUSETILE
360
174
  3
OPACITYTILE
360
176
  3
REFLECTIONTILE
360
177
  0
DICTIONARY
  5
162
330
7F
100
AcDbDictionary
280
     1
281
     1
  3
ACAD_ROUNDTRIP_2008_TABLESTYLE_CELLSTYLEMAP
360
517
  3
ACAD_XREC_ROUNDTRIP
360
519
  0
DICTIONARY
  5
529
330
F5
100
AcDbDictionary
280
     1
281
     1
  3
ACAD_XREC_ROUNDTRIP
360
52A
  0
DICTIONARY
  5
52D
330
F7
100
AcDbDictionary
280
     1
281
     1
  3
ACAD_XREC_ROUNDTRIP
360
52E
  0
DICTIONARY
  5
52B
330
F6
100
AcDbDictionary
280
     1
281
     1
  3
ACAD_XREC_ROUNDTRIP
360
52C
  0
DICTIONARY
  5
527
330
F4
100
AcDbDictionary
280
     1
281
     1
  3
ACAD_XREC_ROUNDTRIP
360
528
  0
DICTIONARY
  5
535
330
FB
100
AcDbDictionary
280
     1
281
     1
  3
ACAD_XREC_ROUNDTRIP
360
536
  0
DICTIONARY
  5
53D
330
FF
100
AcDbDictionary
280
     1
281
     1
  3
ACAD_XREC_ROUNDTRIP
360
53E
  0
DICTIONARY
  5
52F
330
F8
100
AcDbDictionary
280
     1
281
     1
  3
ACAD_XREC_ROUNDTRIP
360
530
  0
DICTIONARY
  5
533
330
FA
100
AcDbDictionary
280
     1
281
     1
  3
ACAD_XREC_ROUNDTRIP
360
534
  0
DICTIONARY
  5
543
330
1E6
100
AcDbDictionary
280
     1
281
     1
  3
ACAD_XREC_ROUNDTRIP
360
544
  0
DICTIONARY
  5
53B
330
FE
100
AcDbDictionary
280
     1
281
     1
  3
ACAD_XREC_ROUNDTRIP
360
53C
  0
DICTIONARY
  5
51F
330
F0
100
AcDbDictionary
280
     1
281
     1
  3
ACAD_XREC_ROUNDTRIP
360
520
  0
DICTIONARY
  5
521
330
F1
100
AcDbDictionary
280
     1
281
     1
  3
ACAD_XREC_ROUNDTRIP
360
522
  0
DICTIONARY
  5
523
330
F2
100
AcDbDictionary
280
     1
281
     1
  3
ACAD_XREC_ROUNDTRIP
360
524
  0
DICTIONARY
  5
525
330
F3
100
AcDbDictionary
280
     1
281
     1
  3
ACAD_XREC_ROUNDTRIP
360
526
  0
DICTIONARY
  5
53F
330
1E4
100
AcDbDictionary
280
     1
281
     1
  3
ACAD_XREC_ROUNDTRIP
360
540
  0
DICTIONARY
  5
539
330
FD
100
AcDbDictionary
280
     1
281
     1
  3
ACAD_XREC_ROUNDTRIP
360
53A
  0
DICTIONARY
  5
541
330
1E5
100
AcDbDictionary
280
     1
281
     1
  3
ACAD_XREC_ROUNDTRIP
360
542
  0
DICTIONARY
  5
531
330
F9
100
AcDbDictionary
280
     1
281
     1
  3
ACAD_XREC_ROUNDTRIP
360
532
  0
DICTIONARY
  5
537
330
FC
100
AcDbDictionary
280
     1
281
     1
  3
ACAD_XREC_ROUNDTRIP
360
538
  0
XRECORD
  5
51D
102
{ACAD_REACTORS
330
51C
102
}
330
51C
100
AcDbXrecord
280
     1
102
MATERIAL
148
0.0
149
0.0
149
0.0
 93
        0
 94
       63
282
     0
 72
     1
 77
     1
171
     1
175
     1
179
     1
273
     0
  0
XRECORD
  5
51B
102
{ACAD_REACTORS
330
51A
102
}
330
51A
100
AcDbXrecord
280
     1
102
MATERIAL
148
0.0
149
0.0
149
0.0
 93
        0
 94
       63
282
     0
 72
     1
 77
     1
171
     1
175
     1
179
     1
273
     0
  0
XRECORD
  5
51E
102
{ACAD_REACTORS
330
173
102
}
330
173
100
AcDbXrecord
280
     1
102
MATERIAL
148
0.0
149
0.0
149
0.0
 93
        0
 94
       63
282
     0
 72
     1
 77
     1
171
     1
175
     1
179
     1
273
     0
  0
XRECORD
  5
175
102
{ACAD_REACTORS
330
173
102
}
330
173
100
AcDbXrecord
280
     1
270
     1
271
     1
  0
XRECORD
  5
174
102
{ACAD_REACTORS
330
173
102
}
330
173
100
AcDbXrecord
280
     1
270
     1
271
     1
  0
XRECORD
  5
176
102
{ACAD_REACTORS
330
173
102
}
330
173
100
AcDbXrecord
280
     1
270
     1
271
     1
  0
XRECORD
  5
177
102
{ACAD_REACTORS
330
173
102
}
330
173
100
AcDbXrecord
280
     1
270
     1
271
     1
  0
CELLSTYLEMAP
  5
517
102
{ACAD_REACTORS
330
162
102
}
330
162
100
AcDbCellStyleMap
 90
        3
300
CELLSTYLE
  1
TABLEFORMAT_BEGIN
 90
        5
170
     1
 91
        0
 92
    32768
 62
   257
 93
        1
300
CONTENTFORMAT
  1
CONTENTFORMAT_BEGIN
 90
        0
 91
        0
 92
      512
 93
        0
300

 40
0.0
140
1.0
 94
        5
 62
     0
340
11
144
6.0
309
CONTENTFORMAT_END
171
     1
301
MARGIN
  1
CELLMARGIN_BEGIN
 40
1.5
 40
1.5
 40
1.5
 40
1.5
 40
4.5
 40
4.5
309
CELLMARGIN_END
 94
        6
 95
        1
302
GRIDFORMAT
  1
GRIDFORMAT_BEGIN
 90
        0
 91
        1
 62
     0
 92
       -2
340
14
 93
        0
 40
1.125
309
GRIDFORMAT_END
 95
        2
302
GRIDFORMAT
  1
GRIDFORMAT_BEGIN
 90
        0
 91
        1
 62
     0
 92
       -2
340
14
 93
        0
 40
1.125
309
GRIDFORMAT_END
 95
        4
302
GRIDFORMAT
  1
GRIDFORMAT_BEGIN
 90
        0
 91
        1
 62
     0
 92
       -2
340
14
 93
        0
 40
1.125
309
GRIDFORMAT_END
 95
        8
302
GRIDFORMAT
  1
GRIDFORMAT_BEGIN
 90
        0
 91
        1
 62
     0
 92
       -2
340
14
 93
        0
 40
1.125
309
GRIDFORMAT_END
 95
       16
302
GRIDFORMAT
  1
GRIDFORMAT_BEGIN
 90
        0
 91
        1
 62
     0
 92
       -2
340
14
 93
        0
 40
1.125
309
GRIDFORMAT_END
 95
       32
302
GRIDFORMAT
  1
GRIDFORMAT_BEGIN
 90
        0
 91
        1
 62
     0
 92
       -2
340
14
 93
        0
 40
1.125
309
GRIDFORMAT_END
309
TABLEFORMAT_END
  1
CELLSTYLE_BEGIN
 90
        1
 91
        1
300
_TITLE
309
CELLSTYLE_END
300
CELLSTYLE
  1
TABLEFORMAT_BEGIN
 90
        5
170
     1
 91
        0
 92
        0
 62
   257
 93
        1
300
CONTENTFORMAT
  1
CONTENTFORMAT_BEGIN
 90
        0
 91
        0
 92
      512
 93
        0
300

 40
0.0
140
1.0
 94
        5
 62
     0
340
11
144
4.5
309
CONTENTFORMAT_END
171
     1
301
MARGIN
  1
CELLMARGIN_BEGIN
 40
1.5
 40
1.5
 40
1.5
 40
1.5
 40
4.5
 40
4.5
309
CELLMARGIN_END
 94
        6
 95
        1
302
GRIDFORMAT
  1
GRIDFORMAT_BEGIN
 90
        0
 91
        1
 62
     0
 92
       -2
340
14
 93
        0
 40
1.125
309
GRIDFORMAT_END
 95
        2
302
GRIDFORMAT
  1
GRIDFORMAT_BEGIN
 90
        0
 91
        1
 62
     0
 92
       -2
340
14
 93
        0
 40
1.125
309
GRIDFORMAT_END
 95
        4
302
GRIDFORMAT
  1
GRIDFORMAT_BEGIN
 90
        0
 91
        1
 62
     0
 92
       -2
340
14
 93
        0
 40
1.125
309
GRIDFORMAT_END
 95
        8
302
GRIDFORMAT
  1
GRIDFORMAT_BEGIN
 90
        0
 91
        1
 62
     0
 92
       -2
340
14
 93
        0
 40
1.125
309
GRIDFORMAT_END
 95
       16
302
GRIDFORMAT
  1
GRIDFORMAT_BEGIN
 90
        0
 91
        1
 62
     0
 92
       -2
340
14
 93
        0
 40
1.125
309
GRIDFORMAT_END
 95
       32
302
GRIDFORMAT
  1
GRIDFORMAT_BEGIN
 90
        0
 91
        1
 62
     0
 92
       -2
340
14
 93
        0
 40
1.125
309
GRIDFORMAT_END
309
TABLEFORMAT_END
  1
CELLSTYLE_BEGIN
 90
        2
 91
        1
300
_HEADER
309
CELLSTYLE_END
300
CELLSTYLE
  1
TABLEFORMAT_BEGIN
 90
        5
170
     1
 91
        0
 92
        0
 62
   257
 93
        1
300
CONTENTFORMAT
  1
CONTENTFORMAT_BEGIN
 90
        0
 91
        0
 92
      512
 93
        0
300

 40
0.0
140
1.0
 94
        2
 62
     0
340
11
144
4.5
309
CONTENTFORMAT_END
171
     1
301
MARGIN
  1
CELLMARGIN_BEGIN
 40
1.5
 40
1.5
 40
1.5
 40
1.5
 40
4.5
 40
4.5
309
CELLMARGIN_END
 94
        6
 95
        1
302
GRIDFORMAT
  1
GRIDFORMAT_BEGIN
 90
        0
 91
        1
 62
     0
 92
       -2
340
14
 93
        0
 40
1.125
309
GRIDFORMAT_END
 95
        2
302
GRIDFORMAT
  1
GRIDFORMAT_BEGIN
 90
        0
 91
        1
 62
     0
 92
       -2
340
14
 93
        0
 40
1.125
309
GRIDFORMAT_END
 95
        4
302
GRIDFORMAT
  1
GRIDFORMAT_BEGIN
 90
        0
 91
        1
 62
     0
 92
       -2
340
14
 93
        0
 40
1.125
309
GRIDFORMAT_END
 95
        8
302
GRIDFORMAT
  1
GRIDFORMAT_BEGIN
 90
        0
 91
        1
 62
     0
 92
       -2
340
14
 93
        0
 40
1.125
309
GRIDFORMAT_END
 95
       16
302
GRIDFORMAT
  1
GRIDFORMAT_BEGIN
 90
        0
 91
        1
 62
     0
 92
       -2
340
14
 93
        0
 40
1.125
309
GRIDFORMAT_END
 95
       32
302
GRIDFORMAT
  1
GRIDFORMAT_BEGIN
 90
        0
 91
        1
 62
     0
 92
       -2
340
14
 93
        0
 40
1.125
309
GRIDFORMAT_END
309
TABLEFORMAT_END
  1
CELLSTYLE_BEGIN
 90
        3
 91
        2
300
_DATA
309
CELLSTYLE_END
  0
XRECORD
  5
519
102
{ACAD_REACTORS
330
162
102
}
330
162
100
AcDbXrecord
280
     1
102
ACAD_ROUNDTRIP_PRE2007_TABLESTYLE
 90
      512
 91
        0
  1

 92
      512
 93
        0
  2

 94
      512
 95
        0
  3

  0
XRECORD
  5
52A
102
{ACAD_REACTORS
330
529
102
}
330
529
100
AcDbXrecord
280
     1
102
RTVSPropertyOp0
 70
     1
102
RTVSPropertyOp1
 70
     1
102
RTVSPropertyOp2
 70
     1
102
RTVSPropertyOp3
 70
     1
102
RTVSPropertyOp4
 70
     1
102
RTVSPropertyOp5
 70
     1
102
RTVSPropertyOp6
 70
     1
102
RTVSPropertyOp7
 70
     1
102
RTVSPropertyOp8
 70
     1
102
RTVSPropertyOp9
 70
     1
102
RTVSPropertyOp10
 70
     1
102
RTVSPropertyOp11
 70
     1
102
RTVSPropertyOp12
 70
     1
102
RTVSPropertyOp13
 70
     1
102
RTVSPropertyOp14
 70
     1
102
RTVSPropertyOp15
 70
     1
102
RTVSPropertyOp16
 70
     1
102
RTVSPropertyOp17
 70
     1
102
RTVSPropertyOp18
 70
     1
102
RTVSPropertyOp19
 70
     1
102
RTVSPropertyOp20
 70
     1
102
RTVSPropertyOp21
 70
     1
102
RTVSPropertyOp22
 70
     1
102
RTVSPropertyOp23
 70
     1
102
RTVSPropertyOp24
 70
     1
102
RTVSPropertyOp25
 70
     1
102
RTVSPropertyOp26
 70
     1
102
RTVSPropertyOp27
 70
     1
  0
XRECORD
  5
52E
102
{ACAD_REACTORS
330
52D
102
}
330
52D
100
AcDbXrecord
280
     1
102
RTVSPropertyOp0
 70
     1
102
RTVSPropertyOp1
 70
     1
102
RTVSPropertyOp2
 70
     1
102
RTVSPropertyOp3
 70
     1
102
RTVSPropertyOp4
 70
     1
102
RTVSPropertyOp5
 70
     1
102
RTVSPropertyOp6
 70
     1
102
RTVSPropertyOp7
 70
     1
102
RTVSPropertyOp8
 70
     1
102
RTVSPropertyOp9
 70
     1
102
RTVSPropertyOp10
 70
     1
102
RTVSPropertyOp11
 70
     1
102
RTVSPropertyOp12
 70
     1
102
RTVSPropertyOp13
 70
     1
102
RTVSPropertyOp14
 70
     1
102
RTVSPropertyOp15
 70
     1
102
RTVSPropertyOp16
 70
     1
102
RTVSPropertyOp17
 70
     1
102
RTVSPropertyOp18
 70
     1
102
RTVSPropertyOp19
 70
     1
102
RTVSPropertyOp20
 70
     1
102
RTVSPropertyOp21
 70
     1
102
RTVSPropertyOp22
 70
     1
102
RTVSPropertyOp23
 70
     1
102
RTVSPropertyOp24
 70
     1
102
RTVSPropertyOp25
 70
     1
102
RTVSPropertyOp26
 70
     1
102
RTVSPropertyOp27
 70
     1
  0
XRECORD
  5
52C
102
{ACAD_REACTORS
330
52B
102
}
330
52B
100
AcDbXrecord
280
     1
102
RTVSPropertyOp0
 70
     1
102
RTVSPropertyOp1
 70
     1
102
RTVSPropertyOp2
 70
     1
102
RTVSPropertyOp3
 70
     1
102
RTVSPropertyOp4
 70
     1
102
RTVSPropertyOp5
 70
     1
102
RTVSPropertyOp6
 70
     1
102
RTVSPropertyOp7
 70
     1
102
RTVSPropertyOp8
 70
     1
102
RTVSPropertyOp9
 70
     1
102
RTVSPropertyOp10
 70
     1
102
RTVSPropertyOp11
 70
     1
102
RTVSPropertyOp12
 70
     1
102
RTVSPropertyOp13
 70
     1
102
RTVSPropertyOp14
 70
     1
102
RTVSPropertyOp15
 70
     1
102
RTVSPropertyOp16
 70
     1
102
RTVSPropertyOp17
 70
     1
102
RTVSPropertyOp18
 70
     1
102
RTVSPropertyOp19
 70
     1
102
RTVSPropertyOp20
 70
     1
102
RTVSPropertyOp21
 70
     1
102
RTVSPropertyOp22
 70
     1
102
RTVSPropertyOp23
 70
     1
102
RTVSPropertyOp24
 70
     1
102
RTVSPropertyOp25
 70
     1
102
RTVSPropertyOp26
 70
     1
102
RTVSPropertyOp27
 70
     1
  0
XRECORD
  5
528
102
{ACAD_REACTORS
330
527
102
}
330
527
100
AcDbXrecord
280
     1
102
RTVSPropertyOp0
 70
     1
102
RTVSPropertyOp1
 70
     1
102
RTVSPropertyOp2
 70
     1
102
RTVSPropertyOp3
 70
     1
102
RTVSPropertyOp4
 70
     1
102
RTVSPropertyOp5
 70
     1
102
RTVSPropertyOp6
 70
     1
102
RTVSPropertyOp7
 70
     1
102
RTVSPropertyOp8
 70
     1
102
RTVSPropertyOp9
 70
     1
102
RTVSPropertyOp10
 70
     1
102
RTVSPropertyOp11
 70
     1
102
RTVSPropertyOp12
 70
     1
102
RTVSPropertyOp13
 70
     1
102
RTVSPropertyOp14
 70
     1
102
RTVSPropertyOp15
 70
     1
102
RTVSPropertyOp16
 70
     1
102
RTVSPropertyOp17
 70
     1
102
RTVSPropertyOp18
 70
     1
102
RTVSPropertyOp19
 70
     1
102
RTVSPropertyOp20
 70
     1
102
RTVSPropertyOp21
 70
     1
102
RTVSPropertyOp22
 70
     1
102
RTVSPropertyOp23
 70
     1
102
RTVSPropertyOp24
 70
     1
102
RTVSPropertyOp25
 70
     1
102
RTVSPropertyOp26
 70
     1
102
RTVSPropertyOp27
 70
     1
  0
XRECORD
  5
536
102
{ACAD_REACTORS
330
535
102
}
330
535
100
AcDbXrecord
280
     1
102
RTVSPropertyOp0
 70
     1
102
RTVSPropertyOp1
 70
     1
102
RTVSPropertyOp2
 70
     1
102
RTVSPropertyOp3
 70
     1
102
RTVSPropertyOp4
 70
     1
102
RTVSPropertyOp5
 70
     1
102
RTVSPropertyOp6
 70
     1
102
RTVSPropertyOp7
 70
     1
102
RTVSPropertyOp8
 70
     1
102
RTVSPropertyOp9
 70
     1
102
RTVSPropertyOp10
 70
     1
102
RTVSPropertyOp11
 70
     1
102
RTVSPropertyOp12
 70
     1
102
RTVSPropertyOp13
 70
     1
102
RTVSPropertyOp14
 70
     1
102
RTVSPropertyOp15
 70
     1
102
RTVSPropertyOp16
 70
     1
102
RTVSPropertyOp17
 70
     1
102
RTVSPropertyOp18
 70
     1
102
RTVSPropertyOp19
 70
     1
102
RTVSPropertyOp20
 70
     1
102
RTVSPropertyOp21
 70
     1
102
RTVSPropertyOp22
 70
     1
102
RTVSPropertyOp23
 70
     1
102
RTVSPropertyOp24
 70
     1
102
RTVSPropertyOp25
 70
     1
102
RTVSPropertyOp26
 70
     1
102
RTVSPropertyOp27
 70
     1
  0
XRECORD
  5
53E
102
{ACAD_REACTORS
330
53D
102
}
330
53D
100
AcDbXrecord
280
     1
102
RTVSPropertyOp0
 70
     1
102
RTVSPropertyOp1
 70
     1
102
RTVSPropertyOp2
 70
     1
102
RTVSPropertyOp3
 70
     1
102
RTVSPropertyOp4
 70
     1
102
RTVSPropertyOp5
 70
     1
102
RTVSPropertyOp6
 70
     1
102
RTVSPropertyOp7
 70
     1
102
RTVSPropertyOp8
 70
     1
102
RTVSPropertyOp9
 70
     1
102
RTVSPropertyOp10
 70
     1
102
RTVSPropertyOp11
 70
     1
102
RTVSPropertyOp12
 70
     1
102
RTVSPropertyOp13
 70
     1
102
RTVSPropertyOp14
 70
     1
102
RTVSPropertyOp15
 70
     1
102
RTVSPropertyOp16
 70
     1
102
RTVSPropertyOp17
 70
     1
102
RTVSPropertyOp18
 70
     1
102
RTVSPropertyOp19
 70
     1
102
RTVSPropertyOp20
 70
     1
102
RTVSPropertyOp21
 70
     1
102
RTVSPropertyOp22
 70
     1
102
RTVSPropertyOp23
 70
     1
102
RTVSPropertyOp24
 70
     1
102
RTVSPropertyOp25
 70
     1
102
RTVSPropertyOp26
 70
     1
102
RTVSPropertyOp27
 70
     1
  0
XRECORD
  5
530
102
{ACAD_REACTORS
330
52F
102
}
330
52F
100
AcDbXrecord
280
     1
102
RTVSPropertyOp0
 70
     1
102
RTVSPropertyOp1
 70
     1
102
RTVSPropertyOp2
 70
     1
102
RTVSPropertyOp3
 70
     1
102
RTVSPropertyOp4
 70
     1
102
RTVSPropertyOp5
 70
     1
102
RTVSPropertyOp6
 70
     1
102
RTVSPropertyOp7
 70
     1
102
RTVSPropertyOp8
 70
     1
102
RTVSPropertyOp9
 70
     1
102
RTVSPropertyOp10
 70
     1
102
RTVSPropertyOp11
 70
     1
102
RTVSPropertyOp12
 70
     1
102
RTVSPropertyOp13
 70
     1
102
RTVSPropertyOp14
 70
     1
102
RTVSPropertyOp15
 70
     1
102
RTVSPropertyOp16
 70
     1
102
RTVSPropertyOp17
 70
     1
102
RTVSPropertyOp18
 70
     1
102
RTVSPropertyOp19
 70
     1
102
RTVSPropertyOp20
 70
     1
102
RTVSPropertyOp21
 70
     1
102
RTVSPropertyOp22
 70
     1
102
RTVSPropertyOp23
 70
     1
102
RTVSPropertyOp24
 70
     1
102
RTVSPropertyOp25
 70
     1
102
RTVSPropertyOp26
 70
     1
102
RTVSPropertyOp27
 70
     1
  0
XRECORD
  5
534
102
{ACAD_REACTORS
330
533
102
}
330
533
100
AcDbXrecord
280
     1
102
RTVSPropertyOp0
 70
     1
102
RTVSPropertyOp1
 70
     1
102
RTVSPropertyOp2
 70
     1
102
RTVSPropertyOp3
 70
     1
102
RTVSPropertyOp4
 70
     1
102
RTVSPropertyOp5
 70
     1
102
RTVSPropertyOp6
 70
     1
102
RTVSPropertyOp7
 70
     1
102
RTVSPropertyOp8
 70
     1
102
RTVSPropertyOp9
 70
     1
102
RTVSPropertyOp10
 70
     1
102
RTVSPropertyOp11
 70
     1
102
RTVSPropertyOp12
 70
     1
102
RTVSPropertyOp13
 70
     1
102
RTVSPropertyOp14
 70
     1
102
RTVSPropertyOp15
 70
     1
102
RTVSPropertyOp16
 70
     1
102
RTVSPropertyOp17
 70
     1
102
RTVSPropertyOp18
 70
     1
102
RTVSPropertyOp19
 70
     1
102
RTVSPropertyOp20
 70
     1
102
RTVSPropertyOp21
 70
     1
102
RTVSPropertyOp22
 70
     1
102
RTVSPropertyOp23
 70
     1
102
RTVSPropertyOp24
 70
     1
102
RTVSPropertyOp25
 70
     1
102
RTVSPropertyOp26
 70
     1
102
RTVSPropertyOp27
 70
     1
  0
XRECORD
  5
544
102
{ACAD_REACTORS
330
543
102
}
330
543
100
AcDbXrecord
280
     1
102
RTVSPropertyOp0
 70
     0
102
RTVSPropertyOp1
 70
     0
102
RTVSPropertyOp2
 70
     0
102
RTVSPropertyOp3
 70
     0
102
RTVSPropertyOp4
 70
     0
102
RTVSPropertyOp5
 70
     0
102
RTVSPropertyOp6
 70
     0
102
RTVSPropertyOp7
 70
     0
102
RTVSPropertyOp8
 70
     0
102
RTVSPropertyOp9
 70
     0
102
RTVSPropertyOp10
 70
     0
102
RTVSPropertyOp11
 70
     0
102
RTVSPropertyOp12
 70
     0
102
RTVSPropertyOp13
 70
     0
102
RTVSPropertyOp14
 70
     2
102
RTVSPropertyOp15
 70
     0
102
RTVSPropertyOp16
 70
     0
102
RTVSPropertyOp17
 70
     0
102
RTVSPropertyOp18
 70
     0
102
RTVSPropertyOp19
 70
     0
102
RTVSPropertyOp20
 70
     0
102
RTVSPropertyOp21
 70
     0
102
RTVSPropertyOp22
 70
     0
102
RTVSPropertyOp23
 70
     0
102
RTVSPropertyOp24
 70
     0
102
RTVSPropertyOp25
 70
     0
102
RTVSPropertyOp26
 70
     0
102
RTVSPropertyOp27
 70
     0
  0
XRECORD
  5
53C
102
{ACAD_REACTORS
330
53B
102
}
330
53B
100
AcDbXrecord
280
     1
102
RTVSPropertyOp0
 70
     1
102
RTVSPropertyOp1
 70
     1
102
RTVSPropertyOp2
 70
     1
102
RTVSPropertyOp3
 70
     1
102
RTVSPropertyOp4
 70
     1
102
RTVSPropertyOp5
 70
     1
102
RTVSPropertyOp6
 70
     1
102
RTVSPropertyOp7
 70
     1
102
RTVSPropertyOp8
 70
     1
102
RTVSPropertyOp9
 70
     1
102
RTVSPropertyOp10
 70
     1
102
RTVSPropertyOp11
 70
     1
102
RTVSPropertyOp12
 70
     1
102
RTVSPropertyOp13
 70
     1
102
RTVSPropertyOp14
 70
     1
102
RTVSPropertyOp15
 70
     1
102
RTVSPropertyOp16
 70
     1
102
RTVSPropertyOp17
 70
     1
102
RTVSPropertyOp18
 70
     1
102
RTVSPropertyOp19
 70
     1
102
RTVSPropertyOp20
 70
     1
102
RTVSPropertyOp21
 70
     1
102
RTVSPropertyOp22
 70
     1
102
RTVSPropertyOp23
 70
     1
102
RTVSPropertyOp24
 70
     1
102
RTVSPropertyOp25
 70
     1
102
RTVSPropertyOp26
 70
     1
102
RTVSPropertyOp27
 70
     1
  0
XRECORD
  5
520
102
{ACAD_REACTORS
330
51F
102
}
330
51F
100
AcDbXrecord
280
     1
102
RTVSPropertyOp0
 70
     1
102
RTVSPropertyOp1
 70
     1
102
RTVSPropertyOp2
 70
     1
102
RTVSPropertyOp3
 70
     1
102
RTVSPropertyOp4
 70
     1
102
RTVSPropertyOp5
 70
     1
102
RTVSPropertyOp6
 70
     1
102
RTVSPropertyOp7
 70
     1
102
RTVSPropertyOp8
 70
     1
102
RTVSPropertyOp9
 70
     1
102
RTVSPropertyOp10
 70
     1
102
RTVSPropertyOp11
 70
     1
102
RTVSPropertyOp12
 70
     1
102
RTVSPropertyOp13
 70
     1
102
RTVSPropertyOp14
 70
     1
102
RTVSPropertyOp15
 70
     1
102
RTVSPropertyOp16
 70
     1
102
RTVSPropertyOp17
 70
     1
102
RTVSPropertyOp18
 70
     1
102
RTVSPropertyOp19
 70
     1
102
RTVSPropertyOp20
 70
     1
102
RTVSPropertyOp21
 70
     1
102
RTVSPropertyOp22
 70
     1
102
RTVSPropertyOp23
 70
     1
102
RTVSPropertyOp24
 70
     1
102
RTVSPropertyOp25
 70
     1
102
RTVSPropertyOp26
 70
     1
102
RTVSPropertyOp27
 70
     1
  0
XRECORD
  5
522
102
{ACAD_REACTORS
330
521
102
}
330
521
100
AcDbXrecord
280
     1
102
RTVSPropertyOp0
 70
     1
102
RTVSPropertyOp1
 70
     1
102
RTVSPropertyOp2
 70
     1
102
RTVSPropertyOp3
 70
     1
102
RTVSPropertyOp4
 70
     1
102
RTVSPropertyOp5
 70
     1
102
RTVSPropertyOp6
 70
     1
102
RTVSPropertyOp7
 70
     1
102
RTVSPropertyOp8
 70
     1
102
RTVSPropertyOp9
 70
     1
102
RTVSPropertyOp10
 70
     1
102
RTVSPropertyOp11
 70
     1
102
RTVSPropertyOp12
 70
     1
102
RTVSPropertyOp13
 70
     1
102
RTVSPropertyOp14
 70
     1
102
RTVSPropertyOp15
 70
     1
102
RTVSPropertyOp16
 70
     1
102
RTVSPropertyOp17
 70
     1
102
RTVSPropertyOp18
 70
     1
102
RTVSPropertyOp19
 70
     1
102
RTVSPropertyOp20
 70
     1
102
RTVSPropertyOp21
 70
     1
102
RTVSPropertyOp22
 70
     1
102
RTVSPropertyOp23
 70
     1
102
RTVSPropertyOp24
 70
     1
102
RTVSPropertyOp25
 70
     1
102
RTVSPropertyOp26
 70
     1
102
RTVSPropertyOp27
 70
     1
  0
XRECORD
  5
524
102
{ACAD_REACTORS
330
523
102
}
330
523
100
AcDbXrecord
280
     1
102
RTVSPropertyOp0
 70
     1
102
RTVSPropertyOp1
 70
     1
102
RTVSPropertyOp2
 70
     1
102
RTVSPropertyOp3
 70
     1
102
RTVSPropertyOp4
 70
     1
102
RTVSPropertyOp5
 70
     1
102
RTVSPropertyOp6
 70
     1
102
RTVSPropertyOp7
 70
     1
102
RTVSPropertyOp8
 70
     1
102
RTVSPropertyOp9
 70
     1
102
RTVSPropertyOp10
 70
     1
102
RTVSPropertyOp11
 70
     1
102
RTVSPropertyOp12
 70
     1
102
RTVSPropertyOp13
 70
     1
102
RTVSPropertyOp14
 70
     1
102
RTVSPropertyOp15
 70
     1
102
RTVSPropertyOp16
 70
     1
102
RTVSPropertyOp17
 70
     1
102
RTVSPropertyOp18
 70
     1
102
RTVSPropertyOp19
 70
     1
102
RTVSPropertyOp20
 70
     1
102
RTVSPropertyOp21
 70
     1
102
RTVSPropertyOp22
 70
     1
102
RTVSPropertyOp23
 70
     1
102
RTVSPropertyOp24
 70
     1
102
RTVSPropertyOp25
 70
     1
102
RTVSPropertyOp26
 70
     1
102
RTVSPropertyOp27
 70
     1
  0
XRECORD
  5
526
102
{ACAD_REACTORS
330
525
102
}
330
525
100
AcDbXrecord
280
     1
102
RTVSPropertyOp0
 70
     1
102
RTVSPropertyOp1
 70
     1
102
RTVSPropertyOp2
 70
     1
102
RTVSPropertyOp3
 70
     1
102
RTVSPropertyOp4
 70
     1
102
RTVSPropertyOp5
 70
     1
102
RTVSPropertyOp6
 70
     1
102
RTVSPropertyOp7
 70
     1
102
RTVSPropertyOp8
 70
     1
102
RTVSPropertyOp9
 70
     1
102
RTVSPropertyOp10
 70
     1
102
RTVSPropertyOp11
 70
     1
102
RTVSPropertyOp12
 70
     1
102
RTVSPropertyOp13
 70
     1
102
RTVSPropertyOp14
 70
     1
102
RTVSPropertyOp15
 70
     1
102
RTVSPropertyOp16
 70
     1
102
RTVSPropertyOp17
 70
     1
102
RTVSPropertyOp18
 70
     1
102
RTVSPropertyOp19
 70
     1
102
RTVSPropertyOp20
 70
     1
102
RTVSPropertyOp21
 70
     1
102
RTVSPropertyOp22
 70
     1
102
RTVSPropertyOp23
 70
     1
102
RTVSPropertyOp24
 70
     1
102
RTVSPropertyOp25
 70
     1
102
RTVSPropertyOp26
 70
     1
102
RTVSPropertyOp27
 70
     1
  0
XRECORD
  5
540
102
{ACAD_REACTORS
330
53F
102
}
330
53F
100
AcDbXrecord
280
     1
102
RTVSPropertyOp0
 70
     0
102
RTVSPropertyOp1
 70
     0
102
RTVSPropertyOp2
 70
     0
102
RTVSPropertyOp3
 70
     0
102
RTVSPropertyOp4
 70
     0
102
RTVSPropertyOp5
 70
     0
102
RTVSPropertyOp6
 70
     0
102
RTVSPropertyOp7
 70
     0
102
RTVSPropertyOp8
 70
     0
102
RTVSPropertyOp9
 70
     0
102
RTVSPropertyOp10
 70
     0
102
RTVSPropertyOp11
 70
     0
102
RTVSPropertyOp12
 70
     0
102
RTVSPropertyOp13
 70
     0
102
RTVSPropertyOp14
 70
     2
102
RTVSPropertyOp15
 70
     0
102
RTVSPropertyOp16
 70
     0
102
RTVSPropertyOp17
 70
     0
102
RTVSPropertyOp18
 70
     0
102
RTVSPropertyOp19
 70
     0
102
RTVSPropertyOp20
 70
     0
102
RTVSPropertyOp21
 70
     0
102
RTVSPropertyOp22
 70
     0
102
RTVSPropertyOp23
 70
     0
102
RTVSPropertyOp24
 70
     0
102
RTVSPropertyOp25
 70
     0
102
RTVSPropertyOp26
 70
     0
102
RTVSPropertyOp27
 70
     0
  0
XRECORD
  5
53A
102
{ACAD_REACTORS
330
539
102
}
330
539
100
AcDbXrecord
280
     1
102
RTVSPropertyOp0
 70
     1
102
RTVSPropertyOp1
 70
     1
102
RTVSPropertyOp2
 70
     1
102
RTVSPropertyOp3
 70
     1
102
RTVSPropertyOp4
 70
     1
102
RTVSPropertyOp5
 70
     1
102
RTVSPropertyOp6
 70
     1
102
RTVSPropertyOp7
 70
     1
102
RTVSPropertyOp8
 70
     1
102
RTVSPropertyOp9
 70
     1
102
RTVSPropertyOp10
 70
     1
102
RTVSPropertyOp11
 70
     1
102
RTVSPropertyOp12
 70
     1
102
RTVSPropertyOp13
 70
     1
102
RTVSPropertyOp14
 70
     1
102
RTVSPropertyOp15
 70
     1
102
RTVSPropertyOp16
 70
     1
102
RTVSPropertyOp17
 70
     1
102
RTVSPropertyOp18
 70
     1
102
RTVSPropertyOp19
 70
     1
102
RTVSPropertyOp20
 70
     1
102
RTVSPropertyOp21
 70
     1
102
RTVSPropertyOp22
 70
     1
102
RTVSPropertyOp23
 70
     1
102
RTVSPropertyOp24
 70
     1
102
RTVSPropertyOp25
 70
     1
102
RTVSPropertyOp26
 70
     1
102
RTVSPropertyOp27
 70
     1
  0
XRECORD
  5
542
102
{ACAD_REACTORS
330
541
102
}
330
541
100
AcDbXrecord
280
     1
102
RTVSPropertyOp0
 70
     0
102
RTVSPropertyOp1
 70
     0
102
RTVSPropertyOp2
 70
     0
102
RTVSPropertyOp3
 70
     0
102
RTVSPropertyOp4
 70
     0
102
RTVSPropertyOp5
 70
     0
102
RTVSPropertyOp6
 70
     0
102
RTVSPropertyOp7
 70
     0
102
RTVSPropertyOp8
 70
     0
102
RTVSPropertyOp9
 70
     0
102
RTVSPropertyOp10
 70
     0
102
RTVSPropertyOp11
 70
     0
102
RTVSPropertyOp12
 70
     0
102
RTVSPropertyOp13
 70
     0
102
RTVSPropertyOp14
 70
     2
102
RTVSPropertyOp15
 70
     0
102
RTVSPropertyOp16
 70
     0
102
RTVSPropertyOp17
 70
     0
102
RTVSPropertyOp18
 70
     0
102
RTVSPropertyOp19
 70
     0
102
RTVSPropertyOp20
 70
     0
102
RTVSPropertyOp21
 70
     0
102
RTVSPropertyOp22
 70
     0
102
RTVSPropertyOp23
 70
     0
102
RTVSPropertyOp24
 70
     0
102
RTVSPropertyOp25
 70
     0
102
RTVSPropertyOp26
 70
     0
102
RTVSPropertyOp27
 70
     0
  0
XRECORD
  5
532
102
{ACAD_REACTORS
330
531
102
}
330
531
100
AcDbXrecord
280
     1
102
RTVSPropertyOp0
 70
     1
102
RTVSPropertyOp1
 70
     1
102
RTVSPropertyOp2
 70
     1
102
RTVSPropertyOp3
 70
     1
102
RTVSPropertyOp4
 70
     1
102
RTVSPropertyOp5
 70
     1
102
RTVSPropertyOp6
 70
     1
102
RTVSPropertyOp7
 70
     1
102
RTVSPropertyOp8
 70
     1
102
RTVSPropertyOp9
 70
     1
102
RTVSPropertyOp10
 70
     1
102
RTVSPropertyOp11
 70
     1
102
RTVSPropertyOp12
 70
     1
102
RTVSPropertyOp13
 70
     1
102
RTVSPropertyOp14
 70
     1
102
RTVSPropertyOp15
 70
     1
102
RTVSPropertyOp16
 70
     1
102
RTVSPropertyOp17
 70
     1
102
RTVSPropertyOp18
 70
     1
102
RTVSPropertyOp19
 70
     1
102
RTVSPropertyOp20
 70
     1
102
RTVSPropertyOp21
 70
     1
102
RTVSPropertyOp22
 70
     1
102
RTVSPropertyOp23
 70
     1
102
RTVSPropertyOp24
 70
     1
102
RTVSPropertyOp25
 70
     1
102
RTVSPropertyOp26
 70
     1
102
RTVSPropertyOp27
 70
     1
  0
XRECORD
  5
538
102
{ACAD_REACTORS
330
537
102
}
330
537
100
AcDbXrecord
280
     1
102
RTVSPropertyOp0
 70
     1
102
RTVSPropertyOp1
 70
     1
102
RTVSPropertyOp2
 70
     1
102
RTVSPropertyOp3
 70
     1
102
RTVSPropertyOp4
 70
     1
102
RTVSPropertyOp5
 70
     1
102
RTVSPropertyOp6
 70
     1
102
RTVSPropertyOp7
 70
     1
102
RTVSPropertyOp8
 70
     1
102
RTVSPropertyOp9
 70
     1
102
RTVSPropertyOp10
 70
     1
102
RTVSPropertyOp11
 70
     1
102
RTVSPropertyOp12
 70
     1
102
RTVSPropertyOp13
 70
     1
102
RTVSPropertyOp14
 70
     1
102
RTVSPropertyOp15
 70
     1
102
RTVSPropertyOp16
 70
     1
102
RTVSPropertyOp17
 70
     1
102
RTVSPropertyOp18
 70
     1
102
RTVSPropertyOp19
 70
     1
102
RTVSPropertyOp20
 70
     1
102
RTVSPropertyOp21
 70
     1
102
RTVSPropertyOp22
 70
     1
102
RTVSPropertyOp23
 70
     1
102
RTVSPropertyOp24
 70
     1
102
RTVSPropertyOp25
 70
     1
102
RTVSPropertyOp26
 70
     1
102
RTVSPropertyOp27
 70
     1
  0
ENDSEC
  0
EOF
