  0
SECTION
  2
HEADER
  9
$ACADVER
  1
AC1018
  9
$ACADMAINTVER
 70
   104
  9
$DWGCODEPAGE
  3
ANSI_1252
  9
$LASTSAVEDBY
  1
a06741
  9
$INSBASE
 10
0.0
 20
0.0
 30
0.0
  9
$EXTMIN
 10
1856.972604205017
 20
708.7209937703437
 30
-0.0015258207003583
  9
$EXTMAX
 10
2023.548382476683
 20
821.1030338442501
 30
0.0000000349246037
  9
$LIMMIN
 10
0.0
 20
0.0
  9
$LIMMAX
 10
420.0
 20
297.0
  9
$ORTHOMODE
 70
     0
  9
$REGENMODE
 70
     1
  9
$FILLMODE
 70
     1
  9
$QTEXTMODE
 70
     0
  9
$MIRRTEXT
 70
     0
  9
$LTSCALE
 40
1.0
  9
$ATTMODE
 70
     1
  9
$TEXTSIZE
 40
2.5
  9
$TRACEWID
 40
1.0
  9
$TEXTSTYLE
  7
Standard
  9
$CLAYER
  8
0
  9
$CELTYPE
  6
ByLayer
  9
$CECOLOR
 62
   256
  9
$CELTSCALE
 40
1.0
  9
$DISPSILH
 70
     0
  9
$DIMSCALE
 40
1.0
  9
$DIMASZ
 40
2.5
  9
$DIMEXO
 40
0.625
  9
$DIMDLI
 40
3.75
  9
$DIMRND
 40
0.0
  9
$DIMDLE
 40
0.0
  9
$DIMEXE
 40
1.25
  9
$DIMTP
 40
0.0
  9
$DIMTM
 40
0.0
  9
$DIMTXT
 40
2.5
  9
$DIMCEN
 40
2.5
  9
$DIMTSZ
 40
0.0
  9
$DIMTOL
 70
     0
  9
$DIMLIM
 70
     0
  9
$DIMTIH
 70
     0
  9
$DIMTOH
 70
     0
  9
$DIMSE1
 70
     0
  9
$DIMSE2
 70
     0
  9
$DIMTAD
 70
     1
  9
$DIMZIN
 70
     8
  9
$DIMBLK
  1

  9
$DIMASO
 70
     1
  9
$DIMSHO
 70
     1
  9
$DIMPOST
  1

  9
$DIMAPOST
  1

  9
$DIMALT
 70
     0
  9
$DIMALTD
 70
     3
  9
$DIMALTF
 40
0.03937007874016
  9
$DIMLFAC
 40
1.0
  9
$DIMTOFL
 70
     1
  9
$DIMTVP
 40
0.0
  9
$DIMTIX
 70
     0
  9
$DIMSOXD
 70
     0
  9
$DIMSAH
 70
     0
  9
$DIMBLK1
  1

  9
$DIMBLK2
  1

  9
$DIMSTYLE
  2
ISO-25
  9
$DIMCLRD
 70
     0
  9
$DIMCLRE
 70
     0
  9
$DIMCLRT
 70
     0
  9
$DIMTFAC
 40
1.0
  9
$DIMGAP
 40
0.625
  9
$DIMJUST
 70
     0
  9
$DIMSD1
 70
     0
  9
$DIMSD2
 70
     0
  9
$DIMTOLJ
 70
     0
  9
$DIMTZIN
 70
     8
  9
$DIMALTZ
 70
     0
  9
$DIMALTTZ
 70
     0
  9
$DIMUPT
 70
     0
  9
$DIMDEC
 70
     2
  9
$DIMTDEC
 70
     2
  9
$DIMALTU
 70
     2
  9
$DIMALTTD
 70
     3
  9
$DIMTXSTY
  7
Standard
  9
$DIMAUNIT
 70
     0
  9
$DIMADEC
 70
     0
  9
$DIMALTRND
 40
0.0
  9
$DIMAZIN
 70
     0
  9
$DIMDSEP
 70
    44
  9
$DIMATFIT
 70
     3
  9
$DIMFRAC
 70
     0
  9
$DIMLDRBLK
  1

  9
$DIMLUNIT
 70
     2
  9
$DIMLWD
 70
    -2
  9
$DIMLWE
 70
    -2
  9
$DIMTMOVE
 70
     0
  9
$LUNITS
 70
     2
  9
$LUPREC
 70
     4
  9
$SKETCHINC
 40
1.0
  9
$FILLETRAD
 40
0.0
  9
$AUNITS
 70
     0
  9
$AUPREC
 70
     0
  9
$MENU
  1
.
  9
$ELEVATION
 40
0.0
  9
$PELEVATION
 40
0.0
  9
$THICKNESS
 40
0.0
  9
$LIMCHECK
 70
     0
  9
$CHAMFERA
 40
0.0
  9
$CHAMFERB
 40
0.0
  9
$CHAMFERC
 40
0.0
  9
$CHAMFERD
 40
0.0
  9
$SKPOLY
 70
     0
  9
$TDCREATE
 40
2456139.491578646
  9
$TDUCREATE
 40
2456139.408245312
  9
$TDUPDATE
 40
2456139.492028414
  9
$TDUUPDATE
 40
2456139.408695081
  9
$TDINDWG
 40
0.0004503009
  9
$TDUSRTIMER
 40
0.0004502662
  9
$USRTIMER
 70
     1
  9
$ANGBASE
 50
0.0
  9
$ANGDIR
 70
     0
  9
$PDMODE
 70
     0
  9
$PDSIZE
 40
0.0
  9
$PLINEWID
 40
0.0
  9
$SPLFRAME
 70
     0
  9
$SPLINETYPE
 70
     6
  9
$SPLINESEGS
 70
     8
  9
$HANDSEED
  5
821
  9
$SURFTAB1
 70
     6
  9
$SURFTAB2
 70
     6
  9
$SURFTYPE
 70
     6
  9
$SURFU
 70
     6
  9
$SURFV
 70
     6
  9
$UCSBASE
  2

  9
$UCSNAME
  2

  9
$UCSORG
 10
0.0
 20
0.0
 30
0.0
  9
$UCSXDIR
 10
1.0
 20
0.0
 30
0.0
  9
$UCSYDIR
 10
0.0
 20
1.0
 30
0.0
  9
$UCSORTHOREF
  2

  9
$UCSORTHOVIEW
 70
     0
  9
$UCSORGTOP
 10
0.0
 20
0.0
 30
0.0
  9
$UCSORGBOTTOM
 10
0.0
 20
0.0
 30
0.0
  9
$UCSORGLEFT
 10
0.0
 20
0.0
 30
0.0
  9
$UCSORGRIGHT
 10
0.0
 20
0.0
 30
0.0
  9
$UCSORGFRONT
 10
0.0
 20
0.0
 30
0.0
  9
$UCSORGBACK
 10
0.0
 20
0.0
 30
0.0
  9
$PUCSBASE
  2

  9
$PUCSNAME
  2

  9
$PUCSORG
 10
0.0
 20
0.0
 30
0.0
  9
$PUCSXDIR
 10
1.0
 20
0.0
 30
0.0
  9
$PUCSYDIR
 10
0.0
 20
1.0
 30
0.0
  9
$PUCSORTHOREF
  2

  9
$PUCSORTHOVIEW
 70
     0
  9
$PUCSORGTOP
 10
0.0
 20
0.0
 30
0.0
  9
$PUCSORGBOTTOM
 10
0.0
 20
0.0
 30
0.0
  9
$PUCSORGLEFT
 10
0.0
 20
0.0
 30
0.0
  9
$PUCSORGRIGHT
 10
0.0
 20
0.0
 30
0.0
  9
$PUCSORGFRONT
 10
0.0
 20
0.0
 30
0.0
  9
$PUCSORGBACK
 10
0.0
 20
0.0
 30
0.0
  9
$USERI1
 70
     0
  9
$USERI2
 70
     0
  9
$USERI3
 70
     0
  9
$USERI4
 70
     0
  9
$USERI5
 70
     0
  9
$USERR1
 40
0.0
  9
$USERR2
 40
0.0
  9
$USERR3
 40
0.0
  9
$USERR4
 40
0.0
  9
$USERR5
 40
0.0
  9
$WORLDVIEW
 70
     1
  9
$SHADEDGE
 70
     3
  9
$SHADEDIF
 70
    70
  9
$TILEMODE
 70
     1
  9
$MAXACTVP
 70
    64
  9
$PINSBASE
 10
0.0
 20
0.0
 30
0.0
  9
$PLIMCHECK
 70
     0
  9
$PEXTMIN
 10
0.0
 20
0.0
 30
0.0
  9
$PEXTMAX
 10
0.0
 20
0.0
 30
0.0
  9
$PLIMMIN
 10
0.0
 20
0.0
  9
$PLIMMAX
 10
12.0
 20
9.0
  9
$UNITMODE
 70
     0
  9
$VISRETAIN
 70
     1
  9
$PLINEGEN
 70
     0
  9
$PSLTSCALE
 70
     1
  9
$TREEDEPTH
 70
  3020
  9
$CMLSTYLE
  2
Standard
  9
$CMLJUST
 70
     0
  9
$CMLSCALE
 40
20.0
  9
$PROXYGRAPHICS
 70
     1
  9
$MEASUREMENT
 70
     1
  9
$CELWEIGHT
370
    -1
  9
$ENDCAPS
280
     0
  9
$JOINSTYLE
280
     0
  9
$LWDISPLAY
290
     0
  9
$INSUNITS
 70
     4
  9
$HYPERLINKBASE
  1

  9
$STYLESHEET
  1

  9
$XEDIT
290
     1
  9
$CEPSNTYPE
380
     0
  9
$PSTYLEMODE
290
     1
  9
$FINGERPRINTGUID
  2
{7506F0C3-AE7C-4A81-BEC3-76A9A5A57CEB}
  9
$VERSIONGUID
  2
{A499604B-294C-4523-94FB-A17444A3E1D7}
  9
$EXTNAMES
290
     1
  9
$PSVPSCALE
 40
0.0
  9
$OLESTARTUP
290
     0
  9
$SORTENTS
280
   127
  9
$INDEXCTL
280
     0
  9
$HIDETEXT
280
     1
  9
$XCLIPFRAME
290
     0
  9
$HALOGAP
280
     0
  9
$OBSCOLOR
 70
   257
  9
$OBSLTYPE
280
     0
  9
$INTERSECTIONDISPLAY
280
     0
  9
$INTERSECTIONCOLOR
 70
   257
  9
$DIMASSOC
280
     2
  9
$PROJECTNAME
  1

  0
ENDSEC
  0
SECTION
  2
CLASSES
  0
CLASS
  1
ACDBDICTIONARYWDFLT
  2
AcDbDictionaryWithDefault
  3
ObjectDBX Classes
 90
        0
 91
        1
280
     0
281
     0
  0
CLASS
  1
DICTIONARYVAR
  2
AcDbDictionaryVar
  3
ObjectDBX Classes
 90
        0
 91
       12
280
     0
281
     0
  0
CLASS
  1
TABLESTYLE
  2
AcDbTableStyle
  3
ObjectDBX Classes
 90
     4095
 91
        1
280
     0
281
     0
  0
CLASS
  1
MATERIAL
  2
AcDbMaterial
  3
ObjectDBX Classes
 90
     1153
 91
        3
280
     0
281
     0
  0
CLASS
  1
VISUALSTYLE
  2
AcDbVisualStyle
  3
ObjectDBX Classes
 90
     4095
 91
       19
280
     0
281
     0
  0
CLASS
  1
SCALE
  2
AcDbScale
  3
ObjectDBX Classes
 90
     1153
 91
       17
280
     0
281
     0
  0
CLASS
  1
MLEADERSTYLE
  2
AcDbMLeaderStyle
  3
ACDB_MLEADERSTYLE_CLASS
 90
     4095
 91
        2
280
     0
281
     0
  0
CLASS
  1
CELLSTYLEMAP
  2
AcDbCellStyleMap
  3
ObjectDBX Classes
 90
     1152
 91
        1
280
     0
281
     0
  0
CLASS
  1
EXACXREFPANELOBJECT
  2
ExAcXREFPanelObject
  3
EXAC_ESW
 90
     1025
 91
        0
280
     0
281
     0
  0
CLASS
  1
NPOCOLLECTION
  2
AcDbImpNonPersistentObjectsCollection
  3
ObjectDBX Classes
 90
     1153
 91
        0
280
     0
281
     0
  0
CLASS
  1
LAYER_INDEX
  2
AcDbLayerIndex
  3
ObjectDBX Classes
 90
        0
 91
        0
280
     0
281
     0
  0
CLASS
  1
SPATIAL_INDEX
  2
AcDbSpatialIndex
  3
ObjectDBX Classes
 90
        0
 91
        0
280
     0
281
     0
  0
CLASS
  1
IDBUFFER
  2
AcDbIdBuffer
  3
ObjectDBX Classes
 90
        0
 91
        0
280
     0
281
     0
  0
CLASS
  1
SORTENTSTABLE
  2
AcDbSortentsTable
  3
ObjectDBX Classes
 90
        0
 91
        1
280
     0
281
     0
  0
ENDSEC
  0
SECTION
  2
TABLES
  0
TABLE
  2
VPORT
  5
8
330
0
100
AcDbSymbolTable
 70
     1
  0
VPORT
  5
EA
330
8
100
AcDbSymbolTableRecord
100
AcDbViewportTableRecord
  2
*Active
 70
     0
 10
0.0
 20
0.0
 11
1.0
 21
1.0
 12
1940.26049334085
 22
764.9120138072969
 13
0.0
 23
0.0
 14
10.0
 24
10.0
 15
10.0
 25
10.0
 16
0.0
 26
0.0
 36
1.0
 17
0.0
 27
0.0
 37
0.0
 40
113.2810963944976
 41
2.132176234979973
 42
50.0
 43
0.0
 44
0.0
 50
0.0
 51
0.0
 71
     0
 72
  1000
 73
     1
 74
     3
 75
     0
 76
     0
 77
     0
 78
     0
281
     0
 65
     1
110
0.0
120
0.0
130
0.0
111
1.0
121
0.0
131
0.0
112
0.0
122
1.0
132
0.0
 79
     0
146
0.0
  0
ENDTAB
  0
TABLE
  2
LTYPE
  5
5
330
0
100
AcDbSymbolTable
 70
     2
  0
LTYPE
  5
14
330
5
100
AcDbSymbolTableRecord
100
AcDbLinetypeTableRecord
  2
ByBlock
 70
     0
  3

 72
    65
 73
     0
 40
0.0
  0
LTYPE
  5
15
330
5
100
AcDbSymbolTableRecord
100
AcDbLinetypeTableRecord
  2
ByLayer
 70
     0
  3

 72
    65
 73
     0
 40
0.0
  0
LTYPE
  5
16
330
5
100
AcDbSymbolTableRecord
100
AcDbLinetypeTableRecord
  2
Continuous
 70
     0
  3
Solid line
 72
    65
 73
     0
 40
0.0
  0
LTYPE
  5
3DA
330
5
100
AcDbSymbolTableRecord
100
AcDbLinetypeTableRecord
  2
ACAD_ISO10W100
 70
     0
  3
ISO dash dot __ . __ . __ . __ . __ . __ . __ .
 72
    65
 73
     4
 40
18.0
 49
12.0
 74
     0
 49
-3.0
 74
     0
 49
0.0
 74
     0
 49
-3.0
 74
     0
  0
ENDTAB
  0
TABLE
  2
LAYER
  5
2
102
{ACAD_XDICTIONARY
360
3EF
102
}
330
0
100
AcDbSymbolTable
 70
     5
  0
LAYER
  5
10
102
{ACAD_XDICTIONARY
360
13C
102
}
330
2
100
AcDbSymbolTableRecord
100
AcDbLayerTableRecord
  2
0
 70
     0
 62
     7
  6
Continuous
370
    -3
390
F
  0
LAYER
  5
3DB
330
2
100
AcDbSymbolTableRecord
100
AcDbLayerTableRecord
  2
Defpoints
 70
     0
 62
     7
  6
Continuous
290
     0
370
    -3
390
F
  0
LAYER
  5
3DC
102
{ACAD_XDICTIONARY
360
3DD
102
}
330
2
100
AcDbSymbolTableRecord
100
AcDbLayerTableRecord
  2
S10_Quote
 70
     0
 62
     7
  6
Continuous
370
    -3
390
F
  0
LAYER
  5
3DE
102
{ACAD_XDICTIONARY
360
3DF
102
}
330
2
100
AcDbSymbolTableRecord
100
AcDbLayerTableRecord
  2
S09_Testo
 70
     0
 62
     7
  6
Continuous
370
    -3
390
F
1001
AcAecLayerStandard
1000

1000

  0
LAYER
  5
3E0
102
{ACAD_XDICTIONARY
360
3E1
102
}
330
2
100
AcDbSymbolTableRecord
100
AcDbLayerTableRecord
  2
S08_Retino
 70
     0
 62
   252
  6
Continuous
370
    -3
390
F
  0
ENDTAB
  0
TABLE
  2
STYLE
  5
3
330
0
100
AcDbSymbolTable
 70
     6
  0
STYLE
  5
11
330
3
100
AcDbSymbolTableRecord
100
AcDbTextStyleTableRecord
  2
Standard
 70
     0
 40
0.0
 41
1.0
 50
0.0
 71
     0
 42
2.5
  3
ARIAL.TTF
  4

1001
ACAD
1000
Arial
1071
       34
  0
STYLE
  5
132
330
3
100
AcDbSymbolTableRecord
100
AcDbTextStyleTableRecord
  2
Annotativa
 70
     0
 40
0.0
 41
1.0
 50
0.0
 71
     0
 42
2.5
  3
ARIAL.TTF
  4

1001
AcadAnnotative
1000
AnnotativeData
1002
{
1070
     1
1070
     1
1002
}
1001
ACAD
1000
Arial
1071
       34
  0
STYLE
  5
3E2
330
3
100
AcDbSymbolTableRecord
100
AcDbTextStyleTableRecord
  2
ROMANS
 70
     0
 40
0.0
 41
1.0
 50
0.0
 71
     0
 42
0.21
  3
ROMANS.shx
  4

  0
STYLE
  5
3E3
330
3
100
AcDbSymbolTableRecord
100
AcDbTextStyleTableRecord
  2
Titoli 1_50
 70
     0
 40
200.0
 41
0.8
 50
5.0
 71
     0
 42
200.0
  3
romans.shx
  4

  0
STYLE
  5
3E4
330
3
100
AcDbSymbolTableRecord
100
AcDbTextStyleTableRecord
  2
Arial
 70
     0
 40
0.0
 41
1.0
 50
0.0
 71
     0
 42
0.2
  3
arial.ttf
  4

1001
ACAD
1000
Arial
1071
      256
  0
STYLE
  5
3E5
330
3
100
AcDbSymbolTableRecord
100
AcDbTextStyleTableRecord
  2
wurth
 70
     0
 40
0.0
 41
1.0
 50
0.0
 71
     0
 42
40.0
  3
WuerthBook.ttf
  4

1001
ACAD
1000
Wuerth Book
1071
        2
  0
ENDTAB
  0
TABLE
  2
VIEW
  5
6
330
0
100
AcDbSymbolTable
 70
     0
  0
ENDTAB
  0
TABLE
  2
UCS
  5
7
330
0
100
AcDbSymbolTable
 70
     0
  0
ENDTAB
  0
TABLE
  2
APPID
  5
9
330
0
100
AcDbSymbolTable
 70
    11
  0
APPID
  5
12
330
9
100
AcDbSymbolTableRecord
100
AcDbRegAppTableRecord
  2
ACAD
 70
     0
  0
APPID
  5
9E
330
9
100
AcDbSymbolTableRecord
100
AcDbRegAppTableRecord
  2
ACAD_PSEXT
 70
     0
  0
APPID
  5
133
330
9
100
AcDbSymbolTableRecord
100
AcDbRegAppTableRecord
  2
AcadAnnoPO
 70
     0
  0
APPID
  5
134
330
9
100
AcDbSymbolTableRecord
100
AcDbRegAppTableRecord
  2
AcadAnnotative
 70
     0
  0
APPID
  5
135
330
9
100
AcDbSymbolTableRecord
100
AcDbRegAppTableRecord
  2
ACAD_DSTYLE_DIMJAG
 70
     0
  0
APPID
  5
136
330
9
100
AcDbSymbolTableRecord
100
AcDbRegAppTableRecord
  2
ACAD_DSTYLE_DIMTALN
 70
     0
  0
APPID
  5
165
330
9
100
AcDbSymbolTableRecord
100
AcDbRegAppTableRecord
  2
ACAD_MLEADERVER
 70
     0
  0
APPID
  5
3EB
330
9
100
AcDbSymbolTableRecord
100
AcDbRegAppTableRecord
  2
AcAecLayerStandard
 70
     0
  0
APPID
  5
3EC
330
9
100
AcDbSymbolTableRecord
100
AcDbRegAppTableRecord
  2
AcDbDynamicBlockGUID
 70
     0
  0
APPID
  5
3ED
330
9
100
AcDbSymbolTableRecord
100
AcDbRegAppTableRecord
  2
AcDbBlockRepETag
 70
     0
  0
APPID
  5
3EE
330
9
100
AcDbSymbolTableRecord
100
AcDbRegAppTableRecord
  2
ACAD_DSTYLE_DIMBREAK
 70
     0
  0
ENDTAB
  0
TABLE
  2
DIMSTYLE
  5
A
330
0
100
AcDbSymbolTable
 70
     8
100
AcDbDimStyleTable
 71
     2
340
27
340
137
  0
DIMSTYLE
105
1B0
330
A
100
AcDbSymbolTableRecord
100
AcDbDimStyleTableRecord
  2
Standard
 70
     0
340
11
  0
DIMSTYLE
105
137
330
A
100
AcDbSymbolTableRecord
100
AcDbDimStyleTableRecord
  2
Annotativa
 70
     0
 40
0.0
 41
2.5
 42
0.625
 43
3.75
 44
1.25
 73
     0
 74
     0
 77
     1
 78
     8
140
2.5
141
2.5
143
0.03937007874016
147
0.625
171
     3
172
     1
271
     2
272
     2
274
     3
278
    44
283
     0
284
     8
340
11
1001
AcadAnnotative
1000
AnnotativeData
1002
{
1070
     1
1070
     1
1002
}
1001
ACAD_DSTYLE_DIMJAG
1070
   388
1040
1.5
1001
ACAD_DSTYLE_DIMTALN
1070
   392
1070
     0
  0
DIMSTYLE
105
27
330
A
100
AcDbSymbolTableRecord
100
AcDbDimStyleTableRecord
  2
ISO-25
 70
     0
 41
2.5
 42
0.625
 43
3.75
 44
1.25
 73
     0
 74
     0
 77
     1
 78
     8
140
2.5
141
2.5
143
0.03937007874016
147
0.625
171
     3
172
     1
271
     2
272
     2
274
     3
278
    44
283
     0
284
     8
340
11
  0
DIMSTYLE
105
3E6
330
A
100
AcDbSymbolTableRecord
100
AcDbDimStyleTableRecord
  2
mm 1_50
 70
     0
 40
50.0
 41
0.015
 42
0.625
 43
1.0
 44
1.25
 73
     0
 74
     0
 75
     1
 76
     1
 77
     1
 78
     8
140
2.0
141
-0.5
143
0.03937007874016
147
0.8
171
     3
172
     1
174
     1
179
     2
271
     1
272
     1
274
     3
283
     0
284
     8
340
3E2
342
1F4
  0
DIMSTYLE
105
3E7
330
A
100
AcDbSymbolTableRecord
100
AcDbDimStyleTableRecord
  2
mm 1_20
 70
     0
 40
20.0
 41
0.015
 42
0.625
 43
1.0
 44
1.25
 73
     0
 74
     0
 75
     1
 76
     1
 77
     1
 78
     8
140
2.0
141
0.5
143
0.03937007874016
147
0.8
171
     3
172
     1
174
     1
179
     2
271
     0
272
     0
274
     3
283
     0
284
     8
340
3E2
342
1F4
1001
ACAD_DSTYLE_DIMJAG
1070
   388
1040
1.5
1001
ACAD_DSTYLE_DIMTALN
1070
   392
1070
     0
  0
DIMSTYLE
105
3E8
330
A
100
AcDbSymbolTableRecord
100
AcDbDimStyleTableRecord
  2
mm 1_100
 70
     0
 40
100.0
 41
0.015
 42
0.0
 43
1.0
 44
0.5
 73
     0
 74
     0
 75
     1
 76
     1
 77
     1
 78
     8
140
2.0
141
0.5
143
0.03937007874016
147
0.8
171
     3
172
     1
174
     1
179
     2
271
     1
272
     1
274
     3
283
     0
284
     8
340
3E2
342
1F4
  0
DIMSTYLE
105
3E9
102
{ACAD_REACTORS
330
43A
330
43B
330
43C
330
494
330
495
330
496
102
}
330
A
100
AcDbSymbolTableRecord
100
AcDbDimStyleTableRecord
  2
mm 1_1
 70
     0
 41
0.015
 42
0.625
 43
1.0
 44
1.25
 73
     0
 74
     0
 77
     1
 78
     8
140
2.0
141
0.5
143
0.03937007874016
147
0.8
171
     3
172
     1
174
     1
179
     2
271
     2
272
     2
274
     3
283
     0
284
     8
340
3E5
342
1F4
1001
ACAD_DSTYLE_DIMBREAK
1070
   391
1040
3.75
1001
ACAD_DSTYLE_DIMJAG
1070
   388
1040
1.5
1001
ACAD_DSTYLE_DIMTALN
1070
   392
1070
     0
  0
DIMSTYLE
105
3EA
102
{ACAD_REACTORS
330
3FB
330
3FC
330
3FD
330
3FE
330
3FF
330
400
330
401
330
402
330
403
330
404
330
405
330
406
330
407
330
408
330
409
330
40A
330
40B
330
40C
330
40D
330
40E
330
40F
330
410
330
411
330
412
330
418
330
419
330
41A
330
41B
330
429
330
42A
330
42B
330
42C
330
42D
330
42E
330
455
330
456
330
457
330
458
330
459
330
45A
330
45B
330
45C
330
45D
330
45E
330
45F
330
460
330
461
330
462
330
463
330
464
330
465
330
466
330
467
330
468
330
469
330
46A
330
46B
330
46C
330
472
330
473
330
474
330
475
330
483
330
484
330
485
330
486
330
487
330
488
102
}
330
A
100
AcDbSymbolTableRecord
100
AcDbDimStyleTableRecord
  2
Standard (DIN)
 70
     0
 40
0.5
 41
2.5
 42
0.8
 43
6.0
 44
3.174999999999999
 45
0.00000001
 46
10.0
 73
     0
 74
     0
 77
     1
140
2.200000047683715
143
0.03937
146
0.6818181670401711
147
0.8
171
     3
172
     1
176
   256
177
   256
178
   256
271
     2
272
     2
274
     3
278
    44
340
3E4
371
    -1
372
    -1
  0
ENDTAB
  0
TABLE
  2
BLOCK_RECORD
  5
1
330
0
100
AcDbSymbolTable
 70
    77
  0
BLOCK_RECORD
  5
1F
102
{ACAD_XDICTIONARY
360
1CE
102
}
330
1
100
AcDbSymbolTableRecord
100
AcDbBlockTableRecord
  2
*Model_Space
340
22
  0
BLOCK_RECORD
  5
D2
330
1
100
AcDbSymbolTableRecord
100
AcDbBlockTableRecord
  2
*Paper_Space
340
D3
  0
BLOCK_RECORD
  5
D6
330
1
100
AcDbSymbolTableRecord
100
AcDbBlockTableRecord
  2
*Paper_Space0
340
D7
  0
BLOCK_RECORD
  5
1F4
102
{ACAD_XDICTIONARY
360
1F5
102
}
330
1
100
AcDbSymbolTableRecord
100
AcDbBlockTableRecord
  2
A$C79C4041D
340
0
102
{BLKREFS
331
3BA
331
3BB
331
3C6
331
3C7
331
3D3
331
3D4
331
7D3
331
7D4
331
7DC
331
7DD
331
7E6
331
7E7
102
}
1001
AcDbDynamicBlockGUID
1000
{93BD5B1E-816B-4960-B1CC-7C46A00E0667}
1001
AcDbBlockRepETag
1070
     1
1071
        2
  0
BLOCK_RECORD
  5
1FA
330
1
100
AcDbSymbolTableRecord
100
AcDbBlockTableRecord
  2
*D2
340
0
  0
BLOCK_RECORD
  5
208
330
1
100
AcDbSymbolTableRecord
100
AcDbBlockTableRecord
  2
*D3
340
0
  0
BLOCK_RECORD
  5
214
330
1
100
AcDbSymbolTableRecord
100
AcDbBlockTableRecord
  2
*D4
340
0
  0
BLOCK_RECORD
  5
220
330
1
100
AcDbSymbolTableRecord
100
AcDbBlockTableRecord
  2
*D5
340
0
  0
BLOCK_RECORD
  5
22C
330
1
100
AcDbSymbolTableRecord
100
AcDbBlockTableRecord
  2
*D6
340
0
  0
BLOCK_RECORD
  5
23A
330
1
100
AcDbSymbolTableRecord
100
AcDbBlockTableRecord
  2
*D7
340
0
  0
BLOCK_RECORD
  5
246
330
1
100
AcDbSymbolTableRecord
100
AcDbBlockTableRecord
  2
*D8
340
0
  0
BLOCK_RECORD
  5
252
330
1
100
AcDbSymbolTableRecord
100
AcDbBlockTableRecord
  2
*D9
340
0
  0
BLOCK_RECORD
  5
25E
330
1
100
AcDbSymbolTableRecord
100
AcDbBlockTableRecord
  2
*D10
340
0
  0
BLOCK_RECORD
  5
26C
330
1
100
AcDbSymbolTableRecord
100
AcDbBlockTableRecord
  2
*D11
340
0
  0
BLOCK_RECORD
  5
278
330
1
100
AcDbSymbolTableRecord
100
AcDbBlockTableRecord
  2
*D12
340
0
  0
BLOCK_RECORD
  5
289
330
1
100
AcDbSymbolTableRecord
100
AcDbBlockTableRecord
  2
*D13
340
0
  0
BLOCK_RECORD
  5
295
330
1
100
AcDbSymbolTableRecord
100
AcDbBlockTableRecord
  2
*D14
340
0
  0
BLOCK_RECORD
  5
2A6
330
1
100
AcDbSymbolTableRecord
100
AcDbBlockTableRecord
  2
*D15
340
0
  0
BLOCK_RECORD
  5
2B4
330
1
100
AcDbSymbolTableRecord
100
AcDbBlockTableRecord
  2
*D16
340
0
  0
BLOCK_RECORD
  5
2C2
330
1
100
AcDbSymbolTableRecord
100
AcDbBlockTableRecord
  2
*D17
340
0
  0
BLOCK_RECORD
  5
2CE
330
1
100
AcDbSymbolTableRecord
100
AcDbBlockTableRecord
  2
*D18
340
0
  0
BLOCK_RECORD
  5
2DA
330
1
100
AcDbSymbolTableRecord
100
AcDbBlockTableRecord
  2
*D19
340
0
  0
BLOCK_RECORD
  5
2EB
330
1
100
AcDbSymbolTableRecord
100
AcDbBlockTableRecord
  2
*D20
340
0
  0
BLOCK_RECORD
  5
2F7
330
1
100
AcDbSymbolTableRecord
100
AcDbBlockTableRecord
  2
*D21
340
0
  0
BLOCK_RECORD
  5
308
330
1
100
AcDbSymbolTableRecord
100
AcDbBlockTableRecord
  2
*D22
340
0
  0
BLOCK_RECORD
  5
314
330
1
100
AcDbSymbolTableRecord
100
AcDbBlockTableRecord
  2
*D23
340
0
  0
BLOCK_RECORD
  5
320
330
1
100
AcDbSymbolTableRecord
100
AcDbBlockTableRecord
  2
*D24
340
0
  0
BLOCK_RECORD
  5
32C
330
1
100
AcDbSymbolTableRecord
100
AcDbBlockTableRecord
  2
*D25
340
0
  0
BLOCK_RECORD
  5
338
330
1
100
AcDbSymbolTableRecord
100
AcDbBlockTableRecord
  2
*D26
340
0
  0
BLOCK_RECORD
  5
344
330
1
100
AcDbSymbolTableRecord
100
AcDbBlockTableRecord
  2
*D27
340
0
  0
BLOCK_RECORD
  5
350
330
1
100
AcDbSymbolTableRecord
100
AcDbBlockTableRecord
  2
*D28
340
0
  0
BLOCK_RECORD
  5
35C
330
1
100
AcDbSymbolTableRecord
100
AcDbBlockTableRecord
  2
*D29
340
0
  0
BLOCK_RECORD
  5
368
330
1
100
AcDbSymbolTableRecord
100
AcDbBlockTableRecord
  2
*D30
340
0
  0
BLOCK_RECORD
  5
374
330
1
100
AcDbSymbolTableRecord
100
AcDbBlockTableRecord
  2
*D31
340
0
  0
BLOCK_RECORD
  5
380
330
1
100
AcDbSymbolTableRecord
100
AcDbBlockTableRecord
  2
*D32
340
0
  0
BLOCK_RECORD
  5
38E
330
1
100
AcDbSymbolTableRecord
100
AcDbBlockTableRecord
  2
*D33
340
0
  0
BLOCK_RECORD
  5
39C
330
1
100
AcDbSymbolTableRecord
100
AcDbBlockTableRecord
  2
*D34
340
0
  0
BLOCK_RECORD
  5
3A8
330
1
100
AcDbSymbolTableRecord
100
AcDbBlockTableRecord
  2
*D35
340
0
  0
BLOCK_RECORD
  5
3B5
330
1
100
AcDbSymbolTableRecord
100
AcDbBlockTableRecord
  2
*D36
340
0
  0
BLOCK_RECORD
  5
3C1
330
1
100
AcDbSymbolTableRecord
100
AcDbBlockTableRecord
  2
*D37
340
0
  0
BLOCK_RECORD
  5
3CD
330
1
100
AcDbSymbolTableRecord
100
AcDbBlockTableRecord
  2
*D38
340
0
  0
BLOCK_RECORD
  5
49B
330
1
100
AcDbSymbolTableRecord
100
AcDbBlockTableRecord
  2
*D40
340
0
  0
BLOCK_RECORD
  5
4A9
330
1
100
AcDbSymbolTableRecord
100
AcDbBlockTableRecord
  2
*D41
340
0
  0
BLOCK_RECORD
  5
4B5
330
1
100
AcDbSymbolTableRecord
100
AcDbBlockTableRecord
  2
*D42
340
0
  0
BLOCK_RECORD
  5
4C1
330
1
100
AcDbSymbolTableRecord
100
AcDbBlockTableRecord
  2
*D43
340
0
  0
BLOCK_RECORD
  5
4CD
330
1
100
AcDbSymbolTableRecord
100
AcDbBlockTableRecord
  2
*D44
340
0
  0
BLOCK_RECORD
  5
4DB
330
1
100
AcDbSymbolTableRecord
100
AcDbBlockTableRecord
  2
*D45
340
0
  0
BLOCK_RECORD
  5
4E7
330
1
100
AcDbSymbolTableRecord
100
AcDbBlockTableRecord
  2
*D46
340
0
  0
BLOCK_RECORD
  5
4F3
330
1
100
AcDbSymbolTableRecord
100
AcDbBlockTableRecord
  2
*D47
340
0
  0
BLOCK_RECORD
  5
4FF
330
1
100
AcDbSymbolTableRecord
100
AcDbBlockTableRecord
  2
*D48
340
0
  0
BLOCK_RECORD
  5
50D
330
1
100
AcDbSymbolTableRecord
100
AcDbBlockTableRecord
  2
*D49
340
0
  0
BLOCK_RECORD
  5
519
330
1
100
AcDbSymbolTableRecord
100
AcDbBlockTableRecord
  2
*D50
340
0
  0
BLOCK_RECORD
  5
52A
330
1
100
AcDbSymbolTableRecord
100
AcDbBlockTableRecord
  2
*D51
340
0
  0
BLOCK_RECORD
  5
536
330
1
100
AcDbSymbolTableRecord
100
AcDbBlockTableRecord
  2
*D52
340
0
  0
BLOCK_RECORD
  5
547
330
1
100
AcDbSymbolTableRecord
100
AcDbBlockTableRecord
  2
*D53
340
0
  0
BLOCK_RECORD
  5
555
330
1
100
AcDbSymbolTableRecord
100
AcDbBlockTableRecord
  2
*D54
340
0
  0
BLOCK_RECORD
  5
563
330
1
100
AcDbSymbolTableRecord
100
AcDbBlockTableRecord
  2
*D55
340
0
  0
BLOCK_RECORD
  5
56F
330
1
100
AcDbSymbolTableRecord
100
AcDbBlockTableRecord
  2
*D56
340
0
  0
BLOCK_RECORD
  5
57B
330
1
100
AcDbSymbolTableRecord
100
AcDbBlockTableRecord
  2
*D57
340
0
  0
BLOCK_RECORD
  5
58C
330
1
100
AcDbSymbolTableRecord
100
AcDbBlockTableRecord
  2
*D58
340
0
  0
BLOCK_RECORD
  5
598
330
1
100
AcDbSymbolTableRecord
100
AcDbBlockTableRecord
  2
*D59
340
0
  0
BLOCK_RECORD
  5
5A9
330
1
100
AcDbSymbolTableRecord
100
AcDbBlockTableRecord
  2
*D60
340
0
  0
BLOCK_RECORD
  5
5B5
330
1
100
AcDbSymbolTableRecord
100
AcDbBlockTableRecord
  2
*D61
340
0
  0
BLOCK_RECORD
  5
5C1
330
1
100
AcDbSymbolTableRecord
100
AcDbBlockTableRecord
  2
*D62
340
0
  0
BLOCK_RECORD
  5
5CD
330
1
100
AcDbSymbolTableRecord
100
AcDbBlockTableRecord
  2
*D63
340
0
  0
BLOCK_RECORD
  5
5D9
330
1
100
AcDbSymbolTableRecord
100
AcDbBlockTableRecord
  2
*D64
340
0
  0
BLOCK_RECORD
  5
5E5
330
1
100
AcDbSymbolTableRecord
100
AcDbBlockTableRecord
  2
*D65
340
0
  0
BLOCK_RECORD
  5
5F1
330
1
100
AcDbSymbolTableRecord
100
AcDbBlockTableRecord
  2
*D66
340
0
  0
BLOCK_RECORD
  5
5FD
330
1
100
AcDbSymbolTableRecord
100
AcDbBlockTableRecord
  2
*D67
340
0
  0
BLOCK_RECORD
  5
609
330
1
100
AcDbSymbolTableRecord
100
AcDbBlockTableRecord
  2
*D68
340
0
  0
BLOCK_RECORD
  5
615
330
1
100
AcDbSymbolTableRecord
100
AcDbBlockTableRecord
  2
*D69
340
0
  0
BLOCK_RECORD
  5
621
330
1
100
AcDbSymbolTableRecord
100
AcDbBlockTableRecord
  2
*D70
340
0
  0
BLOCK_RECORD
  5
62F
330
1
100
AcDbSymbolTableRecord
100
AcDbBlockTableRecord
  2
*D71
340
0
  0
BLOCK_RECORD
  5
63D
330
1
100
AcDbSymbolTableRecord
100
AcDbBlockTableRecord
  2
*D72
340
0
  0
BLOCK_RECORD
  5
649
330
1
100
AcDbSymbolTableRecord
100
AcDbBlockTableRecord
  2
*D73
340
0
  0
BLOCK_RECORD
  5
656
330
1
100
AcDbSymbolTableRecord
100
AcDbBlockTableRecord
  2
*D74
340
0
  0
BLOCK_RECORD
  5
662
330
1
100
AcDbSymbolTableRecord
100
AcDbBlockTableRecord
  2
*D75
340
0
  0
BLOCK_RECORD
  5
66E
330
1
100
AcDbSymbolTableRecord
100
AcDbBlockTableRecord
  2
*D76
340
0
  0
ENDTAB
  0
ENDSEC
  0
SECTION
  2
BLOCKS
  0
BLOCK
  5
20
330
1F
100
AcDbEntity
  8
0
100
AcDbBlockBegin
  2
*Model_Space
 70
     0
 10
0.0
 20
0.0
 30
0.0
  3
*Model_Space
  1

  0
ENDBLK
  5
21
330
1F
100
AcDbEntity
  8
0
100
AcDbBlockEnd
  0
BLOCK
  5
D4
330
D2
100
AcDbEntity
 67
     1
  8
0
100
AcDbBlockBegin
  2
*Paper_Space
 70
     0
 10
0.0
 20
0.0
 30
0.0
  3
*Paper_Space
  1

  0
ENDBLK
  5
D5
330
D2
100
AcDbEntity
 67
     1
  8
0
100
AcDbBlockEnd
  0
BLOCK
  5
D8
330
D6
100
AcDbEntity
 67
     1
  8
0
100
AcDbBlockBegin
  2
*Paper_Space0
 70
     0
 10
0.0
 20
0.0
 30
0.0
  3
*Paper_Space0
  1

  0
ENDBLK
  5
D9
330
D6
100
AcDbEntity
 67
     1
  8
0
100
AcDbBlockEnd
  0
BLOCK
  5
1F6
330
1F4
100
AcDbEntity
  8
0
 62
     3
100
AcDbBlockBegin
  2
A$C79C4041D
 70
     0
 10
0.0
 20
0.0
 30
0.0
  3
A$C79C4041D
  1

  0
LINE
  5
1F7
330
1F4
100
AcDbEntity
  8
S10_Quote
 62
     4
100
AcDbLine
 10
-20.0
 20
-50.0
 30
0.0
 11
20.0
 21
50.0
 31
0.0
1001
AcDbBlockRepETag
1070
     1
1071
        0
1005
1F7
  0
LINE
  5
1F8
330
1F4
100
AcDbEntity
  8
S10_Quote
100
AcDbLine
 10
0.0
 20
50.0
 30
0.0
 11
0.0
 21
-50.0
 31
0.0
1001
AcDbBlockRepETag
1070
     1
1071
        1
1005
1F8
  0
ENDBLK
  5
1F9
330
1F4
100
AcDbEntity
  8
0
 62
     3
100
AcDbBlockEnd
  0
BLOCK
  5
1FB
330
1FA
100
AcDbEntity
  8
0
 62
     0
100
AcDbBlockBegin
  2
*D2
 70
     1
 10
0.0
 20
0.0
 30
0.0
  3
*D2
  1

  0
LINE
  5
1FC
330
1FA
100
AcDbEntity
  8
0
100
AcDbLine
 10
227.6609626744889
 20
4280.724458840146
 30
0.0
 11
227.6609626744889
 21
4288.974541476941
 31
0.0
  0
LINE
  5
1FD
330
1FA
100
AcDbEntity
  8
0
100
AcDbLine
 10
229.6609626744924
 20
4279.52593070272
 30
0.0
 11
229.6609626744924
 21
4288.974541476941
 31
0.0
  0
LINE
  5
1FE
330
1FA
100
AcDbEntity
  8
0
100
AcDbLine
 10
230.9109626744923
 20
4287.38704147694
 30
0.0
 11
232.1609626744923
 21
4287.38704147694
 31
0.0
  0
LINE
  5
1FF
330
1FA
100
AcDbEntity
  8
0
100
AcDbLine
 10
226.4109626744889
 20
4287.38704147694
 30
0.0
 11
221.4886570187818
 21
4287.38704147694
 31
0.0
  0
LINE
  5
200
330
1FA
100
AcDbEntity
  8
0
100
AcDbLine
 10
229.6609626744924
 20
4287.38704147694
 30
0.0
 11
227.6609626744889
 21
4287.38704147694
 31
0.0
  0
SOLID
  5
201
330
1FA
100
AcDbEntity
  8
0
  6
ACAD_ISO10W100
100
AcDbTrace
 10
230.9109626744923
 20
4287.595374810273
 30
0.0
 11
230.9109626744923
 21
4287.178708143607
 31
0.0
 12
229.6609626744924
 22
4287.38704147694
 32
0.0
 13
229.6609626744924
 23
4287.38704147694
 33
0.0
  0
SOLID
  5
202
330
1FA
100
AcDbEntity
  8
0
  6
ACAD_ISO10W100
100
AcDbTrace
 10
226.4109626744889
 20
4287.595374810273
 30
0.0
 11
226.4109626744889
 21
4287.178708143607
 31
0.0
 12
227.6609626744889
 22
4287.38704147694
 32
0.0
 13
227.6609626744889
 23
4287.38704147694
 33
0.0
  0
MTEXT
  5
203
330
1FA
100
AcDbEntity
  8
0
  6
ACAD_ISO10W100
100
AcDbMText
 10
223.3248098466354
 20
4288.448091968758
 30
0.0
 40
1.100000023841857
 41
0.0
 71
     5
 72
     1
  1
\A1;2,00
  7
Arial
 73
     1
 44
1.0
  0
POINT
  5
204
330
1FA
100
AcDbEntity
  8
Defpoints
  6
ACAD_ISO10W100
 62
     0
100
AcDbPoint
 10
227.6609626744889
 20
4280.324458840147
 30
0.0
  0
POINT
  5
205
330
1FA
100
AcDbEntity
  8
Defpoints
  6
ACAD_ISO10W100
 62
     0
100
AcDbPoint
 10
229.6609626744924
 20
4279.125930702721
 30
0.0
  0
POINT
  5
206
330
1FA
100
AcDbEntity
  8
Defpoints
  6
ACAD_ISO10W100
 62
     0
100
AcDbPoint
 10
229.6609626744924
 20
4287.38704147694
 30
0.0
  0
ENDBLK
  5
207
330
1FA
100
AcDbEntity
  8
0
 62
     0
100
AcDbBlockEnd
  0
BLOCK
  5
209
330
208
100
AcDbEntity
  8
0
 62
     0
100
AcDbBlockBegin
  2
*D3
 70
     1
 10
0.0
 20
0.0
 30
0.0
  3
*D3
  1

  0
LINE
  5
20A
330
208
100
AcDbEntity
  8
0
100
AcDbLine
 10
229.6609626744924
 20
4279.52593070272
 30
0.0
 11
229.6609626744924
 21
4288.974541476941
 31
0.0
  0
LINE
  5
20B
330
208
100
AcDbEntity
  8
0
100
AcDbLine
 10
236.6609626744863
 20
4281.67445884017
 30
0.0
 11
236.6609626744863
 21
4288.974541476941
 31
0.0
  0
LINE
  5
20C
330
208
100
AcDbEntity
  8
0
100
AcDbLine
 10
230.9109626744923
 20
4287.38704147694
 30
0.0
 11
235.4109626744863
 21
4287.38704147694
 31
0.0
  0
SOLID
  5
20D
330
208
100
AcDbEntity
  8
0
  6
ACAD_ISO10W100
100
AcDbTrace
 10
230.9109626744923
 20
4287.595374810273
 30
0.0
 11
230.9109626744923
 21
4287.178708143607
 31
0.0
 12
229.6609626744924
 22
4287.38704147694
 32
0.0
 13
229.6609626744924
 23
4287.38704147694
 33
0.0
  0
SOLID
  5
20E
330
208
100
AcDbEntity
  8
0
  6
ACAD_ISO10W100
100
AcDbTrace
 10
235.4109626744863
 20
4287.595374810273
 30
0.0
 11
235.4109626744863
 21
4287.178708143607
 31
0.0
 12
236.6609626744863
 22
4287.38704147694
 32
0.0
 13
236.6609626744863
 23
4287.38704147694
 33
0.0
  0
MTEXT
  5
20F
330
208
100
AcDbEntity
  8
0
  6
ACAD_ISO10W100
100
AcDbMText
 10
233.1609626744893
 20
4288.448091968758
 30
0.0
 40
1.100000023841857
 41
0.0
 71
     5
 72
     1
  1
\A1;7,00
  7
Arial
 73
     1
 44
1.0
  0
POINT
  5
210
330
208
100
AcDbEntity
  8
Defpoints
  6
ACAD_ISO10W100
 62
     0
100
AcDbPoint
 10
229.6609626744924
 20
4279.125930702721
 30
0.0
  0
POINT
  5
211
330
208
100
AcDbEntity
  8
Defpoints
  6
ACAD_ISO10W100
 62
     0
100
AcDbPoint
 10
236.6609626744863
 20
4281.274458840171
 30
0.0
  0
POINT
  5
212
330
208
100
AcDbEntity
  8
Defpoints
  6
ACAD_ISO10W100
 62
     0
100
AcDbPoint
 10
236.6609626744863
 20
4287.38704147694
 30
0.0
  0
ENDBLK
  5
213
330
208
100
AcDbEntity
  8
0
 62
     0
100
AcDbBlockEnd
  0
BLOCK
  5
215
330
214
100
AcDbEntity
  8
0
 62
     0
100
AcDbBlockBegin
  2
*D4
 70
     1
 10
0.0
 20
0.0
 30
0.0
  3
*D4
  1

  0
LINE
  5
216
330
214
100
AcDbEntity
  8
0
100
AcDbLine
 10
236.6609626744863
 20
4281.67445884017
 30
0.0
 11
236.6609626744863
 21
4288.974541476941
 31
0.0
  0
LINE
  5
217
330
214
100
AcDbEntity
  8
0
100
AcDbLine
 10
249.6609626744862
 20
4281.674458840207
 30
0.0
 11
249.6609626744862
 21
4288.974541476941
 31
0.0
  0
LINE
  5
218
330
214
100
AcDbEntity
  8
0
100
AcDbLine
 10
237.9109626744863
 20
4287.38704147694
 30
0.0
 11
248.4109626744862
 21
4287.38704147694
 31
0.0
  0
SOLID
  5
219
330
214
100
AcDbEntity
  8
0
  6
ACAD_ISO10W100
100
AcDbTrace
 10
237.9109626744863
 20
4287.595374810273
 30
0.0
 11
237.9109626744863
 21
4287.178708143607
 31
0.0
 12
236.6609626744863
 22
4287.38704147694
 32
0.0
 13
236.6609626744863
 23
4287.38704147694
 33
0.0
  0
SOLID
  5
21A
330
214
100
AcDbEntity
  8
0
  6
ACAD_ISO10W100
100
AcDbTrace
 10
248.4109626744862
 20
4287.595374810273
 30
0.0
 11
248.4109626744862
 21
4287.178708143607
 31
0.0
 12
249.6609626744862
 22
4287.38704147694
 32
0.0
 13
249.6609626744862
 23
4287.38704147694
 33
0.0
  0
MTEXT
  5
21B
330
214
100
AcDbEntity
  8
0
  6
ACAD_ISO10W100
100
AcDbMText
 10
243.1609626744863
 20
4288.448091968758
 30
0.0
 40
1.100000023841857
 41
0.0
 71
     5
 72
     1
  1
\A1;13,00
  7
Arial
 73
     1
 44
1.0
  0
POINT
  5
21C
330
214
100
AcDbEntity
  8
Defpoints
  6
ACAD_ISO10W100
 62
     0
100
AcDbPoint
 10
236.6609626744863
 20
4281.274458840171
 30
0.0
  0
POINT
  5
21D
330
214
100
AcDbEntity
  8
Defpoints
  6
ACAD_ISO10W100
 62
     0
100
AcDbPoint
 10
249.6609626744862
 20
4281.274458840207
 30
0.0
  0
POINT
  5
21E
330
214
100
AcDbEntity
  8
Defpoints
  6
ACAD_ISO10W100
 62
     0
100
AcDbPoint
 10
249.6609626744862
 20
4287.38704147694
 30
0.0
  0
ENDBLK
  5
21F
330
214
100
AcDbEntity
  8
0
 62
     0
100
AcDbBlockEnd
  0
BLOCK
  5
221
330
220
100
AcDbEntity
  8
0
 62
     0
100
AcDbBlockBegin
  2
*D5
 70
     1
 10
0.0
 20
0.0
 30
0.0
  3
*D5
  1

  0
LINE
  5
222
330
220
100
AcDbEntity
  8
0
100
AcDbLine
 10
249.6609626744862
 20
4281.674458840207
 30
0.0
 11
249.6609626744862
 21
4288.974541476941
 31
0.0
  0
LINE
  5
223
330
220
100
AcDbEntity
  8
0
100
AcDbLine
 10
256.6609626744924
 20
4279.525930702795
 30
0.0
 11
256.6609626744924
 21
4288.974541476941
 31
0.0
  0
LINE
  5
224
330
220
100
AcDbEntity
  8
0
100
AcDbLine
 10
250.9109626744862
 20
4287.38704147694
 30
0.0
 11
255.4109626744923
 21
4287.38704147694
 31
0.0
  0
SOLID
  5
225
330
220
100
AcDbEntity
  8
0
  6
ACAD_ISO10W100
100
AcDbTrace
 10
250.9109626744862
 20
4287.595374810273
 30
0.0
 11
250.9109626744862
 21
4287.178708143607
 31
0.0
 12
249.6609626744862
 22
4287.38704147694
 32
0.0
 13
249.6609626744862
 23
4287.38704147694
 33
0.0
  0
SOLID
  5
226
330
220
100
AcDbEntity
  8
0
  6
ACAD_ISO10W100
100
AcDbTrace
 10
255.4109626744923
 20
4287.595374810273
 30
0.0
 11
255.4109626744923
 21
4287.178708143607
 31
0.0
 12
256.6609626744924
 22
4287.38704147694
 32
0.0
 13
256.6609626744924
 23
4287.38704147694
 33
0.0
  0
MTEXT
  5
227
330
220
100
AcDbEntity
  8
0
  6
ACAD_ISO10W100
100
AcDbMText
 10
253.1609626744893
 20
4288.448091968758
 30
0.0
 40
1.100000023841857
 41
0.0
 71
     5
 72
     1
  1
\A1;7,00
  7
Arial
 73
     1
 44
1.0
  0
POINT
  5
228
330
220
100
AcDbEntity
  8
Defpoints
  6
ACAD_ISO10W100
 62
     0
100
AcDbPoint
 10
249.6609626744862
 20
4281.274458840207
 30
0.0
  0
POINT
  5
229
330
220
100
AcDbEntity
  8
Defpoints
  6
ACAD_ISO10W100
 62
     0
100
AcDbPoint
 10
256.6609626744924
 20
4279.125930702796
 30
0.0
  0
POINT
  5
22A
330
220
100
AcDbEntity
  8
Defpoints
  6
ACAD_ISO10W100
 62
     0
100
AcDbPoint
 10
256.6609626744924
 20
4287.38704147694
 30
0.0
  0
ENDBLK
  5
22B
330
220
100
AcDbEntity
  8
0
 62
     0
100
AcDbBlockEnd
  0
BLOCK
  5
22D
330
22C
100
AcDbEntity
  8
0
 62
     0
100
AcDbBlockBegin
  2
*D6
 70
     1
 10
0.0
 20
0.0
 30
0.0
  3
*D6
  1

  0
LINE
  5
22E
330
22C
100
AcDbEntity
  8
0
100
AcDbLine
 10
256.6609626744924
 20
4279.525930702795
 30
0.0
 11
256.6609626744924
 21
4288.974541476941
 31
0.0
  0
LINE
  5
22F
330
22C
100
AcDbEntity
  8
0
100
AcDbLine
 10
258.6609626744889
 20
4280.724458840233
 30
0.0
 11
258.6609626744889
 21
4288.974541476941
 31
0.0
  0
LINE
  5
230
330
22C
100
AcDbEntity
  8
0
100
AcDbLine
 10
255.4109626744923
 20
4287.38704147694
 30
0.0
 11
254.1609626744923
 21
4287.38704147694
 31
0.0
  0
LINE
  5
231
330
22C
100
AcDbEntity
  8
0
100
AcDbLine
 10
259.9109626744889
 20
4287.38704147694
 30
0.0
 11
261.1609626744889
 21
4287.38704147694
 31
0.0
  0
MTEXT
  5
232
330
22C
100
AcDbEntity
  8
0
  6
ACAD_ISO10W100
100
AcDbMText
 10
261.4147962925663
 20
4288.448091968758
 30
0.0
 40
1.100000023841857
 41
0.0
 71
     5
 72
     1
  1
\A1;2,00
  7
Arial
 73
     1
 44
1.0
  0
LINE
  5
233
330
22C
100
AcDbEntity
  8
0
100
AcDbLine
 10
256.6609626744924
 20
4287.38704147694
 30
0.0
 11
258.6609626744889
 21
4287.38704147694
 31
0.0
  0
SOLID
  5
234
330
22C
100
AcDbEntity
  8
0
  6
ACAD_ISO10W100
100
AcDbTrace
 10
255.4109626744923
 20
4287.595374810273
 30
0.0
 11
255.4109626744923
 21
4287.178708143607
 31
0.0
 12
256.6609626744924
 22
4287.38704147694
 32
0.0
 13
256.6609626744924
 23
4287.38704147694
 33
0.0
  0
SOLID
  5
235
330
22C
100
AcDbEntity
  8
0
  6
ACAD_ISO10W100
100
AcDbTrace
 10
259.9109626744889
 20
4287.595374810273
 30
0.0
 11
259.9109626744889
 21
4287.178708143607
 31
0.0
 12
258.6609626744889
 22
4287.38704147694
 32
0.0
 13
258.6609626744889
 23
4287.38704147694
 33
0.0
  0
POINT
  5
236
330
22C
100
AcDbEntity
  8
Defpoints
  6
ACAD_ISO10W100
 62
     0
100
AcDbPoint
 10
256.6609626744924
 20
4279.125930702796
 30
0.0
  0
POINT
  5
237
330
22C
100
AcDbEntity
  8
Defpoints
  6
ACAD_ISO10W100
 62
     0
100
AcDbPoint
 10
258.6609626744889
 20
4280.324458840234
 30
0.0
  0
POINT
  5
238
330
22C
100
AcDbEntity
  8
Defpoints
  6
ACAD_ISO10W100
 62
     0
100
AcDbPoint
 10
258.6609626744889
 20
4287.38704147694
 30
0.0
  0
ENDBLK
  5
239
330
22C
100
AcDbEntity
  8
0
 62
     0
100
AcDbBlockEnd
  0
BLOCK
  5
23B
330
23A
100
AcDbEntity
  8
0
 62
     0
100
AcDbBlockBegin
  2
*D7
 70
     1
 10
0.0
 20
0.0
 30
0.0
  3
*D7
  1

  0
LINE
  5
23C
330
23A
100
AcDbEntity
  8
0
100
AcDbLine
 10
227.6609626744889
 20
4281.124458840145
 30
0.0
 11
227.6609626744889
 21
4293.692822604666
 31
0.0
  0
LINE
  5
23D
330
23A
100
AcDbEntity
  8
0
100
AcDbLine
 10
236.6609626744863
 20
4281.67445884017
 30
0.0
 11
236.6609626744863
 21
4293.692822604666
 31
0.0
  0
LINE
  5
23E
330
23A
100
AcDbEntity
  8
0
100
AcDbLine
 10
228.9109626744889
 20
4292.105322604665
 30
0.0
 11
235.4109626744863
 21
4292.105322604665
 31
0.0
  0
SOLID
  5
23F
330
23A
100
AcDbEntity
  8
0
  6
ACAD_ISO10W100
100
AcDbTrace
 10
228.9109626744889
 20
4292.313655937999
 30
0.0
 11
228.9109626744889
 21
4291.896989271332
 31
0.0
 12
227.6609626744889
 22
4292.105322604665
 32
0.0
 13
227.6609626744889
 23
4292.105322604665
 33
0.0
  0
SOLID
  5
240
330
23A
100
AcDbEntity
  8
0
  6
ACAD_ISO10W100
100
AcDbTrace
 10
235.4109626744863
 20
4292.313655937999
 30
0.0
 11
235.4109626744863
 21
4291.896989271332
 31
0.0
 12
236.6609626744863
 22
4292.105322604665
 32
0.0
 13
236.6609626744863
 23
4292.105322604665
 33
0.0
  0
MTEXT
  5
241
330
23A
100
AcDbEntity
  8
0
  6
ACAD_ISO10W100
100
AcDbMText
 10
232.1609626744876
 20
4293.166373096483
 30
0.0
 40
1.100000023841857
 41
0.0
 71
     5
 72
     1
  1
\A1;9,00
  7
Arial
 73
     1
 44
1.0
  0
POINT
  5
242
330
23A
100
AcDbEntity
  8
Defpoints
  6
ACAD_ISO10W100
 62
     0
100
AcDbPoint
 10
227.6609626744889
 20
4280.724458840146
 30
0.0
  0
POINT
  5
243
330
23A
100
AcDbEntity
  8
Defpoints
  6
ACAD_ISO10W100
 62
     0
100
AcDbPoint
 10
236.6609626744863
 20
4281.274458840171
 30
0.0
  0
POINT
  5
244
330
23A
100
AcDbEntity
  8
Defpoints
  6
ACAD_ISO10W100
 62
     0
100
AcDbPoint
 10
236.6609626744863
 20
4292.105322604665
 30
0.0
  0
ENDBLK
  5
245
330
23A
100
AcDbEntity
  8
0
 62
     0
100
AcDbBlockEnd
  0
BLOCK
  5
247
330
246
100
AcDbEntity
  8
0
 62
     0
100
AcDbBlockBegin
  2
*D8
 70
     1
 10
0.0
 20
0.0
 30
0.0
  3
*D8
  1

  0
LINE
  5
248
330
246
100
AcDbEntity
  8
0
100
AcDbLine
 10
236.6609626744863
 20
4281.67445884017
 30
0.0
 11
236.6609626744863
 21
4293.692822604666
 31
0.0
  0
LINE
  5
249
330
246
100
AcDbEntity
  8
0
100
AcDbLine
 10
249.6609626744862
 20
4281.674458840207
 30
0.0
 11
249.6609626744862
 21
4293.692822604666
 31
0.0
  0
LINE
  5
24A
330
246
100
AcDbEntity
  8
0
100
AcDbLine
 10
237.9109626744863
 20
4292.105322604665
 30
0.0
 11
248.4109626744862
 21
4292.105322604665
 31
0.0
  0
SOLID
  5
24B
330
246
100
AcDbEntity
  8
0
  6
ACAD_ISO10W100
100
AcDbTrace
 10
237.9109626744863
 20
4292.313655937999
 30
0.0
 11
237.9109626744863
 21
4291.896989271332
 31
0.0
 12
236.6609626744863
 22
4292.105322604665
 32
0.0
 13
236.6609626744863
 23
4292.105322604665
 33
0.0
  0
SOLID
  5
24C
330
246
100
AcDbEntity
  8
0
  6
ACAD_ISO10W100
100
AcDbTrace
 10
248.4109626744862
 20
4292.313655937999
 30
0.0
 11
248.4109626744862
 21
4291.896989271332
 31
0.0
 12
249.6609626744862
 22
4292.105322604665
 32
0.0
 13
249.6609626744862
 23
4292.105322604665
 33
0.0
  0
MTEXT
  5
24D
330
246
100
AcDbEntity
  8
0
  6
ACAD_ISO10W100
100
AcDbMText
 10
243.1609626744863
 20
4293.166373096483
 30
0.0
 40
1.100000023841857
 41
0.0
 71
     5
 72
     1
  1
\A1;13,00
  7
Arial
 73
     1
 44
1.0
  0
POINT
  5
24E
330
246
100
AcDbEntity
  8
Defpoints
  6
ACAD_ISO10W100
 62
     0
100
AcDbPoint
 10
236.6609626744863
 20
4281.274458840171
 30
0.0
  0
POINT
  5
24F
330
246
100
AcDbEntity
  8
Defpoints
  6
ACAD_ISO10W100
 62
     0
100
AcDbPoint
 10
249.6609626744862
 20
4281.274458840207
 30
0.0
  0
POINT
  5
250
330
246
100
AcDbEntity
  8
Defpoints
  6
ACAD_ISO10W100
 62
     0
100
AcDbPoint
 10
249.6609626744862
 20
4292.105322604665
 30
0.0
  0
ENDBLK
  5
251
330
246
100
AcDbEntity
  8
0
 62
     0
100
AcDbBlockEnd
  0
BLOCK
  5
253
330
252
100
AcDbEntity
  8
0
 62
     0
100
AcDbBlockBegin
  2
*D9
 70
     1
 10
0.0
 20
0.0
 30
0.0
  3
*D9
  1

  0
LINE
  5
254
330
252
100
AcDbEntity
  8
0
100
AcDbLine
 10
249.6609626744862
 20
4281.674458840207
 30
0.0
 11
249.6609626744862
 21
4293.692822604666
 31
0.0
  0
LINE
  5
255
330
252
100
AcDbEntity
  8
0
100
AcDbLine
 10
258.6609626744889
 20
4281.124458840233
 30
0.0
 11
258.6609626744889
 21
4293.692822604666
 31
0.0
  0
LINE
  5
256
330
252
100
AcDbEntity
  8
0
100
AcDbLine
 10
250.9109626744862
 20
4292.105322604665
 30
0.0
 11
257.4109626744889
 21
4292.105322604665
 31
0.0
  0
SOLID
  5
257
330
252
100
AcDbEntity
  8
0
  6
ACAD_ISO10W100
100
AcDbTrace
 10
250.9109626744862
 20
4292.313655937999
 30
0.0
 11
250.9109626744862
 21
4291.896989271332
 31
0.0
 12
249.6609626744862
 22
4292.105322604665
 32
0.0
 13
249.6609626744862
 23
4292.105322604665
 33
0.0
  0
SOLID
  5
258
330
252
100
AcDbEntity
  8
0
  6
ACAD_ISO10W100
100
AcDbTrace
 10
257.4109626744889
 20
4292.313655937999
 30
0.0
 11
257.4109626744889
 21
4291.896989271332
 31
0.0
 12
258.6609626744889
 22
4292.105322604665
 32
0.0
 13
258.6609626744889
 23
4292.105322604665
 33
0.0
  0
MTEXT
  5
259
330
252
100
AcDbEntity
  8
0
  6
ACAD_ISO10W100
100
AcDbMText
 10
254.1609626744876
 20
4293.166373096483
 30
0.0
 40
1.100000023841857
 41
0.0
 71
     5
 72
     1
  1
\A1;9,00
  7
Arial
 73
     1
 44
1.0
  0
POINT
  5
25A
330
252
100
AcDbEntity
  8
Defpoints
  6
ACAD_ISO10W100
 62
     0
100
AcDbPoint
 10
249.6609626744862
 20
4281.274458840207
 30
0.0
  0
POINT
  5
25B
330
252
100
AcDbEntity
  8
Defpoints
  6
ACAD_ISO10W100
 62
     0
100
AcDbPoint
 10
258.6609626744889
 20
4280.724458840233
 30
0.0
  0
POINT
  5
25C
330
252
100
AcDbEntity
  8
Defpoints
  6
ACAD_ISO10W100
 62
     0
100
AcDbPoint
 10
258.6609626744889
 20
4292.105322604665
 30
0.0
  0
ENDBLK
  5
25D
330
252
100
AcDbEntity
  8
0
 62
     0
100
AcDbBlockEnd
  0
BLOCK
  5
25F
330
25E
100
AcDbEntity
  8
0
 62
     0
100
AcDbBlockBegin
  2
*D10
 70
     1
 10
0.0
 20
0.0
 30
0.0
  3
*D10
  1

  0
LINE
  5
260
330
25E
100
AcDbEntity
  8
0
100
AcDbLine
 10
231.7609626744833
 20
4282.274458840158
 30
0.0
 11
194.7594497415478
 21
4282.274458840158
 31
0.0
  0
LINE
  5
261
330
25E
100
AcDbEntity
  8
0
100
AcDbLine
 10
231.760962674489
 20
4280.274458840159
 30
0.0
 11
194.7594497415478
 21
4280.274458840159
 31
0.0
  0
LINE
  5
262
330
25E
100
AcDbEntity
  8
0
100
AcDbLine
 10
196.3469497415479
 20
4279.024458840158
 30
0.0
 11
196.3469497415479
 21
4277.774458840158
 31
0.0
  0
LINE
  5
263
330
25E
100
AcDbEntity
  8
0
100
AcDbLine
 10
196.3469497415479
 20
4283.524458840158
 30
0.0
 11
196.3469497415479
 21
4288.446764495866
 31
0.0
  0
LINE
  5
264
330
25E
100
AcDbEntity
  8
0
100
AcDbLine
 10
196.3469497415479
 20
4280.274458840159
 30
0.0
 11
196.3469497415479
 21
4282.274458840158
 31
0.0
  0
SOLID
  5
265
330
25E
100
AcDbEntity
  8
0
  6
ACAD_ISO10W100
100
AcDbTrace
 10
196.1386164082145
 20
4279.024458840158
 30
0.0
 11
196.5552830748812
 21
4279.024458840158
 31
0.0
 12
196.3469497415479
 22
4280.274458840159
 32
0.0
 13
196.3469497415479
 23
4280.274458840159
 33
0.0
  0
SOLID
  5
266
330
25E
100
AcDbEntity
  8
0
  6
ACAD_ISO10W100
100
AcDbTrace
 10
196.1386164082145
 20
4283.524458840158
 30
0.0
 11
196.5552830748812
 21
4283.524458840158
 31
0.0
 12
196.3469497415479
 22
4282.274458840158
 32
0.0
 13
196.3469497415479
 23
4282.274458840158
 33
0.0
  0
MTEXT
  5
267
330
25E
100
AcDbEntity
  8
0
  6
ACAD_ISO10W100
100
AcDbMText
 10
195.2858992497295
 20
4286.610611668012
 30
0.0
 40
1.100000023841857
 41
0.0
 71
     5
 72
     1
  1
\A1;2,00
  7
Arial
 11
0.0000000000000001
 21
1.0
 31
0.0
 73
     1
 44
1.0
  0
POINT
  5
268
330
25E
100
AcDbEntity
  8
Defpoints
  6
ACAD_ISO10W100
 62
     0
100
AcDbPoint
 10
232.1609626744834
 20
4282.274458840158
 30
0.0
  0
POINT
  5
269
330
25E
100
AcDbEntity
  8
Defpoints
  6
ACAD_ISO10W100
 62
     0
100
AcDbPoint
 10
232.1609626744891
 20
4280.274458840159
 30
0.0
  0
POINT
  5
26A
330
25E
100
AcDbEntity
  8
Defpoints
  6
ACAD_ISO10W100
 62
     0
100
AcDbPoint
 10
196.3469497415479
 20
4280.274458840159
 30
0.0
  0
ENDBLK
  5
26B
330
25E
100
AcDbEntity
  8
0
 62
     0
100
AcDbBlockEnd
  0
BLOCK
  5
26D
330
26C
100
AcDbEntity
  8
0
 62
     0
100
AcDbBlockBegin
  2
*D11
 70
     1
 10
0.0
 20
0.0
 30
0.0
  3
*D11
  1

  0
LINE
  5
26E
330
26C
100
AcDbEntity
  8
0
100
AcDbLine
 10
231.760962674489
 20
4280.274458840159
 30
0.0
 11
194.7594497415471
 21
4280.274458840159
 31
0.0
  0
LINE
  5
26F
330
26C
100
AcDbEntity
  8
0
100
AcDbLine
 10
231.8609626745073
 20
4273.774458840158
 30
0.0
 11
194.7594497415471
 21
4273.774458840158
 31
0.0
  0
LINE
  5
270
330
26C
100
AcDbEntity
  8
0
100
AcDbLine
 10
196.3469497415472
 20
4279.024458840158
 30
0.0
 11
196.3469497415472
 21
4275.024458840158
 31
0.0
  0
SOLID
  5
271
330
26C
100
AcDbEntity
  8
0
  6
ACAD_ISO10W100
100
AcDbTrace
 10
196.1386164082138
 20
4279.024458840158
 30
0.0
 11
196.5552830748805
 21
4279.024458840158
 31
0.0
 12
196.3469497415472
 22
4280.274458840159
 32
0.0
 13
196.3469497415472
 23
4280.274458840159
 33
0.0
  0
SOLID
  5
272
330
26C
100
AcDbEntity
  8
0
  6
ACAD_ISO10W100
100
AcDbTrace
 10
196.1386164082138
 20
4275.024458840158
 30
0.0
 11
196.5552830748805
 21
4275.024458840158
 31
0.0
 12
196.3469497415472
 22
4273.774458840158
 32
0.0
 13
196.3469497415472
 23
4273.774458840158
 33
0.0
  0
MTEXT
  5
273
330
26C
100
AcDbEntity
  8
0
  6
ACAD_ISO10W100
100
AcDbMText
 10
195.2858992497288
 20
4277.024458840158
 30
0.0
 40
1.100000023841857
 41
0.0
 71
     5
 72
     1
  1
\A1;6,50
  7
Arial
 11
0.0000000000000001
 21
1.0
 31
0.0
 73
     1
 44
1.0
  0
POINT
  5
274
330
26C
100
AcDbEntity
  8
Defpoints
  6
ACAD_ISO10W100
 62
     0
100
AcDbPoint
 10
232.1609626744891
 20
4280.274458840159
 30
0.0
  0
POINT
  5
275
330
26C
100
AcDbEntity
  8
Defpoints
  6
ACAD_ISO10W100
 62
     0
100
AcDbPoint
 10
232.2609626745073
 20
4273.774458840158
 30
0.0
  0
POINT
  5
276
330
26C
100
AcDbEntity
  8
Defpoints
  6
ACAD_ISO10W100
 62
     0
100
AcDbPoint
 10
196.3469497415472
 20
4273.774458840158
 30
0.0
  0
ENDBLK
  5
277
330
26C
100
AcDbEntity
  8
0
 62
     0
100
AcDbBlockEnd
  0
BLOCK
  5
279
330
278
100
AcDbEntity
  8
0
 62
     0
100
AcDbBlockBegin
  2
*D12
 70
     1
 10
0.0
 20
0.0
 30
0.0
  3
*D12
  1

  0
LINE
  5
27A
330
278
100
AcDbEntity
  8
0
100
AcDbLine
 10
231.8609626745073
 20
4273.774458840158
 30
0.0
 11
194.7594497415471
 21
4273.774458840158
 31
0.0
  0
LINE
  5
27B
330
278
100
AcDbEntity
  8
0
100
AcDbLine
 10
231.860962674511
 20
4272.474458840109
 30
0.0
 11
194.7594497415471
 21
4272.474458840109
 31
0.0
  0
LINE
  5
27C
330
278
100
AcDbEntity
  8
0
100
AcDbLine
 10
196.3469497415472
 20
4275.024458840158
 30
0.0
 11
196.3469497415472
 21
4276.274458840158
 31
0.0
  0
LINE
  5
27D
330
278
100
AcDbEntity
  8
0
100
AcDbLine
 10
196.3469497415472
 20
4271.224458840109
 30
0.0
 11
196.3469497415472
 21
4269.974458840109
 31
0.0
  0
LINE
  5
27E
330
278
100
AcDbEntity
  8
0
100
AcDbLine
 10
196.3469497415472
 20
4273.124458840133
 30
0.0
 11
193.4983992497295
 21
4273.979023987678
 31
0.0
  0
LINE
  5
27F
330
278
100
AcDbEntity
  8
0
100
AcDbLine
 10
193.4983992497295
 20
4273.979023987678
 30
0.0
 11
193.4983992497295
 21
4277.529024047283
 31
0.0
  0
MTEXT
  5
280
330
278
100
AcDbEntity
  8
0
  6
ACAD_ISO10W100
100
AcDbMText
 10
192.4373487579112
 20
4275.75402401748
 30
0.0
 40
1.100000023841857
 41
0.0
 71
     5
 72
     1
  1
\A1;1,30
  7
Arial
 11
0.0000000000000001
 21
1.0
 31
0.0
 73
     1
 44
1.0
  0
LINE
  5
281
330
278
100
AcDbEntity
  8
0
100
AcDbLine
 10
196.3469497415472
 20
4273.774458840158
 30
0.0
 11
196.3469497415472
 21
4272.474458840109
 31
0.0
  0
LINE
  5
282
330
278
100
AcDbEntity
  8
0
100
AcDbLine
 10
196.3469497415472
 20
4273.774458840158
 30
0.0
 11
196.3469497415472
 21
4272.474458840109
 31
0.0
  0
SOLID
  5
283
330
278
100
AcDbEntity
  8
0
  6
ACAD_ISO10W100
100
AcDbTrace
 10
196.1386164082138
 20
4275.024458840158
 30
0.0
 11
196.5552830748805
 21
4275.024458840158
 31
0.0
 12
196.3469497415472
 22
4273.774458840158
 32
0.0
 13
196.3469497415472
 23
4273.774458840158
 33
0.0
  0
SOLID
  5
284
330
278
100
AcDbEntity
  8
0
  6
ACAD_ISO10W100
100
AcDbTrace
 10
196.1386164082138
 20
4271.224458840109
 30
0.0
 11
196.5552830748805
 21
4271.224458840109
 31
0.0
 12
196.3469497415472
 22
4272.474458840109
 32
0.0
 13
196.3469497415472
 23
4272.474458840109
 33
0.0
  0
POINT
  5
285
330
278
100
AcDbEntity
  8
Defpoints
  6
ACAD_ISO10W100
 62
     0
100
AcDbPoint
 10
232.2609626745073
 20
4273.774458840158
 30
0.0
  0
POINT
  5
286
330
278
100
AcDbEntity
  8
Defpoints
  6
ACAD_ISO10W100
 62
     0
100
AcDbPoint
 10
232.260962674511
 20
4272.474458840109
 30
0.0
  0
POINT
  5
287
330
278
100
AcDbEntity
  8
Defpoints
  6
ACAD_ISO10W100
 62
     0
100
AcDbPoint
 10
196.3469497415472
 20
4272.474458840109
 30
0.0
  0
ENDBLK
  5
288
330
278
100
AcDbEntity
  8
0
 62
     0
100
AcDbBlockEnd
  0
BLOCK
  5
28A
330
289
100
AcDbEntity
  8
0
 62
     0
100
AcDbBlockBegin
  2
*D13
 70
     1
 10
0.0
 20
0.0
 30
0.0
  3
*D13
  1

  0
LINE
  5
28B
330
289
100
AcDbEntity
  8
0
100
AcDbLine
 10
231.860962674511
 20
4272.474458840109
 30
0.0
 11
194.7594497415471
 21
4272.474458840109
 31
0.0
  0
LINE
  5
28C
330
289
100
AcDbEntity
  8
0
100
AcDbLine
 10
228.6609626745464
 20
4259.274458840159
 30
0.0
 11
194.7594497415471
 21
4259.274458840159
 31
0.0
  0
LINE
  5
28D
330
289
100
AcDbEntity
  8
0
100
AcDbLine
 10
196.3469497415472
 20
4271.224458840109
 30
0.0
 11
196.3469497415472
 21
4260.524458840158
 31
0.0
  0
SOLID
  5
28E
330
289
100
AcDbEntity
  8
0
  6
ACAD_ISO10W100
100
AcDbTrace
 10
196.1386164082138
 20
4271.224458840109
 30
0.0
 11
196.5552830748805
 21
4271.224458840109
 31
0.0
 12
196.3469497415472
 22
4272.474458840109
 32
0.0
 13
196.3469497415472
 23
4272.474458840109
 33
0.0
  0
SOLID
  5
28F
330
289
100
AcDbEntity
  8
0
  6
ACAD_ISO10W100
100
AcDbTrace
 10
196.1386164082138
 20
4260.524458840158
 30
0.0
 11
196.5552830748805
 21
4260.524458840158
 31
0.0
 12
196.3469497415472
 22
4259.274458840159
 32
0.0
 13
196.3469497415472
 23
4259.274458840159
 33
0.0
  0
MTEXT
  5
290
330
289
100
AcDbEntity
  8
0
  6
ACAD_ISO10W100
100
AcDbMText
 10
195.2858992497288
 20
4265.874458840133
 30
0.0
 40
1.100000023841857
 41
0.0
 71
     5
 72
     1
  1
\A1;13,20
  7
Arial
 11
0.0000000000000001
 21
1.0
 31
0.0
 73
     1
 44
1.0
  0
POINT
  5
291
330
289
100
AcDbEntity
  8
Defpoints
  6
ACAD_ISO10W100
 62
     0
100
AcDbPoint
 10
232.260962674511
 20
4272.474458840109
 30
0.0
  0
POINT
  5
292
330
289
100
AcDbEntity
  8
Defpoints
  6
ACAD_ISO10W100
 62
     0
100
AcDbPoint
 10
229.0609626745464
 20
4259.274458840159
 30
0.0
  0
POINT
  5
293
330
289
100
AcDbEntity
  8
Defpoints
  6
ACAD_ISO10W100
 62
     0
100
AcDbPoint
 10
196.3469497415472
 20
4259.274458840159
 30
0.0
  0
ENDBLK
  5
294
330
289
100
AcDbEntity
  8
0
 62
     0
100
AcDbBlockEnd
  0
BLOCK
  5
296
330
295
100
AcDbEntity
  8
0
 62
     0
100
AcDbBlockBegin
  2
*D14
 70
     1
 10
0.0
 20
0.0
 30
0.0
  3
*D14
  1

  0
LINE
  5
297
330
295
100
AcDbEntity
  8
0
100
AcDbLine
 10
228.6609626745464
 20
4259.274458840159
 30
0.0
 11
194.7594497415471
 21
4259.274458840159
 31
0.0
  0
LINE
  5
298
330
295
100
AcDbEntity
  8
0
100
AcDbLine
 10
228.2609626745465
 20
4257.274458840158
 30
0.0
 11
194.7594497415471
 21
4257.274458840158
 31
0.0
  0
LINE
  5
299
330
295
100
AcDbEntity
  8
0
100
AcDbLine
 10
196.3469497415472
 20
4260.524458840158
 30
0.0
 11
196.3469497415472
 21
4261.774458840158
 31
0.0
  0
LINE
  5
29A
330
295
100
AcDbEntity
  8
0
100
AcDbLine
 10
196.3469497415472
 20
4256.024458840157
 30
0.0
 11
196.3469497415472
 21
4254.774458840159
 31
0.0
  0
LINE
  5
29B
330
295
100
AcDbEntity
  8
0
100
AcDbLine
 10
196.3469497415472
 20
4258.274458840157
 30
0.0
 11
193.4983992497295
 21
4259.129023987703
 31
0.0
  0
LINE
  5
29C
330
295
100
AcDbEntity
  8
0
100
AcDbLine
 10
193.4983992497295
 20
4259.129023987703
 30
0.0
 11
193.4983992497295
 21
4262.801329643411
 31
0.0
  0
MTEXT
  5
29D
330
295
100
AcDbEntity
  8
0
  6
ACAD_ISO10W100
100
AcDbMText
 10
192.4373487579112
 20
4260.965176815556
 30
0.0
 40
1.100000023841857
 41
0.0
 71
     5
 72
     1
  1
\A1;2,00
  7
Arial
 11
0.0000000000000001
 21
1.0
 31
0.0
 73
     1
 44
1.0
  0
LINE
  5
29E
330
295
100
AcDbEntity
  8
0
100
AcDbLine
 10
196.3469497415472
 20
4259.274458840159
 30
0.0
 11
196.3469497415472
 21
4257.274458840158
 31
0.0
  0
LINE
  5
29F
330
295
100
AcDbEntity
  8
0
100
AcDbLine
 10
196.3469497415472
 20
4259.274458840159
 30
0.0
 11
196.3469497415472
 21
4257.274458840158
 31
0.0
  0
SOLID
  5
2A0
330
295
100
AcDbEntity
  8
0
  6
ACAD_ISO10W100
100
AcDbTrace
 10
196.1386164082138
 20
4260.524458840158
 30
0.0
 11
196.5552830748805
 21
4260.524458840158
 31
0.0
 12
196.3469497415472
 22
4259.274458840159
 32
0.0
 13
196.3469497415472
 23
4259.274458840159
 33
0.0
  0
SOLID
  5
2A1
330
295
100
AcDbEntity
  8
0
  6
ACAD_ISO10W100
100
AcDbTrace
 10
196.1386164082138
 20
4256.024458840157
 30
0.0
 11
196.5552830748805
 21
4256.024458840157
 31
0.0
 12
196.3469497415472
 22
4257.274458840158
 32
0.0
 13
196.3469497415472
 23
4257.274458840158
 33
0.0
  0
POINT
  5
2A2
330
295
100
AcDbEntity
  8
Defpoints
  6
ACAD_ISO10W100
 62
     0
100
AcDbPoint
 10
229.0609626745464
 20
4259.274458840159
 30
0.0
  0
POINT
  5
2A3
330
295
100
AcDbEntity
  8
Defpoints
  6
ACAD_ISO10W100
 62
     0
100
AcDbPoint
 10
228.6609626745465
 20
4257.274458840158
 30
0.0
  0
POINT
  5
2A4
330
295
100
AcDbEntity
  8
Defpoints
  6
ACAD_ISO10W100
 62
     0
100
AcDbPoint
 10
196.3469497415472
 20
4257.274458840158
 30
0.0
  0
ENDBLK
  5
2A5
330
295
100
AcDbEntity
  8
0
 62
     0
100
AcDbBlockEnd
  0
BLOCK
  5
2A7
330
2A6
100
AcDbEntity
  8
0
 62
     0
100
AcDbBlockBegin
  2
*D15
 70
     1
 10
0.0
 20
0.0
 30
0.0
  3
*D15
  1

  0
LINE
  5
2A8
330
2A6
100
AcDbEntity
  8
0
100
AcDbLine
 10
242.7609626745073
 20
4273.774458840189
 30
0.0
 11
233.9763716348101
 21
4273.774458840189
 31
0.0
  0
LINE
  5
2A9
330
2A6
100
AcDbEntity
  8
0
100
AcDbLine
 10
242.760962674511
 20
4272.474458840139
 30
0.0
 11
233.9763716348101
 21
4272.474458840139
 31
0.0
  0
LINE
  5
2AA
330
2A6
100
AcDbEntity
  8
0
100
AcDbLine
 10
235.5638716348101
 20
4271.22445884014
 30
0.0
 11
235.5638716348101
 21
4269.97445884014
 31
0.0
  0
LINE
  5
2AB
330
2A6
100
AcDbEntity
  8
0
100
AcDbLine
 10
235.5638716348101
 20
4275.024458840189
 30
0.0
 11
235.5638716348101
 21
4279.824458899794
 31
0.0
  0
LINE
  5
2AC
330
2A6
100
AcDbEntity
  8
0
100
AcDbLine
 10
235.5638716348101
 20
4272.474458840139
 30
0.0
 11
235.5638716348101
 21
4273.774458840189
 31
0.0
  0
SOLID
  5
2AD
330
2A6
100
AcDbEntity
  8
0
  6
ACAD_ISO10W100
100
AcDbTrace
 10
235.3555383014767
 20
4271.22445884014
 30
0.0
 11
235.7722049681434
 21
4271.22445884014
 31
0.0
 12
235.5638716348101
 22
4272.474458840139
 32
0.0
 13
235.5638716348101
 23
4272.474458840139
 33
0.0
  0
SOLID
  5
2AE
330
2A6
100
AcDbEntity
  8
0
  6
ACAD_ISO10W100
100
AcDbTrace
 10
235.3555383014767
 20
4275.024458840189
 30
0.0
 11
235.7722049681434
 21
4275.024458840189
 31
0.0
 12
235.5638716348101
 22
4273.774458840189
 32
0.0
 13
235.5638716348101
 23
4273.774458840189
 33
0.0
  0
MTEXT
  5
2AF
330
2A6
100
AcDbEntity
  8
0
  6
ACAD_ISO10W100
100
AcDbMText
 10
234.5028211429918
 20
4278.049458869991
 30
0.0
 40
1.100000023841857
 41
0.0
 71
     5
 72
     1
  1
\A1;1,30
  7
Arial
 11
0.0000000000000001
 21
1.0
 31
0.0
 73
     1
 44
1.0
  0
POINT
  5
2B0
330
2A6
100
AcDbEntity
  8
Defpoints
  6
ACAD_ISO10W100
 62
     0
100
AcDbPoint
 10
243.1609626745073
 20
4273.774458840189
 30
0.0
  0
POINT
  5
2B1
330
2A6
100
AcDbEntity
  8
Defpoints
  6
ACAD_ISO10W100
 62
     0
100
AcDbPoint
 10
243.160962674511
 20
4272.474458840139
 30
0.0
  0
POINT
  5
2B2
330
2A6
100
AcDbEntity
  8
Defpoints
  6
ACAD_ISO10W100
 62
     0
100
AcDbPoint
 10
235.5638716348101
 20
4272.474458840139
 30
0.0
  0
ENDBLK
  5
2B3
330
2A6
100
AcDbEntity
  8
0
 62
     0
100
AcDbBlockEnd
  0
BLOCK
  5
2B5
330
2B4
100
AcDbEntity
  8
0
 62
     0
100
AcDbBlockBegin
  2
*D16
 70
     1
 10
0.0
 20
0.0
 30
0.0
  3
*D16
  1

  0
LINE
  5
2B6
330
2B4
100
AcDbEntity
  8
0
100
AcDbLine
 10
242.7609626744522
 20
4258.574458840157
 30
0.0
 11
233.9763716348094
 21
4258.574458840157
 31
0.0
  0
LINE
  5
2B7
330
2B4
100
AcDbEntity
  8
0
100
AcDbLine
 10
242.7609626744166
 20
4257.274458840158
 30
0.0
 11
233.9763716348094
 21
4257.274458840158
 31
0.0
  0
LINE
  5
2B8
330
2B4
100
AcDbEntity
  8
0
100
AcDbLine
 10
235.5638716348094
 20
4259.824458840157
 30
0.0
 11
235.5638716348094
 21
4261.074458840158
 31
0.0
  0
LINE
  5
2B9
330
2B4
100
AcDbEntity
  8
0
100
AcDbLine
 10
235.5638716348094
 20
4256.024458840157
 30
0.0
 11
235.5638716348094
 21
4251.224458780553
 31
0.0
  0
LINE
  5
2BA
330
2B4
100
AcDbEntity
  8
0
100
AcDbLine
 10
235.5638716348094
 20
4258.574458840157
 30
0.0
 11
235.5638716348094
 21
4257.274458840158
 31
0.0
  0
SOLID
  5
2BB
330
2B4
100
AcDbEntity
  8
0
  6
ACAD_ISO10W100
100
AcDbTrace
 10
235.3555383014761
 20
4259.824458840157
 30
0.0
 11
235.7722049681427
 21
4259.824458840157
 31
0.0
 12
235.5638716348094
 22
4258.574458840157
 32
0.0
 13
235.5638716348094
 23
4258.574458840157
 33
0.0
  0
SOLID
  5
2BC
330
2B4
100
AcDbEntity
  8
0
  6
ACAD_ISO10W100
100
AcDbTrace
 10
235.3555383014761
 20
4256.024458840157
 30
0.0
 11
235.7722049681427
 21
4256.024458840157
 31
0.0
 12
235.5638716348094
 22
4257.274458840158
 32
0.0
 13
235.5638716348094
 23
4257.274458840158
 33
0.0
  0
MTEXT
  5
2BD
330
2B4
100
AcDbEntity
  8
0
  6
ACAD_ISO10W100
100
AcDbMText
 10
234.5028211429911
 20
4252.999458810356
 30
0.0
 40
1.100000023841857
 41
0.0
 71
     5
 72
     1
  1
\A1;1,30
  7
Arial
 11
0.0000000000000001
 21
1.0
 31
0.0
 73
     1
 44
1.0
  0
POINT
  5
2BE
330
2B4
100
AcDbEntity
  8
Defpoints
  6
ACAD_ISO10W100
 62
     0
100
AcDbPoint
 10
243.1609626744522
 20
4258.574458840157
 30
0.0
  0
POINT
  5
2BF
330
2B4
100
AcDbEntity
  8
Defpoints
  6
ACAD_ISO10W100
 62
     0
100
AcDbPoint
 10
243.1609626744166
 20
4257.274458840158
 30
0.0
  0
POINT
  5
2C0
330
2B4
100
AcDbEntity
  8
Defpoints
  6
ACAD_ISO10W100
 62
     0
100
AcDbPoint
 10
235.5638716348094
 20
4257.274458840158
 30
0.0
  0
ENDBLK
  5
2C1
330
2B4
100
AcDbEntity
  8
0
 62
     0
100
AcDbBlockEnd
  0
BLOCK
  5
2C3
330
2C2
100
AcDbEntity
  8
0
 62
     0
100
AcDbBlockBegin
  2
*D17
 70
     1
 10
0.0
 20
0.0
 30
0.0
  3
*D17
  1

  0
LINE
  5
2C4
330
2C2
100
AcDbEntity
  8
0
100
AcDbLine
 10
203.1609626744244
 20
4257.874458840169
 30
0.0
 11
203.1609626744244
 21
4246.611507065796
 31
0.0
  0
LINE
  5
2C5
330
2C2
100
AcDbEntity
  8
0
100
AcDbLine
 10
213.6609626744889
 20
4258.374458840158
 30
0.0
 11
213.6609626744889
 21
4246.611507065796
 31
0.0
  0
LINE
  5
2C6
330
2C2
100
AcDbEntity
  8
0
100
AcDbLine
 10
204.4109626744245
 20
4248.199007065795
 30
0.0
 11
212.4109626744889
 21
4248.199007065795
 31
0.0
  0
SOLID
  5
2C7
330
2C2
100
AcDbEntity
  8
0
  6
ACAD_ISO10W100
100
AcDbTrace
 10
204.4109626744245
 20
4248.407340399128
 30
0.0
 11
204.4109626744245
 21
4247.990673732462
 31
0.0
 12
203.1609626744244
 22
4248.199007065795
 32
0.0
 13
203.1609626744244
 23
4248.199007065795
 33
0.0
  0
SOLID
  5
2C8
330
2C2
100
AcDbEntity
  8
0
  6
ACAD_ISO10W100
100
AcDbTrace
 10
212.4109626744889
 20
4248.407340399128
 30
0.0
 11
212.4109626744889
 21
4247.990673732462
 31
0.0
 12
213.6609626744889
 22
4248.199007065795
 32
0.0
 13
213.6609626744889
 23
4248.199007065795
 33
0.0
  0
MTEXT
  5
2C9
330
2C2
100
AcDbEntity
  8
0
  6
ACAD_ISO10W100
100
AcDbMText
 10
208.4109626744567
 20
4249.260057557613
 30
0.0
 40
1.100000023841857
 41
0.0
 71
     5
 72
     1
  1
\A1;10,50
  7
Arial
 73
     1
 44
1.0
  0
POINT
  5
2CA
330
2C2
100
AcDbEntity
  8
Defpoints
  6
ACAD_ISO10W100
 62
     0
100
AcDbPoint
 10
203.1609626744244
 20
4258.274458840169
 30
0.0
  0
POINT
  5
2CB
330
2C2
100
AcDbEntity
  8
Defpoints
  6
ACAD_ISO10W100
 62
     0
100
AcDbPoint
 10
213.6609626744889
 20
4258.774458840158
 30
0.0
  0
POINT
  5
2CC
330
2C2
100
AcDbEntity
  8
Defpoints
  6
ACAD_ISO10W100
 62
     0
100
AcDbPoint
 10
213.6609626744889
 20
4248.199007065795
 30
0.0
  0
ENDBLK
  5
2CD
330
2C2
100
AcDbEntity
  8
0
 62
     0
100
AcDbBlockEnd
  0
BLOCK
  5
2CF
330
2CE
100
AcDbEntity
  8
0
 62
     0
100
AcDbBlockBegin
  2
*D18
 70
     1
 10
0.0
 20
0.0
 30
0.0
  3
*D18
  1

  0
LINE
  5
2D0
330
2CE
100
AcDbEntity
  8
0
100
AcDbLine
 10
213.6609626744889
 20
4258.374458840158
 30
0.0
 11
213.6609626744889
 21
4246.611507065796
 31
0.0
  0
LINE
  5
2D1
330
2CE
100
AcDbEntity
  8
0
100
AcDbLine
 10
229.6609626745464
 20
4259.47445884016
 30
0.0
 11
229.6609626745464
 21
4246.611507065796
 31
0.0
  0
LINE
  5
2D2
330
2CE
100
AcDbEntity
  8
0
100
AcDbLine
 10
214.9109626744889
 20
4248.199007065795
 30
0.0
 11
228.4109626745465
 21
4248.199007065795
 31
0.0
  0
SOLID
  5
2D3
330
2CE
100
AcDbEntity
  8
0
  6
ACAD_ISO10W100
100
AcDbTrace
 10
214.9109626744889
 20
4248.407340399128
 30
0.0
 11
214.9109626744889
 21
4247.990673732462
 31
0.0
 12
213.6609626744889
 22
4248.199007065795
 32
0.0
 13
213.6609626744889
 23
4248.199007065795
 33
0.0
  0
SOLID
  5
2D4
330
2CE
100
AcDbEntity
  8
0
  6
ACAD_ISO10W100
100
AcDbTrace
 10
228.4109626745465
 20
4248.407340399128
 30
0.0
 11
228.4109626745465
 21
4247.990673732462
 31
0.0
 12
229.6609626745464
 22
4248.199007065795
 32
0.0
 13
229.6609626745464
 23
4248.199007065795
 33
0.0
  0
MTEXT
  5
2D5
330
2CE
100
AcDbEntity
  8
0
  6
ACAD_ISO10W100
100
AcDbMText
 10
221.6609626745177
 20
4249.260057557613
 30
0.0
 40
1.100000023841857
 41
0.0
 71
     5
 72
     1
  1
\A1;16,00
  7
Arial
 73
     1
 44
1.0
  0
POINT
  5
2D6
330
2CE
100
AcDbEntity
  8
Defpoints
  6
ACAD_ISO10W100
 62
     0
100
AcDbPoint
 10
213.6609626744889
 20
4258.774458840158
 30
0.0
  0
POINT
  5
2D7
330
2CE
100
AcDbEntity
  8
Defpoints
  6
ACAD_ISO10W100
 62
     0
100
AcDbPoint
 10
229.6609626745464
 20
4259.874458840159
 30
0.0
  0
POINT
  5
2D8
330
2CE
100
AcDbEntity
  8
Defpoints
  6
ACAD_ISO10W100
 62
     0
100
AcDbPoint
 10
229.6609626745464
 20
4248.199007065795
 30
0.0
  0
ENDBLK
  5
2D9
330
2CE
100
AcDbEntity
  8
0
 62
     0
100
AcDbBlockEnd
  0
BLOCK
  5
2DB
330
2DA
100
AcDbEntity
  8
0
 62
     0
100
AcDbBlockBegin
  2
*D19
 70
     1
 10
0.0
 20
0.0
 30
0.0
  3
*D19
  1

  0
LINE
  5
2DC
330
2DA
100
AcDbEntity
  8
0
100
AcDbLine
 10
229.6609626745464
 20
4259.47445884016
 30
0.0
 11
229.6609626745464
 21
4246.611507065796
 31
0.0
  0
LINE
  5
2DD
330
2DA
100
AcDbEntity
  8
0
100
AcDbLine
 10
230.960962674407
 20
4258.774458840156
 30
0.0
 11
230.960962674407
 21
4246.611507065796
 31
0.0
  0
LINE
  5
2DE
330
2DA
100
AcDbEntity
  8
0
100
AcDbLine
 10
228.4109626745465
 20
4248.199007065795
 30
0.0
 11
227.1609626745465
 21
4248.199007065795
 31
0.0
  0
LINE
  5
2DF
330
2DA
100
AcDbEntity
  8
0
100
AcDbLine
 10
232.210962674407
 20
4248.199007065795
 30
0.0
 11
233.460962674407
 21
4248.199007065795
 31
0.0
  0
LINE
  5
2E0
330
2DA
100
AcDbEntity
  8
0
100
AcDbLine
 10
230.3109626744767
 20
4248.199007065795
 30
0.0
 11
231.5621581171126
 21
4244.028355590343
 31
0.0
  0
LINE
  5
2E1
330
2DA
100
AcDbEntity
  8
0
100
AcDbLine
 10
231.5621581171126
 20
4244.028355590343
 30
0.0
 11
235.1121581767173
 21
4244.028355590343
 31
0.0
  0
MTEXT
  5
2E2
330
2DA
100
AcDbEntity
  8
0
  6
ACAD_ISO10W100
100
AcDbMText
 10
233.337158146915
 20
4245.08940608216
 30
0.0
 40
1.100000023841857
 41
0.0
 71
     5
 72
     1
  1
\A1;1,30
  7
Arial
 73
     1
 44
1.0
  0
LINE
  5
2E3
330
2DA
100
AcDbEntity
  8
0
100
AcDbLine
 10
229.6609626745464
 20
4248.199007065795
 30
0.0
 11
230.960962674407
 21
4248.199007065795
 31
0.0
  0
LINE
  5
2E4
330
2DA
100
AcDbEntity
  8
0
100
AcDbLine
 10
229.6609626745464
 20
4248.199007065795
 30
0.0
 11
230.960962674407
 21
4248.199007065795
 31
0.0
  0
SOLID
  5
2E5
330
2DA
100
AcDbEntity
  8
0
  6
ACAD_ISO10W100
100
AcDbTrace
 10
228.4109626745465
 20
4248.407340399128
 30
0.0
 11
228.4109626745465
 21
4247.990673732462
 31
0.0
 12
229.6609626745464
 22
4248.199007065795
 32
0.0
 13
229.6609626745464
 23
4248.199007065795
 33
0.0
  0
SOLID
  5
2E6
330
2DA
100
AcDbEntity
  8
0
  6
ACAD_ISO10W100
100
AcDbTrace
 10
232.210962674407
 20
4248.407340399128
 30
0.0
 11
232.210962674407
 21
4247.990673732462
 31
0.0
 12
230.960962674407
 22
4248.199007065795
 32
0.0
 13
230.960962674407
 23
4248.199007065795
 33
0.0
  0
POINT
  5
2E7
330
2DA
100
AcDbEntity
  8
Defpoints
  6
ACAD_ISO10W100
 62
     0
100
AcDbPoint
 10
229.6609626745464
 20
4259.874458840159
 30
0.0
  0
POINT
  5
2E8
330
2DA
100
AcDbEntity
  8
Defpoints
  6
ACAD_ISO10W100
 62
     0
100
AcDbPoint
 10
230.960962674407
 20
4259.174458840155
 30
0.0
  0
POINT
  5
2E9
330
2DA
100
AcDbEntity
  8
Defpoints
  6
ACAD_ISO10W100
 62
     0
100
AcDbPoint
 10
230.960962674407
 20
4248.199007065795
 30
0.0
  0
ENDBLK
  5
2EA
330
2DA
100
AcDbEntity
  8
0
 62
     0
100
AcDbBlockEnd
  0
BLOCK
  5
2EC
330
2EB
100
AcDbEntity
  8
0
 62
     0
100
AcDbBlockBegin
  2
*D20
 70
     1
 10
0.0
 20
0.0
 30
0.0
  3
*D20
  1

  0
LINE
  5
2ED
330
2EB
100
AcDbEntity
  8
0
100
AcDbLine
 10
230.960962674407
 20
4258.774458840156
 30
0.0
 11
230.960962674407
 21
4246.611507065796
 31
0.0
  0
LINE
  5
2EE
330
2EB
100
AcDbEntity
  8
0
100
AcDbLine
 10
255.3609626744972
 20
4258.774458840222
 30
0.0
 11
255.3609626744972
 21
4246.611507065796
 31
0.0
  0
LINE
  5
2EF
330
2EB
100
AcDbEntity
  8
0
100
AcDbLine
 10
232.210962674407
 20
4248.199007065795
 30
0.0
 11
254.1109626744971
 21
4248.199007065795
 31
0.0
  0
SOLID
  5
2F0
330
2EB
100
AcDbEntity
  8
0
  6
ACAD_ISO10W100
100
AcDbTrace
 10
232.210962674407
 20
4248.407340399128
 30
0.0
 11
232.210962674407
 21
4247.990673732462
 31
0.0
 12
230.960962674407
 22
4248.199007065795
 32
0.0
 13
230.960962674407
 23
4248.199007065795
 33
0.0
  0
SOLID
  5
2F1
330
2EB
100
AcDbEntity
  8
0
  6
ACAD_ISO10W100
100
AcDbTrace
 10
254.1109626744971
 20
4248.407340399128
 30
0.0
 11
254.1109626744971
 21
4247.990673732462
 31
0.0
 12
255.3609626744972
 22
4248.199007065795
 32
0.0
 13
255.3609626744972
 23
4248.199007065795
 33
0.0
  0
MTEXT
  5
2F2
330
2EB
100
AcDbEntity
  8
0
  6
ACAD_ISO10W100
100
AcDbMText
 10
243.1609626744521
 20
4249.260057557613
 30
0.0
 40
1.100000023841857
 41
0.0
 71
     5
 72
     1
  1
\A1;24,40
  7
Arial
 73
     1
 44
1.0
  0
POINT
  5
2F3
330
2EB
100
AcDbEntity
  8
Defpoints
  6
ACAD_ISO10W100
 62
     0
100
AcDbPoint
 10
230.960962674407
 20
4259.174458840155
 30
0.0
  0
POINT
  5
2F4
330
2EB
100
AcDbEntity
  8
Defpoints
  6
ACAD_ISO10W100
 62
     0
100
AcDbPoint
 10
255.3609626744972
 20
4259.174458840221
 30
0.0
  0
POINT
  5
2F5
330
2EB
100
AcDbEntity
  8
Defpoints
  6
ACAD_ISO10W100
 62
     0
100
AcDbPoint
 10
255.3609626744972
 20
4248.199007065795
 30
0.0
  0
ENDBLK
  5
2F6
330
2EB
100
AcDbEntity
  8
0
 62
     0
100
AcDbBlockEnd
  0
BLOCK
  5
2F8
330
2F7
100
AcDbEntity
  8
0
 62
     0
100
AcDbBlockBegin
  2
*D21
 70
     1
 10
0.0
 20
0.0
 30
0.0
  3
*D21
  1

  0
LINE
  5
2F9
330
2F7
100
AcDbEntity
  8
0
100
AcDbLine
 10
255.3609626744972
 20
4258.774458840222
 30
0.0
 11
255.3609626744972
 21
4246.611507065796
 31
0.0
  0
LINE
  5
2FA
330
2F7
100
AcDbEntity
  8
0
100
AcDbLine
 10
256.6609626745465
 20
4259.474458840157
 30
0.0
 11
256.6609626745465
 21
4246.611507065796
 31
0.0
  0
LINE
  5
2FB
330
2F7
100
AcDbEntity
  8
0
100
AcDbLine
 10
254.1109626744971
 20
4248.199007065795
 30
0.0
 11
252.8609626744972
 21
4248.199007065795
 31
0.0
  0
LINE
  5
2FC
330
2F7
100
AcDbEntity
  8
0
100
AcDbLine
 10
257.9109626745465
 20
4248.199007065795
 30
0.0
 11
259.1609626745464
 21
4248.199007065795
 31
0.0
  0
LINE
  5
2FD
330
2F7
100
AcDbEntity
  8
0
100
AcDbLine
 10
256.0109626745218
 20
4248.199007065795
 30
0.0
 11
257.2621581171577
 21
4244.028355590343
 31
0.0
  0
LINE
  5
2FE
330
2F7
100
AcDbEntity
  8
0
100
AcDbLine
 10
257.2621581171577
 20
4244.028355590343
 30
0.0
 11
260.8121581767623
 21
4244.028355590343
 31
0.0
  0
MTEXT
  5
2FF
330
2F7
100
AcDbEntity
  8
0
  6
ACAD_ISO10W100
100
AcDbMText
 10
259.03715814696
 20
4245.08940608216
 30
0.0
 40
1.100000023841857
 41
0.0
 71
     5
 72
     1
  1
\A1;1,30
  7
Arial
 73
     1
 44
1.0
  0
LINE
  5
300
330
2F7
100
AcDbEntity
  8
0
100
AcDbLine
 10
255.3609626744972
 20
4248.199007065795
 30
0.0
 11
256.6609626745465
 21
4248.199007065795
 31
0.0
  0
LINE
  5
301
330
2F7
100
AcDbEntity
  8
0
100
AcDbLine
 10
255.3609626744972
 20
4248.199007065795
 30
0.0
 11
256.6609626745465
 21
4248.199007065795
 31
0.0
  0
SOLID
  5
302
330
2F7
100
AcDbEntity
  8
0
  6
ACAD_ISO10W100
100
AcDbTrace
 10
254.1109626744971
 20
4248.407340399128
 30
0.0
 11
254.1109626744971
 21
4247.990673732462
 31
0.0
 12
255.3609626744972
 22
4248.199007065795
 32
0.0
 13
255.3609626744972
 23
4248.199007065795
 33
0.0
  0
SOLID
  5
303
330
2F7
100
AcDbEntity
  8
0
  6
ACAD_ISO10W100
100
AcDbTrace
 10
257.9109626745465
 20
4248.407340399128
 30
0.0
 11
257.9109626745465
 21
4247.990673732462
 31
0.0
 12
256.6609626745465
 22
4248.199007065795
 32
0.0
 13
256.6609626745465
 23
4248.199007065795
 33
0.0
  0
POINT
  5
304
330
2F7
100
AcDbEntity
  8
Defpoints
  6
ACAD_ISO10W100
 62
     0
100
AcDbPoint
 10
255.3609626744972
 20
4259.174458840221
 30
0.0
  0
POINT
  5
305
330
2F7
100
AcDbEntity
  8
Defpoints
  6
ACAD_ISO10W100
 62
     0
100
AcDbPoint
 10
256.6609626745465
 20
4259.874458840157
 30
0.0
  0
POINT
  5
306
330
2F7
100
AcDbEntity
  8
Defpoints
  6
ACAD_ISO10W100
 62
     0
100
AcDbPoint
 10
256.6609626745465
 20
4248.199007065795
 30
0.0
  0
ENDBLK
  5
307
330
2F7
100
AcDbEntity
  8
0
 62
     0
100
AcDbBlockEnd
  0
BLOCK
  5
309
330
308
100
AcDbEntity
  8
0
 62
     0
100
AcDbBlockBegin
  2
*D22
 70
     1
 10
0.0
 20
0.0
 30
0.0
  3
*D22
  1

  0
LINE
  5
30A
330
308
100
AcDbEntity
  8
0
100
AcDbLine
 10
256.6609626745465
 20
4259.474458840157
 30
0.0
 11
256.6609626745465
 21
4246.611507065796
 31
0.0
  0
LINE
  5
30B
330
308
100
AcDbEntity
  8
0
100
AcDbLine
 10
272.6609626743443
 20
4258.374458840158
 30
0.0
 11
272.6609626743443
 21
4246.611507065796
 31
0.0
  0
LINE
  5
30C
330
308
100
AcDbEntity
  8
0
100
AcDbLine
 10
257.9109626745465
 20
4248.199007065795
 30
0.0
 11
271.4109626743443
 21
4248.199007065795
 31
0.0
  0
SOLID
  5
30D
330
308
100
AcDbEntity
  8
0
  6
ACAD_ISO10W100
100
AcDbTrace
 10
257.9109626745465
 20
4248.407340399128
 30
0.0
 11
257.9109626745465
 21
4247.990673732462
 31
0.0
 12
256.6609626745465
 22
4248.199007065795
 32
0.0
 13
256.6609626745465
 23
4248.199007065795
 33
0.0
  0
SOLID
  5
30E
330
308
100
AcDbEntity
  8
0
  6
ACAD_ISO10W100
100
AcDbTrace
 10
271.4109626743443
 20
4248.407340399128
 30
0.0
 11
271.4109626743443
 21
4247.990673732462
 31
0.0
 12
272.6609626743443
 22
4248.199007065795
 32
0.0
 13
272.6609626743443
 23
4248.199007065795
 33
0.0
  0
MTEXT
  5
30F
330
308
100
AcDbEntity
  8
0
  6
ACAD_ISO10W100
100
AcDbMText
 10
264.6609626744454
 20
4249.260057557613
 30
0.0
 40
1.100000023841857
 41
0.0
 71
     5
 72
     1
  1
\A1;16,00
  7
Arial
 73
     1
 44
1.0
  0
POINT
  5
310
330
308
100
AcDbEntity
  8
Defpoints
  6
ACAD_ISO10W100
 62
     0
100
AcDbPoint
 10
256.6609626745465
 20
4259.874458840157
 30
0.0
  0
POINT
  5
311
330
308
100
AcDbEntity
  8
Defpoints
  6
ACAD_ISO10W100
 62
     0
100
AcDbPoint
 10
272.6609626743443
 20
4258.774458840158
 30
0.0
  0
POINT
  5
312
330
308
100
AcDbEntity
  8
Defpoints
  6
ACAD_ISO10W100
 62
     0
100
AcDbPoint
 10
272.6609626743443
 20
4248.199007065795
 30
0.0
  0
ENDBLK
  5
313
330
308
100
AcDbEntity
  8
0
 62
     0
100
AcDbBlockEnd
  0
BLOCK
  5
315
330
314
100
AcDbEntity
  8
0
 62
     0
100
AcDbBlockBegin
  2
*D23
 70
     1
 10
0.0
 20
0.0
 30
0.0
  3
*D23
  1

  0
LINE
  5
316
330
314
100
AcDbEntity
  8
0
100
AcDbLine
 10
272.6609626743443
 20
4258.374458840158
 30
0.0
 11
272.6609626743443
 21
4246.611507065796
 31
0.0
  0
LINE
  5
317
330
314
100
AcDbEntity
  8
0
100
AcDbLine
 10
283.1609626744186
 20
4257.874458840158
 30
0.0
 11
283.1609626744186
 21
4246.611507065796
 31
0.0
  0
LINE
  5
318
330
314
100
AcDbEntity
  8
0
100
AcDbLine
 10
273.9109626743443
 20
4248.199007065795
 30
0.0
 11
281.9109626744186
 21
4248.199007065795
 31
0.0
  0
SOLID
  5
319
330
314
100
AcDbEntity
  8
0
  6
ACAD_ISO10W100
100
AcDbTrace
 10
273.9109626743443
 20
4248.407340399128
 30
0.0
 11
273.9109626743443
 21
4247.990673732462
 31
0.0
 12
272.6609626743443
 22
4248.199007065795
 32
0.0
 13
272.6609626743443
 23
4248.199007065795
 33
0.0
  0
SOLID
  5
31A
330
314
100
AcDbEntity
  8
0
  6
ACAD_ISO10W100
100
AcDbTrace
 10
281.9109626744186
 20
4248.407340399128
 30
0.0
 11
281.9109626744186
 21
4247.990673732462
 31
0.0
 12
283.1609626744186
 22
4248.199007065795
 32
0.0
 13
283.1609626744186
 23
4248.199007065795
 33
0.0
  0
MTEXT
  5
31B
330
314
100
AcDbEntity
  8
0
  6
ACAD_ISO10W100
100
AcDbMText
 10
277.9109626743814
 20
4249.260057557613
 30
0.0
 40
1.100000023841857
 41
0.0
 71
     5
 72
     1
  1
\A1;10,50
  7
Arial
 73
     1
 44
1.0
  0
POINT
  5
31C
330
314
100
AcDbEntity
  8
Defpoints
  6
ACAD_ISO10W100
 62
     0
100
AcDbPoint
 10
272.6609626743443
 20
4258.774458840158
 30
0.0
  0
POINT
  5
31D
330
314
100
AcDbEntity
  8
Defpoints
  6
ACAD_ISO10W100
 62
     0
100
AcDbPoint
 10
283.1609626744186
 20
4258.274458840157
 30
0.0
  0
POINT
  5
31E
330
314
100
AcDbEntity
  8
Defpoints
  6
ACAD_ISO10W100
 62
     0
100
AcDbPoint
 10
283.1609626744186
 20
4248.199007065795
 30
0.0
  0
ENDBLK
  5
31F
330
314
100
AcDbEntity
  8
0
 62
     0
100
AcDbBlockEnd
  0
BLOCK
  5
321
330
320
100
AcDbEntity
  8
0
 62
     0
100
AcDbBlockBegin
  2
*D24
 70
     1
 10
0.0
 20
0.0
 30
0.0
  3
*D24
  1

  0
LINE
  5
322
330
320
100
AcDbEntity
  8
0
100
AcDbLine
 10
203.1609626744244
 20
4257.874458841132
 30
0.0
 11
203.1609626744244
 21
4238.911394452577
 31
0.0
  0
LINE
  5
323
330
320
100
AcDbEntity
  8
0
100
AcDbLine
 10
283.1609626744186
 20
4257.874458841132
 30
0.0
 11
283.1609626744186
 21
4238.911394452577
 31
0.0
  0
LINE
  5
324
330
320
100
AcDbEntity
  8
0
100
AcDbLine
 10
204.4109626744245
 20
4240.498894452577
 30
0.0
 11
281.9109626744186
 21
4240.498894452577
 31
0.0
  0
SOLID
  5
325
330
320
100
AcDbEntity
  8
0
  6
ACAD_ISO10W100
100
AcDbTrace
 10
204.4109626744245
 20
4240.70722778591
 30
0.0
 11
204.4109626744245
 21
4240.290561119244
 31
0.0
 12
203.1609626744244
 22
4240.498894452577
 32
0.0
 13
203.1609626744244
 23
4240.498894452577
 33
0.0
  0
SOLID
  5
326
330
320
100
AcDbEntity
  8
0
  6
ACAD_ISO10W100
100
AcDbTrace
 10
281.9109626744186
 20
4240.70722778591
 30
0.0
 11
281.9109626744186
 21
4240.290561119244
 31
0.0
 12
283.1609626744186
 22
4240.498894452577
 32
0.0
 13
283.1609626744186
 23
4240.498894452577
 33
0.0
  0
MTEXT
  5
327
330
320
100
AcDbEntity
  8
0
  6
ACAD_ISO10W100
100
AcDbMText
 10
243.1609626744215
 20
4241.559944944394
 30
0.0
 40
1.100000023841857
 41
0.0
 71
     5
 72
     1
  1
\A1;80,00
  7
Arial
 73
     1
 44
1.0
  0
POINT
  5
328
330
320
100
AcDbEntity
  8
Defpoints
  6
ACAD_ISO10W100
 62
     0
100
AcDbPoint
 10
203.1609626744244
 20
4258.274458841131
 30
0.0
  0
POINT
  5
329
330
320
100
AcDbEntity
  8
Defpoints
  6
ACAD_ISO10W100
 62
     0
100
AcDbPoint
 10
283.1609626744186
 20
4258.274458841131
 30
0.0
  0
POINT
  5
32A
330
320
100
AcDbEntity
  8
Defpoints
  6
ACAD_ISO10W100
 62
     0
100
AcDbPoint
 10
283.1609626744186
 20
4240.498894452577
 30
0.0
  0
ENDBLK
  5
32B
330
320
100
AcDbEntity
  8
0
 62
     0
100
AcDbBlockEnd
  0
BLOCK
  5
32D
330
32C
100
AcDbEntity
  8
0
 62
     0
100
AcDbBlockBegin
  2
*D25
 70
     1
 10
0.0
 20
0.0
 30
0.0
  3
*D25
  1

  0
LINE
  5
32E
330
32C
100
AcDbEntity
  8
0
100
AcDbLine
 10
254.5609626744834
 20
4282.27445884022
 30
0.0
 11
290.5506023598722
 21
4282.27445884022
 31
0.0
  0
LINE
  5
32F
330
32C
100
AcDbEntity
  8
0
100
AcDbLine
 10
254.5609626744834
 20
4257.274458840158
 30
0.0
 11
290.5506023598722
 21
4257.274458840158
 31
0.0
  0
LINE
  5
330
330
32C
100
AcDbEntity
  8
0
100
AcDbLine
 10
288.9631023598722
 20
4281.02445884022
 30
0.0
 11
288.9631023598722
 21
4258.524458840159
 31
0.0
  0
SOLID
  5
331
330
32C
100
AcDbEntity
  8
0
  6
ACAD_ISO10W100
100
AcDbTrace
 10
288.7547690265389
 20
4281.02445884022
 30
0.0
 11
289.1714356932055
 21
4281.02445884022
 31
0.0
 12
288.9631023598722
 22
4282.27445884022
 32
0.0
 13
288.9631023598722
 23
4282.27445884022
 33
0.0
  0
SOLID
  5
332
330
32C
100
AcDbEntity
  8
0
  6
ACAD_ISO10W100
100
AcDbTrace
 10
288.7547690265389
 20
4258.524458840159
 30
0.0
 11
289.1714356932055
 21
4258.524458840159
 31
0.0
 12
288.9631023598722
 22
4257.274458840158
 32
0.0
 13
288.9631023598722
 23
4257.274458840158
 33
0.0
  0
MTEXT
  5
333
330
32C
100
AcDbEntity
  8
0
  6
ACAD_ISO10W100
100
AcDbMText
 10
287.9020518680539
 20
4269.774458840189
 30
0.0
 40
1.100000023841857
 41
0.0
 71
     5
 72
     1
  1
\A1;25,00
  7
Arial
 11
0.0000000000000001
 21
1.0
 31
0.0
 73
     1
 44
1.0
  0
POINT
  5
334
330
32C
100
AcDbEntity
  8
Defpoints
  6
ACAD_ISO10W100
 62
     0
100
AcDbPoint
 10
254.1609626744834
 20
4282.27445884022
 30
0.0
  0
POINT
  5
335
330
32C
100
AcDbEntity
  8
Defpoints
  6
ACAD_ISO10W100
 62
     0
100
AcDbPoint
 10
254.1609626744834
 20
4257.274458840158
 30
0.0
  0
POINT
  5
336
330
32C
100
AcDbEntity
  8
Defpoints
  6
ACAD_ISO10W100
 62
     0
100
AcDbPoint
 10
288.9631023598722
 20
4257.274458840158
 30
0.0
  0
ENDBLK
  5
337
330
32C
100
AcDbEntity
  8
0
 62
     0
100
AcDbBlockEnd
  0
BLOCK
  5
339
330
338
100
AcDbEntity
  8
0
 62
     0
100
AcDbBlockBegin
  2
*D26
 70
     1
 10
0.0
 20
0.0
 30
0.0
  3
*D26
  1

  0
LINE
  5
33A
330
338
100
AcDbEntity
  8
0
100
AcDbLine
 10
254.5609626744834
 20
4218.508411733402
 30
0.0
 11
291.2707142000212
 21
4218.508411733402
 31
0.0
  0
LINE
  5
33B
330
338
100
AcDbEntity
  8
0
100
AcDbLine
 10
243.5609626744166
 20
4202.414911733341
 30
0.0
 11
291.2707142000212
 21
4202.414911733341
 31
0.0
  0
LINE
  5
33C
330
338
100
AcDbEntity
  8
0
100
AcDbLine
 10
289.6832142000212
 20
4217.258411733403
 30
0.0
 11
289.6832142000212
 21
4203.664911733341
 31
0.0
  0
SOLID
  5
33D
330
338
100
AcDbEntity
  8
0
  6
ACAD_ISO10W100
100
AcDbTrace
 10
289.4748808666879
 20
4217.258411733403
 30
0.0
 11
289.8915475333545
 21
4217.258411733403
 31
0.0
 12
289.6832142000212
 22
4218.508411733402
 32
0.0
 13
289.6832142000212
 23
4218.508411733402
 33
0.0
  0
SOLID
  5
33E
330
338
100
AcDbEntity
  8
0
  6
ACAD_ISO10W100
100
AcDbTrace
 10
289.4748808666879
 20
4203.664911733341
 30
0.0
 11
289.8915475333545
 21
4203.664911733341
 31
0.0
 12
289.6832142000212
 22
4202.414911733341
 32
0.0
 13
289.6832142000212
 23
4202.414911733341
 33
0.0
  0
MTEXT
  5
33F
330
338
100
AcDbEntity
  8
0
  6
ACAD_ISO10W100
100
AcDbMText
 10
288.622163708203
 20
4210.461661733372
 30
0.0
 40
1.100000023841857
 41
0.0
 71
     5
 72
     1
  1
\A1;16,09
  7
Arial
 11
0.0000000000000001
 21
1.0
 31
0.0
 73
     1
 44
1.0
  0
POINT
  5
340
330
338
100
AcDbEntity
  8
Defpoints
  6
ACAD_ISO10W100
 62
     0
100
AcDbPoint
 10
254.1609626744834
 20
4218.508411733402
 30
0.0
  0
POINT
  5
341
330
338
100
AcDbEntity
  8
Defpoints
  6
ACAD_ISO10W100
 62
     0
100
AcDbPoint
 10
243.1609626744166
 20
4202.414911733341
 30
0.0
  0
POINT
  5
342
330
338
100
AcDbEntity
  8
Defpoints
  6
ACAD_ISO10W100
 62
     0
100
AcDbPoint
 10
289.6832142000212
 20
4202.414911733341
 30
0.0
  0
ENDBLK
  5
343
330
338
100
AcDbEntity
  8
0
 62
     0
100
AcDbBlockEnd
  0
BLOCK
  5
345
330
344
100
AcDbEntity
  8
0
 62
     0
100
AcDbBlockBegin
  2
*D27
 70
     1
 10
0.0
 20
0.0
 30
0.0
  3
*D27
  1

  0
LINE
  5
346
330
344
100
AcDbEntity
  8
0
100
AcDbLine
 10
243.5609626744166
 20
4202.414911733341
 30
0.0
 11
291.2707142000212
 21
4202.414911733341
 31
0.0
  0
LINE
  5
347
330
344
100
AcDbEntity
  8
0
100
AcDbLine
 10
243.5609626744166
 20
4193.508411733341
 30
0.0
 11
291.2707142000212
 21
4193.508411733341
 31
0.0
  0
LINE
  5
348
330
344
100
AcDbEntity
  8
0
100
AcDbLine
 10
289.6832142000212
 20
4201.164911733341
 30
0.0
 11
289.6832142000212
 21
4194.75841173334
 31
0.0
  0
SOLID
  5
349
330
344
100
AcDbEntity
  8
0
  6
ACAD_ISO10W100
100
AcDbTrace
 10
289.4748808666879
 20
4201.164911733341
 30
0.0
 11
289.8915475333545
 21
4201.164911733341
 31
0.0
 12
289.6832142000212
 22
4202.414911733341
 32
0.0
 13
289.6832142000212
 23
4202.414911733341
 33
0.0
  0
SOLID
  5
34A
330
344
100
AcDbEntity
  8
0
  6
ACAD_ISO10W100
100
AcDbTrace
 10
289.4748808666879
 20
4194.75841173334
 30
0.0
 11
289.8915475333545
 21
4194.75841173334
 31
0.0
 12
289.6832142000212
 22
4193.508411733341
 32
0.0
 13
289.6832142000212
 23
4193.508411733341
 33
0.0
  0
MTEXT
  5
34B
330
344
100
AcDbEntity
  8
0
  6
ACAD_ISO10W100
100
AcDbMText
 10
288.622163708203
 20
4197.961661733341
 30
0.0
 40
1.100000023841857
 41
0.0
 71
     5
 72
     1
  1
\A1;8,91
  7
Arial
 11
0.0000000000000001
 21
1.0
 31
0.0
 73
     1
 44
1.0
  0
POINT
  5
34C
330
344
100
AcDbEntity
  8
Defpoints
  6
ACAD_ISO10W100
 62
     0
100
AcDbPoint
 10
243.1609626744166
 20
4202.414911733341
 30
0.0
  0
POINT
  5
34D
330
344
100
AcDbEntity
  8
Defpoints
  6
ACAD_ISO10W100
 62
     0
100
AcDbPoint
 10
243.1609626744166
 20
4193.508411733341
 30
0.0
  0
POINT
  5
34E
330
344
100
AcDbEntity
  8
Defpoints
  6
ACAD_ISO10W100
 62
     0
100
AcDbPoint
 10
289.6832142000212
 20
4193.508411733341
 30
0.0
  0
ENDBLK
  5
34F
330
344
100
AcDbEntity
  8
0
 62
     0
100
AcDbBlockEnd
  0
BLOCK
  5
351
330
350
100
AcDbEntity
  8
0
 62
     0
100
AcDbBlockBegin
  2
*D28
 70
     1
 10
0.0
 20
0.0
 30
0.0
  3
*D28
  1

  0
LINE
  5
352
330
350
100
AcDbEntity
  8
0
100
AcDbLine
 10
203.1609626744244
 20
4194.108411733352
 30
0.0
 11
203.1609626744244
 21
4183.558907655418
 31
0.0
  0
LINE
  5
353
330
350
100
AcDbEntity
  8
0
100
AcDbLine
 10
243.1609626744166
 20
4202.014911733341
 30
0.0
 11
243.1609626744166
 21
4183.558907655418
 31
0.0
  0
LINE
  5
354
330
350
100
AcDbEntity
  8
0
100
AcDbLine
 10
204.4109626744245
 20
4185.146407655419
 30
0.0
 11
241.9109626744166
 21
4185.146407655419
 31
0.0
  0
SOLID
  5
355
330
350
100
AcDbEntity
  8
0
  6
ACAD_ISO10W100
100
AcDbTrace
 10
204.4109626744245
 20
4185.354740988752
 30
0.0
 11
204.4109626744245
 21
4184.938074322086
 31
0.0
 12
203.1609626744244
 22
4185.146407655419
 32
0.0
 13
203.1609626744244
 23
4185.146407655419
 33
0.0
  0
SOLID
  5
356
330
350
100
AcDbEntity
  8
0
  6
ACAD_ISO10W100
100
AcDbTrace
 10
241.9109626744166
 20
4185.354740988752
 30
0.0
 11
241.9109626744166
 21
4184.938074322086
 31
0.0
 12
243.1609626744166
 22
4185.146407655419
 32
0.0
 13
243.1609626744166
 23
4185.146407655419
 33
0.0
  0
MTEXT
  5
357
330
350
100
AcDbEntity
  8
0
  6
ACAD_ISO10W100
100
AcDbMText
 10
223.1609626744206
 20
4186.207458147236
 30
0.0
 40
1.100000023841857
 41
0.0
 71
     5
 72
     1
  1
\A1;40,00
  7
Arial
 73
     1
 44
1.0
  0
POINT
  5
358
330
350
100
AcDbEntity
  8
Defpoints
  6
ACAD_ISO10W100
 62
     0
100
AcDbPoint
 10
203.1609626744244
 20
4194.508411733351
 30
0.0
  0
POINT
  5
359
330
350
100
AcDbEntity
  8
Defpoints
  6
ACAD_ISO10W100
 62
     0
100
AcDbPoint
 10
243.1609626744166
 20
4202.414911733341
 30
0.0
  0
POINT
  5
35A
330
350
100
AcDbEntity
  8
Defpoints
  6
ACAD_ISO10W100
 62
     0
100
AcDbPoint
 10
243.1609626744166
 20
4185.146407655419
 30
0.0
  0
ENDBLK
  5
35B
330
350
100
AcDbEntity
  8
0
 62
     0
100
AcDbBlockEnd
  0
BLOCK
  5
35D
330
35C
100
AcDbEntity
  8
0
 62
     0
100
AcDbBlockBegin
  2
*D29
 70
     1
 10
0.0
 20
0.0
 30
0.0
  3
*D29
  1

  0
LINE
  5
35E
330
35C
100
AcDbEntity
  8
0
100
AcDbLine
 10
243.1609626744166
 20
4202.014911733341
 30
0.0
 11
243.1609626744166
 21
4183.558907655418
 31
0.0
  0
LINE
  5
35F
330
35C
100
AcDbEntity
  8
0
100
AcDbLine
 10
283.1609626744186
 20
4194.108411733341
 30
0.0
 11
283.1609626744186
 21
4183.558907655418
 31
0.0
  0
LINE
  5
360
330
35C
100
AcDbEntity
  8
0
100
AcDbLine
 10
244.4109626744166
 20
4185.146407655419
 30
0.0
 11
281.9109626744186
 21
4185.146407655419
 31
0.0
  0
SOLID
  5
361
330
35C
100
AcDbEntity
  8
0
  6
ACAD_ISO10W100
100
AcDbTrace
 10
244.4109626744166
 20
4185.354740988752
 30
0.0
 11
244.4109626744166
 21
4184.938074322086
 31
0.0
 12
243.1609626744166
 22
4185.146407655419
 32
0.0
 13
243.1609626744166
 23
4185.146407655419
 33
0.0
  0
SOLID
  5
362
330
35C
100
AcDbEntity
  8
0
  6
ACAD_ISO10W100
100
AcDbTrace
 10
281.9109626744186
 20
4185.354740988752
 30
0.0
 11
281.9109626744186
 21
4184.938074322086
 31
0.0
 12
283.1609626744186
 22
4185.146407655419
 32
0.0
 13
283.1609626744186
 23
4185.146407655419
 33
0.0
  0
MTEXT
  5
363
330
35C
100
AcDbEntity
  8
0
  6
ACAD_ISO10W100
100
AcDbMText
 10
263.1609626744176
 20
4186.207458147236
 30
0.0
 40
1.100000023841857
 41
0.0
 71
     5
 72
     1
  1
\A1;40,00
  7
Arial
 73
     1
 44
1.0
  0
POINT
  5
364
330
35C
100
AcDbEntity
  8
Defpoints
  6
ACAD_ISO10W100
 62
     0
100
AcDbPoint
 10
243.1609626744166
 20
4202.414911733341
 30
0.0
  0
POINT
  5
365
330
35C
100
AcDbEntity
  8
Defpoints
  6
ACAD_ISO10W100
 62
     0
100
AcDbPoint
 10
283.1609626744186
 20
4194.50841173334
 30
0.0
  0
POINT
  5
366
330
35C
100
AcDbEntity
  8
Defpoints
  6
ACAD_ISO10W100
 62
     0
100
AcDbPoint
 10
283.1609626744186
 20
4185.146407655419
 30
0.0
  0
ENDBLK
  5
367
330
35C
100
AcDbEntity
  8
0
 62
     0
100
AcDbBlockEnd
  0
BLOCK
  5
369
330
368
100
AcDbEntity
  8
0
 62
     0
100
AcDbBlockBegin
  2
*D30
 70
     1
 10
0.0
 20
0.0
 30
0.0
  3
*D30
  1

  0
LINE
  5
36A
330
368
100
AcDbEntity
  8
0
100
AcDbLine
 10
332.663983447836
 20
4259.477943049519
 30
0.0
 11
332.663983447836
 21
4246.293363540478
 31
0.0
  0
LINE
  5
36B
330
368
100
AcDbEntity
  8
0
100
AcDbLine
 10
340.6639834478442
 20
4256.328539185658
 30
0.0
 11
340.6639834478442
 21
4246.293363540478
 31
0.0
  0
LINE
  5
36C
330
368
100
AcDbEntity
  8
0
100
AcDbLine
 10
333.913983447836
 20
4247.880863540477
 30
0.0
 11
339.4139834478442
 21
4247.880863540477
 31
0.0
  0
SOLID
  5
36D
330
368
100
AcDbEntity
  8
0
  6
ACAD_ISO10W100
100
AcDbTrace
 10
333.913983447836
 20
4248.08919687381
 30
0.0
 11
333.913983447836
 21
4247.672530207144
 31
0.0
 12
332.663983447836
 22
4247.880863540477
 32
0.0
 13
332.663983447836
 23
4247.880863540477
 33
0.0
  0
SOLID
  5
36E
330
368
100
AcDbEntity
  8
0
  6
ACAD_ISO10W100
100
AcDbTrace
 10
339.4139834478442
 20
4248.08919687381
 30
0.0
 11
339.4139834478442
 21
4247.672530207144
 31
0.0
 12
340.6639834478442
 22
4247.880863540477
 32
0.0
 13
340.6639834478442
 23
4247.880863540477
 33
0.0
  0
MTEXT
  5
36F
330
368
100
AcDbEntity
  8
0
  6
ACAD_ISO10W100
100
AcDbMText
 10
336.6639834478401
 20
4248.941914032295
 30
0.0
 40
1.100000023841857
 41
0.0
 71
     5
 72
     1
  1
\A1;2,00
  7
Arial
 73
     1
 44
1.0
  0
POINT
  5
370
330
368
100
AcDbEntity
  8
Defpoints
  6
ACAD_ISO10W100
 62
     0
100
AcDbPoint
 10
332.663983447836
 20
4259.877943049519
 30
0.0
  0
POINT
  5
371
330
368
100
AcDbEntity
  8
Defpoints
  6
ACAD_ISO10W100
 62
     0
100
AcDbPoint
 10
340.6639834478442
 20
4256.728539185658
 30
0.0
  0
POINT
  5
372
330
368
100
AcDbEntity
  8
Defpoints
  6
ACAD_ISO10W100
 62
     0
100
AcDbPoint
 10
340.6639834478442
 20
4247.880863540477
 30
0.0
  0
ENDBLK
  5
373
330
368
100
AcDbEntity
  8
0
 62
     0
100
AcDbBlockEnd
  0
BLOCK
  5
375
330
374
100
AcDbEntity
  8
0
 62
     0
100
AcDbBlockBegin
  2
*D31
 70
     1
 10
0.0
 20
0.0
 30
0.0
  3
*D31
  1

  0
LINE
  5
376
330
374
100
AcDbEntity
  8
0
100
AcDbLine
 10
322.8343404611127
 20
4284.828118938214
 30
0.0
 11
314.8633586733964
 21
4284.828118938214
 31
0.0
  0
LINE
  5
377
330
374
100
AcDbEntity
  8
0
100
AcDbLine
 10
320.5847473092481
 20
4276.828118938207
 30
0.0
 11
314.8633586733964
 21
4276.828118938207
 31
0.0
  0
LINE
  5
378
330
374
100
AcDbEntity
  8
0
100
AcDbLine
 10
316.4508586733964
 20
4283.578118938213
 30
0.0
 11
316.4508586733964
 21
4278.078118938206
 31
0.0
  0
SOLID
  5
379
330
374
100
AcDbEntity
  8
0
  6
ACAD_ISO10W100
100
AcDbTrace
 10
316.2425253400631
 20
4283.578118938213
 30
0.0
 11
316.6591920067297
 21
4283.578118938213
 31
0.0
 12
316.4508586733964
 22
4284.828118938214
 32
0.0
 13
316.4508586733964
 23
4284.828118938214
 33
0.0
  0
SOLID
  5
37A
330
374
100
AcDbEntity
  8
0
  6
ACAD_ISO10W100
100
AcDbTrace
 10
316.2425253400631
 20
4278.078118938206
 30
0.0
 11
316.6591920067297
 21
4278.078118938206
 31
0.0
 12
316.4508586733964
 22
4276.828118938207
 32
0.0
 13
316.4508586733964
 23
4276.828118938207
 33
0.0
  0
MTEXT
  5
37B
330
374
100
AcDbEntity
  8
0
  6
ACAD_ISO10W100
100
AcDbMText
 10
315.3898081815781
 20
4280.82811893821
 30
0.0
 40
1.100000023841857
 41
0.0
 71
     5
 72
     1
  1
\A1;2,00
  7
Arial
 11
0.0000000000000001
 21
1.0
 31
0.0
 73
     1
 44
1.0
  0
POINT
  5
37C
330
374
100
AcDbEntity
  8
Defpoints
  6
ACAD_ISO10W100
 62
     0
100
AcDbPoint
 10
323.2343404611127
 20
4284.828118938214
 30
0.0
  0
POINT
  5
37D
330
374
100
AcDbEntity
  8
Defpoints
  6
ACAD_ISO10W100
 62
     0
100
AcDbPoint
 10
320.9847473092481
 20
4276.828118938207
 30
0.0
  0
POINT
  5
37E
330
374
100
AcDbEntity
  8
Defpoints
  6
ACAD_ISO10W100
 62
     0
100
AcDbPoint
 10
316.4508586733964
 20
4276.828118938207
 30
0.0
  0
ENDBLK
  5
37F
330
374
100
AcDbEntity
  8
0
 62
     0
100
AcDbBlockEnd
  0
BLOCK
  5
381
330
380
100
AcDbEntity
  8
0
 62
     0
100
AcDbBlockBegin
  2
*D32
 70
     1
 10
0.0
 20
0.0
 30
0.0
  3
*D32
  1

  0
LINE
  5
382
330
380
100
AcDbEntity
  8
0
100
AcDbLine
 10
254.6609626744977
 20
4276.824458840221
 30
0.0
 11
254.6609626744977
 21
4273.483084145833
 31
0.0
  0
LINE
  5
383
330
380
100
AcDbEntity
  8
0
100
AcDbLine
 10
256.6609626744977
 20
4276.824458840226
 30
0.0
 11
256.6609626744977
 21
4273.483084145833
 31
0.0
  0
LINE
  5
384
330
380
100
AcDbEntity
  8
0
100
AcDbLine
 10
253.4109626744977
 20
4275.070584145832
 30
0.0
 11
252.1609626744977
 21
4275.070584145832
 31
0.0
  0
LINE
  5
385
330
380
100
AcDbEntity
  8
0
100
AcDbLine
 10
257.9109626744977
 20
4275.070584145832
 30
0.0
 11
262.8332683302048
 21
4275.070584145832
 31
0.0
  0
LINE
  5
386
330
380
100
AcDbEntity
  8
0
100
AcDbLine
 10
254.6609626744977
 20
4275.070584145832
 30
0.0
 11
256.6609626744977
 21
4275.070584145832
 31
0.0
  0
SOLID
  5
387
330
380
100
AcDbEntity
  8
0
  6
ACAD_ISO10W100
100
AcDbTrace
 10
253.4109626744977
 20
4275.278917479165
 30
0.0
 11
253.4109626744977
 21
4274.862250812499
 31
0.0
 12
254.6609626744977
 22
4275.070584145832
 32
0.0
 13
254.6609626744977
 23
4275.070584145832
 33
0.0
  0
SOLID
  5
388
330
380
100
AcDbEntity
  8
0
  6
ACAD_ISO10W100
100
AcDbTrace
 10
257.9109626744977
 20
4275.278917479165
 30
0.0
 11
257.9109626744977
 21
4274.862250812499
 31
0.0
 12
256.6609626744977
 22
4275.070584145832
 32
0.0
 13
256.6609626744977
 23
4275.070584145832
 33
0.0
  0
MTEXT
  5
389
330
380
100
AcDbEntity
  8
0
  6
ACAD_ISO10W100
100
AcDbMText
 10
260.9971155023512
 20
4276.131634637649
 30
0.0
 40
1.100000023841857
 41
0.0
 71
     5
 72
     1
  1
\A1;2,00
  7
Arial
 73
     1
 44
1.0
  0
POINT
  5
38A
330
380
100
AcDbEntity
  8
Defpoints
  6
ACAD_ISO10W100
 62
     0
100
AcDbPoint
 10
254.6609626744977
 20
4277.224458840221
 30
0.0
  0
POINT
  5
38B
330
380
100
AcDbEntity
  8
Defpoints
  6
ACAD_ISO10W100
 62
     0
100
AcDbPoint
 10
256.6609626744977
 20
4277.224458840226
 30
0.0
  0
POINT
  5
38C
330
380
100
AcDbEntity
  8
Defpoints
  6
ACAD_ISO10W100
 62
     0
100
AcDbPoint
 10
256.6609626744977
 20
4275.070584145832
 30
0.0
  0
ENDBLK
  5
38D
330
380
100
AcDbEntity
  8
0
 62
     0
100
AcDbBlockEnd
  0
BLOCK
  5
38F
330
38E
100
AcDbEntity
  8
0
 62
     0
100
AcDbBlockBegin
  2
*D33
 70
     1
 10
0.0
 20
0.0
 30
0.0
  3
*D33
  1

  0
LINE
  5
390
330
38E
100
AcDbEntity
  8
0
100
AcDbLine
 10
249.4609626744834
 20
4282.274458840207
 30
0.0
 11
245.4407510119278
 21
4282.274458840207
 31
0.0
  0
LINE
  5
391
330
38E
100
AcDbEntity
  8
0
100
AcDbLine
 10
249.4609626744891
 20
4280.274458840207
 30
0.0
 11
245.4407510119278
 21
4280.274458840207
 31
0.0
  0
LINE
  5
392
330
38E
100
AcDbEntity
  8
0
100
AcDbLine
 10
247.0282510119278
 20
4283.524458840207
 30
0.0
 11
247.0282510119278
 21
4284.774458840207
 31
0.0
  0
LINE
  5
393
330
38E
100
AcDbEntity
  8
0
100
AcDbLine
 10
247.0282510119278
 20
4279.024458840207
 30
0.0
 11
247.0282510119278
 21
4274.102153184499
 31
0.0
  0
LINE
  5
394
330
38E
100
AcDbEntity
  8
0
100
AcDbLine
 10
247.0282510119278
 20
4282.274458840207
 30
0.0
 11
247.0282510119278
 21
4280.274458840207
 31
0.0
  0
SOLID
  5
395
330
38E
100
AcDbEntity
  8
0
  6
ACAD_ISO10W100
100
AcDbTrace
 10
246.8199176785944
 20
4283.524458840207
 30
0.0
 11
247.2365843452611
 21
4283.524458840207
 31
0.0
 12
247.0282510119278
 22
4282.274458840207
 32
0.0
 13
247.0282510119278
 23
4282.274458840207
 33
0.0
  0
SOLID
  5
396
330
38E
100
AcDbEntity
  8
0
  6
ACAD_ISO10W100
100
AcDbTrace
 10
246.8199176785944
 20
4279.024458840207
 30
0.0
 11
247.2365843452611
 21
4279.024458840207
 31
0.0
 12
247.0282510119278
 22
4280.274458840207
 32
0.0
 13
247.0282510119278
 23
4280.274458840207
 33
0.0
  0
MTEXT
  5
397
330
38E
100
AcDbEntity
  8
0
  6
ACAD_ISO10W100
100
AcDbMText
 10
245.9672005201094
 20
4275.938306012354
 30
0.0
 40
1.100000023841857
 41
0.0
 71
     5
 72
     1
  1
\A1;2,00
  7
Arial
 11
0.0000000000000001
 21
1.0
 31
0.0
 73
     1
 44
1.0
  0
POINT
  5
398
330
38E
100
AcDbEntity
  8
Defpoints
  6
ACAD_ISO10W100
 62
     0
100
AcDbPoint
 10
249.8609626744834
 20
4282.274458840207
 30
0.0
  0
POINT
  5
399
330
38E
100
AcDbEntity
  8
Defpoints
  6
ACAD_ISO10W100
 62
     0
100
AcDbPoint
 10
249.8609626744891
 20
4280.274458840207
 30
0.0
  0
POINT
  5
39A
330
38E
100
AcDbEntity
  8
Defpoints
  6
ACAD_ISO10W100
 62
     0
100
AcDbPoint
 10
247.0282510119278
 20
4280.274458840207
 30
0.0
  0
ENDBLK
  5
39B
330
38E
100
AcDbEntity
  8
0
 62
     0
100
AcDbBlockEnd
  0
BLOCK
  5
39D
330
39C
100
AcDbEntity
  8
0
 62
     0
100
AcDbBlockBegin
  2
*D34
 70
     1
 10
0.0
 20
0.0
 30
0.0
  3
*D34
  1

  0
LINE
  5
39E
330
39C
100
AcDbEntity
  8
0
100
AcDbLine
 10
348.2639834477653
 20
4284.828118938282
 30
0.0
 11
355.2674849342296
 21
4284.828118938282
 31
0.0
  0
LINE
  5
39F
330
39C
100
AcDbEntity
  8
0
100
AcDbLine
 10
347.8315628541829
 20
4268.828556974435
 30
0.0
 11
355.2674849342296
 21
4268.828556974435
 31
0.0
  0
LINE
  5
3A0
330
39C
100
AcDbEntity
  8
0
100
AcDbLine
 10
353.6799849342297
 20
4283.578118938282
 30
0.0
 11
353.6799849342297
 21
4270.078556974435
 31
0.0
  0
SOLID
  5
3A1
330
39C
100
AcDbEntity
  8
0
  6
ACAD_ISO10W100
100
AcDbTrace
 10
353.4716516008963
 20
4283.578118938282
 30
0.0
 11
353.8883182675629
 21
4283.578118938282
 31
0.0
 12
353.6799849342297
 22
4284.828118938282
 32
0.0
 13
353.6799849342297
 23
4284.828118938282
 33
0.0
  0
SOLID
  5
3A2
330
39C
100
AcDbEntity
  8
0
  6
ACAD_ISO10W100
100
AcDbTrace
 10
353.4716516008963
 20
4270.078556974435
 30
0.0
 11
353.8883182675629
 21
4270.078556974435
 31
0.0
 12
353.6799849342297
 22
4268.828556974435
 32
0.0
 13
353.6799849342297
 23
4268.828556974435
 33
0.0
  0
MTEXT
  5
3A3
330
39C
100
AcDbEntity
  8
0
  6
ACAD_ISO10W100
100
AcDbMText
 10
351.9103497781218
 20
4276.828337956358
 30
0.0
 40
1.100000023841857
 41
0.0
 71
     5
 72
     1
  1
\A1;4,00 {\H0.68182x;+0,00\P            -0,25}
  7
Arial
 11
0.0000000000000001
 21
1.0
 31
0.0
 73
     1
 44
1.0
  0
POINT
  5
3A4
330
39C
100
AcDbEntity
  8
Defpoints
  6
ACAD_ISO10W100
 62
     0
100
AcDbPoint
 10
347.8639834477653
 20
4284.828118938282
 30
0.0
  0
POINT
  5
3A5
330
39C
100
AcDbEntity
  8
Defpoints
  6
ACAD_ISO10W100
 62
     0
100
AcDbPoint
 10
347.4315628541829
 20
4268.828556974435
 30
0.0
  0
POINT
  5
3A6
330
39C
100
AcDbEntity
  8
Defpoints
  6
ACAD_ISO10W100
 62
     0
100
AcDbPoint
 10
353.6799849342297
 20
4268.828556974435
 30
0.0
  0
ENDBLK
  5
3A7
330
39C
100
AcDbEntity
  8
0
 62
     0
100
AcDbBlockEnd
  0
BLOCK
  5
3A9
330
3A8
100
AcDbEntity
  8
0
 62
     0
100
AcDbBlockBegin
  2
*D35
 70
     1
 10
0.0
 20
0.0
 30
0.0
  3
*D35
  1

  0
LINE
  5
3AA
330
3A8
100
AcDbEntity
  8
0
100
AcDbLine
 10
346.898298022847
 20
4268.896748088383
 30
0.0
 11
352.3388665196498
 21
4263.45617959161
 31
0.0
  0
ARC
  5
3AB
330
3A8
100
AcDbEntity
  8
0
100
AcDbCircle
 10
340.6639834477928
 20
4275.131062663402
 30
0.0
 40
14.92327797929461
100
AcDbArc
 50
274.800599302956
 51
310.1994006973628
  0
SOLID
  5
3AC
330
3A8
100
AcDbEntity
  8
0
  6
ACAD_ISO10W100
100
AcDbTrace
 10
341.9216118948189
 20
4260.051985238942
 30
0.0
 11
341.9041615285491
 21
4260.468286326892
 31
0.0
 12
340.6639834478344
 22
4260.207784684108
 32
0.0
 13
340.6639834478344
 23
4260.207784684108
 33
0.0
  0
SOLID
  5
3AD
330
3A8
100
AcDbEntity
  8
0
  6
ACAD_ISO10W100
100
AcDbTrace
 10
350.1551936956419
 20
4263.885975754106
 30
0.0
 11
350.4372237456246
 21
4263.579267159479
 31
0.0
 12
351.216334504513
 22
4264.57871160674
 32
0.0
 13
351.216334504513
 23
4264.57871160674
 33
0.0
  0
MTEXT
  5
3AE
102
{ACAD_XDICTIONARY
360
81F
102
}
330
3A8
100
AcDbEntity
  8
0
  6
ACAD_ISO10W100
100
AcDbMText
 10
346.0077361330236
 20
4262.230102456852
 30
0.0
 40
1.100000023841857
 41
0.0
 71
     5
 72
     1
  1
\A1;45\U+00B0
  7
Arial
 11
0.9238795325102291
 21
0.3826834323676429
 31
0.0
 73
     1
 44
1.0
  0
POINT
  5
3AF
330
3A8
100
AcDbEntity
  8
Defpoints
  6
ACAD_ISO10W100
 62
     0
100
AcDbPoint
 10
344.5264120042336
 20
4260.716283050321
 30
0.0
  0
POINT
  5
3B0
330
3A8
100
AcDbEntity
  8
Defpoints
  6
ACAD_ISO10W100
 62
     0
100
AcDbPoint
 10
340.6639834478442
 20
4256.728539185658
 30
0.0
  0
POINT
  5
3B1
330
3A8
100
AcDbEntity
  8
Defpoints
  6
ACAD_ISO10W100
 62
     0
100
AcDbPoint
 10
342.7125115852366
 20
4273.08253452597
 30
0.0
  0
POINT
  5
3B2
330
3A8
100
AcDbEntity
  8
Defpoints
  6
ACAD_ISO10W100
 62
     0
100
AcDbPoint
 10
346.6154553103716
 20
4269.179590800857
 30
0.0
  0
POINT
  5
3B3
330
3A8
100
AcDbEntity
  8
Defpoints
  6
ACAD_ISO10W100
 62
     0
100
AcDbPoint
 10
340.663983447801
 20
4272.234006388537
 30
0.0
  0
ENDBLK
  5
3B4
330
3A8
100
AcDbEntity
  8
0
 62
     0
100
AcDbBlockEnd
  0
BLOCK
  5
3B6
330
3B5
100
AcDbEntity
  8
0
 62
     0
100
AcDbBlockBegin
  2
*D36
 70
     1
 10
0.0
 20
0.0
 30
0.0
  3
*D36
  1

  0
LINE
  5
3B7
330
3B5
100
AcDbEntity
  8
S10_Quote
  6
ACAD_ISO10W100
 62
     0
370
    -2
100
AcDbLine
 10
330.0151538542016
 20
4208.549924960204
 30
0.0
 11
330.0151538542016
 21
4216.81708898225
 31
0.0
  0
LINE
  5
3B8
330
3B5
100
AcDbEntity
  8
S10_Quote
  6
ACAD_ISO10W100
 62
     0
370
    -2
100
AcDbLine
 10
338.0151538542016
 20
4208.549924960204
 30
0.0
 11
338.0151538542016
 21
4216.81708898225
 31
0.0
  0
LINE
  5
3B9
330
3B5
100
AcDbEntity
  8
S10_Quote
  6
ACAD_ISO10W100
 62
     0
370
    -2
100
AcDbLine
 10
330.0301538542016
 20
4215.56708898225
 30
0.0
 11
338.0001538542016
 21
4215.56708898225
 31
0.0
  0
INSERT
  5
3BA
330
3B5
100
AcDbEntity
  8
S10_Quote
  6
ACAD_ISO10W100
 62
     0
370
    -2
100
AcDbBlockReference
  2
A$C79C4041D
 10
330.0151538542016
 20
4215.56708898225
 30
0.0
 41
0.015
 42
0.015
 43
0.015
 50
180.0
  0
INSERT
  5
3BB
330
3B5
100
AcDbEntity
  8
S10_Quote
  6
ACAD_ISO10W100
 62
     0
370
    -2
100
AcDbBlockReference
  2
A$C79C4041D
 10
338.0151538542016
 20
4215.56708898225
 30
0.0
 41
0.015
 42
0.015
 43
0.015
  0
MTEXT
  5
3BC
330
3B5
100
AcDbEntity
  8
S10_Quote
  6
ACAD_ISO10W100
 62
     0
100
AcDbMText
 10
334.0151538542016
 20
4217.367088982251
 30
0.0
 40
2.0
 41
0.0
 71
     5
 72
     1
  1
2
  7
wurth
 73
     1
 44
1.0
  0
POINT
  5
3BD
330
3B5
100
AcDbEntity
  8
Defpoints
  6
ACAD_ISO10W100
 62
     0
100
AcDbPoint
 10
330.0151538542016
 20
4207.924924960203
 30
0.0
  0
POINT
  5
3BE
330
3B5
100
AcDbEntity
  8
Defpoints
  6
ACAD_ISO10W100
 62
     0
100
AcDbPoint
 10
338.0151538542016
 20
4207.924924960203
 30
0.0
  0
POINT
  5
3BF
330
3B5
100
AcDbEntity
  8
Defpoints
  6
ACAD_ISO10W100
 62
     0
100
AcDbPoint
 10
338.0151538542016
 20
4215.56708898225
 30
0.0
  0
ENDBLK
  5
3C0
330
3B5
100
AcDbEntity
  8
0
 62
     0
100
AcDbBlockEnd
  0
BLOCK
  5
3C2
330
3C1
100
AcDbEntity
  8
0
 62
     0
100
AcDbBlockBegin
  2
*D37
 70
     1
 10
0.0
 20
0.0
 30
0.0
  3
*D37
  1

  0
LINE
  5
3C3
330
3C1
100
AcDbEntity
  8
S10_Quote
  6
ACAD_ISO10W100
 62
     0
370
    -2
100
AcDbLine
 10
330.0151538542016
 20
4208.549924960204
 30
0.0
 11
330.0151538542016
 21
4211.854408314976
 31
0.0
  0
LINE
  5
3C4
330
3C1
100
AcDbEntity
  8
S10_Quote
  6
ACAD_ISO10W100
 62
     0
370
    -2
100
AcDbLine
 10
334.0151538542016
 20
4206.549924960203
 30
0.0
 11
334.0151538542016
 21
4211.854408314976
 31
0.0
  0
LINE
  5
3C5
330
3C1
100
AcDbEntity
  8
S10_Quote
  6
ACAD_ISO10W100
 62
     0
370
    -2
100
AcDbLine
 10
330.0301538542016
 20
4210.604408314975
 30
0.0
 11
334.0001538542016
 21
4210.604408314975
 31
0.0
  0
INSERT
  5
3C6
330
3C1
100
AcDbEntity
  8
S10_Quote
  6
ACAD_ISO10W100
 62
     0
370
    -2
100
AcDbBlockReference
  2
A$C79C4041D
 10
330.0151538542016
 20
4210.604408314975
 30
0.0
 41
0.015
 42
0.015
 43
0.015
 50
180.0
  0
INSERT
  5
3C7
330
3C1
100
AcDbEntity
  8
S10_Quote
  6
ACAD_ISO10W100
 62
     0
370
    -2
100
AcDbBlockReference
  2
A$C79C4041D
 10
334.0151538542016
 20
4210.604408314975
 30
0.0
 41
0.015
 42
0.015
 43
0.015
  0
MTEXT
  5
3C8
330
3C1
100
AcDbEntity
  8
S10_Quote
  6
ACAD_ISO10W100
 62
     0
100
AcDbMText
 10
332.0151538542016
 20
4212.404408314975
 30
0.0
 40
2.0
 41
0.0
 71
     5
 72
     1
  1
1
  7
wurth
 73
     1
 44
1.0
  0
POINT
  5
3C9
330
3C1
100
AcDbEntity
  8
Defpoints
  6
ACAD_ISO10W100
 62
     0
100
AcDbPoint
 10
330.0151538542016
 20
4207.924924960203
 30
0.0
  0
POINT
  5
3CA
330
3C1
100
AcDbEntity
  8
Defpoints
  6
ACAD_ISO10W100
 62
     0
100
AcDbPoint
 10
334.0151538542016
 20
4205.924924960203
 30
0.0
  0
POINT
  5
3CB
330
3C1
100
AcDbEntity
  8
Defpoints
  6
ACAD_ISO10W100
 62
     0
100
AcDbPoint
 10
334.0151538542016
 20
4210.604408314975
 30
0.0
  0
ENDBLK
  5
3CC
330
3C1
100
AcDbEntity
  8
0
 62
     0
100
AcDbBlockEnd
  0
BLOCK
  5
3CE
330
3CD
100
AcDbEntity
  8
0
 62
     0
100
AcDbBlockBegin
  2
*D38
 70
     1
 10
0.0
 20
0.0
 30
0.0
  3
*D38
  1

  0
LINE
  5
3CF
330
3CD
100
AcDbEntity
  8
S10_Quote
  6
ACAD_ISO10W100
 62
     0
370
    -2
100
AcDbLine
 10
329.3901538542016
 20
4207.924924960203
 30
0.0
 11
322.5677689841885
 21
4207.924924960203
 31
0.0
  0
LINE
  5
3D0
330
3CD
100
AcDbEntity
  8
S10_Quote
  6
ACAD_ISO10W100
 62
     0
370
    -2
100
AcDbLine
 10
333.3901538542016
 20
4205.924924960203
 30
0.0
 11
322.5677689841885
 21
4205.924924960203
 31
0.0
  0
LINE
  5
3D1
330
3CD
100
AcDbEntity
  8
S10_Quote
  6
ACAD_ISO10W100
 62
     0
370
    -2
100
AcDbLine
 10
323.8177689841885
 20
4205.939924960204
 30
0.0
 11
323.8177689841885
 21
4207.909924960203
 31
0.0
  0
LINE
  5
3D2
330
3CD
100
AcDbEntity
  8
S10_Quote
  6
ACAD_ISO10W100
 62
     0
370
    -2
100
AcDbLine
 10
323.8177689841885
 20
4207.924924960203
 30
0.0
 11
323.8177689841885
 21
4213.023841044118
 31
0.0
  0
INSERT
  5
3D3
330
3CD
100
AcDbEntity
  8
S10_Quote
  6
ACAD_ISO10W100
 62
     0
370
    -2
100
AcDbBlockReference
  2
A$C79C4041D
 10
323.8177689841885
 20
4205.924924960203
 30
0.0
 41
0.015
 42
0.015
 43
0.015
 50
270.0
  0
INSERT
  5
3D4
330
3CD
100
AcDbEntity
  8
S10_Quote
  6
ACAD_ISO10W100
 62
     0
370
    -2
100
AcDbBlockReference
  2
A$C79C4041D
 10
323.8177689841885
 20
4207.924924960203
 30
0.0
 41
0.015
 42
0.015
 43
0.015
 50
90.0
  0
MTEXT
  5
3D5
330
3CD
100
AcDbEntity
  8
S10_Quote
  6
ACAD_ISO10W100
 62
     0
100
AcDbMText
 10
321.8002864667054
 20
4210.481883002161
 30
0.0
 40
2.0
 41
0.0
 71
     5
 72
     1
  1
0,5
  7
wurth
 11
0.0000000000000001
 21
1.0
 31
0.0
 73
     1
 44
1.0
  0
POINT
  5
3D6
330
3CD
100
AcDbEntity
  8
Defpoints
  6
ACAD_ISO10W100
 62
     0
100
AcDbPoint
 10
330.0151538542016
 20
4207.924924960203
 30
0.0
  0
POINT
  5
3D7
330
3CD
100
AcDbEntity
  8
Defpoints
  6
ACAD_ISO10W100
 62
     0
100
AcDbPoint
 10
334.0151538542016
 20
4205.924924960203
 30
0.0
  0
POINT
  5
3D8
330
3CD
100
AcDbEntity
  8
Defpoints
  6
ACAD_ISO10W100
 62
     0
100
AcDbPoint
 10
323.8177689841885
 20
4205.924924960203
 30
0.0
  0
ENDBLK
  5
3D9
330
3CD
100
AcDbEntity
  8
0
 62
     0
100
AcDbBlockEnd
  0
BLOCK
  5
49C
330
49B
100
AcDbEntity
  8
0
100
AcDbBlockBegin
  2
*D40
 70
     1
 10
0.0
 20
0.0
 30
0.0
  3
*D40
  1

  0
LINE
  5
67B
330
49B
100
AcDbEntity
  8
0
100
AcDbLine
 10
1893.245406316504
 20
805.9264859629951
 30
0.0
 11
1893.245406316504
 21
814.1765685997892
 31
0.0
  0
LINE
  5
67C
330
49B
100
AcDbEntity
  8
0
100
AcDbLine
 10
1895.245406316508
 20
804.7279578255697
 30
0.0
 11
1895.245406316508
 21
814.1765685997892
 31
0.0
  0
LINE
  5
67D
330
49B
100
AcDbEntity
  8
0
100
AcDbLine
 10
1896.495406316508
 20
812.5890685997893
 30
0.0
 11
1897.745406316508
 21
812.5890685997893
 31
0.0
  0
LINE
  5
67E
330
49B
100
AcDbEntity
  8
0
100
AcDbLine
 10
1891.995406316505
 20
812.5890685997893
 30
0.0
 11
1887.073100660797
 21
812.5890685997893
 31
0.0
  0
LINE
  5
67F
330
49B
100
AcDbEntity
  8
0
100
AcDbLine
 10
1895.245406316508
 20
812.5890685997893
 30
0.0
 11
1893.245406316504
 21
812.5890685997893
 31
0.0
  0
SOLID
  5
680
330
49B
100
AcDbEntity
  8
0
  6
ACAD_ISO10W100
100
AcDbTrace
 10
1896.495406316508
 20
812.7974019331226
 30
0.0
 11
1896.495406316508
 21
812.3807352664558
 31
0.0
 12
1895.245406316508
 22
812.5890685997893
 32
0.0
 13
1895.245406316508
 23
812.5890685997893
 33
0.0
  0
SOLID
  5
681
330
49B
100
AcDbEntity
  8
0
  6
ACAD_ISO10W100
100
AcDbTrace
 10
1891.995406316505
 20
812.7974019331226
 30
0.0
 11
1891.995406316505
 21
812.3807352664558
 31
0.0
 12
1893.245406316504
 22
812.5890685997893
 32
0.0
 13
1893.245406316504
 23
812.5890685997893
 33
0.0
  0
MTEXT
  5
682
330
49B
100
AcDbEntity
  8
0
  6
ACAD_ISO10W100
100
AcDbMText
 10
1888.909253488651
 20
813.6501190916069
 30
0.0
 40
1.100000023841857
 41
0.0
 71
     5
 72
     1
  1
\A1;2,00
  7
Arial
 73
     1
 44
1.0
  0
POINT
  5
683
330
49B
100
AcDbEntity
  8
Defpoints
  6
ACAD_ISO10W100
 62
     0
100
AcDbPoint
 10
1893.245406316504
 20
805.5264859629952
 30
0.0
  0
POINT
  5
684
330
49B
100
AcDbEntity
  8
Defpoints
  6
ACAD_ISO10W100
 62
     0
100
AcDbPoint
 10
1895.245406316508
 20
804.3279578255697
 30
0.0
  0
POINT
  5
685
330
49B
100
AcDbEntity
  8
Defpoints
  6
ACAD_ISO10W100
 62
     0
100
AcDbPoint
 10
1895.245406316508
 20
812.5890685997893
 30
0.0
  0
ENDBLK
  5
49D
330
49B
100
AcDbEntity
  8
0
100
AcDbBlockEnd
  0
BLOCK
  5
4AA
330
4A9
100
AcDbEntity
  8
0
100
AcDbBlockBegin
  2
*D41
 70
     1
 10
0.0
 20
0.0
 30
0.0
  3
*D41
  1

  0
LINE
  5
686
330
4A9
100
AcDbEntity
  8
0
100
AcDbLine
 10
1895.245406316508
 20
804.7279578255697
 30
0.0
 11
1895.245406316508
 21
814.1765685997892
 31
0.0
  0
LINE
  5
687
330
4A9
100
AcDbEntity
  8
0
100
AcDbLine
 10
1902.245406316502
 20
806.8764859630194
 30
0.0
 11
1902.245406316502
 21
814.1765685997892
 31
0.0
  0
LINE
  5
688
330
4A9
100
AcDbEntity
  8
0
100
AcDbLine
 10
1896.495406316508
 20
812.5890685997893
 30
0.0
 11
1900.995406316502
 21
812.5890685997893
 31
0.0
  0
SOLID
  5
689
330
4A9
100
AcDbEntity
  8
0
  6
ACAD_ISO10W100
100
AcDbTrace
 10
1896.495406316508
 20
812.7974019331226
 30
0.0
 11
1896.495406316508
 21
812.3807352664558
 31
0.0
 12
1895.245406316508
 22
812.5890685997893
 32
0.0
 13
1895.245406316508
 23
812.5890685997893
 33
0.0
  0
SOLID
  5
68A
330
4A9
100
AcDbEntity
  8
0
  6
ACAD_ISO10W100
100
AcDbTrace
 10
1900.995406316502
 20
812.7974019331226
 30
0.0
 11
1900.995406316502
 21
812.3807352664558
 31
0.0
 12
1902.245406316502
 22
812.5890685997893
 32
0.0
 13
1902.245406316502
 23
812.5890685997893
 33
0.0
  0
MTEXT
  5
68B
330
4A9
100
AcDbEntity
  8
0
  6
ACAD_ISO10W100
100
AcDbMText
 10
1898.745406316505
 20
813.6501190916069
 30
0.0
 40
1.100000023841857
 41
0.0
 71
     5
 72
     1
  1
\A1;7,00
  7
Arial
 73
     1
 44
1.0
  0
POINT
  5
68C
330
4A9
100
AcDbEntity
  8
Defpoints
  6
ACAD_ISO10W100
 62
     0
100
AcDbPoint
 10
1895.245406316508
 20
804.3279578255697
 30
0.0
  0
POINT
  5
68D
330
4A9
100
AcDbEntity
  8
Defpoints
  6
ACAD_ISO10W100
 62
     0
100
AcDbPoint
 10
1902.245406316502
 20
806.4764859630194
 30
0.0
  0
POINT
  5
68E
330
4A9
100
AcDbEntity
  8
Defpoints
  6
ACAD_ISO10W100
 62
     0
100
AcDbPoint
 10
1902.245406316502
 20
812.5890685997893
 30
0.0
  0
ENDBLK
  5
4AB
330
4A9
100
AcDbEntity
  8
0
100
AcDbBlockEnd
  0
BLOCK
  5
4B6
330
4B5
100
AcDbEntity
  8
0
100
AcDbBlockBegin
  2
*D42
 70
     1
 10
0.0
 20
0.0
 30
0.0
  3
*D42
  1

  0
LINE
  5
68F
330
4B5
100
AcDbEntity
  8
0
100
AcDbLine
 10
1902.245406316502
 20
806.8764859630194
 30
0.0
 11
1902.245406316502
 21
814.1765685997892
 31
0.0
  0
LINE
  5
690
330
4B5
100
AcDbEntity
  8
0
100
AcDbLine
 10
1915.245406316502
 20
806.8764859630558
 30
0.0
 11
1915.245406316502
 21
814.1765685997892
 31
0.0
  0
LINE
  5
691
330
4B5
100
AcDbEntity
  8
0
100
AcDbLine
 10
1903.495406316502
 20
812.5890685997893
 30
0.0
 11
1913.995406316502
 21
812.5890685997893
 31
0.0
  0
SOLID
  5
692
330
4B5
100
AcDbEntity
  8
0
  6
ACAD_ISO10W100
100
AcDbTrace
 10
1903.495406316502
 20
812.7974019331226
 30
0.0
 11
1903.495406316502
 21
812.3807352664558
 31
0.0
 12
1902.245406316502
 22
812.5890685997893
 32
0.0
 13
1902.245406316502
 23
812.5890685997893
 33
0.0
  0
SOLID
  5
693
330
4B5
100
AcDbEntity
  8
0
  6
ACAD_ISO10W100
100
AcDbTrace
 10
1913.995406316502
 20
812.7974019331226
 30
0.0
 11
1913.995406316502
 21
812.3807352664558
 31
0.0
 12
1915.245406316502
 22
812.5890685997893
 32
0.0
 13
1915.245406316502
 23
812.5890685997893
 33
0.0
  0
MTEXT
  5
694
330
4B5
100
AcDbEntity
  8
0
  6
ACAD_ISO10W100
100
AcDbMText
 10
1908.745406316502
 20
813.6501190916069
 30
0.0
 40
1.100000023841857
 41
0.0
 71
     5
 72
     1
  1
\A1;13,00
  7
Arial
 73
     1
 44
1.0
  0
POINT
  5
695
330
4B5
100
AcDbEntity
  8
Defpoints
  6
ACAD_ISO10W100
 62
     0
100
AcDbPoint
 10
1902.245406316502
 20
806.4764859630194
 30
0.0
  0
POINT
  5
696
330
4B5
100
AcDbEntity
  8
Defpoints
  6
ACAD_ISO10W100
 62
     0
100
AcDbPoint
 10
1915.245406316502
 20
806.4764859630559
 30
0.0
  0
POINT
  5
697
330
4B5
100
AcDbEntity
  8
Defpoints
  6
ACAD_ISO10W100
 62
     0
100
AcDbPoint
 10
1915.245406316502
 20
812.5890685997893
 30
0.0
  0
ENDBLK
  5
4B7
330
4B5
100
AcDbEntity
  8
0
100
AcDbBlockEnd
  0
BLOCK
  5
4C2
330
4C1
100
AcDbEntity
  8
0
100
AcDbBlockBegin
  2
*D43
 70
     1
 10
0.0
 20
0.0
 30
0.0
  3
*D43
  1

  0
LINE
  5
698
330
4C1
100
AcDbEntity
  8
0
100
AcDbLine
 10
1915.245406316502
 20
806.8764859630558
 30
0.0
 11
1915.245406316502
 21
814.1765685997892
 31
0.0
  0
LINE
  5
699
330
4C1
100
AcDbEntity
  8
0
100
AcDbLine
 10
1922.245406316508
 20
804.7279578256443
 30
0.0
 11
1922.245406316508
 21
814.1765685997892
 31
0.0
  0
LINE
  5
69A
330
4C1
100
AcDbEntity
  8
0
100
AcDbLine
 10
1916.495406316502
 20
812.5890685997893
 30
0.0
 11
1920.995406316508
 21
812.5890685997893
 31
0.0
  0
SOLID
  5
69B
330
4C1
100
AcDbEntity
  8
0
  6
ACAD_ISO10W100
100
AcDbTrace
 10
1916.495406316502
 20
812.7974019331226
 30
0.0
 11
1916.495406316502
 21
812.3807352664558
 31
0.0
 12
1915.245406316502
 22
812.5890685997893
 32
0.0
 13
1915.245406316502
 23
812.5890685997893
 33
0.0
  0
SOLID
  5
69C
330
4C1
100
AcDbEntity
  8
0
  6
ACAD_ISO10W100
100
AcDbTrace
 10
1920.995406316508
 20
812.7974019331226
 30
0.0
 11
1920.995406316508
 21
812.3807352664558
 31
0.0
 12
1922.245406316508
 22
812.5890685997893
 32
0.0
 13
1922.245406316508
 23
812.5890685997893
 33
0.0
  0
MTEXT
  5
69D
330
4C1
100
AcDbEntity
  8
0
  6
ACAD_ISO10W100
100
AcDbMText
 10
1918.745406316505
 20
813.6501190916069
 30
0.0
 40
1.100000023841857
 41
0.0
 71
     5
 72
     1
  1
\A1;7,00
  7
Arial
 73
     1
 44
1.0
  0
POINT
  5
69E
330
4C1
100
AcDbEntity
  8
Defpoints
  6
ACAD_ISO10W100
 62
     0
100
AcDbPoint
 10
1915.245406316502
 20
806.4764859630559
 30
0.0
  0
POINT
  5
69F
330
4C1
100
AcDbEntity
  8
Defpoints
  6
ACAD_ISO10W100
 62
     0
100
AcDbPoint
 10
1922.245406316508
 20
804.3279578256441
 30
0.0
  0
POINT
  5
6A0
330
4C1
100
AcDbEntity
  8
Defpoints
  6
ACAD_ISO10W100
 62
     0
100
AcDbPoint
 10
1922.245406316508
 20
812.5890685997893
 30
0.0
  0
ENDBLK
  5
4C3
330
4C1
100
AcDbEntity
  8
0
100
AcDbBlockEnd
  0
BLOCK
  5
4CE
330
4CD
100
AcDbEntity
  8
0
100
AcDbBlockBegin
  2
*D44
 70
     1
 10
0.0
 20
0.0
 30
0.0
  3
*D44
  1

  0
LINE
  5
6A1
330
4CD
100
AcDbEntity
  8
0
100
AcDbLine
 10
1922.245406316508
 20
804.7279578256443
 30
0.0
 11
1922.245406316508
 21
814.1765685997892
 31
0.0
  0
LINE
  5
6A2
330
4CD
100
AcDbEntity
  8
0
100
AcDbLine
 10
1924.245406316504
 20
805.9264859630824
 30
0.0
 11
1924.245406316504
 21
814.1765685997892
 31
0.0
  0
LINE
  5
6A3
330
4CD
100
AcDbEntity
  8
0
100
AcDbLine
 10
1920.995406316508
 20
812.5890685997893
 30
0.0
 11
1919.745406316508
 21
812.5890685997893
 31
0.0
  0
LINE
  5
6A4
330
4CD
100
AcDbEntity
  8
0
100
AcDbLine
 10
1925.495406316505
 20
812.5890685997893
 30
0.0
 11
1926.745406316505
 21
812.5890685997893
 31
0.0
  0
MTEXT
  5
6A5
330
4CD
100
AcDbEntity
  8
0
  6
ACAD_ISO10W100
100
AcDbMText
 10
1926.999239934582
 20
813.6501190916069
 30
0.0
 40
1.100000023841857
 41
0.0
 71
     5
 72
     1
  1
\A1;2,00
  7
Arial
 73
     1
 44
1.0
  0
LINE
  5
6A6
330
4CD
100
AcDbEntity
  8
0
100
AcDbLine
 10
1922.245406316508
 20
812.5890685997893
 30
0.0
 11
1924.245406316504
 21
812.5890685997893
 31
0.0
  0
SOLID
  5
6A7
330
4CD
100
AcDbEntity
  8
0
  6
ACAD_ISO10W100
100
AcDbTrace
 10
1920.995406316508
 20
812.7974019331226
 30
0.0
 11
1920.995406316508
 21
812.3807352664558
 31
0.0
 12
1922.245406316508
 22
812.5890685997893
 32
0.0
 13
1922.245406316508
 23
812.5890685997893
 33
0.0
  0
SOLID
  5
6A8
330
4CD
100
AcDbEntity
  8
0
  6
ACAD_ISO10W100
100
AcDbTrace
 10
1925.495406316505
 20
812.7974019331226
 30
0.0
 11
1925.495406316505
 21
812.3807352664558
 31
0.0
 12
1924.245406316504
 22
812.5890685997893
 32
0.0
 13
1924.245406316504
 23
812.5890685997893
 33
0.0
  0
POINT
  5
6A9
330
4CD
100
AcDbEntity
  8
Defpoints
  6
ACAD_ISO10W100
 62
     0
100
AcDbPoint
 10
1922.245406316508
 20
804.3279578256441
 30
0.0
  0
POINT
  5
6AA
330
4CD
100
AcDbEntity
  8
Defpoints
  6
ACAD_ISO10W100
 62
     0
100
AcDbPoint
 10
1924.245406316504
 20
805.5264859630824
 30
0.0
  0
POINT
  5
6AB
330
4CD
100
AcDbEntity
  8
Defpoints
  6
ACAD_ISO10W100
 62
     0
100
AcDbPoint
 10
1924.245406316504
 20
812.5890685997893
 30
0.0
  0
ENDBLK
  5
4CF
330
4CD
100
AcDbEntity
  8
0
100
AcDbBlockEnd
  0
BLOCK
  5
4DC
330
4DB
100
AcDbEntity
  8
0
100
AcDbBlockBegin
  2
*D45
 70
     1
 10
0.0
 20
0.0
 30
0.0
  3
*D45
  1

  0
LINE
  5
6AC
330
4DB
100
AcDbEntity
  8
0
100
AcDbLine
 10
1893.245406316504
 20
806.3264859629947
 30
0.0
 11
1893.245406316504
 21
818.8948497275145
 31
0.0
  0
LINE
  5
6AD
330
4DB
100
AcDbEntity
  8
0
100
AcDbLine
 10
1902.245406316502
 20
806.8764859630194
 30
0.0
 11
1902.245406316502
 21
818.8948497275145
 31
0.0
  0
LINE
  5
6AE
330
4DB
100
AcDbEntity
  8
0
100
AcDbLine
 10
1894.495406316504
 20
817.3073497275145
 30
0.0
 11
1900.995406316502
 21
817.3073497275145
 31
0.0
  0
SOLID
  5
6AF
330
4DB
100
AcDbEntity
  8
0
  6
ACAD_ISO10W100
100
AcDbTrace
 10
1894.495406316504
 20
817.5156830608479
 30
0.0
 11
1894.495406316504
 21
817.099016394181
 31
0.0
 12
1893.245406316504
 22
817.3073497275145
 32
0.0
 13
1893.245406316504
 23
817.3073497275145
 33
0.0
  0
SOLID
  5
6B0
330
4DB
100
AcDbEntity
  8
0
  6
ACAD_ISO10W100
100
AcDbTrace
 10
1900.995406316502
 20
817.5156830608479
 30
0.0
 11
1900.995406316502
 21
817.099016394181
 31
0.0
 12
1902.245406316502
 22
817.3073497275145
 32
0.0
 13
1902.245406316502
 23
817.3073497275145
 33
0.0
  0
MTEXT
  5
6B1
330
4DB
100
AcDbEntity
  8
0
  6
ACAD_ISO10W100
100
AcDbMText
 10
1897.745406316503
 20
818.3684002193322
 30
0.0
 40
1.100000023841857
 41
0.0
 71
     5
 72
     1
  1
\A1;9,00
  7
Arial
 73
     1
 44
1.0
  0
POINT
  5
6B2
330
4DB
100
AcDbEntity
  8
Defpoints
  6
ACAD_ISO10W100
 62
     0
100
AcDbPoint
 10
1893.245406316504
 20
805.9264859629948
 30
0.0
  0
POINT
  5
6B3
330
4DB
100
AcDbEntity
  8
Defpoints
  6
ACAD_ISO10W100
 62
     0
100
AcDbPoint
 10
1902.245406316502
 20
806.4764859630194
 30
0.0
  0
POINT
  5
6B4
330
4DB
100
AcDbEntity
  8
Defpoints
  6
ACAD_ISO10W100
 62
     0
100
AcDbPoint
 10
1902.245406316502
 20
817.3073497275145
 30
0.0
  0
ENDBLK
  5
4DD
330
4DB
100
AcDbEntity
  8
0
100
AcDbBlockEnd
  0
BLOCK
  5
4E8
330
4E7
100
AcDbEntity
  8
0
100
AcDbBlockBegin
  2
*D46
 70
     1
 10
0.0
 20
0.0
 30
0.0
  3
*D46
  1

  0
LINE
  5
6B5
330
4E7
100
AcDbEntity
  8
0
100
AcDbLine
 10
1902.245406316502
 20
806.8764859630194
 30
0.0
 11
1902.245406316502
 21
818.8948497275145
 31
0.0
  0
LINE
  5
6B6
330
4E7
100
AcDbEntity
  8
0
100
AcDbLine
 10
1915.245406316502
 20
806.8764859630558
 30
0.0
 11
1915.245406316502
 21
818.8948497275145
 31
0.0
  0
LINE
  5
6B7
330
4E7
100
AcDbEntity
  8
0
100
AcDbLine
 10
1903.495406316502
 20
817.3073497275145
 30
0.0
 11
1913.995406316502
 21
817.3073497275145
 31
0.0
  0
SOLID
  5
6B8
330
4E7
100
AcDbEntity
  8
0
  6
ACAD_ISO10W100
100
AcDbTrace
 10
1903.495406316502
 20
817.5156830608479
 30
0.0
 11
1903.495406316502
 21
817.099016394181
 31
0.0
 12
1902.245406316502
 22
817.3073497275145
 32
0.0
 13
1902.245406316502
 23
817.3073497275145
 33
0.0
  0
SOLID
  5
6B9
330
4E7
100
AcDbEntity
  8
0
  6
ACAD_ISO10W100
100
AcDbTrace
 10
1913.995406316502
 20
817.5156830608479
 30
0.0
 11
1913.995406316502
 21
817.099016394181
 31
0.0
 12
1915.245406316502
 22
817.3073497275145
 32
0.0
 13
1915.245406316502
 23
817.3073497275145
 33
0.0
  0
MTEXT
  5
6BA
330
4E7
100
AcDbEntity
  8
0
  6
ACAD_ISO10W100
100
AcDbMText
 10
1908.745406316502
 20
818.3684002193322
 30
0.0
 40
1.100000023841857
 41
0.0
 71
     5
 72
     1
  1
\A1;13,00
  7
Arial
 73
     1
 44
1.0
  0
POINT
  5
6BB
330
4E7
100
AcDbEntity
  8
Defpoints
  6
ACAD_ISO10W100
 62
     0
100
AcDbPoint
 10
1902.245406316502
 20
806.4764859630194
 30
0.0
  0
POINT
  5
6BC
330
4E7
100
AcDbEntity
  8
Defpoints
  6
ACAD_ISO10W100
 62
     0
100
AcDbPoint
 10
1915.245406316502
 20
806.4764859630559
 30
0.0
  0
POINT
  5
6BD
330
4E7
100
AcDbEntity
  8
Defpoints
  6
ACAD_ISO10W100
 62
     0
100
AcDbPoint
 10
1915.245406316502
 20
817.3073497275145
 30
0.0
  0
ENDBLK
  5
4E9
330
4E7
100
AcDbEntity
  8
0
100
AcDbBlockEnd
  0
BLOCK
  5
4F4
330
4F3
100
AcDbEntity
  8
0
100
AcDbBlockBegin
  2
*D47
 70
     1
 10
0.0
 20
0.0
 30
0.0
  3
*D47
  1

  0
LINE
  5
6BE
330
4F3
100
AcDbEntity
  8
0
100
AcDbLine
 10
1915.245406316502
 20
806.8764859630558
 30
0.0
 11
1915.245406316502
 21
818.8948497275145
 31
0.0
  0
LINE
  5
6BF
330
4F3
100
AcDbEntity
  8
0
100
AcDbLine
 10
1924.245406316504
 20
806.326485963082
 30
0.0
 11
1924.245406316504
 21
818.8948497275145
 31
0.0
  0
LINE
  5
6C0
330
4F3
100
AcDbEntity
  8
0
100
AcDbLine
 10
1916.495406316502
 20
817.3073497275145
 30
0.0
 11
1922.995406316504
 21
817.3073497275145
 31
0.0
  0
SOLID
  5
6C1
330
4F3
100
AcDbEntity
  8
0
  6
ACAD_ISO10W100
100
AcDbTrace
 10
1916.495406316502
 20
817.5156830608479
 30
0.0
 11
1916.495406316502
 21
817.099016394181
 31
0.0
 12
1915.245406316502
 22
817.3073497275145
 32
0.0
 13
1915.245406316502
 23
817.3073497275145
 33
0.0
  0
SOLID
  5
6C2
330
4F3
100
AcDbEntity
  8
0
  6
ACAD_ISO10W100
100
AcDbTrace
 10
1922.995406316504
 20
817.5156830608479
 30
0.0
 11
1922.995406316504
 21
817.099016394181
 31
0.0
 12
1924.245406316504
 22
817.3073497275145
 32
0.0
 13
1924.245406316504
 23
817.3073497275145
 33
0.0
  0
MTEXT
  5
6C3
330
4F3
100
AcDbEntity
  8
0
  6
ACAD_ISO10W100
100
AcDbMText
 10
1919.745406316503
 20
818.3684002193322
 30
0.0
 40
1.100000023841857
 41
0.0
 71
     5
 72
     1
  1
\A1;9,00
  7
Arial
 73
     1
 44
1.0
  0
POINT
  5
6C4
330
4F3
100
AcDbEntity
  8
Defpoints
  6
ACAD_ISO10W100
 62
     0
100
AcDbPoint
 10
1915.245406316502
 20
806.4764859630559
 30
0.0
  0
POINT
  5
6C5
330
4F3
100
AcDbEntity
  8
Defpoints
  6
ACAD_ISO10W100
 62
     0
100
AcDbPoint
 10
1924.245406316504
 20
805.926485963082
 30
0.0
  0
POINT
  5
6C6
330
4F3
100
AcDbEntity
  8
Defpoints
  6
ACAD_ISO10W100
 62
     0
100
AcDbPoint
 10
1924.245406316504
 20
817.3073497275145
 30
0.0
  0
ENDBLK
  5
4F5
330
4F3
100
AcDbEntity
  8
0
100
AcDbBlockEnd
  0
BLOCK
  5
500
330
4FF
100
AcDbEntity
  8
0
100
AcDbBlockBegin
  2
*D48
 70
     1
 10
0.0
 20
0.0
 30
0.0
  3
*D48
  1

  0
LINE
  5
6C7
330
4FF
100
AcDbEntity
  8
0
100
AcDbLine
 10
1897.345406316499
 20
807.4764859630068
 30
0.0
 11
1860.343893383563
 21
807.4764859630068
 31
0.0
  0
LINE
  5
6C8
330
4FF
100
AcDbEntity
  8
0
100
AcDbLine
 10
1897.345406316505
 20
805.4764859630067
 30
0.0
 11
1860.343893383563
 21
805.4764859630067
 31
0.0
  0
LINE
  5
6C9
330
4FF
100
AcDbEntity
  8
0
100
AcDbLine
 10
1861.931393383563
 20
804.2264859630067
 30
0.0
 11
1861.931393383563
 21
802.9764859630068
 31
0.0
  0
LINE
  5
6CA
330
4FF
100
AcDbEntity
  8
0
100
AcDbLine
 10
1861.931393383563
 20
808.7264859630067
 30
0.0
 11
1861.931393383563
 21
813.6487916187139
 31
0.0
  0
LINE
  5
6CB
330
4FF
100
AcDbEntity
  8
0
100
AcDbLine
 10
1861.931393383563
 20
805.4764859630067
 30
0.0
 11
1861.931393383563
 21
807.4764859630068
 31
0.0
  0
SOLID
  5
6CC
330
4FF
100
AcDbEntity
  8
0
  6
ACAD_ISO10W100
100
AcDbTrace
 10
1861.72306005023
 20
804.2264859630067
 30
0.0
 11
1862.139726716896
 21
804.2264859630067
 31
0.0
 12
1861.931393383563
 22
805.4764859630067
 32
0.0
 13
1861.931393383563
 23
805.4764859630067
 33
0.0
  0
SOLID
  5
6CD
330
4FF
100
AcDbEntity
  8
0
  6
ACAD_ISO10W100
100
AcDbTrace
 10
1861.72306005023
 20
808.7264859630067
 30
0.0
 11
1862.139726716896
 21
808.7264859630067
 31
0.0
 12
1861.931393383563
 22
807.4764859630068
 32
0.0
 13
1861.931393383563
 23
807.4764859630068
 33
0.0
  0
MTEXT
  5
6CE
330
4FF
100
AcDbEntity
  8
0
  6
ACAD_ISO10W100
100
AcDbMText
 10
1860.870342891745
 20
811.8126387908606
 30
0.0
 40
1.100000023841857
 41
0.0
 71
     5
 72
     1
  1
\A1;2,00
  7
Arial
 11
0.0000000000000001
 21
1.0
 31
0.0
 73
     1
 44
1.0
  0
POINT
  5
6CF
330
4FF
100
AcDbEntity
  8
Defpoints
  6
ACAD_ISO10W100
 62
     0
100
AcDbPoint
 10
1897.745406316499
 20
807.4764859630068
 30
0.0
  0
POINT
  5
6D0
330
4FF
100
AcDbEntity
  8
Defpoints
  6
ACAD_ISO10W100
 62
     0
100
AcDbPoint
 10
1897.745406316505
 20
805.4764859630067
 30
0.0
  0
POINT
  5
6D1
330
4FF
100
AcDbEntity
  8
Defpoints
  6
ACAD_ISO10W100
 62
     0
100
AcDbPoint
 10
1861.931393383563
 20
805.4764859630067
 30
0.0
  0
ENDBLK
  5
501
330
4FF
100
AcDbEntity
  8
0
100
AcDbBlockEnd
  0
BLOCK
  5
50E
330
50D
100
AcDbEntity
  8
0
100
AcDbBlockBegin
  2
*D49
 70
     1
 10
0.0
 20
0.0
 30
0.0
  3
*D49
  1

  0
LINE
  5
6D2
330
50D
100
AcDbEntity
  8
0
100
AcDbLine
 10
1897.345406316505
 20
805.4764859630067
 30
0.0
 11
1860.343893383563
 21
805.4764859630067
 31
0.0
  0
LINE
  5
6D3
330
50D
100
AcDbEntity
  8
0
100
AcDbLine
 10
1897.445406316523
 20
798.9764859630067
 30
0.0
 11
1860.343893383563
 21
798.9764859630067
 31
0.0
  0
LINE
  5
6D4
330
50D
100
AcDbEntity
  8
0
100
AcDbLine
 10
1861.931393383563
 20
804.2264859630067
 30
0.0
 11
1861.931393383563
 21
800.2264859630068
 31
0.0
  0
SOLID
  5
6D5
330
50D
100
AcDbEntity
  8
0
  6
ACAD_ISO10W100
100
AcDbTrace
 10
1861.723060050229
 20
804.2264859630067
 30
0.0
 11
1862.139726716896
 21
804.2264859630067
 31
0.0
 12
1861.931393383563
 22
805.4764859630067
 32
0.0
 13
1861.931393383563
 23
805.4764859630067
 33
0.0
  0
SOLID
  5
6D6
330
50D
100
AcDbEntity
  8
0
  6
ACAD_ISO10W100
100
AcDbTrace
 10
1861.723060050229
 20
800.2264859630068
 30
0.0
 11
1862.139726716896
 21
800.2264859630068
 31
0.0
 12
1861.931393383563
 22
798.9764859630067
 32
0.0
 13
1861.931393383563
 23
798.9764859630067
 33
0.0
  0
MTEXT
  5
6D7
330
50D
100
AcDbEntity
  8
0
  6
ACAD_ISO10W100
100
AcDbMText
 10
1860.870342891745
 20
802.2264859630071
 30
0.0
 40
1.100000023841857
 41
0.0
 71
     5
 72
     1
  1
\A1;6,50
  7
Arial
 11
0.0000000000000001
 21
1.0
 31
0.0
 73
     1
 44
1.0
  0
POINT
  5
6D8
330
50D
100
AcDbEntity
  8
Defpoints
  6
ACAD_ISO10W100
 62
     0
100
AcDbPoint
 10
1897.745406316505
 20
805.4764859630067
 30
0.0
  0
POINT
  5
6D9
330
50D
100
AcDbEntity
  8
Defpoints
  6
ACAD_ISO10W100
 62
     0
100
AcDbPoint
 10
1897.845406316523
 20
798.9764859630067
 30
0.0
  0
POINT
  5
6DA
330
50D
100
AcDbEntity
  8
Defpoints
  6
ACAD_ISO10W100
 62
     0
100
AcDbPoint
 10
1861.931393383563
 20
798.9764859630067
 30
0.0
  0
ENDBLK
  5
50F
330
50D
100
AcDbEntity
  8
0
100
AcDbBlockEnd
  0
BLOCK
  5
51A
330
519
100
AcDbEntity
  8
0
100
AcDbBlockBegin
  2
*D50
 70
     1
 10
0.0
 20
0.0
 30
0.0
  3
*D50
  1

  0
LINE
  5
6DB
330
519
100
AcDbEntity
  8
0
100
AcDbLine
 10
1897.445406316523
 20
798.9764859630067
 30
0.0
 11
1860.343893383563
 21
798.9764859630067
 31
0.0
  0
LINE
  5
6DC
330
519
100
AcDbEntity
  8
0
100
AcDbLine
 10
1897.445406316527
 20
797.6764859629574
 30
0.0
 11
1860.343893383563
 21
797.6764859629574
 31
0.0
  0
LINE
  5
6DD
330
519
100
AcDbEntity
  8
0
100
AcDbLine
 10
1861.931393383563
 20
800.2264859630068
 30
0.0
 11
1861.931393383563
 21
801.4764859630068
 31
0.0
  0
LINE
  5
6DE
330
519
100
AcDbEntity
  8
0
100
AcDbLine
 10
1861.931393383563
 20
796.4264859629574
 30
0.0
 11
1861.931393383563
 21
795.1764859629575
 31
0.0
  0
LINE
  5
6DF
330
519
100
AcDbEntity
  8
0
100
AcDbLine
 10
1861.931393383563
 20
798.3264859629821
 30
0.0
 11
1859.082842891745
 21
799.1810511105273
 31
0.0
  0
LINE
  5
6E0
330
519
100
AcDbEntity
  8
0
100
AcDbLine
 10
1859.082842891745
 20
799.1810511105273
 30
0.0
 11
1859.082842891745
 21
802.7310511701319
 31
0.0
  0
MTEXT
  5
6E1
330
519
100
AcDbEntity
  8
0
  6
ACAD_ISO10W100
100
AcDbMText
 10
1858.021792399927
 20
800.95605114033
 30
0.0
 40
1.100000023841857
 41
0.0
 71
     5
 72
     1
  1
\A1;1,30
  7
Arial
 11
0.0000000000000001
 21
1.0
 31
0.0
 73
     1
 44
1.0
  0
LINE
  5
6E2
330
519
100
AcDbEntity
  8
0
100
AcDbLine
 10
1861.931393383563
 20
798.9764859630067
 30
0.0
 11
1861.931393383563
 21
797.6764859629574
 31
0.0
  0
LINE
  5
6E3
330
519
100
AcDbEntity
  8
0
100
AcDbLine
 10
1861.931393383563
 20
798.9764859630067
 30
0.0
 11
1861.931393383563
 21
797.6764859629574
 31
0.0
  0
SOLID
  5
6E4
330
519
100
AcDbEntity
  8
0
  6
ACAD_ISO10W100
100
AcDbTrace
 10
1861.723060050229
 20
800.2264859630068
 30
0.0
 11
1862.139726716896
 21
800.2264859630068
 31
0.0
 12
1861.931393383563
 22
798.9764859630067
 32
0.0
 13
1861.931393383563
 23
798.9764859630067
 33
0.0
  0
SOLID
  5
6E5
330
519
100
AcDbEntity
  8
0
  6
ACAD_ISO10W100
100
AcDbTrace
 10
1861.723060050229
 20
796.4264859629574
 30
0.0
 11
1862.139726716896
 21
796.4264859629574
 31
0.0
 12
1861.931393383563
 22
797.6764859629574
 32
0.0
 13
1861.931393383563
 23
797.6764859629574
 33
0.0
  0
POINT
  5
6E6
330
519
100
AcDbEntity
  8
Defpoints
  6
ACAD_ISO10W100
 62
     0
100
AcDbPoint
 10
1897.845406316523
 20
798.9764859630067
 30
0.0
  0
POINT
  5
6E7
330
519
100
AcDbEntity
  8
Defpoints
  6
ACAD_ISO10W100
 62
     0
100
AcDbPoint
 10
1897.845406316527
 20
797.6764859629574
 30
0.0
  0
POINT
  5
6E8
330
519
100
AcDbEntity
  8
Defpoints
  6
ACAD_ISO10W100
 62
     0
100
AcDbPoint
 10
1861.931393383563
 20
797.6764859629574
 30
0.0
  0
ENDBLK
  5
51B
330
519
100
AcDbEntity
  8
0
100
AcDbBlockEnd
  0
BLOCK
  5
52B
330
52A
100
AcDbEntity
  8
0
100
AcDbBlockBegin
  2
*D51
 70
     1
 10
0.0
 20
0.0
 30
0.0
  3
*D51
  1

  0
LINE
  5
6E9
330
52A
100
AcDbEntity
  8
0
100
AcDbLine
 10
1897.445406316527
 20
797.6764859629574
 30
0.0
 11
1860.343893383563
 21
797.6764859629574
 31
0.0
  0
LINE
  5
6EA
330
52A
100
AcDbEntity
  8
0
100
AcDbLine
 10
1894.245406316562
 20
784.4764859630068
 30
0.0
 11
1860.343893383563
 21
784.4764859630068
 31
0.0
  0
LINE
  5
6EB
330
52A
100
AcDbEntity
  8
0
100
AcDbLine
 10
1861.931393383563
 20
796.4264859629574
 30
0.0
 11
1861.931393383563
 21
785.7264859630068
 31
0.0
  0
SOLID
  5
6EC
330
52A
100
AcDbEntity
  8
0
  6
ACAD_ISO10W100
100
AcDbTrace
 10
1861.723060050229
 20
796.4264859629574
 30
0.0
 11
1862.139726716896
 21
796.4264859629574
 31
0.0
 12
1861.931393383563
 22
797.6764859629574
 32
0.0
 13
1861.931393383563
 23
797.6764859629574
 33
0.0
  0
SOLID
  5
6ED
330
52A
100
AcDbEntity
  8
0
  6
ACAD_ISO10W100
100
AcDbTrace
 10
1861.723060050229
 20
785.7264859630068
 30
0.0
 11
1862.139726716896
 21
785.7264859630068
 31
0.0
 12
1861.931393383563
 22
784.4764859630068
 32
0.0
 13
1861.931393383563
 23
784.4764859630068
 33
0.0
  0
MTEXT
  5
6EE
330
52A
100
AcDbEntity
  8
0
  6
ACAD_ISO10W100
100
AcDbMText
 10
1860.870342891745
 20
791.0764859629824
 30
0.0
 40
1.100000023841857
 41
0.0
 71
     5
 72
     1
  1
\A1;13,20
  7
Arial
 11
0.0000000000000001
 21
1.0
 31
0.0
 73
     1
 44
1.0
  0
POINT
  5
6EF
330
52A
100
AcDbEntity
  8
Defpoints
  6
ACAD_ISO10W100
 62
     0
100
AcDbPoint
 10
1897.845406316527
 20
797.6764859629574
 30
0.0
  0
POINT
  5
6F0
330
52A
100
AcDbEntity
  8
Defpoints
  6
ACAD_ISO10W100
 62
     0
100
AcDbPoint
 10
1894.645406316562
 20
784.4764859630068
 30
0.0
  0
POINT
  5
6F1
330
52A
100
AcDbEntity
  8
Defpoints
  6
ACAD_ISO10W100
 62
     0
100
AcDbPoint
 10
1861.931393383563
 20
784.4764859630068
 30
0.0
  0
ENDBLK
  5
52C
330
52A
100
AcDbEntity
  8
0
100
AcDbBlockEnd
  0
BLOCK
  5
537
330
536
100
AcDbEntity
  8
0
100
AcDbBlockBegin
  2
*D52
 70
     1
 10
0.0
 20
0.0
 30
0.0
  3
*D52
  1

  0
LINE
  5
6F2
330
536
100
AcDbEntity
  8
0
100
AcDbLine
 10
1894.245406316562
 20
784.4764859630068
 30
0.0
 11
1860.343893383563
 21
784.4764859630068
 31
0.0
  0
LINE
  5
6F3
330
536
100
AcDbEntity
  8
0
100
AcDbLine
 10
1893.845406316562
 20
782.4764859630067
 30
0.0
 11
1860.343893383563
 21
782.4764859630067
 31
0.0
  0
LINE
  5
6F4
330
536
100
AcDbEntity
  8
0
100
AcDbLine
 10
1861.931393383563
 20
785.7264859630068
 30
0.0
 11
1861.931393383563
 21
786.9764859630067
 31
0.0
  0
LINE
  5
6F5
330
536
100
AcDbEntity
  8
0
100
AcDbLine
 10
1861.931393383563
 20
781.2264859630068
 30
0.0
 11
1861.931393383563
 21
779.9764859630068
 31
0.0
  0
LINE
  5
6F6
330
536
100
AcDbEntity
  8
0
100
AcDbLine
 10
1861.931393383563
 20
783.4764859630068
 30
0.0
 11
1859.082842891745
 21
784.331051110552
 31
0.0
  0
LINE
  5
6F7
330
536
100
AcDbEntity
  8
0
100
AcDbLine
 10
1859.082842891745
 20
784.331051110552
 30
0.0
 11
1859.082842891745
 21
788.0033567662591
 31
0.0
  0
MTEXT
  5
6F8
330
536
100
AcDbEntity
  8
0
  6
ACAD_ISO10W100
100
AcDbMText
 10
1858.021792399927
 20
786.1672039384059
 30
0.0
 40
1.100000023841857
 41
0.0
 71
     5
 72
     1
  1
\A1;2,00
  7
Arial
 11
0.0000000000000001
 21
1.0
 31
0.0
 73
     1
 44
1.0
  0
LINE
  5
6F9
330
536
100
AcDbEntity
  8
0
100
AcDbLine
 10
1861.931393383563
 20
784.4764859630068
 30
0.0
 11
1861.931393383563
 21
782.4764859630067
 31
0.0
  0
LINE
  5
6FA
330
536
100
AcDbEntity
  8
0
100
AcDbLine
 10
1861.931393383563
 20
784.4764859630068
 30
0.0
 11
1861.931393383563
 21
782.4764859630067
 31
0.0
  0
SOLID
  5
6FB
330
536
100
AcDbEntity
  8
0
  6
ACAD_ISO10W100
100
AcDbTrace
 10
1861.723060050229
 20
785.7264859630068
 30
0.0
 11
1862.139726716896
 21
785.7264859630068
 31
0.0
 12
1861.931393383563
 22
784.4764859630068
 32
0.0
 13
1861.931393383563
 23
784.4764859630068
 33
0.0
  0
SOLID
  5
6FC
330
536
100
AcDbEntity
  8
0
  6
ACAD_ISO10W100
100
AcDbTrace
 10
1861.723060050229
 20
781.2264859630068
 30
0.0
 11
1862.139726716896
 21
781.2264859630068
 31
0.0
 12
1861.931393383563
 22
782.4764859630067
 32
0.0
 13
1861.931393383563
 23
782.4764859630067
 33
0.0
  0
POINT
  5
6FD
330
536
100
AcDbEntity
  8
Defpoints
  6
ACAD_ISO10W100
 62
     0
100
AcDbPoint
 10
1894.645406316562
 20
784.4764859630068
 30
0.0
  0
POINT
  5
6FE
330
536
100
AcDbEntity
  8
Defpoints
  6
ACAD_ISO10W100
 62
     0
100
AcDbPoint
 10
1894.245406316562
 20
782.4764859630067
 30
0.0
  0
POINT
  5
6FF
330
536
100
AcDbEntity
  8
Defpoints
  6
ACAD_ISO10W100
 62
     0
100
AcDbPoint
 10
1861.931393383563
 20
782.4764859630067
 30
0.0
  0
ENDBLK
  5
538
330
536
100
AcDbEntity
  8
0
100
AcDbBlockEnd
  0
BLOCK
  5
548
330
547
100
AcDbEntity
  8
0
100
AcDbBlockBegin
  2
*D53
 70
     1
 10
0.0
 20
0.0
 30
0.0
  3
*D53
  1

  0
LINE
  5
700
330
547
100
AcDbEntity
  8
0
100
AcDbLine
 10
1908.345406316523
 20
798.9764859630377
 30
0.0
 11
1899.560815276825
 21
798.9764859630377
 31
0.0
  0
LINE
  5
701
330
547
100
AcDbEntity
  8
0
100
AcDbLine
 10
1908.345406316527
 20
797.6764859629883
 30
0.0
 11
1899.560815276825
 21
797.6764859629883
 31
0.0
  0
LINE
  5
702
330
547
100
AcDbEntity
  8
0
100
AcDbLine
 10
1901.148315276825
 20
796.4264859629884
 30
0.0
 11
1901.148315276825
 21
795.1764859629884
 31
0.0
  0
LINE
  5
703
330
547
100
AcDbEntity
  8
0
100
AcDbLine
 10
1901.148315276825
 20
800.2264859630377
 30
0.0
 11
1901.148315276825
 21
805.0264860226423
 31
0.0
  0
LINE
  5
704
330
547
100
AcDbEntity
  8
0
100
AcDbLine
 10
1901.148315276825
 20
797.6764859629883
 30
0.0
 11
1901.148315276825
 21
798.9764859630377
 31
0.0
  0
SOLID
  5
705
330
547
100
AcDbEntity
  8
0
  6
ACAD_ISO10W100
100
AcDbTrace
 10
1900.939981943492
 20
796.4264859629884
 30
0.0
 11
1901.356648610158
 21
796.4264859629884
 31
0.0
 12
1901.148315276825
 22
797.6764859629883
 32
0.0
 13
1901.148315276825
 23
797.6764859629883
 33
0.0
  0
SOLID
  5
706
330
547
100
AcDbEntity
  8
0
  6
ACAD_ISO10W100
100
AcDbTrace
 10
1900.939981943492
 20
800.2264859630377
 30
0.0
 11
1901.356648610158
 21
800.2264859630377
 31
0.0
 12
1901.148315276825
 22
798.9764859630377
 32
0.0
 13
1901.148315276825
 23
798.9764859630377
 33
0.0
  0
MTEXT
  5
707
330
547
100
AcDbEntity
  8
0
  6
ACAD_ISO10W100
100
AcDbMText
 10
1900.087264785007
 20
803.2514859928403
 30
0.0
 40
1.100000023841857
 41
0.0
 71
     5
 72
     1
  1
\A1;1,30
  7
Arial
 11
0.0000000000000001
 21
1.0
 31
0.0
 73
     1
 44
1.0
  0
POINT
  5
708
330
547
100
AcDbEntity
  8
Defpoints
  6
ACAD_ISO10W100
 62
     0
100
AcDbPoint
 10
1908.745406316523
 20
798.9764859630377
 30
0.0
  0
POINT
  5
709
330
547
100
AcDbEntity
  8
Defpoints
  6
ACAD_ISO10W100
 62
     0
100
AcDbPoint
 10
1908.745406316526
 20
797.6764859629883
 30
0.0
  0
POINT
  5
70A
330
547
100
AcDbEntity
  8
Defpoints
  6
ACAD_ISO10W100
 62
     0
100
AcDbPoint
 10
1901.148315276825
 20
797.6764859629883
 30
0.0
  0
ENDBLK
  5
549
330
547
100
AcDbEntity
  8
0
100
AcDbBlockEnd
  0
BLOCK
  5
556
330
555
100
AcDbEntity
  8
0
100
AcDbBlockBegin
  2
*D54
 70
     1
 10
0.0
 20
0.0
 30
0.0
  3
*D54
  1

  0
LINE
  5
70B
330
555
100
AcDbEntity
  8
0
100
AcDbLine
 10
1908.345406316468
 20
783.776485963006
 30
0.0
 11
1899.560815276825
 21
783.776485963006
 31
0.0
  0
LINE
  5
70C
330
555
100
AcDbEntity
  8
0
100
AcDbLine
 10
1908.345406316432
 20
782.4764859630067
 30
0.0
 11
1899.560815276825
 21
782.4764859630067
 31
0.0
  0
LINE
  5
70D
330
555
100
AcDbEntity
  8
0
100
AcDbLine
 10
1901.148315276825
 20
785.026485963006
 30
0.0
 11
1901.148315276825
 21
786.276485963006
 31
0.0
  0
LINE
  5
70E
330
555
100
AcDbEntity
  8
0
100
AcDbLine
 10
1901.148315276825
 20
781.2264859630068
 30
0.0
 11
1901.148315276825
 21
776.4264859034022
 31
0.0
  0
LINE
  5
70F
330
555
100
AcDbEntity
  8
0
100
AcDbLine
 10
1901.148315276825
 20
783.776485963006
 30
0.0
 11
1901.148315276825
 21
782.4764859630067
 31
0.0
  0
SOLID
  5
710
330
555
100
AcDbEntity
  8
0
  6
ACAD_ISO10W100
100
AcDbTrace
 10
1900.939981943492
 20
785.026485963006
 30
0.0
 11
1901.356648610158
 21
785.026485963006
 31
0.0
 12
1901.148315276825
 22
783.776485963006
 32
0.0
 13
1901.148315276825
 23
783.776485963006
 33
0.0
  0
SOLID
  5
711
330
555
100
AcDbEntity
  8
0
  6
ACAD_ISO10W100
100
AcDbTrace
 10
1900.939981943492
 20
781.2264859630068
 30
0.0
 11
1901.356648610158
 21
781.2264859630068
 31
0.0
 12
1901.148315276825
 22
782.4764859630067
 32
0.0
 13
1901.148315276825
 23
782.4764859630067
 33
0.0
  0
MTEXT
  5
712
330
555
100
AcDbEntity
  8
0
  6
ACAD_ISO10W100
100
AcDbMText
 10
1900.087264785007
 20
778.2014859332048
 30
0.0
 40
1.100000023841857
 41
0.0
 71
     5
 72
     1
  1
\A1;1,30
  7
Arial
 11
0.0000000000000001
 21
1.0
 31
0.0
 73
     1
 44
1.0
  0
POINT
  5
713
330
555
100
AcDbEntity
  8
Defpoints
  6
ACAD_ISO10W100
 62
     0
100
AcDbPoint
 10
1908.745406316468
 20
783.776485963006
 30
0.0
  0
POINT
  5
714
330
555
100
AcDbEntity
  8
Defpoints
  6
ACAD_ISO10W100
 62
     0
100
AcDbPoint
 10
1908.745406316432
 20
782.4764859630067
 30
0.0
  0
POINT
  5
715
330
555
100
AcDbEntity
  8
Defpoints
  6
ACAD_ISO10W100
 62
     0
100
AcDbPoint
 10
1901.148315276825
 20
782.4764859630067
 30
0.0
  0
ENDBLK
  5
557
330
555
100
AcDbEntity
  8
0
100
AcDbBlockEnd
  0
BLOCK
  5
564
330
563
100
AcDbEntity
  8
0
100
AcDbBlockBegin
  2
*D55
 70
     1
 10
0.0
 20
0.0
 30
0.0
  3
*D55
  1

  0
LINE
  5
716
330
563
100
AcDbEntity
  8
0
100
AcDbLine
 10
1868.74540631644
 20
783.0764859630177
 30
0.0
 11
1868.74540631644
 21
771.8135341886442
 31
0.0
  0
LINE
  5
717
330
563
100
AcDbEntity
  8
0
100
AcDbLine
 10
1879.245406316504
 20
783.5764859630068
 30
0.0
 11
1879.245406316504
 21
771.8135341886442
 31
0.0
  0
LINE
  5
718
330
563
100
AcDbEntity
  8
0
100
AcDbLine
 10
1869.99540631644
 20
773.4010341886442
 30
0.0
 11
1877.995406316505
 21
773.4010341886442
 31
0.0
  0
SOLID
  5
719
330
563
100
AcDbEntity
  8
0
  6
ACAD_ISO10W100
100
AcDbTrace
 10
1869.99540631644
 20
773.6093675219775
 30
0.0
 11
1869.99540631644
 21
773.1927008553108
 31
0.0
 12
1868.74540631644
 22
773.4010341886442
 32
0.0
 13
1868.74540631644
 23
773.4010341886442
 33
0.0
  0
SOLID
  5
71A
330
563
100
AcDbEntity
  8
0
  6
ACAD_ISO10W100
100
AcDbTrace
 10
1877.995406316505
 20
773.6093675219775
 30
0.0
 11
1877.995406316505
 21
773.1927008553108
 31
0.0
 12
1879.245406316504
 22
773.4010341886442
 32
0.0
 13
1879.245406316504
 23
773.4010341886442
 33
0.0
  0
MTEXT
  5
71B
330
563
100
AcDbEntity
  8
0
  6
ACAD_ISO10W100
100
AcDbMText
 10
1873.995406316472
 20
774.4620846804618
 30
0.0
 40
1.100000023841857
 41
0.0
 71
     5
 72
     1
  1
\A1;10,50
  7
Arial
 73
     1
 44
1.0
  0
POINT
  5
71C
330
563
100
AcDbEntity
  8
Defpoints
  6
ACAD_ISO10W100
 62
     0
100
AcDbPoint
 10
1868.74540631644
 20
783.4764859630177
 30
0.0
  0
POINT
  5
71D
330
563
100
AcDbEntity
  8
Defpoints
  6
ACAD_ISO10W100
 62
     0
100
AcDbPoint
 10
1879.245406316504
 20
783.9764859630068
 30
0.0
  0
POINT
  5
71E
330
563
100
AcDbEntity
  8
Defpoints
  6
ACAD_ISO10W100
 62
     0
100
AcDbPoint
 10
1879.245406316504
 20
773.4010341886442
 30
0.0
  0
ENDBLK
  5
565
330
563
100
AcDbEntity
  8
0
100
AcDbBlockEnd
  0
BLOCK
  5
570
330
56F
100
AcDbEntity
  8
0
100
AcDbBlockBegin
  2
*D56
 70
     1
 10
0.0
 20
0.0
 30
0.0
  3
*D56
  1

  0
LINE
  5
71F
330
56F
100
AcDbEntity
  8
0
100
AcDbLine
 10
1879.245406316504
 20
783.5764859630068
 30
0.0
 11
1879.245406316504
 21
771.8135341886442
 31
0.0
  0
LINE
  5
720
330
56F
100
AcDbEntity
  8
0
100
AcDbLine
 10
1895.245406316562
 20
784.6764859630081
 30
0.0
 11
1895.245406316562
 21
771.8135341886442
 31
0.0
  0
LINE
  5
721
330
56F
100
AcDbEntity
  8
0
100
AcDbLine
 10
1880.495406316504
 20
773.4010341886442
 30
0.0
 11
1893.995406316562
 21
773.4010341886442
 31
0.0
  0
SOLID
  5
722
330
56F
100
AcDbEntity
  8
0
  6
ACAD_ISO10W100
100
AcDbTrace
 10
1880.495406316504
 20
773.6093675219775
 30
0.0
 11
1880.495406316504
 21
773.1927008553108
 31
0.0
 12
1879.245406316504
 22
773.4010341886442
 32
0.0
 13
1879.245406316504
 23
773.4010341886442
 33
0.0
  0
SOLID
  5
723
330
56F
100
AcDbEntity
  8
0
  6
ACAD_ISO10W100
100
AcDbTrace
 10
1893.995406316562
 20
773.6093675219775
 30
0.0
 11
1893.995406316562
 21
773.1927008553108
 31
0.0
 12
1895.245406316562
 22
773.4010341886442
 32
0.0
 13
1895.245406316562
 23
773.4010341886442
 33
0.0
  0
MTEXT
  5
724
330
56F
100
AcDbEntity
  8
0
  6
ACAD_ISO10W100
100
AcDbMText
 10
1887.245406316533
 20
774.4620846804618
 30
0.0
 40
1.100000023841857
 41
0.0
 71
     5
 72
     1
  1
\A1;16,00
  7
Arial
 73
     1
 44
1.0
  0
POINT
  5
725
330
56F
100
AcDbEntity
  8
Defpoints
  6
ACAD_ISO10W100
 62
     0
100
AcDbPoint
 10
1879.245406316504
 20
783.9764859630068
 30
0.0
  0
POINT
  5
726
330
56F
100
AcDbEntity
  8
Defpoints
  6
ACAD_ISO10W100
 62
     0
100
AcDbPoint
 10
1895.245406316562
 20
785.076485963008
 30
0.0
  0
POINT
  5
727
330
56F
100
AcDbEntity
  8
Defpoints
  6
ACAD_ISO10W100
 62
     0
100
AcDbPoint
 10
1895.245406316562
 20
773.4010341886442
 30
0.0
  0
ENDBLK
  5
571
330
56F
100
AcDbEntity
  8
0
100
AcDbBlockEnd
  0
BLOCK
  5
57C
330
57B
100
AcDbEntity
  8
0
100
AcDbBlockBegin
  2
*D57
 70
     1
 10
0.0
 20
0.0
 30
0.0
  3
*D57
  1

  0
LINE
  5
728
330
57B
100
AcDbEntity
  8
0
100
AcDbLine
 10
1895.245406316562
 20
784.6764859630081
 30
0.0
 11
1895.245406316562
 21
771.8135341886442
 31
0.0
  0
LINE
  5
729
330
57B
100
AcDbEntity
  8
0
100
AcDbLine
 10
1896.545406316423
 20
783.9764859630045
 30
0.0
 11
1896.545406316423
 21
771.8135341886442
 31
0.0
  0
LINE
  5
72A
330
57B
100
AcDbEntity
  8
0
100
AcDbLine
 10
1893.995406316562
 20
773.4010341886442
 30
0.0
 11
1892.745406316562
 21
773.4010341886442
 31
0.0
  0
LINE
  5
72B
330
57B
100
AcDbEntity
  8
0
100
AcDbLine
 10
1897.795406316422
 20
773.4010341886442
 30
0.0
 11
1899.045406316423
 21
773.4010341886442
 31
0.0
  0
LINE
  5
72C
330
57B
100
AcDbEntity
  8
0
100
AcDbLine
 10
1895.895406316492
 20
773.4010341886442
 30
0.0
 11
1897.146601759128
 21
769.2303827131913
 31
0.0
  0
LINE
  5
72D
330
57B
100
AcDbEntity
  8
0
100
AcDbLine
 10
1897.146601759128
 20
769.2303827131913
 30
0.0
 11
1900.696601818733
 21
769.2303827131913
 31
0.0
  0
MTEXT
  5
72E
330
57B
100
AcDbEntity
  8
0
  6
ACAD_ISO10W100
100
AcDbMText
 10
1898.921601788931
 20
770.2914332050089
 30
0.0
 40
1.100000023841857
 41
0.0
 71
     5
 72
     1
  1
\A1;1,30
  7
Arial
 73
     1
 44
1.0
  0
LINE
  5
72F
330
57B
100
AcDbEntity
  8
0
100
AcDbLine
 10
1895.245406316562
 20
773.4010341886442
 30
0.0
 11
1896.545406316423
 21
773.4010341886442
 31
0.0
  0
LINE
  5
730
330
57B
100
AcDbEntity
  8
0
100
AcDbLine
 10
1895.245406316562
 20
773.4010341886442
 30
0.0
 11
1896.545406316423
 21
773.4010341886442
 31
0.0
  0
SOLID
  5
731
330
57B
100
AcDbEntity
  8
0
  6
ACAD_ISO10W100
100
AcDbTrace
 10
1893.995406316562
 20
773.6093675219775
 30
0.0
 11
1893.995406316562
 21
773.1927008553108
 31
0.0
 12
1895.245406316562
 22
773.4010341886442
 32
0.0
 13
1895.245406316562
 23
773.4010341886442
 33
0.0
  0
SOLID
  5
732
330
57B
100
AcDbEntity
  8
0
  6
ACAD_ISO10W100
100
AcDbTrace
 10
1897.795406316422
 20
773.6093675219775
 30
0.0
 11
1897.795406316422
 21
773.1927008553108
 31
0.0
 12
1896.545406316423
 22
773.4010341886442
 32
0.0
 13
1896.545406316423
 23
773.4010341886442
 33
0.0
  0
POINT
  5
733
330
57B
100
AcDbEntity
  8
Defpoints
  6
ACAD_ISO10W100
 62
     0
100
AcDbPoint
 10
1895.245406316562
 20
785.076485963008
 30
0.0
  0
POINT
  5
734
330
57B
100
AcDbEntity
  8
Defpoints
  6
ACAD_ISO10W100
 62
     0
100
AcDbPoint
 10
1896.545406316423
 20
784.3764859630046
 30
0.0
  0
POINT
  5
735
330
57B
100
AcDbEntity
  8
Defpoints
  6
ACAD_ISO10W100
 62
     0
100
AcDbPoint
 10
1896.545406316423
 20
773.4010341886442
 30
0.0
  0
ENDBLK
  5
57D
330
57B
100
AcDbEntity
  8
0
100
AcDbBlockEnd
  0
BLOCK
  5
58D
330
58C
100
AcDbEntity
  8
0
100
AcDbBlockBegin
  2
*D58
 70
     1
 10
0.0
 20
0.0
 30
0.0
  3
*D58
  1

  0
LINE
  5
736
330
58C
100
AcDbEntity
  8
0
100
AcDbLine
 10
1896.545406316423
 20
783.9764859630045
 30
0.0
 11
1896.545406316423
 21
771.8135341886442
 31
0.0
  0
LINE
  5
737
330
58C
100
AcDbEntity
  8
0
100
AcDbLine
 10
1920.945406316513
 20
783.9764859630701
 30
0.0
 11
1920.945406316513
 21
771.8135341886442
 31
0.0
  0
LINE
  5
738
330
58C
100
AcDbEntity
  8
0
100
AcDbLine
 10
1897.795406316422
 20
773.4010341886442
 30
0.0
 11
1919.695406316513
 21
773.4010341886442
 31
0.0
  0
SOLID
  5
739
330
58C
100
AcDbEntity
  8
0
  6
ACAD_ISO10W100
100
AcDbTrace
 10
1897.795406316422
 20
773.6093675219775
 30
0.0
 11
1897.795406316422
 21
773.1927008553108
 31
0.0
 12
1896.545406316423
 22
773.4010341886442
 32
0.0
 13
1896.545406316423
 23
773.4010341886442
 33
0.0
  0
SOLID
  5
73A
330
58C
100
AcDbEntity
  8
0
  6
ACAD_ISO10W100
100
AcDbTrace
 10
1919.695406316513
 20
773.6093675219775
 30
0.0
 11
1919.695406316513
 21
773.1927008553108
 31
0.0
 12
1920.945406316513
 22
773.4010341886442
 32
0.0
 13
1920.945406316513
 23
773.4010341886442
 33
0.0
  0
MTEXT
  5
73B
330
58C
100
AcDbEntity
  8
0
  6
ACAD_ISO10W100
100
AcDbMText
 10
1908.745406316468
 20
774.4620846804618
 30
0.0
 40
1.100000023841857
 41
0.0
 71
     5
 72
     1
  1
\A1;24,40
  7
Arial
 73
     1
 44
1.0
  0
POINT
  5
73C
330
58C
100
AcDbEntity
  8
Defpoints
  6
ACAD_ISO10W100
 62
     0
100
AcDbPoint
 10
1896.545406316423
 20
784.3764859630046
 30
0.0
  0
POINT
  5
73D
330
58C
100
AcDbEntity
  8
Defpoints
  6
ACAD_ISO10W100
 62
     0
100
AcDbPoint
 10
1920.945406316513
 20
784.3764859630701
 30
0.0
  0
POINT
  5
73E
330
58C
100
AcDbEntity
  8
Defpoints
  6
ACAD_ISO10W100
 62
     0
100
AcDbPoint
 10
1920.945406316513
 20
773.4010341886442
 30
0.0
  0
ENDBLK
  5
58E
330
58C
100
AcDbEntity
  8
0
100
AcDbBlockEnd
  0
BLOCK
  5
599
330
598
100
AcDbEntity
  8
0
100
AcDbBlockBegin
  2
*D59
 70
     1
 10
0.0
 20
0.0
 30
0.0
  3
*D59
  1

  0
LINE
  5
73F
330
598
100
AcDbEntity
  8
0
100
AcDbLine
 10
1920.945406316513
 20
783.9764859630701
 30
0.0
 11
1920.945406316513
 21
771.8135341886442
 31
0.0
  0
LINE
  5
740
330
598
100
AcDbEntity
  8
0
100
AcDbLine
 10
1922.245406316562
 20
784.6764859630053
 30
0.0
 11
1922.245406316562
 21
771.8135341886442
 31
0.0
  0
LINE
  5
741
330
598
100
AcDbEntity
  8
0
100
AcDbLine
 10
1919.695406316513
 20
773.4010341886442
 30
0.0
 11
1918.445406316513
 21
773.4010341886442
 31
0.0
  0
LINE
  5
742
330
598
100
AcDbEntity
  8
0
100
AcDbLine
 10
1923.495406316562
 20
773.4010341886442
 30
0.0
 11
1924.745406316562
 21
773.4010341886442
 31
0.0
  0
LINE
  5
743
330
598
100
AcDbEntity
  8
0
100
AcDbLine
 10
1921.595406316537
 20
773.4010341886442
 30
0.0
 11
1922.846601759173
 21
769.2303827131913
 31
0.0
  0
LINE
  5
744
330
598
100
AcDbEntity
  8
0
100
AcDbLine
 10
1922.846601759173
 20
769.2303827131913
 30
0.0
 11
1926.396601818778
 21
769.2303827131913
 31
0.0
  0
MTEXT
  5
745
330
598
100
AcDbEntity
  8
0
  6
ACAD_ISO10W100
100
AcDbMText
 10
1924.621601788976
 20
770.2914332050089
 30
0.0
 40
1.100000023841857
 41
0.0
 71
     5
 72
     1
  1
\A1;1,30
  7
Arial
 73
     1
 44
1.0
  0
LINE
  5
746
330
598
100
AcDbEntity
  8
0
100
AcDbLine
 10
1920.945406316513
 20
773.4010341886442
 30
0.0
 11
1922.245406316562
 21
773.4010341886442
 31
0.0
  0
LINE
  5
747
330
598
100
AcDbEntity
  8
0
100
AcDbLine
 10
1920.945406316513
 20
773.4010341886442
 30
0.0
 11
1922.245406316562
 21
773.4010341886442
 31
0.0
  0
SOLID
  5
748
330
598
100
AcDbEntity
  8
0
  6
ACAD_ISO10W100
100
AcDbTrace
 10
1919.695406316513
 20
773.6093675219775
 30
0.0
 11
1919.695406316513
 21
773.1927008553108
 31
0.0
 12
1920.945406316513
 22
773.4010341886442
 32
0.0
 13
1920.945406316513
 23
773.4010341886442
 33
0.0
  0
SOLID
  5
749
330
598
100
AcDbEntity
  8
0
  6
ACAD_ISO10W100
100
AcDbTrace
 10
1923.495406316562
 20
773.6093675219775
 30
0.0
 11
1923.495406316562
 21
773.1927008553108
 31
0.0
 12
1922.245406316562
 22
773.4010341886442
 32
0.0
 13
1922.245406316562
 23
773.4010341886442
 33
0.0
  0
POINT
  5
74A
330
598
100
AcDbEntity
  8
Defpoints
  6
ACAD_ISO10W100
 62
     0
100
AcDbPoint
 10
1920.945406316513
 20
784.3764859630701
 30
0.0
  0
POINT
  5
74B
330
598
100
AcDbEntity
  8
Defpoints
  6
ACAD_ISO10W100
 62
     0
100
AcDbPoint
 10
1922.245406316562
 20
785.0764859630053
 30
0.0
  0
POINT
  5
74C
330
598
100
AcDbEntity
  8
Defpoints
  6
ACAD_ISO10W100
 62
     0
100
AcDbPoint
 10
1922.245406316562
 20
773.4010341886442
 30
0.0
  0
ENDBLK
  5
59A
330
598
100
AcDbEntity
  8
0
100
AcDbBlockEnd
  0
BLOCK
  5
5AA
330
5A9
100
AcDbEntity
  8
0
100
AcDbBlockBegin
  2
*D60
 70
     1
 10
0.0
 20
0.0
 30
0.0
  3
*D60
  1

  0
LINE
  5
74D
330
5A9
100
AcDbEntity
  8
0
100
AcDbLine
 10
1922.245406316562
 20
784.6764859630053
 30
0.0
 11
1922.245406316562
 21
771.8135341886442
 31
0.0
  0
LINE
  5
74E
330
5A9
100
AcDbEntity
  8
0
100
AcDbLine
 10
1938.24540631636
 20
783.5764859630068
 30
0.0
 11
1938.24540631636
 21
771.8135341886442
 31
0.0
  0
LINE
  5
74F
330
5A9
100
AcDbEntity
  8
0
100
AcDbLine
 10
1923.495406316562
 20
773.4010341886442
 30
0.0
 11
1936.99540631636
 21
773.4010341886442
 31
0.0
  0
SOLID
  5
750
330
5A9
100
AcDbEntity
  8
0
  6
ACAD_ISO10W100
100
AcDbTrace
 10
1923.495406316562
 20
773.6093675219775
 30
0.0
 11
1923.495406316562
 21
773.1927008553108
 31
0.0
 12
1922.245406316562
 22
773.4010341886442
 32
0.0
 13
1922.245406316562
 23
773.4010341886442
 33
0.0
  0
SOLID
  5
751
330
5A9
100
AcDbEntity
  8
0
  6
ACAD_ISO10W100
100
AcDbTrace
 10
1936.99540631636
 20
773.6093675219775
 30
0.0
 11
1936.99540631636
 21
773.1927008553108
 31
0.0
 12
1938.24540631636
 22
773.4010341886442
 32
0.0
 13
1938.24540631636
 23
773.4010341886442
 33
0.0
  0
MTEXT
  5
752
330
5A9
100
AcDbEntity
  8
0
  6
ACAD_ISO10W100
100
AcDbMText
 10
1930.245406316461
 20
774.4620846804618
 30
0.0
 40
1.100000023841857
 41
0.0
 71
     5
 72
     1
  1
\A1;16,00
  7
Arial
 73
     1
 44
1.0
  0
POINT
  5
753
330
5A9
100
AcDbEntity
  8
Defpoints
  6
ACAD_ISO10W100
 62
     0
100
AcDbPoint
 10
1922.245406316562
 20
785.0764859630053
 30
0.0
  0
POINT
  5
754
330
5A9
100
AcDbEntity
  8
Defpoints
  6
ACAD_ISO10W100
 62
     0
100
AcDbPoint
 10
1938.24540631636
 20
783.9764859630068
 30
0.0
  0
POINT
  5
755
330
5A9
100
AcDbEntity
  8
Defpoints
  6
ACAD_ISO10W100
 62
     0
100
AcDbPoint
 10
1938.24540631636
 20
773.4010341886442
 30
0.0
  0
ENDBLK
  5
5AB
330
5A9
100
AcDbEntity
  8
0
100
AcDbBlockEnd
  0
BLOCK
  5
5B6
330
5B5
100
AcDbEntity
  8
0
100
AcDbBlockBegin
  2
*D61
 70
     1
 10
0.0
 20
0.0
 30
0.0
  3
*D61
  1

  0
LINE
  5
756
330
5B5
100
AcDbEntity
  8
0
100
AcDbLine
 10
1938.24540631636
 20
783.5764859630068
 30
0.0
 11
1938.24540631636
 21
771.8135341886442
 31
0.0
  0
LINE
  5
757
330
5B5
100
AcDbEntity
  8
0
100
AcDbLine
 10
1948.745406316434
 20
783.0764859630067
 30
0.0
 11
1948.745406316434
 21
771.8135341886442
 31
0.0
  0
LINE
  5
758
330
5B5
100
AcDbEntity
  8
0
100
AcDbLine
 10
1939.49540631636
 20
773.4010341886442
 30
0.0
 11
1947.495406316434
 21
773.4010341886442
 31
0.0
  0
SOLID
  5
759
330
5B5
100
AcDbEntity
  8
0
  6
ACAD_ISO10W100
100
AcDbTrace
 10
1939.49540631636
 20
773.6093675219775
 30
0.0
 11
1939.49540631636
 21
773.1927008553108
 31
0.0
 12
1938.24540631636
 22
773.4010341886442
 32
0.0
 13
1938.24540631636
 23
773.4010341886442
 33
0.0
  0
SOLID
  5
75A
330
5B5
100
AcDbEntity
  8
0
  6
ACAD_ISO10W100
100
AcDbTrace
 10
1947.495406316434
 20
773.6093675219775
 30
0.0
 11
1947.495406316434
 21
773.1927008553108
 31
0.0
 12
1948.745406316434
 22
773.4010341886442
 32
0.0
 13
1948.745406316434
 23
773.4010341886442
 33
0.0
  0
MTEXT
  5
75B
330
5B5
100
AcDbEntity
  8
0
  6
ACAD_ISO10W100
100
AcDbMText
 10
1943.495406316397
 20
774.4620846804618
 30
0.0
 40
1.100000023841857
 41
0.0
 71
     5
 72
     1
  1
\A1;10,50
  7
Arial
 73
     1
 44
1.0
  0
POINT
  5
75C
330
5B5
100
AcDbEntity
  8
Defpoints
  6
ACAD_ISO10W100
 62
     0
100
AcDbPoint
 10
1938.24540631636
 20
783.9764859630068
 30
0.0
  0
POINT
  5
75D
330
5B5
100
AcDbEntity
  8
Defpoints
  6
ACAD_ISO10W100
 62
     0
100
AcDbPoint
 10
1948.745406316434
 20
783.4764859630068
 30
0.0
  0
POINT
  5
75E
330
5B5
100
AcDbEntity
  8
Defpoints
  6
ACAD_ISO10W100
 62
     0
100
AcDbPoint
 10
1948.745406316434
 20
773.4010341886442
 30
0.0
  0
ENDBLK
  5
5B7
330
5B5
100
AcDbEntity
  8
0
100
AcDbBlockEnd
  0
BLOCK
  5
5C2
330
5C1
100
AcDbEntity
  8
0
100
AcDbBlockBegin
  2
*D62
 70
     1
 10
0.0
 20
0.0
 30
0.0
  3
*D62
  1

  0
LINE
  5
75F
330
5C1
100
AcDbEntity
  8
0
100
AcDbLine
 10
1868.74540631644
 20
783.0764859639799
 30
0.0
 11
1868.74540631644
 21
764.1134215754251
 31
0.0
  0
LINE
  5
760
330
5C1
100
AcDbEntity
  8
0
100
AcDbLine
 10
1948.745406316434
 20
783.0764859639799
 30
0.0
 11
1948.745406316434
 21
764.1134215754251
 31
0.0
  0
LINE
  5
761
330
5C1
100
AcDbEntity
  8
0
100
AcDbLine
 10
1869.99540631644
 20
765.7009215754251
 30
0.0
 11
1947.495406316434
 21
765.7009215754251
 31
0.0
  0
SOLID
  5
762
330
5C1
100
AcDbEntity
  8
0
  6
ACAD_ISO10W100
100
AcDbTrace
 10
1869.99540631644
 20
765.9092549087585
 30
0.0
 11
1869.99540631644
 21
765.4925882420918
 31
0.0
 12
1868.74540631644
 22
765.7009215754251
 32
0.0
 13
1868.74540631644
 23
765.7009215754251
 33
0.0
  0
SOLID
  5
763
330
5C1
100
AcDbEntity
  8
0
  6
ACAD_ISO10W100
100
AcDbTrace
 10
1947.495406316434
 20
765.9092549087585
 30
0.0
 11
1947.495406316434
 21
765.4925882420918
 31
0.0
 12
1948.745406316434
 22
765.7009215754251
 32
0.0
 13
1948.745406316434
 23
765.7009215754251
 33
0.0
  0
MTEXT
  5
764
330
5C1
100
AcDbEntity
  8
0
  6
ACAD_ISO10W100
100
AcDbMText
 10
1908.745406316437
 20
766.7619720672428
 30
0.0
 40
1.100000023841857
 41
0.0
 71
     5
 72
     1
  1
\A1;80,00
  7
Arial
 73
     1
 44
1.0
  0
POINT
  5
765
330
5C1
100
AcDbEntity
  8
Defpoints
  6
ACAD_ISO10W100
 62
     0
100
AcDbPoint
 10
1868.74540631644
 20
783.4764859639799
 30
0.0
  0
POINT
  5
766
330
5C1
100
AcDbEntity
  8
Defpoints
  6
ACAD_ISO10W100
 62
     0
100
AcDbPoint
 10
1948.745406316434
 20
783.4764859639799
 30
0.0
  0
POINT
  5
767
330
5C1
100
AcDbEntity
  8
Defpoints
  6
ACAD_ISO10W100
 62
     0
100
AcDbPoint
 10
1948.745406316434
 20
765.7009215754251
 30
0.0
  0
ENDBLK
  5
5C3
330
5C1
100
AcDbEntity
  8
0
100
AcDbBlockEnd
  0
BLOCK
  5
5CE
330
5CD
100
AcDbEntity
  8
0
100
AcDbBlockBegin
  2
*D63
 70
     1
 10
0.0
 20
0.0
 30
0.0
  3
*D63
  1

  0
LINE
  5
768
330
5CD
100
AcDbEntity
  8
0
100
AcDbLine
 10
1920.145406316499
 20
807.4764859630686
 30
0.0
 11
1956.135046001888
 21
807.4764859630686
 31
0.0
  0
LINE
  5
769
330
5CD
100
AcDbEntity
  8
0
100
AcDbLine
 10
1920.145406316499
 20
782.4764859630067
 30
0.0
 11
1956.135046001888
 21
782.4764859630067
 31
0.0
  0
LINE
  5
76A
330
5CD
100
AcDbEntity
  8
0
100
AcDbLine
 10
1954.547546001888
 20
806.2264859630685
 30
0.0
 11
1954.547546001888
 21
783.7264859630067
 31
0.0
  0
SOLID
  5
76B
330
5CD
100
AcDbEntity
  8
0
  6
ACAD_ISO10W100
100
AcDbTrace
 10
1954.339212668554
 20
806.2264859630685
 30
0.0
 11
1954.755879335221
 21
806.2264859630685
 31
0.0
 12
1954.547546001888
 22
807.4764859630686
 32
0.0
 13
1954.547546001888
 23
807.4764859630686
 33
0.0
  0
SOLID
  5
76C
330
5CD
100
AcDbEntity
  8
0
  6
ACAD_ISO10W100
100
AcDbTrace
 10
1954.339212668554
 20
783.7264859630067
 30
0.0
 11
1954.755879335221
 21
783.7264859630067
 31
0.0
 12
1954.547546001888
 22
782.4764859630067
 32
0.0
 13
1954.547546001888
 23
782.4764859630067
 33
0.0
  0
MTEXT
  5
76D
330
5CD
100
AcDbEntity
  8
0
  6
ACAD_ISO10W100
100
AcDbMText
 10
1953.48649551007
 20
794.976485963038
 30
0.0
 40
1.100000023841857
 41
0.0
 71
     5
 72
     1
  1
\A1;25,00
  7
Arial
 11
0.0000000000000001
 21
1.0
 31
0.0
 73
     1
 44
1.0
  0
POINT
  5
76E
330
5CD
100
AcDbEntity
  8
Defpoints
  6
ACAD_ISO10W100
 62
     0
100
AcDbPoint
 10
1919.745406316499
 20
807.4764859630686
 30
0.0
  0
POINT
  5
76F
330
5CD
100
AcDbEntity
  8
Defpoints
  6
ACAD_ISO10W100
 62
     0
100
AcDbPoint
 10
1919.745406316499
 20
782.4764859630067
 30
0.0
  0
POINT
  5
770
330
5CD
100
AcDbEntity
  8
Defpoints
  6
ACAD_ISO10W100
 62
     0
100
AcDbPoint
 10
1954.547546001888
 20
782.4764859630067
 30
0.0
  0
ENDBLK
  5
5CF
330
5CD
100
AcDbEntity
  8
0
100
AcDbBlockEnd
  0
BLOCK
  5
5DA
330
5D9
100
AcDbEntity
  8
0
100
AcDbBlockBegin
  2
*D64
 70
     1
 10
0.0
 20
0.0
 30
0.0
  3
*D64
  1

  0
LINE
  5
771
330
5D9
100
AcDbEntity
  8
0
100
AcDbLine
 10
1920.145406316499
 20
743.7104388562511
 30
0.0
 11
1956.855157842037
 21
743.7104388562511
 31
0.0
  0
LINE
  5
772
330
5D9
100
AcDbEntity
  8
0
100
AcDbLine
 10
1909.145406316432
 20
727.6169388561893
 30
0.0
 11
1956.855157842037
 21
727.6169388561893
 31
0.0
  0
LINE
  5
773
330
5D9
100
AcDbEntity
  8
0
100
AcDbLine
 10
1955.267657842037
 20
742.4604388562511
 30
0.0
 11
1955.267657842037
 21
728.8669388561893
 31
0.0
  0
SOLID
  5
774
330
5D9
100
AcDbEntity
  8
0
  6
ACAD_ISO10W100
100
AcDbTrace
 10
1955.059324508703
 20
742.4604388562511
 30
0.0
 11
1955.47599117537
 21
742.4604388562511
 31
0.0
 12
1955.267657842037
 22
743.7104388562511
 32
0.0
 13
1955.267657842037
 23
743.7104388562511
 33
0.0
  0
SOLID
  5
775
330
5D9
100
AcDbEntity
  8
0
  6
ACAD_ISO10W100
100
AcDbTrace
 10
1955.059324508703
 20
728.8669388561893
 30
0.0
 11
1955.47599117537
 21
728.8669388561893
 31
0.0
 12
1955.267657842037
 22
727.6169388561893
 32
0.0
 13
1955.267657842037
 23
727.6169388561893
 33
0.0
  0
MTEXT
  5
776
330
5D9
100
AcDbEntity
  8
0
  6
ACAD_ISO10W100
100
AcDbMText
 10
1954.206607350219
 20
735.6636888562205
 30
0.0
 40
1.100000023841857
 41
0.0
 71
     5
 72
     1
  1
\A1;16,09
  7
Arial
 11
0.0000000000000001
 21
1.0
 31
0.0
 73
     1
 44
1.0
  0
POINT
  5
777
330
5D9
100
AcDbEntity
  8
Defpoints
  6
ACAD_ISO10W100
 62
     0
100
AcDbPoint
 10
1919.745406316499
 20
743.7104388562511
 30
0.0
  0
POINT
  5
778
330
5D9
100
AcDbEntity
  8
Defpoints
  6
ACAD_ISO10W100
 62
     0
100
AcDbPoint
 10
1908.745406316432
 20
727.6169388561893
 30
0.0
  0
POINT
  5
779
330
5D9
100
AcDbEntity
  8
Defpoints
  6
ACAD_ISO10W100
 62
     0
100
AcDbPoint
 10
1955.267657842037
 20
727.6169388561893
 30
0.0
  0
ENDBLK
  5
5DB
330
5D9
100
AcDbEntity
  8
0
100
AcDbBlockEnd
  0
BLOCK
  5
5E6
330
5E5
100
AcDbEntity
  8
0
100
AcDbBlockBegin
  2
*D65
 70
     1
 10
0.0
 20
0.0
 30
0.0
  3
*D65
  1

  0
LINE
  5
77A
330
5E5
100
AcDbEntity
  8
0
100
AcDbLine
 10
1909.145406316432
 20
727.6169388561893
 30
0.0
 11
1956.855157842037
 21
727.6169388561893
 31
0.0
  0
LINE
  5
77B
330
5E5
100
AcDbEntity
  8
0
100
AcDbLine
 10
1909.145406316432
 20
718.7104388561892
 30
0.0
 11
1956.855157842037
 21
718.7104388561892
 31
0.0
  0
LINE
  5
77C
330
5E5
100
AcDbEntity
  8
0
100
AcDbLine
 10
1955.267657842037
 20
726.3669388561893
 30
0.0
 11
1955.267657842037
 21
719.9604388561892
 31
0.0
  0
SOLID
  5
77D
330
5E5
100
AcDbEntity
  8
0
  6
ACAD_ISO10W100
100
AcDbTrace
 10
1955.059324508703
 20
726.3669388561893
 30
0.0
 11
1955.47599117537
 21
726.3669388561893
 31
0.0
 12
1955.267657842037
 22
727.6169388561893
 32
0.0
 13
1955.267657842037
 23
727.6169388561893
 33
0.0
  0
SOLID
  5
77E
330
5E5
100
AcDbEntity
  8
0
  6
ACAD_ISO10W100
100
AcDbTrace
 10
1955.059324508703
 20
719.9604388561892
 30
0.0
 11
1955.47599117537
 21
719.9604388561892
 31
0.0
 12
1955.267657842037
 22
718.7104388561892
 32
0.0
 13
1955.267657842037
 23
718.7104388561892
 33
0.0
  0
MTEXT
  5
77F
330
5E5
100
AcDbEntity
  8
0
  6
ACAD_ISO10W100
100
AcDbMText
 10
1954.206607350219
 20
723.1636888561896
 30
0.0
 40
1.100000023841857
 41
0.0
 71
     5
 72
     1
  1
\A1;8,91
  7
Arial
 11
0.0000000000000001
 21
1.0
 31
0.0
 73
     1
 44
1.0
  0
POINT
  5
780
330
5E5
100
AcDbEntity
  8
Defpoints
  6
ACAD_ISO10W100
 62
     0
100
AcDbPoint
 10
1908.745406316432
 20
727.6169388561893
 30
0.0
  0
POINT
  5
781
330
5E5
100
AcDbEntity
  8
Defpoints
  6
ACAD_ISO10W100
 62
     0
100
AcDbPoint
 10
1908.745406316432
 20
718.7104388561892
 30
0.0
  0
POINT
  5
782
330
5E5
100
AcDbEntity
  8
Defpoints
  6
ACAD_ISO10W100
 62
     0
100
AcDbPoint
 10
1955.267657842037
 20
718.7104388561892
 30
0.0
  0
ENDBLK
  5
5E7
330
5E5
100
AcDbEntity
  8
0
100
AcDbBlockEnd
  0
BLOCK
  5
5F2
330
5F1
100
AcDbEntity
  8
0
100
AcDbBlockBegin
  2
*D66
 70
     1
 10
0.0
 20
0.0
 30
0.0
  3
*D66
  1

  0
LINE
  5
783
330
5F1
100
AcDbEntity
  8
0
100
AcDbLine
 10
1868.74540631644
 20
719.3104388562002
 30
0.0
 11
1868.74540631644
 21
708.7609347782668
 31
0.0
  0
LINE
  5
784
330
5F1
100
AcDbEntity
  8
0
100
AcDbLine
 10
1908.745406316432
 20
727.2169388561893
 30
0.0
 11
1908.745406316432
 21
708.7609347782668
 31
0.0
  0
LINE
  5
785
330
5F1
100
AcDbEntity
  8
0
100
AcDbLine
 10
1869.99540631644
 20
710.3484347782669
 30
0.0
 11
1907.495406316432
 21
710.3484347782669
 31
0.0
  0
SOLID
  5
786
330
5F1
100
AcDbEntity
  8
0
  6
ACAD_ISO10W100
100
AcDbTrace
 10
1869.99540631644
 20
710.5567681116002
 30
0.0
 11
1869.99540631644
 21
710.1401014449335
 31
0.0
 12
1868.74540631644
 22
710.3484347782669
 32
0.0
 13
1868.74540631644
 23
710.3484347782669
 33
0.0
  0
SOLID
  5
787
330
5F1
100
AcDbEntity
  8
0
  6
ACAD_ISO10W100
100
AcDbTrace
 10
1907.495406316432
 20
710.5567681116002
 30
0.0
 11
1907.495406316432
 21
710.1401014449335
 31
0.0
 12
1908.745406316432
 22
710.3484347782669
 32
0.0
 13
1908.745406316432
 23
710.3484347782669
 33
0.0
  0
MTEXT
  5
788
330
5F1
100
AcDbEntity
  8
0
  6
ACAD_ISO10W100
100
AcDbMText
 10
1888.745406316436
 20
711.4094852700845
 30
0.0
 40
1.100000023841857
 41
0.0
 71
     5
 72
     1
  1
\A1;40,00
  7
Arial
 73
     1
 44
1.0
  0
POINT
  5
789
330
5F1
100
AcDbEntity
  8
Defpoints
  6
ACAD_ISO10W100
 62
     0
100
AcDbPoint
 10
1868.74540631644
 20
719.7104388562002
 30
0.0
  0
POINT
  5
78A
330
5F1
100
AcDbEntity
  8
Defpoints
  6
ACAD_ISO10W100
 62
     0
100
AcDbPoint
 10
1908.745406316432
 20
727.6169388561893
 30
0.0
  0
POINT
  5
78B
330
5F1
100
AcDbEntity
  8
Defpoints
  6
ACAD_ISO10W100
 62
     0
100
AcDbPoint
 10
1908.745406316432
 20
710.3484347782669
 30
0.0
  0
ENDBLK
  5
5F3
330
5F1
100
AcDbEntity
  8
0
100
AcDbBlockEnd
  0
BLOCK
  5
5FE
330
5FD
100
AcDbEntity
  8
0
100
AcDbBlockBegin
  2
*D67
 70
     1
 10
0.0
 20
0.0
 30
0.0
  3
*D67
  1

  0
LINE
  5
78C
330
5FD
100
AcDbEntity
  8
0
100
AcDbLine
 10
1908.745406316432
 20
727.2169388561893
 30
0.0
 11
1908.745406316432
 21
708.7609347782668
 31
0.0
  0
LINE
  5
78D
330
5FD
100
AcDbEntity
  8
0
100
AcDbLine
 10
1948.745406316434
 20
719.3104388561892
 30
0.0
 11
1948.745406316434
 21
708.7609347782668
 31
0.0
  0
LINE
  5
78E
330
5FD
100
AcDbEntity
  8
0
100
AcDbLine
 10
1909.995406316432
 20
710.3484347782669
 30
0.0
 11
1947.495406316434
 21
710.3484347782669
 31
0.0
  0
SOLID
  5
78F
330
5FD
100
AcDbEntity
  8
0
  6
ACAD_ISO10W100
100
AcDbTrace
 10
1909.995406316432
 20
710.5567681116002
 30
0.0
 11
1909.995406316432
 21
710.1401014449335
 31
0.0
 12
1908.745406316432
 22
710.3484347782669
 32
0.0
 13
1908.745406316432
 23
710.3484347782669
 33
0.0
  0
SOLID
  5
790
330
5FD
100
AcDbEntity
  8
0
  6
ACAD_ISO10W100
100
AcDbTrace
 10
1947.495406316434
 20
710.5567681116002
 30
0.0
 11
1947.495406316434
 21
710.1401014449335
 31
0.0
 12
1948.745406316434
 22
710.3484347782669
 32
0.0
 13
1948.745406316434
 23
710.3484347782669
 33
0.0
  0
MTEXT
  5
791
330
5FD
100
AcDbEntity
  8
0
  6
ACAD_ISO10W100
100
AcDbMText
 10
1928.745406316433
 20
711.4094852700845
 30
0.0
 40
1.100000023841857
 41
0.0
 71
     5
 72
     1
  1
\A1;40,00
  7
Arial
 73
     1
 44
1.0
  0
POINT
  5
792
330
5FD
100
AcDbEntity
  8
Defpoints
  6
ACAD_ISO10W100
 62
     0
100
AcDbPoint
 10
1908.745406316432
 20
727.6169388561893
 30
0.0
  0
POINT
  5
793
330
5FD
100
AcDbEntity
  8
Defpoints
  6
ACAD_ISO10W100
 62
     0
100
AcDbPoint
 10
1948.745406316434
 20
719.7104388561893
 30
0.0
  0
POINT
  5
794
330
5FD
100
AcDbEntity
  8
Defpoints
  6
ACAD_ISO10W100
 62
     0
100
AcDbPoint
 10
1948.745406316434
 20
710.3484347782669
 30
0.0
  0
ENDBLK
  5
5FF
330
5FD
100
AcDbEntity
  8
0
100
AcDbBlockEnd
  0
BLOCK
  5
60A
330
609
100
AcDbEntity
  8
0
100
AcDbBlockBegin
  2
*D68
 70
     1
 10
0.0
 20
0.0
 30
0.0
  3
*D68
  1

  0
LINE
  5
795
330
609
100
AcDbEntity
  8
0
100
AcDbLine
 10
1998.248427089851
 20
784.6799701723672
 30
0.0
 11
1998.248427089851
 21
771.495390663326
 31
0.0
  0
LINE
  5
796
330
609
100
AcDbEntity
  8
0
100
AcDbLine
 10
2006.24842708986
 20
781.5305663085069
 30
0.0
 11
2006.24842708986
 21
771.495390663326
 31
0.0
  0
LINE
  5
797
330
609
100
AcDbEntity
  8
0
100
AcDbLine
 10
1999.498427089852
 20
773.0828906633259
 30
0.0
 11
2004.99842708986
 21
773.0828906633259
 31
0.0
  0
SOLID
  5
798
330
609
100
AcDbEntity
  8
0
  6
ACAD_ISO10W100
100
AcDbTrace
 10
1999.498427089852
 20
773.2912239966593
 30
0.0
 11
1999.498427089852
 21
772.8745573299926
 31
0.0
 12
1998.248427089851
 22
773.0828906633259
 32
0.0
 13
1998.248427089851
 23
773.0828906633259
 33
0.0
  0
SOLID
  5
799
330
609
100
AcDbEntity
  8
0
  6
ACAD_ISO10W100
100
AcDbTrace
 10
2004.99842708986
 20
773.2912239966593
 30
0.0
 11
2004.99842708986
 21
772.8745573299926
 31
0.0
 12
2006.24842708986
 22
773.0828906633259
 32
0.0
 13
2006.24842708986
 23
773.0828906633259
 33
0.0
  0
MTEXT
  5
79A
330
609
100
AcDbEntity
  8
0
  6
ACAD_ISO10W100
100
AcDbMText
 10
2002.248427089856
 20
774.1439411551437
 30
0.0
 40
1.100000023841857
 41
0.0
 71
     5
 72
     1
  1
\A1;2,00
  7
Arial
 73
     1
 44
1.0
  0
POINT
  5
79B
330
609
100
AcDbEntity
  8
Defpoints
  6
ACAD_ISO10W100
 62
     0
100
AcDbPoint
 10
1998.248427089851
 20
785.0799701723672
 30
0.0
  0
POINT
  5
79C
330
609
100
AcDbEntity
  8
Defpoints
  6
ACAD_ISO10W100
 62
     0
100
AcDbPoint
 10
2006.24842708986
 20
781.9305663085069
 30
0.0
  0
POINT
  5
79D
330
609
100
AcDbEntity
  8
Defpoints
  6
ACAD_ISO10W100
 62
     0
100
AcDbPoint
 10
2006.24842708986
 20
773.0828906633259
 30
0.0
  0
ENDBLK
  5
60B
330
609
100
AcDbEntity
  8
0
100
AcDbBlockEnd
  0
BLOCK
  5
616
330
615
100
AcDbEntity
  8
0
100
AcDbBlockBegin
  2
*D69
 70
     1
 10
0.0
 20
0.0
 30
0.0
  3
*D69
  1

  0
LINE
  5
79E
330
615
100
AcDbEntity
  8
0
100
AcDbLine
 10
1988.418784103128
 20
810.0301460610618
 30
0.0
 11
1980.447802315412
 21
810.0301460610618
 31
0.0
  0
LINE
  5
79F
330
615
100
AcDbEntity
  8
0
100
AcDbLine
 10
1986.169190951264
 20
802.0301460610554
 30
0.0
 11
1980.447802315412
 21
802.0301460610554
 31
0.0
  0
LINE
  5
7A0
330
615
100
AcDbEntity
  8
0
100
AcDbLine
 10
1982.035302315412
 20
808.7801460610616
 30
0.0
 11
1982.035302315412
 21
803.2801460610553
 31
0.0
  0
SOLID
  5
7A1
330
615
100
AcDbEntity
  8
0
  6
ACAD_ISO10W100
100
AcDbTrace
 10
1981.826968982079
 20
808.7801460610616
 30
0.0
 11
1982.243635648745
 21
808.7801460610616
 31
0.0
 12
1982.035302315412
 22
810.0301460610618
 32
0.0
 13
1982.035302315412
 23
810.0301460610618
 33
0.0
  0
SOLID
  5
7A2
330
615
100
AcDbEntity
  8
0
  6
ACAD_ISO10W100
100
AcDbTrace
 10
1981.826968982079
 20
803.2801460610553
 30
0.0
 11
1982.243635648745
 21
803.2801460610553
 31
0.0
 12
1982.035302315412
 22
802.0301460610554
 32
0.0
 13
1982.035302315412
 23
802.0301460610554
 33
0.0
  0
MTEXT
  5
7A3
330
615
100
AcDbEntity
  8
0
  6
ACAD_ISO10W100
100
AcDbMText
 10
1980.974251823594
 20
806.0301460610588
 30
0.0
 40
1.100000023841857
 41
0.0
 71
     5
 72
     1
  1
\A1;2,00
  7
Arial
 11
0.0000000000000001
 21
1.0
 31
0.0
 73
     1
 44
1.0
  0
POINT
  5
7A4
330
615
100
AcDbEntity
  8
Defpoints
  6
ACAD_ISO10W100
 62
     0
100
AcDbPoint
 10
1988.818784103128
 20
810.0301460610618
 30
0.0
  0
POINT
  5
7A5
330
615
100
AcDbEntity
  8
Defpoints
  6
ACAD_ISO10W100
 62
     0
100
AcDbPoint
 10
1986.569190951264
 20
802.0301460610554
 30
0.0
  0
POINT
  5
7A6
330
615
100
AcDbEntity
  8
Defpoints
  6
ACAD_ISO10W100
 62
     0
100
AcDbPoint
 10
1982.035302315412
 20
802.0301460610554
 30
0.0
  0
ENDBLK
  5
617
330
615
100
AcDbEntity
  8
0
100
AcDbBlockEnd
  0
BLOCK
  5
622
330
621
100
AcDbEntity
  8
0
100
AcDbBlockBegin
  2
*D70
 70
     1
 10
0.0
 20
0.0
 30
0.0
  3
*D70
  1

  0
LINE
  5
7A7
330
621
100
AcDbEntity
  8
0
100
AcDbLine
 10
1920.245406316513
 20
802.0264859630694
 30
0.0
 11
1920.245406316513
 21
798.6851112686805
 31
0.0
  0
LINE
  5
7A8
330
621
100
AcDbEntity
  8
0
100
AcDbLine
 10
1922.245406316513
 20
802.0264859630747
 30
0.0
 11
1922.245406316513
 21
798.6851112686805
 31
0.0
  0
LINE
  5
7A9
330
621
100
AcDbEntity
  8
0
100
AcDbLine
 10
1918.995406316513
 20
800.2726112686804
 30
0.0
 11
1917.745406316513
 21
800.2726112686804
 31
0.0
  0
LINE
  5
7AA
330
621
100
AcDbEntity
  8
0
100
AcDbLine
 10
1923.495406316513
 20
800.2726112686804
 30
0.0
 11
1928.41771197222
 21
800.2726112686804
 31
0.0
  0
LINE
  5
7AB
330
621
100
AcDbEntity
  8
0
100
AcDbLine
 10
1920.245406316513
 20
800.2726112686804
 30
0.0
 11
1922.245406316513
 21
800.2726112686804
 31
0.0
  0
SOLID
  5
7AC
330
621
100
AcDbEntity
  8
0
  6
ACAD_ISO10W100
100
AcDbTrace
 10
1918.995406316513
 20
800.4809446020139
 30
0.0
 11
1918.995406316513
 21
800.0642779353471
 31
0.0
 12
1920.245406316513
 22
800.2726112686804
 32
0.0
 13
1920.245406316513
 23
800.2726112686804
 33
0.0
  0
SOLID
  5
7AD
330
621
100
AcDbEntity
  8
0
  6
ACAD_ISO10W100
100
AcDbTrace
 10
1923.495406316513
 20
800.4809446020139
 30
0.0
 11
1923.495406316513
 21
800.0642779353471
 31
0.0
 12
1922.245406316513
 22
800.2726112686804
 32
0.0
 13
1922.245406316513
 23
800.2726112686804
 33
0.0
  0
MTEXT
  5
7AE
330
621
100
AcDbEntity
  8
0
  6
ACAD_ISO10W100
100
AcDbMText
 10
1926.581559144367
 20
801.3336617604982
 30
0.0
 40
1.100000023841857
 41
0.0
 71
     5
 72
     1
  1
\A1;2,00
  7
Arial
 73
     1
 44
1.0
  0
POINT
  5
7AF
330
621
100
AcDbEntity
  8
Defpoints
  6
ACAD_ISO10W100
 62
     0
100
AcDbPoint
 10
1920.245406316513
 20
802.4264859630694
 30
0.0
  0
POINT
  5
7B0
330
621
100
AcDbEntity
  8
Defpoints
  6
ACAD_ISO10W100
 62
     0
100
AcDbPoint
 10
1922.245406316513
 20
802.4264859630747
 30
0.0
  0
POINT
  5
7B1
330
621
100
AcDbEntity
  8
Defpoints
  6
ACAD_ISO10W100
 62
     0
100
AcDbPoint
 10
1922.245406316513
 20
800.2726112686804
 30
0.0
  0
ENDBLK
  5
623
330
621
100
AcDbEntity
  8
0
100
AcDbBlockEnd
  0
BLOCK
  5
630
330
62F
100
AcDbEntity
  8
0
100
AcDbBlockBegin
  2
*D71
 70
     1
 10
0.0
 20
0.0
 30
0.0
  3
*D71
  1

  0
LINE
  5
7B2
330
62F
100
AcDbEntity
  8
0
100
AcDbLine
 10
1915.045406316499
 20
807.4764859630558
 30
0.0
 11
1911.025194653943
 21
807.4764859630558
 31
0.0
  0
LINE
  5
7B3
330
62F
100
AcDbEntity
  8
0
100
AcDbLine
 10
1915.045406316505
 20
805.4764859630559
 30
0.0
 11
1911.025194653943
 21
805.4764859630559
 31
0.0
  0
LINE
  5
7B4
330
62F
100
AcDbEntity
  8
0
100
AcDbLine
 10
1912.612694653943
 20
808.7264859630559
 30
0.0
 11
1912.612694653943
 21
809.9764859630559
 31
0.0
  0
LINE
  5
7B5
330
62F
100
AcDbEntity
  8
0
100
AcDbLine
 10
1912.612694653943
 20
804.2264859630559
 30
0.0
 11
1912.612694653943
 21
799.3041803073488
 31
0.0
  0
LINE
  5
7B6
330
62F
100
AcDbEntity
  8
0
100
AcDbLine
 10
1912.612694653943
 20
807.4764859630558
 30
0.0
 11
1912.612694653943
 21
805.4764859630559
 31
0.0
  0
SOLID
  5
7B7
330
62F
100
AcDbEntity
  8
0
  6
ACAD_ISO10W100
100
AcDbTrace
 10
1912.40436132061
 20
808.7264859630559
 30
0.0
 11
1912.821027987277
 21
808.7264859630559
 31
0.0
 12
1912.612694653943
 22
807.4764859630558
 32
0.0
 13
1912.612694653943
 23
807.4764859630558
 33
0.0
  0
SOLID
  5
7B8
330
62F
100
AcDbEntity
  8
0
  6
ACAD_ISO10W100
100
AcDbTrace
 10
1912.40436132061
 20
804.2264859630559
 30
0.0
 11
1912.821027987277
 21
804.2264859630559
 31
0.0
 12
1912.612694653943
 22
805.4764859630559
 32
0.0
 13
1912.612694653943
 23
805.4764859630559
 33
0.0
  0
MTEXT
  5
7B9
330
62F
100
AcDbEntity
  8
0
  6
ACAD_ISO10W100
100
AcDbMText
 10
1911.551644162125
 20
801.1403331352026
 30
0.0
 40
1.100000023841857
 41
0.0
 71
     5
 72
     1
  1
\A1;2,00
  7
Arial
 11
0.0000000000000001
 21
1.0
 31
0.0
 73
     1
 44
1.0
  0
POINT
  5
7BA
330
62F
100
AcDbEntity
  8
Defpoints
  6
ACAD_ISO10W100
 62
     0
100
AcDbPoint
 10
1915.445406316499
 20
807.4764859630558
 30
0.0
  0
POINT
  5
7BB
330
62F
100
AcDbEntity
  8
Defpoints
  6
ACAD_ISO10W100
 62
     0
100
AcDbPoint
 10
1915.445406316505
 20
805.4764859630559
 30
0.0
  0
POINT
  5
7BC
330
62F
100
AcDbEntity
  8
Defpoints
  6
ACAD_ISO10W100
 62
     0
100
AcDbPoint
 10
1912.612694653943
 20
805.4764859630559
 30
0.0
  0
ENDBLK
  5
631
330
62F
100
AcDbEntity
  8
0
100
AcDbBlockEnd
  0
BLOCK
  5
63E
330
63D
100
AcDbEntity
  8
0
100
AcDbBlockBegin
  2
*D72
 70
     1
 10
0.0
 20
0.0
 30
0.0
  3
*D72
  1

  0
LINE
  5
7BD
330
63D
100
AcDbEntity
  8
0
100
AcDbLine
 10
2013.848427089781
 20
810.0301460611309
 30
0.0
 11
2020.851928576246
 21
810.0301460611309
 31
0.0
  0
LINE
  5
7BE
330
63D
100
AcDbEntity
  8
0
100
AcDbLine
 10
2013.416006496199
 20
794.0305840972833
 30
0.0
 11
2020.851928576246
 21
794.0305840972833
 31
0.0
  0
LINE
  5
7BF
330
63D
100
AcDbEntity
  8
0
100
AcDbLine
 10
2019.264428576246
 20
808.7801460611308
 30
0.0
 11
2019.264428576246
 21
795.2805840972833
 31
0.0
  0
SOLID
  5
7C0
330
63D
100
AcDbEntity
  8
0
  6
ACAD_ISO10W100
100
AcDbTrace
 10
2019.056095242912
 20
808.7801460611308
 30
0.0
 11
2019.472761909579
 21
808.7801460611308
 31
0.0
 12
2019.264428576246
 22
810.0301460611309
 32
0.0
 13
2019.264428576246
 23
810.0301460611309
 33
0.0
  0
SOLID
  5
7C1
330
63D
100
AcDbEntity
  8
0
  6
ACAD_ISO10W100
100
AcDbTrace
 10
2019.056095242912
 20
795.2805840972833
 30
0.0
 11
2019.472761909579
 21
795.2805840972833
 31
0.0
 12
2019.264428576246
 22
794.0305840972833
 32
0.0
 13
2019.264428576246
 23
794.0305840972833
 33
0.0
  0
MTEXT
  5
7C2
330
63D
100
AcDbEntity
  8
0
  6
ACAD_ISO10W100
100
AcDbMText
 10
2017.494793420138
 20
802.0303650792074
 30
0.0
 40
1.100000023841857
 41
0.0
 71
     5
 72
     1
  1
\A1;4,00 {\H0.68182x;+0,00\P            -0,25}
  7
Arial
 11
0.0000000000000001
 21
1.0
 31
0.0
 73
     1
 44
1.0
  0
POINT
  5
7C3
330
63D
100
AcDbEntity
  8
Defpoints
  6
ACAD_ISO10W100
 62
     0
100
AcDbPoint
 10
2013.448427089781
 20
810.0301460611309
 30
0.0
  0
POINT
  5
7C4
330
63D
100
AcDbEntity
  8
Defpoints
  6
ACAD_ISO10W100
 62
     0
100
AcDbPoint
 10
2013.016006496199
 20
794.0305840972833
 30
0.0
  0
POINT
  5
7C5
330
63D
100
AcDbEntity
  8
Defpoints
  6
ACAD_ISO10W100
 62
     0
100
AcDbPoint
 10
2019.264428576246
 20
794.0305840972833
 30
0.0
  0
ENDBLK
  5
63F
330
63D
100
AcDbEntity
  8
0
100
AcDbBlockEnd
  0
BLOCK
  5
64A
330
649
100
AcDbEntity
  8
0
100
AcDbBlockBegin
  2
*D73
 70
     1
 10
0.0
 20
0.0
 30
0.0
  3
*D73
  1

  0
LINE
  5
7C6
330
649
100
AcDbEntity
  8
0
100
AcDbLine
 10
2012.482741664863
 20
794.0987752112317
 30
0.0
 11
2017.923310161666
 21
788.6582067144577
 31
0.0
  0
ARC
  5
7C7
330
649
100
AcDbEntity
  8
0
100
AcDbCircle
 10
2006.248427089809
 20
800.3330897862515
 30
0.0
 40
14.92327797929554
100
AcDbArc
 50
274.8005993029554
 51
310.1994006973605
  0
SOLID
  5
7C8
330
649
100
AcDbEntity
  8
0
  6
ACAD_ISO10W100
100
AcDbTrace
 10
2007.506055536835
 20
785.2540123617902
 30
0.0
 11
2007.488605170565
 21
785.6703134497402
 31
0.0
 12
2006.24842708985
 22
785.4098118069559
 32
0.0
 13
2006.24842708985
 23
785.4098118069559
 33
0.0
  0
SOLID
  5
7C9
330
649
100
AcDbEntity
  8
0
  6
ACAD_ISO10W100
100
AcDbTrace
 10
2015.739637337658
 20
789.0880028769532
 30
0.0
 11
2016.021667387641
 21
788.7812942823267
 31
0.0
 12
2016.800778146529
 22
789.7807387295882
 32
0.0
 13
2016.800778146529
 23
789.7807387295882
 33
0.0
  0
MTEXT
  5
7CA
330
649
100
AcDbEntity
  8
0
  6
ACAD_ISO10W100
100
AcDbMText
 10
2011.59217977504
 20
787.4321295796999
 30
0.0
 40
1.100000023841857
 41
0.0
 71
     5
 72
     1
  1
\A1;45\U+00B0
  7
Arial
 11
0.9238795325102323
 21
0.3826834323676356
 31
0.0
 73
     1
 44
1.0
  0
POINT
  5
7CB
330
649
100
AcDbEntity
  8
Defpoints
  6
ACAD_ISO10W100
 62
     0
100
AcDbPoint
 10
2010.110855646249
 20
785.9183101731696
 30
0.0
  0
POINT
  5
7CC
330
649
100
AcDbEntity
  8
Defpoints
  6
ACAD_ISO10W100
 62
     0
100
AcDbPoint
 10
2006.24842708986
 20
781.9305663085072
 30
0.0
  0
POINT
  5
7CD
330
649
100
AcDbEntity
  8
Defpoints
  6
ACAD_ISO10W100
 62
     0
100
AcDbPoint
 10
2008.296955227252
 20
798.2845616488194
 30
0.0
  0
POINT
  5
7CE
330
649
100
AcDbEntity
  8
Defpoints
  6
ACAD_ISO10W100
 62
     0
100
AcDbPoint
 10
2012.199898952387
 20
794.3816179237055
 30
0.0
  0
POINT
  5
7CF
330
649
100
AcDbEntity
  8
Defpoints
  6
ACAD_ISO10W100
 62
     0
100
AcDbPoint
 10
2006.248427089817
 20
797.4360335113871
 30
0.0
  0
ENDBLK
  5
64B
330
649
100
AcDbEntity
  8
0
100
AcDbBlockEnd
  0
BLOCK
  5
657
330
656
100
AcDbEntity
  8
0
100
AcDbBlockBegin
  2
*D74
 70
     1
 10
0.0
 20
0.0
 30
0.0
  3
*D74
  1

  0
LINE
  5
7D0
330
656
100
AcDbEntity
  8
S10_Quote
  6
ACAD_ISO10W100
 62
     0
370
    -2
100
AcDbLine
 10
1995.599597496217
 20
733.7519520830519
 30
0.0
 11
1995.599597496217
 21
742.0191161050988
 31
0.0
  0
LINE
  5
7D1
330
656
100
AcDbEntity
  8
S10_Quote
  6
ACAD_ISO10W100
 62
     0
370
    -2
100
AcDbLine
 10
2003.599597496217
 20
733.7519520830519
 30
0.0
 11
2003.599597496217
 21
742.0191161050988
 31
0.0
  0
LINE
  5
7D2
330
656
100
AcDbEntity
  8
S10_Quote
  6
ACAD_ISO10W100
 62
     0
370
    -2
100
AcDbLine
 10
1995.614597496217
 20
740.7691161050989
 30
0.0
 11
2003.584597496217
 21
740.7691161050989
 31
0.0
  0
INSERT
  5
7D3
330
656
100
AcDbEntity
  8
S10_Quote
  6
ACAD_ISO10W100
 62
     0
370
    -2
100
AcDbBlockReference
  2
A$C79C4041D
 10
1995.599597496217
 20
740.7691161050989
 30
0.0
 41
0.015
 42
0.015
 43
0.015
 50
180.0
  0
INSERT
  5
7D4
330
656
100
AcDbEntity
  8
S10_Quote
  6
ACAD_ISO10W100
 62
     0
370
    -2
100
AcDbBlockReference
  2
A$C79C4041D
 10
2003.599597496217
 20
740.7691161050989
 30
0.0
 41
0.015
 42
0.015
 43
0.015
  0
MTEXT
  5
7D5
330
656
100
AcDbEntity
  8
S10_Quote
  6
ACAD_ISO10W100
 62
     0
100
AcDbMText
 10
1999.599597496217
 20
742.5691161050988
 30
0.0
 40
2.0
 41
0.0
 71
     5
 72
     1
  1
2
  7
wurth
 73
     1
 44
1.0
  0
POINT
  5
7D6
330
656
100
AcDbEntity
  8
Defpoints
  6
ACAD_ISO10W100
 62
     0
100
AcDbPoint
 10
1995.599597496217
 20
733.1269520830519
 30
0.0
  0
POINT
  5
7D7
330
656
100
AcDbEntity
  8
Defpoints
  6
ACAD_ISO10W100
 62
     0
100
AcDbPoint
 10
2003.599597496217
 20
733.1269520830519
 30
0.0
  0
POINT
  5
7D8
330
656
100
AcDbEntity
  8
Defpoints
  6
ACAD_ISO10W100
 62
     0
100
AcDbPoint
 10
2003.599597496217
 20
740.7691161050989
 30
0.0
  0
ENDBLK
  5
658
330
656
100
AcDbEntity
  8
0
100
AcDbBlockEnd
  0
BLOCK
  5
663
330
662
100
AcDbEntity
  8
0
100
AcDbBlockBegin
  2
*D75
 70
     1
 10
0.0
 20
0.0
 30
0.0
  3
*D75
  1

  0
LINE
  5
7D9
330
662
100
AcDbEntity
  8
S10_Quote
  6
ACAD_ISO10W100
 62
     0
370
    -2
100
AcDbLine
 10
1995.599597496217
 20
733.7519520830519
 30
0.0
 11
1995.599597496217
 21
737.0564354378238
 31
0.0
  0
LINE
  5
7DA
330
662
100
AcDbEntity
  8
S10_Quote
  6
ACAD_ISO10W100
 62
     0
370
    -2
100
AcDbLine
 10
1999.599597496217
 20
731.7519520830519
 30
0.0
 11
1999.599597496217
 21
737.0564354378238
 31
0.0
  0
LINE
  5
7DB
330
662
100
AcDbEntity
  8
S10_Quote
  6
ACAD_ISO10W100
 62
     0
370
    -2
100
AcDbLine
 10
1995.614597496217
 20
735.8064354378239
 30
0.0
 11
1999.584597496217
 21
735.8064354378239
 31
0.0
  0
INSERT
  5
7DC
330
662
100
AcDbEntity
  8
S10_Quote
  6
ACAD_ISO10W100
 62
     0
370
    -2
100
AcDbBlockReference
  2
A$C79C4041D
 10
1995.599597496217
 20
735.8064354378239
 30
0.0
 41
0.015
 42
0.015
 43
0.015
 50
180.0
  0
INSERT
  5
7DD
330
662
100
AcDbEntity
  8
S10_Quote
  6
ACAD_ISO10W100
 62
     0
370
    -2
100
AcDbBlockReference
  2
A$C79C4041D
 10
1999.599597496217
 20
735.8064354378239
 30
0.0
 41
0.015
 42
0.015
 43
0.015
  0
MTEXT
  5
7DE
330
662
100
AcDbEntity
  8
S10_Quote
  6
ACAD_ISO10W100
 62
     0
100
AcDbMText
 10
1997.599597496217
 20
737.6064354378238
 30
0.0
 40
2.0
 41
0.0
 71
     5
 72
     1
  1
1
  7
wurth
 73
     1
 44
1.0
  0
POINT
  5
7DF
330
662
100
AcDbEntity
  8
Defpoints
  6
ACAD_ISO10W100
 62
     0
100
AcDbPoint
 10
1995.599597496217
 20
733.1269520830519
 30
0.0
  0
POINT
  5
7E0
330
662
100
AcDbEntity
  8
Defpoints
  6
ACAD_ISO10W100
 62
     0
100
AcDbPoint
 10
1999.599597496217
 20
731.1269520830519
 30
0.0
  0
POINT
  5
7E1
330
662
100
AcDbEntity
  8
Defpoints
  6
ACAD_ISO10W100
 62
     0
100
AcDbPoint
 10
1999.599597496217
 20
735.8064354378239
 30
0.0
  0
ENDBLK
  5
664
330
662
100
AcDbEntity
  8
0
100
AcDbBlockEnd
  0
BLOCK
  5
66F
330
66E
100
AcDbEntity
  8
0
100
AcDbBlockBegin
  2
*D76
 70
     1
 10
0.0
 20
0.0
 30
0.0
  3
*D76
  1

  0
LINE
  5
7E2
330
66E
100
AcDbEntity
  8
S10_Quote
  6
ACAD_ISO10W100
 62
     0
370
    -2
100
AcDbLine
 10
1994.974597496217
 20
733.1269520830519
 30
0.0
 11
1988.152212626204
 21
733.1269520830519
 31
0.0
  0
LINE
  5
7E3
330
66E
100
AcDbEntity
  8
S10_Quote
  6
ACAD_ISO10W100
 62
     0
370
    -2
100
AcDbLine
 10
1998.974597496217
 20
731.1269520830519
 30
0.0
 11
1988.152212626204
 21
731.1269520830519
 31
0.0
  0
LINE
  5
7E4
330
66E
100
AcDbEntity
  8
S10_Quote
  6
ACAD_ISO10W100
 62
     0
370
    -2
100
AcDbLine
 10
1989.402212626204
 20
731.1419520830519
 30
0.0
 11
1989.402212626204
 21
733.1119520830519
 31
0.0
  0
LINE
  5
7E5
330
66E
100
AcDbEntity
  8
S10_Quote
  6
ACAD_ISO10W100
 62
     0
370
    -2
100
AcDbLine
 10
1989.402212626204
 20
733.1269520830519
 30
0.0
 11
1989.402212626204
 21
738.225868166968
 31
0.0
  0
INSERT
  5
7E6
330
66E
100
AcDbEntity
  8
S10_Quote
  6
ACAD_ISO10W100
 62
     0
370
    -2
100
AcDbBlockReference
  2
A$C79C4041D
 10
1989.402212626204
 20
731.1269520830519
 30
0.0
 41
0.015
 42
0.015
 43
0.015
 50
270.0
  0
INSERT
  5
7E7
330
66E
100
AcDbEntity
  8
S10_Quote
  6
ACAD_ISO10W100
 62
     0
370
    -2
100
AcDbBlockReference
  2
A$C79C4041D
 10
1989.402212626204
 20
733.1269520830519
 30
0.0
 41
0.015
 42
0.015
 43
0.015
 50
90.0
  0
MTEXT
  5
7E8
330
66E
100
AcDbEntity
  8
S10_Quote
  6
ACAD_ISO10W100
 62
     0
100
AcDbMText
 10
1987.384730108721
 20
735.6839101250103
 30
0.0
 40
2.0
 41
0.0
 71
     5
 72
     1
  1
0,5
  7
wurth
 11
0.0000000000000001
 21
1.0
 31
0.0
 73
     1
 44
1.0
  0
POINT
  5
7E9
330
66E
100
AcDbEntity
  8
Defpoints
  6
ACAD_ISO10W100
 62
     0
100
AcDbPoint
 10
1995.599597496217
 20
733.1269520830519
 30
0.0
  0
POINT
  5
7EA
330
66E
100
AcDbEntity
  8
Defpoints
  6
ACAD_ISO10W100
 62
     0
100
AcDbPoint
 10
1999.599597496217
 20
731.1269520830519
 30
0.0
  0
POINT
  5
7EB
330
66E
100
AcDbEntity
  8
Defpoints
  6
ACAD_ISO10W100
 62
     0
100
AcDbPoint
 10
1989.402212626204
 20
731.1269520830519
 30
0.0
  0
ENDBLK
  5
670
330
66E
100
AcDbEntity
  8
0
100
AcDbBlockEnd
  0
ENDSEC
  0
SECTION
  2
ENTITIES
  0
HATCH
  5
44C
330
1F
100
AcDbEntity
  8
S08_Retino
100
AcDbHatch
 10
0.0
 20
0.0
 30
0.0
210
0.0
220
0.0
230
1.0
  2
ANSI31
 70
     0
 71
     1
 91
        3
 92
        7
 72
     1
 73
     1
 93
       32
 10
1897.245406316505
 20
805.2764859630052
 42
-0.4142135623731085
 10
1897.445406316505
 20
805.4764859630058
 42
0.0
 10
1902.045406316505
 20
805.4764859630186
 42
0.414213562373096
 10
1902.245406316504
 20
805.6764859630193
 42
0.0
 10
1902.2454063165
 20
807.2764859630197
 42
0.4142135623731094
 10
1902.045406316499
 20
807.4764859630185
 42
0.0
 10
1893.445406316499
 20
807.4764859629949
 42
0.4142135623730769
 10
1893.2454063165
 20
807.2764859629941
 42
0.0
 10
1893.245406316509
 20
803.7764859629961
 42
0.6681786379193364
 10
1893.75753835087
 20
803.5643539286402
 42
0.0
 10
1894.733274282149
 20
804.5400898599245
 42
-0.6681786379193464
 10
1895.245406316508
 20
804.3279578255688
 42
0.0
 10
1895.245406316562
 20
785.0764859630089
 42
-0.414213562373919
 10
1894.645406316562
 20
784.4764859630068
 42
0.0
 10
1880.245406316505
 20
784.4764859630068
 42
0.0
 10
1879.245406316504
 20
783.9764859630068
 42
0.0
 10
1878.245406316505
 20
784.4764859630068
 42
0.0
 10
1868.94540631645
 20
784.4764859630059
 42
0.4142135623695154
 10
1868.74540631645
 20
784.2764859630087
 42
0.0
 10
1868.745406316431
 20
782.6764859630093
 42
0.4142135623766643
 10
1868.94540631643
 20
782.4764859630067
 42
0.0
 10
1933.646753552135
 20
782.4764859630067
 42
-0.0789889267286044
 10
1933.408298994218
 20
783.9764859630068
 42
-0.0258939180408647
 10
1933.434210285651
 20
784.4764859630068
 42
0.0
 10
1922.845406316562
 20
784.4764859630068
 42
-0.4142135623722711
 10
1922.245406316562
 20
785.0764859630053
 42
0.0
 10
1922.245406316516
 20
801.4044140676324
 42
-0.1046041170844034
 10
1920.245406316516
 20
801.4943083385487
 42
0.0
 10
1920.245406316521
 20
799.5764859630699
 42
-0.4142135623730877
 10
1919.645406316523
 20
798.9764859630676
 42
0.0
 10
1897.845406316523
 20
798.9764859630067
 42
-0.4142135623730899
 10
1897.245406316521
 20
799.5764859630053
 42
0.0
 97
        3
330
44F
330
48B
330
489
 92
       22
 72
     1
 73
     1
 93
        8
 10
1897.145406316387
 20
797.6764859629565
 42
0.0
 10
1920.345406316477
 20
797.6764859630211
 42
-0.4142135623731134
 10
1920.945406316479
 20
797.0764859630226
 42
0.0
 10
1920.945406316513
 20
784.3764859630082
 42
-0.4142135623738782
 10
1920.345406316513
 20
783.776485963006
 42
0.0
 10
1897.145406316423
 20
783.776485963006
 42
-0.4142135623723128
 10
1896.545406316423
 20
784.3764859630046
 42
0.0
 10
1896.545406316389
 20
797.0764859629544
 42
-0.4142135623730633
 97
        1
330
44F
 92
        6
 72
     1
 73
     1
 93
        2
 10
1907.677653671441
 20
791.3829859630068
 42
-1.0
 10
1909.813158961424
 20
791.3829859630068
 42
-1.0
 97
        1
330
499
 75
     0
 76
     1
 52
0.0
 41
0.05
 77
     0
 78
     1
 53
45.0
 43
1665.584443642015
 44
-3474.797972877152
 45
-0.1122532015133644
 46
0.1122532015133644
 79
     0
 47
0.159304221182083
 98
        3
 10
1896.319590028579
 20
802.8656730210077
 10
1896.319590028579
 20
802.8656730210077
 10
1896.319590028579
 20
802.8656730210077
1001
ACAD
1010
0.0
1020
0.0
1030
0.0
  0
HATCH
  5
44D
330
1F
100
AcDbEntity
  8
S08_Retino
100
AcDbHatch
 10
0.0
 20
0.0
 30
0.0
210
0.0
220
0.0
230
1.0
  2
ANSI31
 70
     0
 71
     1
 91
        3
 92
        7
 72
     1
 73
     1
 93
       13
 10
1924.245406316499
 20
807.2764859630815
 42
0.4142135623731127
 10
1924.045406316499
 20
807.4764859630803
 42
0.0
 10
1916.798617750799
 20
807.4764859630596
 42
0.0681034152018436
 10
1916.620792174296
 20
806.1769857280943
 42
0.0363482296100195
 10
1916.671783396185
 20
805.4764859630594
 42
0.0
 10
1920.045406316505
 20
805.4764859630695
 42
-0.4142135623730822
 10
1920.245406316505
 20
805.2764859630705
 42
0.0
 10
1920.245406316516
 20
801.4943083385487
 42
0.1046041170844035
 10
1922.245406316516
 20
801.4044140676324
 42
0.0
 10
1922.245406316508
 20
804.3279578256433
 42
-0.6681786379192404
 10
1922.757538350867
 20
804.5400898600028
 42
0.0
 10
1923.73327428215
 20
803.5643539287248
 42
0.6681786379191817
 10
1924.245406316509
 20
803.7764859630833
 42
0.0
 97
        2
330
44F
330
489
 92
        7
 72
     1
 73
     1
 93
        9
 10
1943.082513638501
 20
783.9764859630068
 42
0.0258939180408647
 10
1943.056602347069
 20
784.4764859630068
 42
0.0
 10
1939.24540631636
 20
784.4764859630068
 42
0.0
 10
1938.24540631636
 20
783.9764859630068
 42
0.0
 10
1937.24540631636
 20
784.4764859630068
 42
0.0
 10
1933.434210285651
 20
784.4764859630068
 42
0.0258939180408647
 10
1933.408298994218
 20
783.9764859630068
 42
0.0789889267286044
 10
1933.646753552135
 20
782.4764859630067
 42
0.0
 10
1942.844059080585
 20
782.4764859630067
 42
0.0789889267286044
 97
        2
330
48B
330
44F
 92
        7
 72
     1
 73
     1
 93
        7
 10
1948.745406316434
 20
784.276485963006
 42
0.4142135623731004
 10
1948.545406316434
 20
784.4764859630059
 42
0.0
 10
1943.056602347069
 20
784.4764859630068
 42
-0.0258939180408453
 10
1943.082513638501
 20
783.9764859630068
 42
-0.0789889267286044
 10
1942.844059080585
 20
782.4764859630067
 42
0.0
 10
1948.545406316434
 20
782.4764859630067
 42
0.4142135623730951
 10
1948.745406316434
 20
782.6764859630066
 42
0.0
 97
        2
330
44F
330
48B
 75
     0
 76
     1
 52
0.0
 41
0.05
 77
     0
 78
     1
 53
45.0
 43
1665.584443642015
 44
-3474.797972877152
 45
-0.1122532015133644
 46
0.1122532015133644
 79
     0
 47
0.1407813447455757
 98
        3
 10
1919.659233215832
 20
806.8121781444952
 10
1935.719056123198
 20
783.0201205230133
 10
1946.707403194508
 20
783.5832401864263
1001
ACAD
1010
0.0
1020
0.0
1030
0.0
  0
HATCH
  5
44E
330
1F
100
AcDbEntity
  8
S08_Retino
100
AcDbHatch
 10
0.0
 20
0.0
 30
0.0
210
0.0
220
0.0
230
1.0
  2
ANSI31
 70
     0
 71
     1
 91
        1
 92
        7
 72
     1
 73
     1
 93
        7
 10
1916.798617750799
 20
807.4764859630596
 42
0.0
 10
1915.4454063165
 20
807.4764859630567
 42
0.4142135623730913
 10
1915.245406316499
 20
807.2764859630561
 42
0.0
 10
1915.245406316504
 20
805.6764859630558
 42
0.4142135623730836
 10
1915.445406316505
 20
805.4764859630568
 42
0.0
 10
1916.671783396185
 20
805.4764859630594
 42
-0.0363482296099846
 10
1916.620792174296
 20
806.1769857280943
 42
-0.0681034152018436
 97
        2
330
44F
330
489
 75
     0
 76
     1
 52
0.0
 41
0.05
 77
     0
 78
     1
 53
45.0
 43
1665.584443642015
 44
-3474.797972877152
 45
-0.1122532015133644
 46
0.1122532015133644
 79
     0
 47
0.0612638403587222
 98
        1
 10
1915.836066409189
 20
806.8179201517942
1001
ACAD
1010
0.0
1020
0.0
1030
0.0
  0
REGION
  5
44F
102
{ACAD_REACTORS
330
44C
330
44D
330
44E
102
}
330
1F
100
AcDbEntity
  8
0
 62
     5
100
AcDbModelerGeometry
 70
     1
  1
mogoo mhg m o         
  1
ni ^ *+0;:,4 ^ *+0\^ [ nf ^ LR mnjqoqoqkmnk QK o  
  1
n fqfffffffffffffffj:rooh n:rono 
  1
>,27:>;:- {rn rn _nm mnjqoqoqkmnk |
  1
=0;& {rn rn {rn {m {rn {rn |
  1
3*2/ {rn rn {rn {rn {l {n |
  1
,7:33 {rn rn {rn {rn {rn {k {rn {m |
  1
9><: {rn rn {rn {rn {j {l {rn {i 90-(>-; ;0*=3: 0*+ |
  1
300/ {rn rn {rn {h {g {k |
  1
/3>1:r,*-9><: {rn rn {rn nfogqhkjkoilnikijh hfnqlojhmlkfklfhnh o o o n n o o 90-(>-;@) V V V V |
  1
300/ {rn rn {rn {rn {f {k |
  1
<0:;8: {rn rn {rn {no {nn {rn {nm 90-(>-; {j {rn |
  1
<0:;8: {rn rn {rn {nl {nk {rn {nj 90-(>-; {h {rn |
  1
<0:;8: {rn rn {rn {ni {g {rn {nh 90-(>-; {j {rn |
  1
<0:;8: {rn rn {rn {g {ng {rn {nf 90-(>-; {j {rn |
  1
:;8: {rn rn {rn {mo rlqnknjfmijljfmkjf {mn rnqjhohfilmihfhhofm {g {mm 90-(>-; _h *1410(1 |
  1
<0:;8: {rn rn {rn {ml {f {rn {mk 90-(>-; {h {rn |
  1
<0:;8: {rn rn {rn {f {mj {rn {mi 90-(>-; {h {rn |
  1
:;8: {rn rn {rn {mh o {mg nqnngollfgghkfgfkf {f {mf 90-(>-; _h *1410(1 |
  1
<0:;8: {rn rn {rn {lo {no {rn {ln 90-(>-; {j {rn |
  1
:;8: {rn rn {rn {mn o {lm mlqmooooooooofonlj {no {ll 90-(>-; _h *1410(1 |
  1
<0:;8: {rn rn {rn {nn {lk {rn {lj 90-(>-; {j {rn |
  1
:;8: {rn rn {rn {li o {mo nmqifffffffffkgfij {nn {lh 90-(>-; _h *1410(1 |
  1
):-+:' {rn rn {rn {nm {lg |
  1
):-+:' {rn rn {rn {nm {lf |
  1
:336/,:r<*-): {rn rn {rn ngfhqnkjkoilnilggh hfhqohikgjfimfjimn o ro ro rn oqjfffffffffffffffg o o n Y rlqnknjfmijljfmkjf Y rnqjhohfilmihfhhofm |
  1
<0:;8: {rn rn {rn {ko {nl {rn {kn 90-(>-; {h {rn |
  1
:;8: {rn rn {rn {mg o {km nqnngollfgghkfgfkf {nl {kl 90-(>-; _h *1410(1 |
  1
<0:;8: {rn rn {rn {nk {kk {rn {kj 90-(>-; {h {rn |
  1
:;8: {rn rn {rn {ki rkqohnjkonjjfkiflhg:rolo {mh fqlooooooooohkngkf {nk {kh 90-(>-; _h *1410(1 |
  1
):-+:' {rn rn {rn {nj {kg |
  1
):-+:' {rn rn {rn {nj {kf |
  1
,+->687+r<*-): {rn rn {rn nflfqmkjkoilnili hgkqkhikgjfilooihg o roqgfkkmhnfoffffnjgi roqkkhmnljfjkfffjhfl o V V |
  1
<0:;8: {rn rn {rn {jo {ni {rn {jn 90-(>-; {j {rn |
  1
:;8: {rn rn {rn {lm rnqjhohfilmihfhhofm {jm rmqiigfhinjnnfgghhf:ronm {ni {jl 90-(>-; _h *1410(1 |
  1
):-+:' {rn rn {rn {ln {jk |
  1
,+->687+r<*-): {rn rn {rn ngfhqnkjkoilnilghm hfhqihikgjfimfjjih o n mqgnmjlfkhlllhhjli:ronm o Y o Y mlqmooooooooofonlj |
  1
<0:;8: {rn rn {rn {ng {jo {rn {jj 90-(>-; {j {rn |
  1
:;8: {rn rn {rn {ji nqjhohfilmihfkgfii {li lqnknjfmijljghnmhm {ng {jh 90-(>-; _h *1410(1 |
  1
):-+:' {rn rn {rn {nf {jg |
  1
,+->687+r<*-): {rn rn {rn ngfiqjkjkoilnikmmh hgkqlhikgjfilooki o rmqiijlhkkgmgnkhkon:ronm n o Y o Y nmqifffffffffkgfij |
  1
/061+ {rn rn {rn ngfiqjkjkoilnilggg hfhqohikgjfimfjklf o |
  1
/061+ {rn rn {rn ngfhqnkjkoilnilghm hfhqihikgjfimfjjih o |
  1
<0:;8: {rn rn {rn {jf {ml {rn {io -:):-,:; {h {rn |
  1
:;8: {rn rn {rn {km o {in nkqlffffffffhfhghi {ml {im 90-(>-; _h *1410(1 |
  1
):-+:' {rn rn {rn {mk {il |
  1
,+->687+r<*-): {rn rn {rn nflgqmkjkoilnili hglqfhikgjfilooihg o roqgfkkmhnfoffffnjgi oqkkhmnljfjkfffjhfl o V V |
  1
<0:;8: {rn rn {rn {mj {ik {rn {ij 90-(>-; {h {rn |
  1
:;8: {rn rn {rn {ii o {ki nqjhohfilmihfkgfii {mj {ih 90-(>-; _h *1410(1 |
  1
):-+:' {rn rn {rn {kj {ig |
  1
,+->687+r<*-): {rn rn {rn nfkgqjkjkoilniklkl hgkqkhikgjfilooihg o rn nqjmgokggfkofjjjll:ronj o V V |
  1
/061+ {rn rn {rn nflfqmkjkoilnili hgkqkhikgjfilooihg o |
  1
/061+ {rn rn {rn nflgqmkjkoilnili hglqfhikgjfilooihg o |
  1
<0:;8: {rn rn {rn {lk {lo {rn {if 90-(>-; {j {rn |
  1
:;8: {rn rn {rn {jm o {ho nmqhooooooooonkmnj {lo {hn 90-(>-; _h *1410(1 |
  1
):-+:' {rn rn {rn {jn {hm |
  1
:336/,:r<*-): {rn rn {rn nfmoqlkjkoilnikhfn hfhqohikgjfilomohf o ro ro rn oqjfffffffffffffffg o o n Y rnqjhohfilmihfhhofm Y rmqiigfhinjnnfgghhf:ronm |
  1
/061+ {rn rn {rn nfmoqlkjkoilnikhhm hfhqihikgjfilomomk o |
  1
:;8: {rn rn {rn {hl o {ji mlqmooooooooofongj {lk {hk 90-(>-; _h *1410(1 |
  1
):-+:' {rn rn {rn {lj {hj |
  1
:336/,:r<*-): {rn rn {rn ngfhqnkjkoilnikmmf hgkqlhikgjfilooikm o ro ro rn oqjfffffffffffffffg o o n Y nqjhohfilmihfkgfii Y lqnknjfmijljghnmhm |
  1
/061+ {rn rn {rn ngfiqjkjkoilnikmmh hgkqlhikgjfilooki o |
  1
<0:;8: {rn rn {rn {hi {ko {rn {hh 90-(>-; {h {rn |
  1
:;8: {rn rn {rn {hg rlqnknjfmijljgifgoh {in rnqjhohfilmihfkgfii {ko {hf 90-(>-; _h *1410(1 |
  1
):-+:' {rn rn {rn {kn {go |
  1
,+->687+r<*-): {rn rn {rn nflhqmkjkoilnili hgkqkhikgjfilooihg o rn o o V V |
  1
/061+ {rn rn {rn nflhqmkjkoilnili hgkqkhikgjfilooihg o |
  1
<0:;8: {rn rn {rn {kk {gn {rn {gm 90-(>-; {h {rn |
  1
:;8: {rn rn {rn {gl o {ii nqjfffffffffffffkl {kk {gk 90-(>-; _h *1410(1 |
  1
):-+:' {rn rn {rn {ij {gj |
  1
:336/,:r<*-): {rn rn {rn nfkgqjkjkoilniklkl hgkqmhikgjfilooioj o o o n oqmooooooooooooooon o o n V V |
  1
/061+ {rn rn {rn nfkgqjkjkoilniklkl hgkqkhikgjfilooihg o |
  1
:;8: {rn rn {rn {ho rmqiigfhinjnnfgghhf:ronm {hl nqjhohfilmihfkgfii {jo {gi 90-(>-; _h *1410(1 |
  1
):-+:' {rn rn {rn {if {gh |
  1
,+->687+r<*-): {rn rn {rn nfmoqfkjkoilnikhf hfhqohikgjfilommin o mqiifmfogioogkhjgn:ronm rn o Y o Y nmqhooooooooonkmnj |
  1
/061+ {rn rn {rn nfmoqfkjkoilnikhf hfhqohikgjfilommin o |
  1
):-+:' {rn rn {rn {jj {gg |
  1
,+->687+r<*-): {rn rn {rn nfmoqlkjkoilnijnmf hglqhhikgjfilooioj o rn o o Y o Y mlqmooooooooofongj |
  1
/061+ {rn rn {rn ngfhqnkjkoilnikmmf hglqhhikgjfilooioj o |
  1
<0:;8: {rn rn {rn {gf {jf {rn {fo -:):-,:; {h {rn |
  1
:;8: {rn rn {rn {hg o {fn nfqmjnkhngimilfigl {jf {fm 90-(>-; _h *1410(1 |
  1
):-+:' {rn rn {rn {io {fl |
  1
:336/,:r<*-): {rn rn {rn nfmmqgkjkoilnijiml hgjqohikgjfiloohnk o o o n oqjfffffffffffffffg o o n V V |
  1
/061+ {rn rn {rn nfmmqgkjkoilnijiml hgkqkhikgjfilooihg o |
  1
<0:;8: {rn rn {rn {ik {fk {rn {fj 90-(>-; {h {rn |
  1
:;8: {rn rn {rn {fi rnqjhohfilmihfkgfii {gl o {ik {fh 90-(>-; _h *1410(1 |
  1
):-+:' {rn rn {rn {gm {fg |
  1
,+->687+r<*-): {rn rn {rn nfkgqhkjkoilniklkn hgmqihikgjfilooii o kqkkogfmofgjooiknf:ronj n o V V |
  1
/061+ {rn rn {rn nfkgqhkjkoilniklkn hgkqmhikgjfilooioj o |
  1
:336/,:r<*-): {rn rn {rn nfmoqlkjkoilnijnmf hgkqlhikgjfilooikm o ro ro rn oqjfffffffffffffffg o o n Y rmqiigfhinjnnfgghhf:ronm Y nqjhohfilmihfkgfii |
  1
/061+ {rn rn {rn nfmoqfkjkoilnijnln hgkqlhikgjfiloogmk o |
  1
/061+ {rn rn {rn nfmoqlkjkoilnijnmf hglqhhikgjfilooioj o |
  1
<0:;8: {rn rn {rn {ff {hi {rn {noo 90-(>-; {h {rn |
  1
:;8: {rn rn {rn {non oqhgjlfgnilkoolkffi {fn lqnknjfmijljgfhfln {hi {nom 90-(>-; _h *1410(1 |
  1
):-+:' {rn rn {rn {hh {nol |
  1
,+->687+r<*-): {rn rn {rn nfmmqmkjkoilnijimn hgjqohikgjfiloojll o rmqgnnghlmmhihklgk:ronm n o V V |
  1
/061+ {rn rn {rn nfmmqmkjkoilnijimn hgjqohikgjfiloojll o |
  1
<0:;8: {rn rn {rn {gn {nok {rn {noj 90-(>-; {h {rn |
  1
:;8: {rn rn {rn {noi iqlkmioomkmfgmhnol:roln {fi hfqioooooooooolhi {gn {noh 90-(>-; _h *1410(1 |
  1
):-+:' {rn rn {rn {fj {nog |
  1
:336/,:r<*-): {rn rn {rn nfkgqjkjkoilniklkl hgmqihikgjfilooii o o o n oqmooooooooooooooon o o n V V |
  1
/061+ {rn rn {rn nfkgqhkjkoilniklkn hgmqihikgjfilooii o |
  1
<0:;8: {rn rn {rn {nof {gf {rn {nno 90-(>-; {h {rn |
  1
:;8: {rn rn {rn {non o {nnn nqlhfgfgfghlnmklol {gf {nnm 90-(>-; _h *1410(1 |
  1
):-+:' {rn rn {rn {fo {nnl |
  1
:336/,:r<*-): {rn rn {rn nfmmqjkjkoilnijn gokqlmhfjhgmjikkmi o o o n oqloooooooooomojhhl o o n V V |
  1
/061+ {rn rn {rn nfmmqmkjkoilnijog gokqlmhfjhgmjikkmi o |
  1
<0:;8: {rn rn {rn {fk {nnk {rn {nnj 90-(>-; {h {rn |
  1
:;8: {rn rn {rn {nni rlqnknjfmijligmjf {noi rnqjhohfilmihfkgfii {fk {nnh 90-(>-; _h *1410(1 |
  1
):-+:' {rn rn {rn {noj {nng |
  1
,+->687+r<*-): {rn rn {rn ngigqfkjkoilniklol hgmqkhikgjfilooihg o n nqhgjmglmjjihgjjfj:roni o V V |
  1
/061+ {rn rn {rn nfkgqjkjkoilniklkl hgmqkhikgjfilooihg o |
  1
<0:;8: {rn rn {rn {nnf {ff {rn {nmo 90-(>-; {h {rn |
  1
:;8: {rn rn {rn {nnn rmqljinfkkfonggnmkh {nmn nqjnjgmkjomfklilfi:ronm {ff {nmm 90-(>-; _h *1410(1 |
  1
):-+:' {rn rn {rn {noo {nml |
  1
,+->687+r<*-): {rn rn {rn nfmmqhjhjlgljogih gokqjkoogfgiooomgn o oqhohnoihgnnggjmhff roqhohnoihgnngkjiifl o V V |
  1
/061+ {rn rn {rn nfmmqhjhjlgljogih gokqjkoogfgiooomgn o |
  1
<0:;8: {rn rn {rn {nok {nmk {rn {nmj 90-(>-; {h {rn |
  1
:;8: {rn rn {rn {nmi o {nni nqjfffffffffglgij {nok {nmh 90-(>-; _h *1410(1 |
  1
):-+:' {rn rn {rn {nnj {nmg |
  1
:336/,:r<*-): {rn rn {rn ngigqfkjkoilniklol hgmqihikgjfilooii o o o n oqmooooooooooooooon o o n V V |
  1
/061+ {rn rn {rn ngigqfkjkoilniklol hgmqkhikgjfilooihg o |
  1
<0:;8: {rn rn {rn {nmf {nof {rn {nlo 90-(>-; {h {rn |
  1
:;8: {rn rn {rn {nmn o {nln lqkffffffffffhlgjm {nof {nlm 90-(>-; _h *1410(1 |
  1
):-+:' {rn rn {rn {nno {nll |
  1
:336/,:r<*-): {rn rn {rn nfmlqfkjkoilnijohm golqhhikgjfilogmkj o o o n oqloooooooooommmjnj o o n V V |
  1
/061+ {rn rn {rn nfmlqhllmhkmgmnjoh golqjikljlfmghmkgn o |
  1
<0:;8: {rn rn {rn {nnk {nlk {rn {nlj 90-(>-; {h {rn |
  1
:;8: {rn rn {rn {nli nqjhohfilmihfkgfii {nmi lqnknjfmijljhhikmg {nnk {nlh 90-(>-; _h *1410(1 |
  1
):-+:' {rn rn {rn {nmj {nlg |
  1
,+->687+r<*-): {rn rn {rn ngigqhkjkoilnikj hgkqmhikgjfilooghg o rnqmniliolkjhfnjghh:ronn rn o V V |
  1
/061+ {rn rn {rn ngigqhkjkoilnikloj hgmqihikgjfilomjh o |
  1
<0:;8: {rn rn {rn {nlf {nnf {rn {nko 90-(>-; {h {rn |
  1
:;8: {rn rn {rn {nln o {nkn nqjhohfilmihfhgofg {nnf {nkm 90-(>-; _h *1410(1 |
  1
):-+:' {rn rn {rn {nmo {nkl |
  1
,+->687+r<*-): {rn rn {rn nfmkqmkjkoilnijofi golqhhikgjfiloglli o rmqgokinligknjmlnfj:ronm n o V V |
  1
/061+ {rn rn {rn nfmkqmkjkoilnijofi golqhhikgjfiloglli o |
  1
<0:;8: {rn rn {rn {nmk {nkk {rn {nkj 90-(>-; {h {rn |
  1
:;8: {rn rn {rn {nki o {nli fqlooooooooojkhmlm {nmk {nkh 90-(>-; _h *1410(1 |
  1
):-+:' {rn rn {rn {nlj {nkg |
  1
:336/,:r<*-): {rn rn {rn ngigqfkjkoilnikkff hgkqmhikgjfilooioj o o o n oqmooooooooooooooon o o n V V |
  1
/061+ {rn rn {rn ngigqhkjkoilnikj hgkqmhikgjfilooghg o |
  1
<0:;8: {rn rn {rn {nkf {nmf {rn {njo 90-(>-; {h {rn |
  1
:;8: {rn rn {rn {nkn o {njn gqioooooooooooommh {nmf {njm 90-(>-; _h *1410(1 |
  1
):-+:' {rn rn {rn {nlo {njl |
  1
:336/,:r<*-): {rn rn {rn nfmkqokjkoilnikffg gohqmhikgjfilogoil o o o n oqnffffffffffffggil o o n V V |
  1
/061+ {rn rn {rn nfmkqmkjkoilnikffi gohqmhikgjfilogoil o |
  1
<0:;8: {rn rn {rn {nlk {njk {rn {njj 90-(>-; {h {rn |
  1
:;8: {rn rn {rn {nji o {nki nqnngollfgghkfgfkf {nlk {njh 90-(>-; _h *1410(1 |
  1
):-+:' {rn rn {rn {nkj {njg |
  1
,+->687+r<*-): {rn rn {rn nghgqmkjkoilnijoki hgkqkhikgjfilooihg o rn rnqjmgokggfkofghjof:ronj o V V |
  1
/061+ {rn rn {rn ngigqfkjkoilnikkff hgkqkhikgjfilooihg o |
  1
<0:;8: {rn rn {rn {njf {nlf {rn {nio 90-(>-; {h {rn |
  1
:;8: {rn rn {rn {njn nqjhohfilmihffnjfg {nin lqnknjfmijljfofl {nlf {nim 90-(>-; _h *1410(1 |
  1
):-+:' {rn rn {rn {nko {nil |
  1
,+->687+r<*-): {rn rn {rn nfmkqokjkoilnikffn gohqkhikgjfilogokj o rn rmqgnjhlmnkljhomjom:ronm o V V |
  1
/061+ {rn rn {rn nfmkqokjkoilnikffn gohqkhikgjfilogokj o |
  1
<0:;8: {rn rn {rn {nkk {nik {rn {nij 90-(>-; {h {rn |
  1
:;8: {rn rn {rn {nii o {nji nqnngollfgghkfgfkf {nkk {nih 90-(>-; _h *1410(1 |
  1
):-+:' {rn rn {rn {njj {nig |
  1
,+->687+r<*-): {rn rn {rn nghfqmkjkoilnijoki hglqfhikgjfilooihg o roqgfkkmhnfoffffnjgi oqkkhmnljfjkfffjhfl o V V |
  1
/061+ {rn rn {rn nghgqmkjkoilnijoki hgkqkhikgjfilooihg o |
  1
<0:;8: {rn rn {rn {nif {nkf {rn {nho 90-(>-; {h {rn |
  1
:;8: {rn rn {rn {nin o {nhn nqjfffffffffffkjkl {nkf {nhm 90-(>-; _h *1410(1 |
  1
):-+:' {rn rn {rn {njo {nhl |
  1
:336/,:r<*-): {rn rn {rn nfnjqkkjkoilnikfff gohqmhikgjfilojioh o o o n oqmooooooooooolmfif o o n V V |
  1
/061+ {rn rn {rn nfnjqkkjkoilnikff gohqkhikgjfilojjgf o |
  1
<0:;8: {rn rn {rn {njk {nhk {rn {nhj -:):-,:; {h {rn |
  1
:;8: {rn rn {rn {nhi o {nii nkqkooooooooojhkgh {njk {nhh 90-(>-; _h *1410(1 |
  1
):-+:' {rn rn {rn {nij {nhg |
  1
,+->687+r<*-): {rn rn {rn nggoqmkjkoilnijoki hgkqkhikgjfilooihg o roqgfkkmhnfoffffnjgi roqkkhmnljfjkfffjhfl o V V |
  1
/061+ {rn rn {rn nghfqmkjkoilnijoki hglqfhikgjfilooihg o |
  1
<0:;8: {rn rn {rn {nhf {njf {rn {ngo 90-(>-; {h {rn |
  1
:;8: {rn rn {rn {nhn rlqnknjfmijljgfhfln {ngn rnqjhohfilmihfmojkk {njf {ngm 90-(>-; _h *1410(1 |
  1
):-+:' {rn rn {rn {nio {ngl |
  1
,+->687+r<*-): {rn rn {rn nfnjqmkjkoilnikffi gohqmhikgjfilojjnh o mqgkmnhofkloknlhon:ronm rn o V V |
  1
/061+ {rn rn {rn nfnjqmkjkoilnikffi gohqmhikgjfilojjnh o |
  1
<0:;8: {rn rn {rn {nik {ngk {rn {ngj 90-(>-; {h {rn |
  1
:;8: {rn rn {rn {nhi rnqjhohfilmihfkgfii {ngi mqgnmjikffjhnhoijn:ronm {nik {ngh 90-(>-; _h *1410(1 |
  1
):-+:' {rn rn {rn {nhj {ngg |
  1
,+->687+r<*-): {rn rn {rn ngfkqikjkoilnijim hgkqkhikgjfilooihg o rn o o V V |
  1
/061+ {rn rn {rn nggoqmkjkoilnijoki hgkqkhikgjfilooihg o |
  1
<0:;8: {rn rn {rn {ngf {nif {rn {nfo -:):-,:; {h {rn |
  1
:;8: {rn rn {rn {ngn o {nfn kqioooooooooooommh {nif {nfm 90-(>-; _h *1410(1 |
  1
):-+:' {rn rn {rn {nho {nfl |
  1
:336/,:r<*-): {rn rn {rn nfnjqkkjkoilnijokm gojqihikgjfilojiim o o o n oqnffffffffffffggil o o n V V |
  1
/061+ {rn rn {rn nfnjqmkjkoilnijokm gojqihikgjfilojiim o |
  1
<0:;8: {rn rn {rn {nhk {nfk {rn {nfj -:):-,:; {h {rn |
  1
:;8: {rn rn {rn {nfi o {ngi nfqmjnkhngimjjfjnm {nhk {nfh 90-(>-; _h *1410(1 |
  1
):-+:' {rn rn {rn {ngj {nfg |
  1
:336/,:r<*-): {rn rn {rn ngfkqikjkoilnijim hgjqohikgjfiloohnk o o o n oqjfffffffffffffffg o o n V V |
  1
/061+ {rn rn {rn ngfkqikjkoilnijim hgkqkhikgjfilooihg o |
  1
<0:;8: {rn rn {rn {nff {nhf {rn {moo 90-(>-; {h {rn |
  1
:;8: {rn rn {rn {mon nqkmnogjkhnjmmlook:ronm {nfn nqjhohfilmihffnmkl {nhf {mom 90-(>-; _h *1410(1 |
  1
):-+:' {rn rn {rn {ngo {mol |
  1
,+->687+r<*-): {rn rn {rn nfnjqkkjkoilnijokf gojqkhikgjfilojjgf o n mqgojoffnkgnlnnikn:ronm o V V |
  1
/061+ {rn rn {rn nfnjqkkjkoilnijokf gojqkhikgjfilojjgf o |
  1
<0:;8: {rn rn {rn {ngk {mok {rn {moj 90-(>-; {h {rn |
  1
:;8: {rn rn {rn {nfi rnqhojlomjijgnjhokn:ronm {moi mqljinfkkfonflkglf {ngk {moh 90-(>-; _h *1410(1 |
  1
):-+:' {rn rn {rn {nfj {mog |
  1
,+->687+r<*-): {rn rn {rn ngfjqmkjkoilnijog gokqlmhfjhgmjjihgi o mqgnnjfiknkonfminm:ronm rn o V V |
  1
/061+ {rn rn {rn ngfjqmkjkoilnijimn hgjqohikgjfiloogoj o |
  1
<0:;8: {rn rn {rn {mof {ngf {rn {mno -:):-,:; {h {rn |
  1
:;8: {rn rn {rn {mon o {mnn jqiffffffffffffggi {ngf {mnm 90-(>-; _h *1410(1 |
  1
):-+:' {rn rn {rn {nfo {mnl |
  1
:336/,:r<*-): {rn rn {rn nfmoqokjkoilnijojh gojqmhikgjfiloifhm o o o n oqnfffffffffffhokkn o o n V V |
  1
/061+ {rn rn {rn nfmoqokjkoilnijokg gojqkhikgjfiloigil o |
  1
<0:;8: {rn rn {rn {nfk {mnk {rn {mnj 90-(>-; {h {rn |
  1
:;8: {rn rn {rn {mni o {moi nqlhfgfgfghlnkmnoj {nfk {mnh 90-(>-; _h *1410(1 |
  1
):-+:' {rn rn {rn {moj {mng |
  1
:336/,:r<*-): {rn rn {rn ngfkqfkjkoilnijoij gokqlmhfjhgmjjihgi o o o n oqloooooooooonjonig o o n V V |
  1
/061+ {rn rn {rn ngfjqmkjkoilnijog gokqlmhfjhgmjjihgi o |
  1
<0:;8: {rn rn {rn {mnf {nff {rn {mmo 90-(>-; {h {rn |
  1
:;8: {rn rn {rn {mmn rnqjhohfilmihfmogh {mnn mqgnmjikffjhnhoijn:ronm {nff {mmm 90-(>-; _h *1410(1 |
  1
):-+:' {rn rn {rn {moo {mml |
  1
,+->687+r<*-): {rn rn {rn nfmoqmkjkoilnijojl gojqmhikgjfiloifhm o mqgnnfknhnminjjmj:ronm rn o V V |
  1
/061+ {rn rn {rn nfmoqmkjkoilnijojl gojqmhikgjfiloifhm o |
  1
<0:;8: {rn rn {rn {mok {mmk {rn {mmj 90-(>-; {h {rn |
  1
:;8: {rn rn {rn {mmi rlqnknjfmijljgfhfln {mni roqhgjlfgnillfkjmjgk {mok {mmh 90-(>-; _h *1410(1 |
  1
):-+:' {rn rn {rn {mnj {mmg |
  1
,+->687+r<*-): {rn rn {rn ngflqhjhjlgljogifh golqjikljlfmgikoml o oqhohnoihgnngkjhfmi oqhohnoihgnnggjnjhg o V V |
  1
/061+ {rn rn {rn ngfkqhllmhkmgmnkfn gokqjkoogfgjffmjj o |
  1
<0:;8: {rn rn {rn {mmf {mof {rn {mlo -:):-,:; {h {rn |
  1
:;8: {rn rn {rn {mmn o {mln mnqgoooooooooooook {mof {mlm 90-(>-; _h *1410(1 |
  1
):-+:' {rn rn {rn {mno {mll |
  1
:336/,:r<*-): {rn rn {rn nfnfqikjkoilnijmnl hffqjhikgjfiloigog o o o n oqjfffffffffffffffg o o n V V |
  1
/061+ {rn rn {rn nfmoqmkjkoilnijmnk hffqjhikgjfiloiff o |
  1
<0:;8: {rn rn {rn {mnk {mlk {rn {mlj 90-(>-; {h {rn |
  1
:;8: {rn rn {rn {mli o {mmi lqkffffffffffhnon {mnk {mlh 90-(>-; _h *1410(1 |
  1
):-+:' {rn rn {rn {mmj {mlg |
  1
:336/,:r<*-): {rn rn {rn ngflqjkjkoilnijnni golqhhikgjfimffifi o o o n oqloooooooooomolikm o o n V V |
  1
/061+ {rn rn {rn ngflqhjhjlgljogifh golqjikljlfmgikoml o |
  1
<0:;8: {rn rn {rn {mlf {mnf {rn {mko 90-(>-; {h {rn |
  1
:;8: {rn rn {rn {mkn rlqnknjfmijljgifhhi {mln rnqjhohfilmihfmofl {mnf {mkm 90-(>-; _h *1410(1 |
  1
):-+:' {rn rn {rn {mmo {mkl |
  1
,+->687+r<*-): {rn rn {rn nfnfqikjkoilnijmmf hfgqfhikgjfiloigil o rn rmqgnohngonfngihffl:ronm o V V |
  1
/061+ {rn rn {rn nfnfqikjkoilnijmmf hfgqfhikgjfiloigil o |
  1
<0:;8: {rn rn {rn {mmk {mkk {rn {mkj 90-(>-; {h {rn |
  1
:;8: {rn rn {rn {mki nqjhohfilmihffmiik {mli lqnknjfmijljfofl {mmk {mkh 90-(>-; _h *1410(1 |
  1
):-+:' {rn rn {rn {mlj {mkg |
  1
,+->687+r<*-): {rn rn {rn ngflqmkjkoilnikffi gohqmhikgjfimffllm o mqgnhgofkhhgniihkm:ronm rn o V V |
  1
/061+ {rn rn {rn ngflqmkjkoilnijofi golqhhikgjfimffifi o |
  1
<0:;8: {rn rn {rn {mkf {mmf {rn {mjo -:):-,:; {h {rn |
  1
:;8: {rn rn {rn {mkn o {mjn jqhooooooooooojnfg {mmf {mjm 90-(>-; _h *1410(1 |
  1
):-+:' {rn rn {rn {mlo {mjl |
  1
:336/,:r<*-): {rn rn {rn ngfhqgkjkoilnijmnl hffqjhikgjfiloohnk o o o n oqjfffffffffffffffg o o n V V |
  1
/061+ {rn rn {rn ngfhqgkjkoilnijmlm hfgqfhikgjfilooihg o |
  1
<0:;8: {rn rn {rn {mlk {mjk {rn {mjj 90-(>-; {h {rn |
  1
:;8: {rn rn {rn {mji rnqfflijllofnmoknom:romi {mki gqioooooooooooonji {mlk {mjh 90-(>-; _h *1410(1 |
  1
):-+:' {rn rn {rn {mkj {mjg |
  1
:336/,:r<*-): {rn rn {rn ngflqkkjkoilnikfff gohqmhikgjfimffkml o o o n oqmooooooooooolmfif o o n V V |
  1
/061+ {rn rn {rn ngflqmkjkoilnikffi gohqmhikgjfimffllm o |
  1
<0:;8: {rn rn {rn {mjf {mlf {rn {mio 90-(>-; {h {rn |
  1
:;8: {rn rn {rn {min nqjhohfilmihfhgkjl {mjn lqnknjfmijljgfhfln {mlf {mim 90-(>-; _h *1410(1 |
  1
):-+:' {rn rn {rn {mko {mil |
  1
,+->687+r<*-): {rn rn {rn ngfhqmkjkoilnijmnk hffqjhikgjfiloojll o rmqgnknmlmolkhoiiik:ronm n o V V |
  1
/061+ {rn rn {rn ngfhqmkjkoilnijmnk hffqjhikgjfiloojll o |
  1
<0:;8: {rn rn {rn {mkk {mjf {rn {mik 90-(>-; {h {rn |
  1
:;8: {rn rn {rn {mij mqgkmnhofklokoojhk:ronl {mji nqjhohfilmihfhjfii {mkk {mii 90-(>-; _h *1410(1 |
  1
):-+:' {rn rn {rn {mjj {mih |
  1
,+->687+r<*-): {rn rn {rn nfomqokjkoilnikffn gohqkhikgjfilongi o rn rmqgojgnhjflhigfkgh:ronm o V V |
  1
/061+ {rn rn {rn ngflqkkjkoilnikff gohqkhikgjfimffkoj o |
  1
<0:;8: {rn rn {rn {mjk {mkf {rn {mig 90-(>-; {h {rn |
  1
:;8: {rn rn {rn {min o {mif kqioooooooooooommh {mkf {mho 90-(>-; _h *1410(1 |
  1
):-+:' {rn rn {rn {mjo {mhn |
  1
:336/,:r<*-): {rn rn {rn ngfhqkkjkoilnijojl gojqmhikgjfilooioj o o o n oqmoooooooooooolnmi o o n V V |
  1
/061+ {rn rn {rn ngfhqmkjkoilnijojl gojqmhikgjfilooioj o |
  1
:;8: {rn rn {rn {mhm o {mij nqjfffffffffffkjkl {mjk {mhl 90-(>-; _h *1410(1 |
  1
):-+:' {rn rn {rn {mik {mhk |
  1
:336/,:r<*-): {rn rn {rn nfomqokjkoilnikffg gohqmhikgjfilonghf o o o n oqmoooooooooooomkni o o n V V |
  1
/061+ {rn rn {rn nfomqokjkoilnikffn gohqkhikgjfilongi o |
  1
:;8: {rn rn {rn {mif rnqjhohfilmihfogkij {mhm nqkmnogjkhnjngiiji:ronm {mjf {mhj 90-(>-; _h *1410(1 |
  1
):-+:' {rn rn {rn {mio {mhi |
  1
,+->687+r<*-): {rn rn {rn ngfhqkkjkoilnijokf gojqkhikgjfiloojgh o n mqgmojkjhmflkllkon:ronm o V V |
  1
/061+ {rn rn {rn ngfhqkkjkoilnijokf gojqkhikgjfiloojgh o |
  1
):-+:' {rn rn {rn {mig {mhh |
  1
,+->687+r<*-): {rn rn {rn nfomqmkjkoilnijokm gojqihikgjfilonfll o rmqhfllmnnmffjhgkii:ronm n o V V |
  1
/061+ {rn rn {rn nfomqmkjkoilnikffi gohqmhikgjfilonghf o |
  1
:336/,:r<*-): {rn rn {rn nfomqokjkoilnijolf gojqihikgjfilongkm o o o n oqmooooooooooomni o o n V V |
  1
/061+ {rn rn {rn nfomqokjkoilnijokg gojqkhikgjfilongi o |
  1
/061+ {rn rn {rn nfomqmkjkoilnijokm gojqihikgjfilonfll o |
  0
HATCH
  5
450
330
1F
100
AcDbEntity
  8
0
  6
ACAD_ISO10W100
 62
     4
100
AcDbHatch
 10
0.0
 20
0.0
 30
0.0
210
0.0
220
0.0
230
1.0
  2
SOLID
 70
     1
 71
     0
 91
        2
 92
        7
 72
     1
 73
     1
 93
        3
 10
1908.745406316432
 20
792.4507386079985
 42
0.4142135623730951
 10
1907.677653671441
 20
791.3829859630068
 42
0.0
 10
1908.745406316432
 20
791.3829859630068
 42
0.0
 97
        0
 92
        7
 72
     1
 73
     1
 93
        3
 10
1909.813158961424
 20
791.3829859630068
 42
0.0
 10
1908.745406316432
 20
791.3829859630068
 42
0.0
 10
1908.745406316432
 20
790.3152333180151
 42
0.4142135623730951
 97
        0
 75
     0
 76
     1
 47
0.0300607626538205
 98
        2
 10
1908.184081717746
 20
791.754628863222
 10
1908.966184096963
 20
790.942986610813
450
        0
451
        0
460
0.0
461
0.0
452
        1
462
1.0
453
        2
463
0.0
 63
     5
421
      255
463
1.0
 63
    51
421
 16777113
470
LINEAR
1001
ACAD
1010
0.0
1020
0.0
1030
0.0
  0
LINE
  5
451
330
1F
100
AcDbEntity
  8
0
  6
ACAD_ISO10W100
 62
     4
100
AcDbLine
 10
1908.745406316432
 20
791.3829859630068
 30
0.0
 11
1913.745406316432
 21
791.3829859630068
 31
0.0
  0
LINE
  5
452
330
1F
100
AcDbEntity
  8
0
  6
ACAD_ISO10W100
 62
     4
100
AcDbLine
 10
1908.745406316432
 20
791.3829859630068
 30
0.0
 11
1908.745406316432
 21
796.3829859630068
 31
0.0
  0
LINE
  5
453
330
1F
100
AcDbEntity
  8
0
  6
ACAD_ISO10W100
 62
     4
100
AcDbLine
 10
1908.745406316432
 20
791.3829859630068
 30
0.0
 11
1903.745406316432
 21
791.3829859630068
 31
0.0
  0
LINE
  5
454
330
1F
100
AcDbEntity
  8
0
  6
ACAD_ISO10W100
 62
     4
100
AcDbLine
 10
1908.745406316432
 20
791.3829859630068
 30
0.0
 11
1908.745406316432
 21
786.3829859630068
 31
0.0
  0
DIMENSION
  5
455
330
1F
100
AcDbEntity
  8
0
  6
ACAD_ISO10W100
 62
     4
100
AcDbDimension
  2
*D40
 10
1895.245406316508
 20
812.5890685997893
 30
0.0
 11
1888.909253488651
 21
812.5890685997893
 31
0.0
 70
   160
 71
     5
 42
2.00000000000341
  3
Standard (DIN)
100
AcDbAlignedDimension
 13
1893.245406316504
 23
805.5264859629952
 33
0.0
 14
1895.245406316508
 24
804.3279578255697
 34
0.0
100
AcDbRotatedDimension
1001
ACAD
1000
DSTYLE
1002
{
1070
    49
1040
500.0
1070
    50
1040
1.570796326794896
1070
   290
1070
     1
1070
   345
1005
15
1070
   346
1005
15
1070
   347
1005
15
1002
}
  0
DIMENSION
  5
456
330
1F
100
AcDbEntity
  8
0
  6
ACAD_ISO10W100
 62
     4
100
AcDbDimension
  2
*D41
 10
1902.245406316502
 20
812.5890685997893
 30
0.0
 11
1898.745406316505
 21
813.6501190916069
 31
0.0
 70
    32
 71
     5
 42
6.99999999999386
  3
Standard (DIN)
100
AcDbAlignedDimension
 13
1895.245406316508
 23
804.3279578255697
 33
0.0
 14
1902.245406316502
 24
806.4764859630194
 34
0.0
100
AcDbRotatedDimension
1001
ACAD
1000
DSTYLE
1002
{
1070
   279
1070
     1
1070
    49
1040
500.0
1070
    50
1040
1.570796326794896
1070
   290
1070
     1
1070
   345
1005
15
1070
   346
1005
15
1070
   347
1005
15
1002
}
  0
DIMENSION
  5
457
330
1F
100
AcDbEntity
  8
0
  6
ACAD_ISO10W100
 62
     4
100
AcDbDimension
  2
*D42
 10
1915.245406316502
 20
812.5890685997893
 30
0.0
 11
1908.745406316502
 21
813.6501190916069
 31
0.0
 70
    32
 71
     5
 42
13.0
  3
Standard (DIN)
100
AcDbAlignedDimension
 13
1902.245406316502
 23
806.4764859630194
 33
0.0
 14
1915.245406316502
 24
806.4764859630559
 34
0.0
100
AcDbRotatedDimension
1001
ACAD
1000
DSTYLE
1002
{
1070
   279
1070
     1
1070
    49
1040
500.0
1070
    50
1040
1.570796326794896
1070
   290
1070
     1
1070
   345
1005
15
1070
   346
1005
15
1070
   347
1005
15
1002
}
  0
DIMENSION
  5
458
330
1F
100
AcDbEntity
  8
0
  6
ACAD_ISO10W100
 62
     4
100
AcDbDimension
  2
*D43
 10
1922.245406316508
 20
812.5890685997893
 30
0.0
 11
1918.745406316505
 21
813.6501190916069
 31
0.0
 70
    32
 71
     5
 42
7.000000000006139
  3
Standard (DIN)
100
AcDbAlignedDimension
 13
1915.245406316502
 23
806.4764859630559
 33
0.0
 14
1922.245406316508
 24
804.3279578256441
 34
0.0
100
AcDbRotatedDimension
1001
ACAD
1000
DSTYLE
1002
{
1070
   279
1070
     1
1070
    49
1040
500.0
1070
    50
1040
1.570796326794896
1070
   290
1070
     1
1070
   345
1005
15
1070
   346
1005
15
1070
   347
1005
15
1002
}
  0
DIMENSION
  5
459
330
1F
100
AcDbEntity
  8
0
  6
ACAD_ISO10W100
 62
     4
100
AcDbDimension
  2
*D44
 10
1924.245406316504
 20
812.5890685997893
 30
0.0
 11
1926.999239934582
 21
812.5890685997893
 31
0.0
 70
   160
 71
     5
 42
1.999999999996589
  3
Standard (DIN)
100
AcDbAlignedDimension
 13
1922.245406316508
 23
804.3279578256441
 33
0.0
 14
1924.245406316504
 24
805.5264859630824
 34
0.0
100
AcDbRotatedDimension
1001
ACAD
1000
DSTYLE
1002
{
1070
   279
1070
     1
1070
    49
1040
500.0
1070
    50
1040
1.570796326794896
1070
   290
1070
     1
1070
   345
1005
15
1070
   346
1005
15
1070
   347
1005
15
1002
}
  0
DIMENSION
  5
45A
330
1F
100
AcDbEntity
  8
0
  6
ACAD_ISO10W100
 62
     4
100
AcDbDimension
  2
*D45
 10
1902.245406316502
 20
817.3073497275145
 30
0.0
 11
1897.745406316503
 21
818.3684002193322
 31
0.0
 70
    32
 71
     5
 42
8.999999999997271
  3
Standard (DIN)
100
AcDbAlignedDimension
 13
1893.245406316504
 23
805.9264859629948
 33
0.0
 14
1902.245406316502
 24
806.4764859630194
 34
0.0
100
AcDbRotatedDimension
1001
ACAD
1000
DSTYLE
1002
{
1070
    49
1040
500.0
1070
    50
1040
1.570796326794896
1070
   290
1070
     1
1070
   345
1005
15
1070
   346
1005
15
1070
   347
1005
15
1002
}
  0
DIMENSION
  5
45B
330
1F
100
AcDbEntity
  8
0
  6
ACAD_ISO10W100
 62
     4
100
AcDbDimension
  2
*D46
 10
1915.245406316502
 20
817.3073497275145
 30
0.0
 11
1908.745406316502
 21
818.3684002193322
 31
0.0
 70
    32
 71
     5
 42
13.0
  3
Standard (DIN)
100
AcDbAlignedDimension
 13
1902.245406316502
 23
806.4764859630194
 33
0.0
 14
1915.245406316502
 24
806.4764859630559
 34
0.0
100
AcDbRotatedDimension
1001
ACAD
1000
DSTYLE
1002
{
1070
   279
1070
     1
1070
    49
1040
500.0
1070
    50
1040
1.570796326794896
1070
   290
1070
     1
1070
   345
1005
15
1070
   346
1005
15
1070
   347
1005
15
1002
}
  0
DIMENSION
  5
45C
330
1F
100
AcDbEntity
  8
0
  6
ACAD_ISO10W100
 62
     4
100
AcDbDimension
  2
*D47
 10
1924.245406316504
 20
817.3073497275145
 30
0.0
 11
1919.745406316503
 21
818.3684002193322
 31
0.0
 70
    32
 71
     5
 42
9.000000000002728
  3
Standard (DIN)
100
AcDbAlignedDimension
 13
1915.245406316502
 23
806.4764859630559
 33
0.0
 14
1924.245406316504
 24
805.926485963082
 34
0.0
100
AcDbRotatedDimension
1001
ACAD
1000
DSTYLE
1002
{
1070
   279
1070
     1
1070
    49
1040
500.0
1070
    50
1040
1.570796326794896
1070
   290
1070
     1
1070
   345
1005
15
1070
   346
1005
15
1070
   347
1005
15
1002
}
  0
DIMENSION
  5
45D
330
1F
100
AcDbEntity
  8
0
  6
ACAD_ISO10W100
 62
     4
100
AcDbDimension
  2
*D48
 10
1861.931393383563
 20
805.4764859630067
 30
0.0
 11
1861.931393383563
 21
811.8126387908606
 31
0.0
 70
   160
 71
     5
 42
2.0
  3
Standard (DIN)
100
AcDbAlignedDimension
 13
1897.745406316499
 23
807.4764859630068
 33
0.0
 14
1897.745406316505
 24
805.4764859630067
 34
0.0
 50
90.0
100
AcDbRotatedDimension
1001
ACAD
1000
DSTYLE
1002
{
1070
    49
1040
500.0
1070
    50
1040
1.570796326794896
1070
   290
1070
     1
1070
   345
1005
15
1070
   346
1005
15
1070
   347
1005
15
1002
}
  0
DIMENSION
  5
45E
330
1F
100
AcDbEntity
  8
0
  6
ACAD_ISO10W100
 62
     4
100
AcDbDimension
  2
*D49
 10
1861.931393383563
 20
798.9764859630067
 30
0.0
 11
1860.870342891745
 21
802.2264859630071
 31
0.0
 70
    32
 71
     5
 42
6.5
  3
Standard (DIN)
100
AcDbAlignedDimension
 13
1897.745406316505
 23
805.4764859630067
 33
0.0
 14
1897.845406316523
 24
798.9764859630067
 34
0.0
 50
90.0
100
AcDbRotatedDimension
1001
ACAD
1000
DSTYLE
1002
{
1070
   279
1070
     1
1070
    49
1040
500.0
1070
    50
1040
1.570796326794896
1070
   290
1070
     1
1070
   345
1005
15
1070
   346
1005
15
1070
   347
1005
15
1002
}
  0
DIMENSION
  5
45F
330
1F
100
AcDbEntity
  8
0
  6
ACAD_ISO10W100
 62
     4
100
AcDbDimension
  2
*D50
 10
1861.931393383563
 20
797.6764859629574
 30
0.0
 11
1858.021792399927
 21
799.5810511105276
 31
0.0
 70
    32
 71
     5
 42
1.300000000049294
  3
Standard (DIN)
100
AcDbAlignedDimension
 13
1897.845406316523
 23
798.9764859630067
 33
0.0
 14
1897.845406316527
 24
797.6764859629574
 34
0.0
 50
90.0
100
AcDbRotatedDimension
1001
ACAD
1000
DSTYLE
1002
{
1070
   279
1070
     1
1070
    49
1040
500.0
1070
    50
1040
1.570796326794896
1070
   290
1070
     1
1070
   345
1005
15
1070
   346
1005
15
1070
   347
1005
15
1002
}
  0
DIMENSION
  5
460
330
1F
100
AcDbEntity
  8
0
  6
ACAD_ISO10W100
 62
     4
100
AcDbDimension
  2
*D51
 10
1861.931393383563
 20
784.4764859630068
 30
0.0
 11
1860.870342891745
 21
791.0764859629824
 31
0.0
 70
    32
 71
     5
 42
13.1999999999507
  3
Standard (DIN)
100
AcDbAlignedDimension
 13
1897.845406316527
 23
797.6764859629574
 33
0.0
 14
1894.645406316562
 24
784.4764859630068
 34
0.0
 50
90.0
100
AcDbRotatedDimension
1001
ACAD
1000
DSTYLE
1002
{
1070
   279
1070
     1
1070
    49
1040
500.0
1070
    50
1040
1.570796326794896
1070
   290
1070
     1
1070
   345
1005
15
1070
   346
1005
15
1070
   347
1005
15
1002
}
  0
DIMENSION
  5
461
330
1F
100
AcDbEntity
  8
0
  6
ACAD_ISO10W100
 62
     4
100
AcDbDimension
  2
*D52
 10
1861.931393383563
 20
782.4764859630067
 30
0.0
 11
1858.021792399927
 21
784.7310511105523
 31
0.0
 70
    32
 71
     5
 42
2.0
  3
Standard (DIN)
100
AcDbAlignedDimension
 13
1894.645406316562
 23
784.4764859630068
 33
0.0
 14
1894.245406316562
 24
782.4764859630067
 34
0.0
 50
90.0
100
AcDbRotatedDimension
1001
ACAD
1000
DSTYLE
1002
{
1070
   279
1070
     1
1070
    49
1040
500.0
1070
    50
1040
1.570796326794896
1070
   290
1070
     1
1070
   345
1005
15
1070
   346
1005
15
1070
   347
1005
15
1002
}
  0
DIMENSION
  5
462
330
1F
100
AcDbEntity
  8
0
  6
ACAD_ISO10W100
 62
     4
100
AcDbDimension
  2
*D53
 10
1901.148315276825
 20
797.6764859629883
 30
0.0
 11
1901.148315276825
 21
803.2514859928403
 31
0.0
 70
   160
 71
     5
 42
1.300000000049294
  3
Standard (DIN)
100
AcDbAlignedDimension
 13
1908.745406316523
 23
798.9764859630377
 33
0.0
 14
1908.745406316526
 24
797.6764859629883
 34
0.0
 50
90.0
100
AcDbRotatedDimension
1001
ACAD
1000
DSTYLE
1002
{
1070
    49
1040
500.0
1070
    50
1040
1.570796326794896
1070
   290
1070
     1
1070
   345
1005
15
1070
   346
1005
15
1070
   347
1005
15
1002
}
  0
DIMENSION
  5
463
330
1F
100
AcDbEntity
  8
0
  6
ACAD_ISO10W100
 62
     4
100
AcDbDimension
  2
*D54
 10
1901.148315276825
 20
782.4764859630067
 30
0.0
 11
1900.087264785007
 21
778.2014859332048
 31
0.0
 70
    32
 71
     5
 42
1.299999999999272
  3
Standard (DIN)
100
AcDbAlignedDimension
 13
1908.745406316468
 23
783.776485963006
 33
0.0
 14
1908.745406316432
 24
782.4764859630067
 34
0.0
 50
90.0
100
AcDbRotatedDimension
1001
ACAD
1000
DSTYLE
1002
{
1070
    49
1040
500.0
1070
    50
1040
1.570796326794896
1070
   290
1070
     1
1070
   345
1005
15
1070
   346
1005
15
1070
   347
1005
15
1002
}
  0
DIMENSION
  5
464
330
1F
100
AcDbEntity
  8
0
  6
ACAD_ISO10W100
 62
     4
100
AcDbDimension
  2
*D55
 10
1879.245406316504
 20
773.4010341886442
 30
0.0
 11
1873.995406316472
 21
774.4620846804618
 31
0.0
 70
    32
 71
     5
 42
10.50000000006457
  3
Standard (DIN)
100
AcDbAlignedDimension
 13
1868.74540631644
 23
783.4764859630177
 33
0.0
 14
1879.245406316504
 24
783.9764859630068
 34
0.0
100
AcDbRotatedDimension
1001
ACAD
1000
DSTYLE
1002
{
1070
    49
1040
500.0
1070
    50
1040
1.570796326794896
1070
   290
1070
     1
1070
   345
1005
15
1070
   346
1005
15
1070
   347
1005
15
1002
}
  0
DIMENSION
  5
465
330
1F
100
AcDbEntity
  8
0
  6
ACAD_ISO10W100
 62
     4
100
AcDbDimension
  2
*D56
 10
1895.245406316562
 20
773.4010341886442
 30
0.0
 11
1887.245406316533
 21
774.4620846804618
 31
0.0
 70
    32
 71
     5
 42
16.00000000005752
  3
Standard (DIN)
100
AcDbAlignedDimension
 13
1879.245406316504
 23
783.9764859630068
 33
0.0
 14
1895.245406316562
 24
785.076485963008
 34
0.0
100
AcDbRotatedDimension
1001
ACAD
1000
DSTYLE
1002
{
1070
   279
1070
     1
1070
    49
1040
500.0
1070
    50
1040
1.570796326794896
1070
   290
1070
     1
1070
   345
1005
15
1070
   346
1005
15
1070
   347
1005
15
1002
}
  0
DIMENSION
  5
466
330
1F
100
AcDbEntity
  8
0
  6
ACAD_ISO10W100
 62
     4
100
AcDbDimension
  2
*D57
 10
1896.545406316423
 20
773.4010341886442
 30
0.0
 11
1897.546601759128
 21
770.2914332050089
 31
0.0
 70
    32
 71
     5
 42
1.299999999860574
  3
Standard (DIN)
100
AcDbAlignedDimension
 13
1895.245406316562
 23
785.076485963008
 33
0.0
 14
1896.545406316423
 24
784.3764859630046
 34
0.0
100
AcDbRotatedDimension
1001
ACAD
1000
DSTYLE
1002
{
1070
   279
1070
     1
1070
    49
1040
500.0
1070
    50
1040
1.570796326794896
1070
   290
1070
     1
1070
   345
1005
15
1070
   346
1005
15
1070
   347
1005
15
1002
}
  0
DIMENSION
  5
467
330
1F
100
AcDbEntity
  8
0
  6
ACAD_ISO10W100
 62
     4
100
AcDbDimension
  2
*D58
 10
1920.945406316513
 20
773.4010341886442
 30
0.0
 11
1908.745406316468
 21
774.4620846804618
 31
0.0
 70
    32
 71
     5
 42
24.40000000009013
  3
Standard (DIN)
100
AcDbAlignedDimension
 13
1896.545406316423
 23
784.3764859630046
 33
0.0
 14
1920.945406316513
 24
784.3764859630701
 34
0.0
100
AcDbRotatedDimension
1001
ACAD
1000
DSTYLE
1002
{
1070
   279
1070
     1
1070
    49
1040
500.0
1070
    50
1040
1.570796326794896
1070
   290
1070
     1
1070
   345
1005
15
1070
   346
1005
15
1070
   347
1005
15
1002
}
  0
DIMENSION
  5
468
330
1F
100
AcDbEntity
  8
0
  6
ACAD_ISO10W100
 62
     4
100
AcDbDimension
  2
*D59
 10
1922.245406316562
 20
773.4010341886442
 30
0.0
 11
1923.246601759174
 21
770.2914332050089
 31
0.0
 70
    32
 71
     5
 42
1.300000000049294
  3
Standard (DIN)
100
AcDbAlignedDimension
 13
1920.945406316513
 23
784.3764859630701
 33
0.0
 14
1922.245406316562
 24
785.0764859630053
 34
0.0
100
AcDbRotatedDimension
1001
ACAD
1000
DSTYLE
1002
{
1070
   279
1070
     1
1070
    49
1040
500.0
1070
    50
1040
1.570796326794896
1070
   290
1070
     1
1070
   345
1005
15
1070
   346
1005
15
1070
   347
1005
15
1002
}
  0
DIMENSION
  5
469
330
1F
100
AcDbEntity
  8
0
  6
ACAD_ISO10W100
 62
     4
100
AcDbDimension
  2
*D60
 10
1938.24540631636
 20
773.4010341886442
 30
0.0
 11
1930.245406316461
 21
774.4620846804618
 31
0.0
 70
    32
 71
     5
 42
15.99999999979786
  3
Standard (DIN)
100
AcDbAlignedDimension
 13
1922.245406316562
 23
785.0764859630053
 33
0.0
 14
1938.24540631636
 24
783.9764859630068
 34
0.0
100
AcDbRotatedDimension
1001
ACAD
1000
DSTYLE
1002
{
1070
   279
1070
     1
1070
    49
1040
500.0
1070
    50
1040
1.570796326794896
1070
   290
1070
     1
1070
   345
1005
15
1070
   346
1005
15
1070
   347
1005
15
1002
}
  0
DIMENSION
  5
46A
330
1F
100
AcDbEntity
  8
0
  6
ACAD_ISO10W100
 62
     4
100
AcDbDimension
  2
*D61
 10
1948.745406316434
 20
773.4010341886442
 30
0.0
 11
1943.495406316397
 21
774.4620846804618
 31
0.0
 70
    32
 71
     5
 42
10.50000000007412
  3
Standard (DIN)
100
AcDbAlignedDimension
 13
1938.24540631636
 23
783.9764859630068
 33
0.0
 14
1948.745406316434
 24
783.4764859630068
 34
0.0
100
AcDbRotatedDimension
1001
ACAD
1000
DSTYLE
1002
{
1070
   279
1070
     1
1070
    49
1040
500.0
1070
    50
1040
1.570796326794896
1070
   290
1070
     1
1070
   345
1005
15
1070
   346
1005
15
1070
   347
1005
15
1002
}
  0
DIMENSION
  5
46B
330
1F
100
AcDbEntity
  8
0
  6
ACAD_ISO10W100
 62
     4
100
AcDbDimension
  2
*D62
 10
1948.745406316434
 20
765.7009215754251
 30
0.0
 11
1908.745406316437
 21
766.7619720672428
 31
0.0
 70
    32
 71
     5
 42
79.99999999999409
  3
Standard (DIN)
100
AcDbAlignedDimension
 13
1868.74540631644
 23
783.4764859639799
 33
0.0
 14
1948.745406316434
 24
783.4764859639799
 34
0.0
100
AcDbRotatedDimension
1001
ACAD
1000
DSTYLE
1002
{
1070
    49
1040
500.0
1070
    50
1040
1.570796326794896
1070
   290
1070
     1
1070
   345
1005
15
1070
   346
1005
15
1070
   347
1005
15
1002
}
  0
DIMENSION
  5
46C
330
1F
100
AcDbEntity
  8
0
  6
ACAD_ISO10W100
 62
     4
100
AcDbDimension
  2
*D63
 10
1954.547546001888
 20
782.4764859630067
 30
0.0
 11
1953.48649551007
 21
794.976485963038
 31
0.0
 70
    32
 71
     5
 42
25.00000000006185
  3
Standard (DIN)
100
AcDbAlignedDimension
 13
1919.745406316499
 23
807.4764859630686
 33
0.0
 14
1919.745406316499
 24
782.4764859630067
 34
0.0
 50
90.0
100
AcDbRotatedDimension
1001
ACAD
1000
DSTYLE
1002
{
1070
    49
1040
500.0
1070
    50
1040
1.570796326794896
1070
   290
1070
     1
1070
   345
1005
15
1070
   346
1005
15
1070
   347
1005
15
1002
}
  0
REGION
  5
46D
330
1F
100
AcDbEntity
  8
0
 62
     5
100
AcDbModelerGeometry
 70
     1
  1
mogoo mhg m o         
  1
ni ^ *+0;:,4 ^ *+0\^ [ nf ^ LR mnjqoqoqkmnk QK o  
  1
n fqfffffffffffffffj:rooh n:rono 
  1
>,27:>;:- {rn rn _nm mnjqoqoqkmnk |
  1
=0;& {rn rn {rn {m {rn {rn |
  1
3*2/ {rn rn {rn {rn {l {n |
  1
,7:33 {rn rn {rn {rn {rn {k {rn {m |
  1
9><: {rn rn {rn {rn {j {l {rn {i 90-(>-; ;0*=3: 0*+ |
  1
300/ {rn rn {rn {h {g {k |
  1
/3>1:r,*-9><: {rn rn {rn nfogqhkjkoilnikijh hmhqjlfihilghjhfig o o o n n o o 90-(>-;@) V V V V |
  1
300/ {rn rn {rn {rn {f {k |
  1
<0:;8: {rn rn {rn {no {nn {rn {nm 90-(>-; {j {rn |
  1
<0:;8: {rn rn {rn {nl {nk {rn {nj 90-(>-; {h {rn |
  1
<0:;8: {rn rn {rn {ni {g {rn {nh 90-(>-; {j {rn |
  1
<0:;8: {rn rn {rn {g {ng {rn {nf 90-(>-; {j {rn |
  1
:;8: {rn rn {rn {mo rlqnknjfmijljfmkjf {mn rnqjhohfilmihfhhofm {g {mm 90-(>-; _h *1410(1 |
  1
<0:;8: {rn rn {rn {ml {f {rn {mk 90-(>-; {h {rn |
  1
<0:;8: {rn rn {rn {f {mj {rn {mi 90-(>-; {h {rn |
  1
:;8: {rn rn {rn {mh o {mg nqnngollfgghkfgfkf {f {mf 90-(>-; _h *1410(1 |
  1
<0:;8: {rn rn {rn {lo {no {rn {ln 90-(>-; {j {rn |
  1
:;8: {rn rn {rn {mn o {lm mlqmooooooooofonlj {no {ll 90-(>-; _h *1410(1 |
  1
<0:;8: {rn rn {rn {nn {lk {rn {lj 90-(>-; {j {rn |
  1
:;8: {rn rn {rn {li o {mo nmqifffffffffkgfij {nn {lh 90-(>-; _h *1410(1 |
  1
):-+:' {rn rn {rn {nm {lg |
  1
):-+:' {rn rn {rn {nm {lf |
  1
:336/,:r<*-): {rn rn {rn ngfhqnkjkoilnilggh hllqlnoklggjinlghm o ro ro rn oqjfffffffffffffffg o o n Y rlqnknjfmijljfmkjf Y rnqjhohfilmihfhhofm |
  1
<0:;8: {rn rn {rn {ko {nl {rn {kn 90-(>-; {h {rn |
  1
:;8: {rn rn {rn {mg o {km nqnngollfgghkfgfkf {nl {kl 90-(>-; _h *1410(1 |
  1
<0:;8: {rn rn {rn {nk {kk {rn {kj 90-(>-; {h {rn |
  1
:;8: {rn rn {rn {ki rkqohnjkonjjfkiflhg:rolo {mh fqlooooooooohkngkf {nk {kh 90-(>-; _h *1410(1 |
  1
):-+:' {rn rn {rn {nj {kg |
  1
):-+:' {rn rn {rn {nj {kf |
  1
,+->687+r<*-): {rn rn {rn nflfqmkjkoilnili hmoqhnoklggjingfmg o roqgfkkmhnfoffffnjgi roqkkhmnljfjkfffjhfl o V V |
  1
<0:;8: {rn rn {rn {jo {ni {rn {jn 90-(>-; {j {rn |
  1
:;8: {rn rn {rn {lm rnqjhohfilmihfhhofm {jm rmqiigfhinjnnfgghhf:ronm {ni {jl 90-(>-; _h *1410(1 |
  1
):-+:' {rn rn {rn {ln {jk |
  1
,+->687+r<*-): {rn rn {rn ngfhqnkjkoilnilghm hllqfnoklggjinlgnh o n mqgnmjlfkhlllhhjli:ronm o Y o Y mlqmooooooooofonlj |
  1
<0:;8: {rn rn {rn {ng {jo {rn {jj 90-(>-; {j {rn |
  1
:;8: {rn rn {rn {ji nqjhohfilmihfkgfii {li lqnknjfmijljghnmhm {ng {jh 90-(>-; _h *1410(1 |
  1
):-+:' {rn rn {rn {nf {jg |
  1
,+->687+r<*-): {rn rn {rn ngfiqjkjkoilnikmmh hmoqinoklggjinghn o rmqiijlhkkgmgnkhkon:ronm n o Y o Y nmqifffffffffkgfij |
  1
/061+ {rn rn {rn ngfiqjkjkoilnilggg hllqlnoklggjinlif o |
  1
/061+ {rn rn {rn ngfhqnkjkoilnilghm hllqfnoklggjinlgnh o |
  1
<0:;8: {rn rn {rn {jf {ml {rn {io -:):-,:; {h {rn |
  1
:;8: {rn rn {rn {km o {in nkqlffffffffhfhghi {ml {im 90-(>-; _h *1410(1 |
  1
):-+:' {rn rn {rn {mk {il |
  1
,+->687+r<*-): {rn rn {rn nflgqmkjkoilnili hmoqmnoklggjingfmg o roqgfkkmhnfoffffnjgi oqkkhmnljfjkfffjhfl o V V |
  1
<0:;8: {rn rn {rn {mj {ik {rn {ij 90-(>-; {h {rn |
  1
:;8: {rn rn {rn {ii o {ki nqjhohfilmihfkgfii {mj {ih 90-(>-; _h *1410(1 |
  1
):-+:' {rn rn {rn {kj {ig |
  1
,+->687+r<*-): {rn rn {rn nfkgqjkjkoilniklkl hmoqhnoklggjingfmg o rn nqjmgokggfkofjjjll:ronj o V V |
  1
/061+ {rn rn {rn nflfqmkjkoilnili hmoqhnoklggjingfmg o |
  1
/061+ {rn rn {rn nflgqmkjkoilnili hmoqmnoklggjingfmg o |
  1
<0:;8: {rn rn {rn {lk {lo {rn {if 90-(>-; {j {rn |
  1
:;8: {rn rn {rn {jm o {ho nmqhooooooooonkmnj {lo {hn 90-(>-; _h *1410(1 |
  1
):-+:' {rn rn {rn {jn {hm |
  1
:336/,:r<*-): {rn rn {rn nfmoqlkjkoilnikhfn hllqlnoklggjimolmf o ro ro rn oqjfffffffffffffffg o o n Y rnqjhohfilmihfhhofm Y rmqiigfhinjnnfgghhf:ronm |
  1
/061+ {rn rn {rn nfmoqlkjkoilnikhhm hllqfnoklggjimomhj o |
  1
:;8: {rn rn {rn {hl o {ji mlqmooooooooofongj {lk {hk 90-(>-; _h *1410(1 |
  1
):-+:' {rn rn {rn {lj {hj |
  1
:336/,:r<*-): {rn rn {rn ngfhqnkjkoilnikmmf hmoqinoklggjinggfm o ro ro rn oqjfffffffffffffffg o o n Y nqjhohfilmihfkgfii Y lqnknjfmijljghnmhm |
  1
/061+ {rn rn {rn ngfiqjkjkoilnikmmh hmoqinoklggjinghn o |
  1
<0:;8: {rn rn {rn {hi {ko {rn {hh 90-(>-; {h {rn |
  1
:;8: {rn rn {rn {hg rlqnknjfmijljgifgoh {in rnqjhohfilmihfkgfii {ko {hf 90-(>-; _h *1410(1 |
  1
):-+:' {rn rn {rn {kn {go |
  1
,+->687+r<*-): {rn rn {rn nflhqmkjkoilnili hmoqhnoklggjingfmg o rn o o V V |
  1
/061+ {rn rn {rn nflhqmkjkoilnili hmoqhnoklggjingfmg o |
  1
<0:;8: {rn rn {rn {kk {gn {rn {gm 90-(>-; {h {rn |
  1
:;8: {rn rn {rn {gl o {ii nqjfffffffffffffkl {kk {gk 90-(>-; _h *1410(1 |
  1
):-+:' {rn rn {rn {ij {gj |
  1
:336/,:r<*-): {rn rn {rn nfkgqjkjkoilniklkl hmoqjnoklggjinggji o o o n oqmooooooooooooooon o o n V V |
  1
/061+ {rn rn {rn nfkgqjkjkoilniklkl hmoqhnoklggjingfmg o |
  1
:;8: {rn rn {rn {ho rmqiigfhinjnnfgghhf:ronm {hl nqjhohfilmihfkgfii {jo {gi 90-(>-; _h *1410(1 |
  1
):-+:' {rn rn {rn {if {gh |
  1
,+->687+r<*-): {rn rn {rn nfmoqfkjkoilnikhf hllqlnoklggjimojnn o mqiifmfogioogkhjgn:ronm rn o Y o Y nmqhooooooooonkmnj |
  1
/061+ {rn rn {rn nfmoqfkjkoilnikhf hllqlnoklggjimojnn o |
  1
):-+:' {rn rn {rn {jj {gg |
  1
,+->687+r<*-): {rn rn {rn nfmoqlkjkoilnijnmf hmoqonoklggjinggji o rn o o Y o Y mlqmooooooooofongj |
  1
/061+ {rn rn {rn ngfhqnkjkoilnikmmf hmoqonoklggjinggji o |
  1
<0:;8: {rn rn {rn {gf {jf {rn {fo -:):-,:; {h {rn |
  1
:;8: {rn rn {rn {hg o {fn nfqmjnkhngimilfigl {jf {fm 90-(>-; _h *1410(1 |
  1
):-+:' {rn rn {rn {io {fl |
  1
:336/,:r<*-): {rn rn {rn nfmmqgkjkoilnijiml hmnqlnoklggjingfij o o o n oqjfffffffffffffffg o o n V V |
  1
/061+ {rn rn {rn nfmmqgkjkoilnijiml hmoqhnoklggjingfmg o |
  1
<0:;8: {rn rn {rn {ik {fk {rn {fj 90-(>-; {h {rn |
  1
:;8: {rn rn {rn {fi rnqjhohfilmihfkgfii {gl o {ik {fh 90-(>-; _h *1410(1 |
  1
):-+:' {rn rn {rn {gm {fg |
  1
,+->687+r<*-): {rn rn {rn nfkgqhkjkoilniklkn hngqfnoklggjingfn o kqkkogfmofgjooiknf:ronj n o V V |
  1
/061+ {rn rn {rn nfkgqhkjkoilniklkn hmoqjnoklggjinggji o |
  1
:336/,:r<*-): {rn rn {rn nfmoqlkjkoilnijnmf hmoqinoklggjinggfm o ro ro rn oqjfffffffffffffffg o o n Y rmqiigfhinjnnfgghhf:ronm Y nqjhohfilmihfkgfii |
  1
/061+ {rn rn {rn nfmoqfkjkoilnijnln hmoqinoklggjinfohk o |
  1
/061+ {rn rn {rn nfmoqlkjkoilnijnmf hmoqonoklggjinggji o |
  1
<0:;8: {rn rn {rn {ff {hi {rn {noo 90-(>-; {h {rn |
  1
:;8: {rn rn {rn {non oqhgjlfgnilkoolkffi {fn lqnknjfmijljgfhfln {hi {nom 90-(>-; _h *1410(1 |
  1
):-+:' {rn rn {rn {hh {nol |
  1
,+->687+r<*-): {rn rn {rn nfmmqmkjkoilnijimn hmnqlnoklggjinghgl o rmqgnnghlmmhihklgk:ronm n o V V |
  1
/061+ {rn rn {rn nfmmqmkjkoilnijimn hmnqlnoklggjinghgl o |
  1
<0:;8: {rn rn {rn {gn {nok {rn {noj 90-(>-; {h {rn |
  1
:;8: {rn rn {rn {noi iqlkmioomkmfgmhnol:roln {fi hfqioooooooooolhi {gn {noh 90-(>-; _h *1410(1 |
  1
):-+:' {rn rn {rn {fj {nog |
  1
:336/,:r<*-): {rn rn {rn nfkgqjkjkoilniklkl hngqfnoklggjingfn o o o n oqmooooooooooooooon o o n V V |
  1
/061+ {rn rn {rn nfkgqhkjkoilniklkn hngqfnoklggjingfn o |
  1
<0:;8: {rn rn {rn {nof {gf {rn {nno 90-(>-; {h {rn |
  1
:;8: {rn rn {rn {non o {nnn nqlhfgfgfghlnmklol {gf {nnm 90-(>-; _h *1410(1 |
  1
):-+:' {rn rn {rn {fo {nnl |
  1
:336/,:r<*-): {rn rn {rn nfmmqjkjkoilnijn hkoqjinfnohnggmihh o o o n oqloooooooooomojhhl o o n V V |
  1
/061+ {rn rn {rn nfmmqmkjkoilnijog hkoqjinfnohnggmihh o |
  1
<0:;8: {rn rn {rn {fk {nnk {rn {nnj 90-(>-; {h {rn |
  1
:;8: {rn rn {rn {nni rlqnknjfmijligmjf {noi rnqjhohfilmihfkgfii {fk {nnh 90-(>-; _h *1410(1 |
  1
):-+:' {rn rn {rn {noj {nng |
  1
,+->687+r<*-): {rn rn {rn ngigqfkjkoilniklol hngqhnoklggjingfmg o n nqhgjmglmjjihgjjfj:roni o V V |
  1
/061+ {rn rn {rn nfkgqjkjkoilniklkl hngqhnoklggjingfmg o |
  1
<0:;8: {rn rn {rn {nnf {ff {rn {nmo 90-(>-; {h {rn |
  1
:;8: {rn rn {rn {nnn rmqljinfkkfonggnmkh {nmn nqjnjgmkjomfklilfi:ronm {ff {nmm 90-(>-; _h *1410(1 |
  1
):-+:' {rn rn {rn {noo {nml |
  1
,+->687+r<*-): {rn rn {rn nfmmqhjhjlgljogih hkoqhhkokmhjlngjln o oqhohnoihgnnggjmhff roqhohnoihgnngkjiifl o V V |
  1
/061+ {rn rn {rn nfmmqhjhjlgljogih hkoqhhkokmhjlngjln o |
  1
<0:;8: {rn rn {rn {nok {nmk {rn {nmj 90-(>-; {h {rn |
  1
:;8: {rn rn {rn {nmi o {nni nqjfffffffffglgij {nok {nmh 90-(>-; _h *1410(1 |
  1
):-+:' {rn rn {rn {nnj {nmg |
  1
:336/,:r<*-): {rn rn {rn ngigqfkjkoilniklol hngqfnoklggjingfn o o o n oqmooooooooooooooon o o n V V |
  1
/061+ {rn rn {rn ngigqfkjkoilniklol hngqhnoklggjingfmg o |
  1
<0:;8: {rn rn {rn {nmf {nof {rn {nlo 90-(>-; {h {rn |
  1
:;8: {rn rn {rn {nmn o {nln lqkffffffffffhlgjm {nof {nlm 90-(>-; _h *1410(1 |
  1
):-+:' {rn rn {rn {nno {nll |
  1
:336/,:r<*-): {rn rn {rn nfmlqfkjkoilnijohm hkoqonoklggjimikfj o o o n oqloooooooooommmjnj o o n V V |
  1
/061+ {rn rn {rn nfmlqhllmhkmgmnjoh hlfqhfgloigmnfohlm o |
  1
<0:;8: {rn rn {rn {nnk {nlk {rn {nlj 90-(>-; {h {rn |
  1
:;8: {rn rn {rn {nli nqjhohfilmihfkgfii {nmi lqnknjfmijljhhikmg {nnk {nlh 90-(>-; _h *1410(1 |
  1
):-+:' {rn rn {rn {nmj {nlg |
  1
,+->687+r<*-): {rn rn {rn ngigqhkjkoilnikj hmoqjnoklggjinfnmf o rnqmniliolkjhfnjghh:ronn rn o V V |
  1
/061+ {rn rn {rn ngigqhkjkoilnikloj hngqfnoklggjimogm o |
  1
<0:;8: {rn rn {rn {nlf {nnf {rn {nko 90-(>-; {h {rn |
  1
:;8: {rn rn {rn {nln o {nkn nqjhohfilmihfhgofg {nnf {nkm 90-(>-; _h *1410(1 |
  1
):-+:' {rn rn {rn {nmo {nkl |
  1
,+->687+r<*-): {rn rn {rn nfmkqmkjkoilnijofi hkoqonoklggjimijgi o rmqgokinligknjmlnfj:ronm n o V V |
  1
/061+ {rn rn {rn nfmkqmkjkoilnijofi hkoqonoklggjimijgi o |
  1
<0:;8: {rn rn {rn {nmk {nkk {rn {nkj 90-(>-; {h {rn |
  1
:;8: {rn rn {rn {nki o {nli fqlooooooooojkhmlm {nmk {nkh 90-(>-; _h *1410(1 |
  1
):-+:' {rn rn {rn {nlj {nkg |
  1
:336/,:r<*-): {rn rn {rn ngigqfkjkoilnikkff hmoqjnoklggjinggji o o o n oqmooooooooooooooon o o n V V |
  1
/061+ {rn rn {rn ngigqhkjkoilnikj hmoqjnoklggjinfnmf o |
  1
<0:;8: {rn rn {rn {nkf {nmf {rn {njo 90-(>-; {h {rn |
  1
:;8: {rn rn {rn {nkn o {njn gqioooooooooooommh {nmf {njm 90-(>-; _h *1410(1 |
  1
):-+:' {rn rn {rn {nlo {njl |
  1
:336/,:r<*-): {rn rn {rn nfmkqokjkoilnikffg hklqjnoklggjimilnk o o o n oqnffffffffffffggil o o n V V |
  1
/061+ {rn rn {rn nfmkqmkjkoilnikffi hklqjnoklggjimilnk o |
  1
<0:;8: {rn rn {rn {nlk {njk {rn {njj 90-(>-; {h {rn |
  1
:;8: {rn rn {rn {nji o {nki nqnngollfgghkfgfkf {nlk {njh 90-(>-; _h *1410(1 |
  1
):-+:' {rn rn {rn {nkj {njg |
  1
,+->687+r<*-): {rn rn {rn nghgqmkjkoilnijoki hmoqhnoklggjingfmg o rn rnqjmgokggfkofghjof:ronj o V V |
  1
/061+ {rn rn {rn ngigqfkjkoilnikkff hmoqhnoklggjingfmg o |
  1
<0:;8: {rn rn {rn {njf {nlf {rn {nio 90-(>-; {h {rn |
  1
:;8: {rn rn {rn {njn nqjhohfilmihffnjfg {nin lqnknjfmijljfofl {nlf {nim 90-(>-; _h *1410(1 |
  1
):-+:' {rn rn {rn {nko {nil |
  1
,+->687+r<*-): {rn rn {rn nfmkqokjkoilnikffn hklqhnoklggjimimfj o rn rmqgnjhlmnkljhomjom:ronm o V V |
  1
/061+ {rn rn {rn nfmkqokjkoilnikffn hklqhnoklggjimimfj o |
  1
<0:;8: {rn rn {rn {nkk {nik {rn {nij 90-(>-; {h {rn |
  1
:;8: {rn rn {rn {nii o {nji nqnngollfgghkfgfkf {nkk {nih 90-(>-; _h *1410(1 |
  1
):-+:' {rn rn {rn {njj {nig |
  1
,+->687+r<*-): {rn rn {rn nghfqmkjkoilnijoki hmoqmnoklggjingfmg o roqgfkkmhnfoffffnjgi oqkkhmnljfjkfffjhfl o V V |
  1
/061+ {rn rn {rn nghgqmkjkoilnijoki hmoqhnoklggjingfmg o |
  1
<0:;8: {rn rn {rn {nif {nkf {rn {nho 90-(>-; {h {rn |
  1
:;8: {rn rn {rn {nin o {nhn nqjfffffffffffkjkl {nkf {nhm 90-(>-; _h *1410(1 |
  1
):-+:' {rn rn {rn {njo {nhl |
  1
:336/,:r<*-): {rn rn {rn nfnjqkkjkoilnikfff hklqjnoklggjimlgjg o o o n oqmooooooooooolmfif o o n V V |
  1
/061+ {rn rn {rn nfnjqkkjkoilnikff hklqhnoklggjimlgk o |
  1
<0:;8: {rn rn {rn {njk {nhk {rn {nhj -:):-,:; {h {rn |
  1
:;8: {rn rn {rn {nhi o {nii nkqkooooooooojhkgh {njk {nhh 90-(>-; _h *1410(1 |
  1
):-+:' {rn rn {rn {nij {nhg |
  1
,+->687+r<*-): {rn rn {rn nggoqmkjkoilnijoki hmoqhnoklggjingfmg o roqgfkkmhnfoffffnjgi roqkkhmnljfjkfffjhfl o V V |
  1
/061+ {rn rn {rn nghfqmkjkoilnijoki hmoqmnoklggjingfmg o |
  1
<0:;8: {rn rn {rn {nhf {njf {rn {ngo 90-(>-; {h {rn |
  1
:;8: {rn rn {rn {nhn rlqnknjfmijljgfhfln {ngn rnqjhohfilmihfmojkk {njf {ngm 90-(>-; _h *1410(1 |
  1
):-+:' {rn rn {rn {nio {ngl |
  1
,+->687+r<*-): {rn rn {rn nfnjqmkjkoilnikffi hklqjnoklggjimlhih o mqgkmnhofkloknlhon:ronm rn o V V |
  1
/061+ {rn rn {rn nfnjqmkjkoilnikffi hklqjnoklggjimlhih o |
  1
<0:;8: {rn rn {rn {nik {ngk {rn {ngj 90-(>-; {h {rn |
  1
:;8: {rn rn {rn {nhi rnqjhohfilmihfkgfii {ngi mqgnmjikffjhnhoijn:ronm {nik {ngh 90-(>-; _h *1410(1 |
  1
):-+:' {rn rn {rn {nhj {ngg |
  1
,+->687+r<*-): {rn rn {rn ngfkqikjkoilnijim hmoqhnoklggjingfmg o rn o o V V |
  1
/061+ {rn rn {rn nggoqmkjkoilnijoki hmoqhnoklggjingfmg o |
  1
<0:;8: {rn rn {rn {ngf {nif {rn {nfo -:):-,:; {h {rn |
  1
:;8: {rn rn {rn {ngn o {nfn kqioooooooooooommh {nif {nfm 90-(>-; _h *1410(1 |
  1
):-+:' {rn rn {rn {nho {nfl |
  1
:336/,:r<*-): {rn rn {rn nfnjqkkjkoilnijokm hknqfnoklggjimlfnl o o o n oqnffffffffffffggil o o n V V |
  1
/061+ {rn rn {rn nfnjqmkjkoilnijokm hknqfnoklggjimlfnl o |
  1
<0:;8: {rn rn {rn {nhk {nfk {rn {nfj -:):-,:; {h {rn |
  1
:;8: {rn rn {rn {nfi o {ngi nfqmjnkhngimjjfjnm {nhk {nfh 90-(>-; _h *1410(1 |
  1
):-+:' {rn rn {rn {ngj {nfg |
  1
:336/,:r<*-): {rn rn {rn ngfkqikjkoilnijim hmnqlnoklggjingfij o o o n oqjfffffffffffffffg o o n V V |
  1
/061+ {rn rn {rn ngfkqikjkoilnijim hmoqhnoklggjingfmg o |
  1
<0:;8: {rn rn {rn {nff {nhf {rn {moo 90-(>-; {h {rn |
  1
:;8: {rn rn {rn {mon nqkmnogjkhnjmmlook:ronm {nfn nqjhohfilmihffnmkl {nhf {mom 90-(>-; _h *1410(1 |
  1
):-+:' {rn rn {rn {ngo {mol |
  1
,+->687+r<*-): {rn rn {rn nfnjqkkjkoilnijokf hknqhnoklggjimlgk o n mqgojoffnkgnlnnikn:ronm o V V |
  1
/061+ {rn rn {rn nfnjqkkjkoilnijokf hknqhnoklggjimlgk o |
  1
<0:;8: {rn rn {rn {ngk {mok {rn {moj 90-(>-; {h {rn |
  1
:;8: {rn rn {rn {nfi rnqhojlomjijgnjhokn:ronm {moi mqljinfkkfonflkglf {ngk {moh 90-(>-; _h *1410(1 |
  1
):-+:' {rn rn {rn {nfj {mog |
  1
,+->687+r<*-): {rn rn {rn ngfjqmkjkoilnijog hkoqjinfnohnghjolh o mqgnnjfiknkonfminm:ronm rn o V V |
  1
/061+ {rn rn {rn ngfjqmkjkoilnijimn hmnqlnoklggjinfoji o |
  1
<0:;8: {rn rn {rn {mof {ngf {rn {mno -:):-,:; {h {rn |
  1
:;8: {rn rn {rn {mon o {mnn jqiffffffffffffggi {ngf {mnm 90-(>-; _h *1410(1 |
  1
):-+:' {rn rn {rn {nfo {mnl |
  1
:336/,:r<*-): {rn rn {rn nfmoqokjkoilnijojh hknqjnoklggjimjmmm o o o n oqnfffffffffffhokkn o o n V V |
  1
/061+ {rn rn {rn nfmoqokjkoilnijokg hknqhnoklggjimjnnl o |
  1
<0:;8: {rn rn {rn {nfk {mnk {rn {mnj 90-(>-; {h {rn |
  1
:;8: {rn rn {rn {mni o {moi nqlhfgfgfghlnkmnoj {nfk {mnh 90-(>-; _h *1410(1 |
  1
):-+:' {rn rn {rn {moj {mng |
  1
:336/,:r<*-): {rn rn {rn ngfkqfkjkoilnijoij hkoqjinfnohnghjolh o o o n oqloooooooooonjonig o o n V V |
  1
/061+ {rn rn {rn ngfjqmkjkoilnijog hkoqjinfnohnghjolh o |
  1
<0:;8: {rn rn {rn {mnf {nff {rn {mmo 90-(>-; {h {rn |
  1
:;8: {rn rn {rn {mmn rnqjhohfilmihfmogh {mnn mqgnmjikffjhnhoijn:ronm {nff {mmm 90-(>-; _h *1410(1 |
  1
):-+:' {rn rn {rn {moo {mml |
  1
,+->687+r<*-): {rn rn {rn nfmoqmkjkoilnijojl hknqjnoklggjimjmmm o mqgnnfknhnminjjmj:ronm rn o V V |
  1
/061+ {rn rn {rn nfmoqmkjkoilnijojl hknqjnoklggjimjmmm o |
  1
<0:;8: {rn rn {rn {mok {mmk {rn {mmj 90-(>-; {h {rn |
  1
:;8: {rn rn {rn {mmi rlqnknjfmijljgfhfln {mni roqhgjlfgnillfkjmjgk {mok {mmh 90-(>-; _h *1410(1 |
  1
):-+:' {rn rn {rn {mnj {mmg |
  1
,+->687+r<*-): {rn rn {rn ngflqhjhjlgljogifh hlfqhfgloigmngmmhl o oqhohnoihgnngkjhfmi oqhohnoihgnnggjnjhg o V V |
  1
/061+ {rn rn {rn ngfkqhllmhkmgmnkfn hkoqhhkokmhjlnogon o |
  1
<0:;8: {rn rn {rn {mmf {mof {rn {mlo -:):-,:; {h {rn |
  1
:;8: {rn rn {rn {mmn o {mln mnqgoooooooooooook {mof {mlm 90-(>-; _h *1410(1 |
  1
):-+:' {rn rn {rn {mno {mll |
  1
:336/,:r<*-): {rn rn {rn nfnfqikjkoilnijmnl hljqgnoklggjimjojg o o o n oqjfffffffffffffffg o o n V V |
  1
/061+ {rn rn {rn nfmoqmkjkoilnijmnk hljqgnoklggjimjmk o |
  1
<0:;8: {rn rn {rn {mnk {mlk {rn {mlj 90-(>-; {h {rn |
  1
:;8: {rn rn {rn {mli o {mmi lqkffffffffffhnon {mnk {mlh 90-(>-; _h *1410(1 |
  1
):-+:' {rn rn {rn {mmj {mlg |
  1
:336/,:r<*-): {rn rn {rn ngflqjkjkoilnijnni hkoqonoklggjinhfki o o o n oqloooooooooomolikm o o n V V |
  1
/061+ {rn rn {rn ngflqhjhjlgljogifh hlfqhfgloigmngmmhl o |
  1
<0:;8: {rn rn {rn {mlf {mnf {rn {mko 90-(>-; {h {rn |
  1
:;8: {rn rn {rn {mkn rlqnknjfmijljgifhhi {mln rnqjhohfilmihfmofl {mnf {mkm 90-(>-; _h *1410(1 |
  1
):-+:' {rn rn {rn {mmo {mkl |
  1
,+->687+r<*-): {rn rn {rn nfnfqikjkoilnijmmf hljqmnoklggjimjnnl o rn rmqgnohngonfngihffl:ronm o V V |
  1
/061+ {rn rn {rn nfnfqikjkoilnijmmf hljqmnoklggjimjnnl o |
  1
<0:;8: {rn rn {rn {mmk {mkk {rn {mkj 90-(>-; {h {rn |
  1
:;8: {rn rn {rn {mki nqjhohfilmihffmiik {mli lqnknjfmijljfofl {mmk {mkh 90-(>-; _h *1410(1 |
  1
):-+:' {rn rn {rn {mlj {mkg |
  1
,+->687+r<*-): {rn rn {rn ngflqmkjkoilnikffi hklqjnoklggjinhjgm o mqgnhgofkhhgniihkm:ronm rn o V V |
  1
/061+ {rn rn {rn ngflqmkjkoilnijofi hkoqonoklggjinhfki o |
  1
<0:;8: {rn rn {rn {mkf {mmf {rn {mjo -:):-,:; {h {rn |
  1
:;8: {rn rn {rn {mkn o {mjn jqhooooooooooojnfg {mmf {mjm 90-(>-; _h *1410(1 |
  1
):-+:' {rn rn {rn {mlo {mjl |
  1
:336/,:r<*-): {rn rn {rn ngfhqgkjkoilnijmnl hljqgnoklggjingfij o o o n oqjfffffffffffffffg o o n V V |
  1
/061+ {rn rn {rn ngfhqgkjkoilnijmlm hljqmnoklggjingfmg o |
  1
<0:;8: {rn rn {rn {mlk {mjk {rn {mjj 90-(>-; {h {rn |
  1
:;8: {rn rn {rn {mji rnqfflijllofnmoknom:romi {mki gqioooooooooooonji {mlk {mjh 90-(>-; _h *1410(1 |
  1
):-+:' {rn rn {rn {mkj {mjg |
  1
:336/,:r<*-): {rn rn {rn ngflqkkjkoilnikfff hklqjnoklggjinhihl o o o n oqmooooooooooolmfif o o n V V |
  1
/061+ {rn rn {rn ngflqmkjkoilnikffi hklqjnoklggjinhjgm o |
  1
<0:;8: {rn rn {rn {mjf {mlf {rn {mio 90-(>-; {h {rn |
  1
:;8: {rn rn {rn {min nqjhohfilmihfhgkjl {mjn lqnknjfmijljgfhfln {mlf {mim 90-(>-; _h *1410(1 |
  1
):-+:' {rn rn {rn {mko {mil |
  1
,+->687+r<*-): {rn rn {rn ngfhqmkjkoilnijmnk hljqgnoklggjinghgl o rmqgnknmlmolkhoiiik:ronm n o V V |
  1
/061+ {rn rn {rn ngfhqmkjkoilnijmnk hljqgnoklggjinghgl o |
  1
<0:;8: {rn rn {rn {mkk {mjf {rn {mik 90-(>-; {h {rn |
  1
:;8: {rn rn {rn {mij mqgkmnhofklokoojhk:ronl {mji nqjhohfilmihfhjfii {mkk {mii 90-(>-; _h *1410(1 |
  1
):-+:' {rn rn {rn {mjj {mih |
  1
,+->687+r<*-): {rn rn {rn nfomqokjkoilnikffn hklqhnoklggjimonnn o rn rmqgojgnhjflhigfkgh:ronm o V V |
  1
/061+ {rn rn {rn ngflqkkjkoilnikff hklqhnoklggjinhijj o |
  1
<0:;8: {rn rn {rn {mjk {mkf {rn {mig 90-(>-; {h {rn |
  1
:;8: {rn rn {rn {min o {mif kqioooooooooooommh {mkf {mho 90-(>-; _h *1410(1 |
  1
):-+:' {rn rn {rn {mjo {mhn |
  1
:336/,:r<*-): {rn rn {rn ngfhqkkjkoilnijojl hknqjnoklggjinggji o o o n oqmoooooooooooolnmi o o n V V |
  1
/061+ {rn rn {rn ngfhqmkjkoilnijojl hknqjnoklggjinggji o |
  1
:;8: {rn rn {rn {mhm o {mij nqjfffffffffffkjkl {mjk {mhl 90-(>-; _h *1410(1 |
  1
):-+:' {rn rn {rn {mik {mhk |
  1
:336/,:r<*-): {rn rn {rn nfomqokjkoilnikffg hklqjnoklggjimonmf o o o n oqmoooooooooooomkni o o n V V |
  1
/061+ {rn rn {rn nfomqokjkoilnikffn hklqhnoklggjimonnn o |
  1
:;8: {rn rn {rn {mif rnqjhohfilmihfogkij {mhm nqkmnogjkhnjngiiji:ronm {mjf {mhj 90-(>-; _h *1410(1 |
  1
):-+:' {rn rn {rn {mio {mhi |
  1
,+->687+r<*-): {rn rn {rn ngfhqkkjkoilnijokf hknqhnoklggjingglg o n mqgmojkjhmflkllkon:ronm o V V |
  1
/061+ {rn rn {rn ngfhqkkjkoilnijokf hknqhnoklggjingglg o |
  1
):-+:' {rn rn {rn {mig {mhh |
  1
,+->687+r<*-): {rn rn {rn nfomqmkjkoilnijokm hknqfnoklggjimongk o rmqhfllmnnmffjhgkii:ronm n o V V |
  1
/061+ {rn rn {rn nfomqmkjkoilnikffi hklqjnoklggjimonmf o |
  1
:336/,:r<*-): {rn rn {rn nfomqokjkoilnijolf hknqfnoklggjimoofl o o o n oqmooooooooooomni o o n V V |
  1
/061+ {rn rn {rn nfomqokjkoilnijokg hknqhnoklggjimonnn o |
  1
/061+ {rn rn {rn nfomqmkjkoilnijokm hknqfnoklggjimongk o |
  0
LINE
  5
46E
330
1F
100
AcDbEntity
  8
0
  6
ACAD_ISO10W100
 62
     4
100
AcDbLine
 10
1908.745406316432
 20
727.6169388561893
 30
0.0
 11
1913.745406316432
 21
727.6169388561893
 31
0.0
  0
LINE
  5
46F
330
1F
100
AcDbEntity
  8
0
  6
ACAD_ISO10W100
 62
     4
100
AcDbLine
 10
1908.745406316432
 20
727.6169388561893
 30
0.0
 11
1908.745406316432
 21
732.6169388561893
 31
0.0
  0
LINE
  5
470
330
1F
100
AcDbEntity
  8
0
  6
ACAD_ISO10W100
 62
     4
100
AcDbLine
 10
1908.745406316432
 20
727.6169388561893
 30
0.0
 11
1903.745406316432
 21
727.6169388561893
 31
0.0
  0
LINE
  5
471
330
1F
100
AcDbEntity
  8
0
  6
ACAD_ISO10W100
 62
     4
100
AcDbLine
 10
1908.745406316432
 20
727.6169388561893
 30
0.0
 11
1908.745406316432
 21
722.6169388561893
 31
0.0
  0
DIMENSION
  5
472
330
1F
100
AcDbEntity
  8
0
  6
ACAD_ISO10W100
 62
     4
100
AcDbDimension
  2
*D64
 10
1955.267657842037
 20
727.6169388561893
 30
0.0
 11
1954.206607350219
 21
735.6636888562205
 31
0.0
 70
    32
 71
     5
 42
16.09350000006179
  3
Standard (DIN)
100
AcDbAlignedDimension
 13
1919.745406316499
 23
743.7104388562511
 33
0.0
 14
1908.745406316432
 24
727.6169388561893
 34
0.0
 50
90.0
100
AcDbRotatedDimension
1001
ACAD
1000
DSTYLE
1002
{
1070
    49
1040
500.0
1070
    50
1040
1.570796326794896
1070
   290
1070
     1
1070
   345
1005
15
1070
   346
1005
15
1070
   347
1005
15
1002
}
  0
DIMENSION
  5
473
330
1F
100
AcDbEntity
  8
0
  6
ACAD_ISO10W100
 62
     4
100
AcDbDimension
  2
*D65
 10
1955.267657842037
 20
718.7104388561892
 30
0.0
 11
1954.206607350219
 21
723.1636888561896
 31
0.0
 70
    32
 71
     5
 42
8.90650000000005
  3
Standard (DIN)
100
AcDbAlignedDimension
 13
1908.745406316432
 23
727.6169388561893
 33
0.0
 14
1908.745406316432
 24
718.7104388561892
 34
0.0
 50
90.0
100
AcDbRotatedDimension
1001
ACAD
1000
DSTYLE
1002
{
1070
   279
1070
     1
1070
    49
1040
500.0
1070
    50
1040
1.570796326794896
1070
   290
1070
     1
1070
   345
1005
15
1070
   346
1005
15
1070
   347
1005
15
1002
}
  0
DIMENSION
  5
474
330
1F
100
AcDbEntity
  8
0
  6
ACAD_ISO10W100
 62
     4
100
AcDbDimension
  2
*D66
 10
1908.745406316432
 20
710.3484347782669
 30
0.0
 11
1888.745406316436
 21
711.4094852700845
 31
0.0
 70
    32
 71
     5
 42
39.99999999999227
  3
Standard (DIN)
100
AcDbAlignedDimension
 13
1868.74540631644
 23
719.7104388562002
 33
0.0
 14
1908.745406316432
 24
727.6169388561893
 34
0.0
100
AcDbRotatedDimension
1001
ACAD
1000
DSTYLE
1002
{
1070
    49
1040
500.0
1070
    50
1040
1.570796326794896
1070
   290
1070
     1
1070
   345
1005
15
1070
   346
1005
15
1070
   347
1005
15
1002
}
  0
DIMENSION
  5
475
330
1F
100
AcDbEntity
  8
0
  6
ACAD_ISO10W100
 62
     4
100
AcDbDimension
  2
*D67
 10
1948.745406316434
 20
710.3484347782669
 30
0.0
 11
1928.745406316433
 21
711.4094852700845
 31
0.0
 70
    32
 71
     5
 42
40.00000000000182
  3
Standard (DIN)
100
AcDbAlignedDimension
 13
1908.745406316432
 23
727.6169388561893
 33
0.0
 14
1948.745406316434
 24
719.7104388561893
 34
0.0
100
AcDbRotatedDimension
1001
ACAD
1000
DSTYLE
1002
{
1070
   279
1070
     1
1070
    49
1040
500.0
1070
    50
1040
1.570796326794896
1070
   290
1070
     1
1070
   345
1005
15
1070
   346
1005
15
1070
   347
1005
15
1002
}
  0
CIRCLE
  5
476
330
1F
100
AcDbEntity
  8
0
  6
ACAD_ISO10W100
 62
     4
100
AcDbCircle
 10
1908.745406316432
 20
727.6169388561893
 30
0.0
 40
1.067752644991514
  0
LINE
  5
477
330
1F
100
AcDbEntity
  8
0
 62
     5
100
AcDbLine
 10
2006.24842708986
 20
781.9305663085069
 30
0.0
 11
2006.248427089817
 21
797.4360335113869
 31
0.0
  0
ARC
  5
478
330
1F
100
AcDbEntity
  8
0
 62
     5
100
AcDbCircle
 10
2007.448427089824
 20
797.4360335113869
 30
0.0
 40
1.20000000000823
100
AcDbArc
 50
45.0000000001566
 51
180.0
  0
LINE
  5
479
330
1F
100
AcDbEntity
  8
0
 62
     5
100
AcDbLine
 10
2008.296955227252
 20
798.2845616488194
 30
0.0
 11
2012.199898952387
 21
794.3816179237055
 31
0.0
  0
ARC
  5
47A
330
1F
100
AcDbEntity
  8
0
 62
     5
100
AcDbCircle
 10
2013.048427089814
 20
795.2301460611397
 30
0.0
 40
1.2000000000089
100
AcDbArc
 50
225.0000000002303
 51
0.0000000001042204
  0
LINE
  5
47B
330
1F
100
AcDbEntity
  8
0
 62
     5
100
AcDbLine
 10
2014.248427089823
 20
795.2301460611415
 30
0.0
 11
2014.248427089784
 21
809.2301460611306
 31
0.0
  0
ARC
  5
47C
330
1F
100
AcDbEntity
  8
0
 62
     5
100
AcDbCircle
 10
2013.448427089783
 20
809.2301460611306
 30
0.0
 40
0.7999999999999546
100
AcDbArc
 50
0.0
 51
90.00000000015633
  0
LINE
  5
47D
330
1F
100
AcDbEntity
  8
0
 62
     5
100
AcDbLine
 10
2013.448427089781
 20
810.0301460611309
 30
0.0
 11
1988.818784103128
 21
810.0301460610618
 31
0.0
  0
LINE
  5
47E
330
1F
100
AcDbEntity
  8
0
 62
     5
100
AcDbLine
 10
1986.469383322494
 20
802.0301460610554
 30
0.0
 11
1997.448427089804
 21
802.0301460610863
 31
0.0
  0
ARC
  5
47F
330
1F
100
AcDbEntity
  8
0
 62
     5
100
AcDbCircle
 10
1997.448427089807
 20
801.2301460610869
 30
0.0
 40
0.7999999999988177
100
AcDbArc
 50
0.0000000001042204
 51
90.00000000022145
  0
LINE
  5
480
330
1F
100
AcDbEntity
  8
0
 62
     5
100
AcDbLine
 10
1998.248427089806
 20
801.2301460610879
 30
0.0
 11
1998.248427089851
 21
785.0799701723672
 31
0.0
  0
LINE
  5
481
330
1F
100
AcDbEntity
  8
0
  6
ACAD_ISO10W100
 62
     4
100
AcDbLine
 10
1991.886041571753
 20
787.5846853641233
 30
0.0
 11
2015.204446071162
 21
778.4048012104449
 31
0.0
  0
LINE
  5
482
330
1F
100
AcDbEntity
  8
0
  6
ACAD_ISO10W100
 62
     4
100
AcDbLine
 10
1983.22808128566
 20
790.9931120613919
 30
0.0
 11
1989.910300616866
 21
813.7468946813406
 31
0.0
  0
DIMENSION
  5
483
330
1F
100
AcDbEntity
  8
0
  6
ACAD_ISO10W100
 62
     4
100
AcDbDimension
  2
*D68
 10
2006.24842708986
 20
773.0828906633259
 30
0.0
 11
2002.248427089856
 21
774.1439411551437
 31
0.0
 70
    32
  1
2,00
 71
     5
 42
8.000000000008185
  3
Standard (DIN)
100
AcDbAlignedDimension
 13
1998.248427089851
 23
785.0799701723672
 33
0.0
 14
2006.24842708986
 24
781.9305663085069
 34
0.0
100
AcDbRotatedDimension
1001
ACAD
1000
DSTYLE
1002
{
1070
    49
1040
500.0
1070
    50
1040
1.570796326794896
1070
   290
1070
     1
1070
   345
1005
15
1070
   346
1005
15
1070
   347
1005
15
1002
}
  0
DIMENSION
  5
484
330
1F
100
AcDbEntity
  8
0
  6
ACAD_ISO10W100
 62
     4
100
AcDbDimension
  2
*D69
 10
1982.035302315412
 20
802.0301460610554
 30
0.0
 11
1980.974251823594
 21
806.0301460610588
 31
0.0
 70
    32
  1
2,00
 71
     5
 42
8.000000000006366
  3
Standard (DIN)
100
AcDbAlignedDimension
 13
1988.818784103128
 23
810.0301460610618
 33
0.0
 14
1986.569190951264
 24
802.0301460610554
 34
0.0
 50
90.0
100
AcDbRotatedDimension
1001
ACAD
1000
DSTYLE
1002
{
1070
    49
1040
500.0
1070
    50
1040
1.570796326794896
1070
   290
1070
     1
1070
   345
1005
15
1070
   346
1005
15
1070
   347
1005
15
1002
}
  0
DIMENSION
  5
485
330
1F
100
AcDbEntity
  8
0
  6
ACAD_ISO10W100
 62
     4
100
AcDbDimension
  2
*D70
 10
1922.245406316513
 20
800.2726112686804
 30
0.0
 11
1926.581559144367
 21
801.3336617604982
 31
0.0
 70
    32
 71
     5
 42
2.0
  3
Standard (DIN)
100
AcDbAlignedDimension
 13
1920.245406316513
 23
802.4264859630694
 33
0.0
 14
1922.245406316513
 24
802.4264859630747
 34
0.0
100
AcDbRotatedDimension
1001
ACAD
1000
DSTYLE
1002
{
1070
    49
1040
500.0
1070
    50
1040
1.570796326794896
1070
   290
1070
     1
1070
   345
1005
15
1070
   346
1005
15
1070
   347
1005
15
1002
}
  0
DIMENSION
  5
486
330
1F
100
AcDbEntity
  8
0
  6
ACAD_ISO10W100
 62
     4
100
AcDbDimension
  2
*D71
 10
1912.612694653943
 20
805.4764859630559
 30
0.0
 11
1911.551644162125
 21
801.1403331352026
 31
0.0
 70
    32
 71
     5
 42
2.0
  3
Standard (DIN)
100
AcDbAlignedDimension
 13
1915.445406316499
 23
807.4764859630558
 33
0.0
 14
1915.445406316505
 24
805.4764859630559
 34
0.0
 50
90.0
100
AcDbRotatedDimension
1001
ACAD
1000
DSTYLE
1002
{
1070
    49
1040
500.0
1070
    50
1040
1.570796326794896
1070
   290
1070
     1
1070
   345
1005
15
1070
   346
1005
15
1070
   347
1005
15
1002
}
  0
DIMENSION
  5
487
330
1F
100
AcDbEntity
  8
0
  6
ACAD_ISO10W100
 62
     4
100
AcDbDimension
  2
*D72
 10
2019.264428576246
 20
794.0305840972833
 30
0.0
 11
2017.494793420138
 21
802.0303650792074
 31
0.0
 70
    32
  1
4,00 {\H0.68182x;+0,00\P            -0,25}
 71
     5
 42
15.99956196384755
  3
Standard (DIN)
100
AcDbAlignedDimension
 13
2013.448427089781
 23
810.0301460611309
 33
0.0
 14
2013.016006496199
 24
794.0305840972833
 34
0.0
 50
90.0
100
AcDbRotatedDimension
1001
ACAD
1000
DSTYLE
1002
{
1070
    49
1040
500.0
1070
    50
1040
1.570796326794896
1070
   290
1070
     1
1070
   345
1005
15
1070
   346
1005
15
1070
   347
1005
15
1002
}
  0
DIMENSION
  5
488
330
1F
100
AcDbEntity
  8
0
  6
ACAD_ISO10W100
 62
     4
100
AcDbDimension
  2
*D73
 10
2006.248427089817
 20
797.4360335113869
 30
0.0
 11
2011.59217977504
 21
787.4321295796999
 31
0.0
 70
    34
 71
     5
 42
0.7853981633973817
  3
Standard (DIN)
100
AcDb2LineAngularDimension
 13
2008.296955227252
 23
798.2845616488194
 33
0.0
 14
2012.199898952387
 24
794.3816179237055
 34
0.0
 15
2006.24842708986
 25
781.9305663085069
 35
0.0
 16
2010.110855646249
 26
785.9183101731696
 36
0.0
1001
ACAD
1000
DSTYLE
1002
{
1070
    49
1040
500.0
1070
    50
1040
1.570796326794896
1070
   290
1070
     1
1070
   345
1005
15
1070
   346
1005
15
1070
   347
1005
15
1002
}
  0
CIRCLE
  5
489
102
{ACAD_REACTORS
330
44C
330
44D
330
44E
102
}
330
1F
100
AcDbEntity
  8
0
  6
ACAD_ISO10W100
 62
     4
100
AcDbCircle
 10
1921.457899496438
 20
806.1769857280943
 30
0.0
 40
4.837107322141491
  0
MTEXT
  5
48A
330
1F
100
AcDbEntity
  8
S10_Quote
  6
ACAD_ISO10W100
100
AcDbMText
 10
1928.005529841408
 20
811.644653017861
 30
0.0
 40
2.5
 41
26.36855363501491
 71
     1
 72
     5
  1
{\fWuerth Book|b0|i0|c0|p2;\Q0;Part. A}
  7
Titoli 1_50
 73
     1
 44
1.0
1001
ACAD
1000
ACAD_MTEXT_COLUMN_INFO_BEGIN
1070
    75
1070
     2
1070
    79
1070
     0
1070
    76
1070
     1
1070
    78
1070
     0
1070
    48
1040
26.36855363501491
1070
    49
1040
1000.0
1070
    50
1070
     1
1040
0.0
1000
ACAD_MTEXT_COLUMN_INFO_END
  0
CIRCLE
  5
48B
102
{ACAD_REACTORS
330
44C
330
44D
102
}
330
1F
100
AcDbEntity
  8
0
  6
ACAD_ISO10W100
 62
     4
100
AcDbCircle
 10
1938.24540631636
 20
783.9764859630068
 30
0.0
 40
4.837107322141491
  0
MTEXT
  5
48C
330
1F
100
AcDbEntity
  8
S10_Quote
  6
ACAD_ISO10W100
100
AcDbMText
 10
1944.79303666133
 20
789.4441532527726
 30
0.0
 40
2.5
 41
26.36855363501491
 71
     1
 72
     5
  1
{\fWuerth Book|b0|i0|c0|p2;\Q0;Part. B}
  7
Titoli 1_50
 73
     1
 44
1.0
1001
ACAD
1000
ACAD_MTEXT_COLUMN_INFO_BEGIN
1070
    75
1070
     2
1070
    79
1070
     0
1070
    76
1070
     1
1070
    78
1070
     0
1070
    48
1040
26.36855363501491
1070
    49
1040
1000.0
1070
    50
1070
     1
1040
0.0
1000
ACAD_MTEXT_COLUMN_INFO_END
  0
LINE
  5
48D
330
1F
100
AcDbEntity
  8
0
 62
     5
100
AcDbLine
 10
2003.599597496217
 20
733.1269520830519
 30
0.0
 11
1999.599597496217
 21
731.1269520830519
 31
0.0
  0
LINE
  5
48E
330
1F
100
AcDbEntity
  8
0
 62
     5
100
AcDbLine
 10
1999.599597496217
 20
731.1269520830519
 30
0.0
 11
1995.599597496217
 21
733.1269520830519
 31
0.0
  0
LINE
  5
48F
330
1F
100
AcDbEntity
  8
0
 62
     5
100
AcDbLine
 10
2020.110350660786
 20
733.1269520830519
 30
0.0
 11
2003.599597496217
 21
733.1269520830519
 31
0.0
  0
LINE
  5
490
330
1F
100
AcDbEntity
  8
0
 62
     5
100
AcDbLine
 10
1995.599597496217
 20
733.1269520830519
 30
0.0
 11
1979.390123152505
 21
733.1269520830519
 31
0.0
  0
LINE
  5
491
330
1F
100
AcDbEntity
  8
0
 62
     5
100
AcDbLine
 10
1977.040722371873
 20
725.1269520830519
 30
0.0
 11
2017.760949880154
 21
725.1269520830519
 31
0.0
  0
LINE
  5
492
330
1F
100
AcDbEntity
  8
0
  6
ACAD_ISO10W100
 62
     4
100
AcDbLine
 10
1973.778977081694
 20
714.0203062793498
 30
0.0
 11
1982.766398345844
 21
744.6235863607689
 31
0.0
  0
LINE
  5
493
330
1F
100
AcDbEntity
  8
0
  6
ACAD_ISO10W100
 62
     4
100
AcDbLine
 10
2014.499204589975
 20
714.0203062793498
 30
0.0
 11
2023.486625854125
 21
744.6235863607689
 31
0.0
  0
DIMENSION
  5
494
330
1F
100
AcDbEntity
  8
S10_Quote
  6
ACAD_ISO10W100
100
AcDbDimension
  2
*D74
 10
2003.599597496217
 20
740.7691161050989
 30
0.0
 11
1999.599597496217
 21
742.5691161050988
 31
0.0
 70
    32
  1
2
 71
     5
 42
8.0
  3
mm 1_1
100
AcDbAlignedDimension
 13
1995.599597496217
 23
733.1269520830519
 33
0.0
 14
2003.599597496217
 24
733.1269520830519
 34
0.0
100
AcDbRotatedDimension
  0
DIMENSION
  5
495
330
1F
100
AcDbEntity
  8
S10_Quote
  6
ACAD_ISO10W100
100
AcDbDimension
  2
*D75
 10
1999.599597496217
 20
735.8064354378239
 30
0.0
 11
1997.599597496217
 21
737.6064354378238
 31
0.0
 70
    32
  1
1
 71
     5
 42
4.0
  3
mm 1_1
100
AcDbAlignedDimension
 13
1995.599597496217
 23
733.1269520830519
 33
0.0
 14
1999.599597496217
 24
731.1269520830519
 34
0.0
100
AcDbRotatedDimension
  0
DIMENSION
  5
496
330
1F
100
AcDbEntity
  8
S10_Quote
  6
ACAD_ISO10W100
100
AcDbDimension
  2
*D76
 10
1989.402212626204
 20
731.1269520830519
 30
0.0
 11
1989.402212626203
 21
735.6839101250103
 31
0.0
 70
   160
  1
0,5
 71
     5
 42
2.0
  3
mm 1_1
100
AcDbAlignedDimension
 13
1995.599597496217
 23
733.1269520830519
 33
0.0
 14
1999.599597496217
 24
731.1269520830519
 34
0.0
 50
90.0
100
AcDbRotatedDimension
  0
MTEXT
  5
497
330
1F
100
AcDbEntity
  8
S09_Testo
100
AcDbMText
 10
1995.848958519546
 20
820.1127731560609
 30
0.0
 40
2.5
 41
110.1991402080567
 71
     1
 72
     5
  1
{\fWuerth Bold|b0|i0|c0|p2;PART.    A}
  7
ROMANS
 73
     1
 44
1.0
  0
MTEXT
  5
498
330
1F
100
AcDbEntity
  8
S09_Testo
100
AcDbMText
 10
1995.848958519546
 20
749.1030605547557
 30
0.0
 40
2.5
 41
110.1991402080567
 71
     1
 72
     5
  1
{\fWuerth Bold|b0|i0|c0|p2;PART.    B}
  7
ROMANS
 73
     1
 44
1.0
  0
CIRCLE
  5
499
102
{ACAD_REACTORS
330
44C
102
}
330
1F
100
AcDbEntity
  8
0
  6
ACAD_ISO10W100
 62
     4
100
AcDbCircle
 10
1908.745406316432
 20
791.3829859630068
 30
0.0
 40
1.067752644991514
  0
HATCH
  5
49A
330
1F
100
AcDbEntity
  8
0
  6
ACAD_ISO10W100
 62
     4
100
AcDbHatch
 10
0.0
 20
0.0
 30
0.0
210
0.0
220
0.0
230
1.0
  2
SOLID
 70
     1
 71
     0
 91
        2
 92
        7
 72
     1
 73
     1
 93
        3
 10
1908.745406316432
 20
728.684691501181
 42
0.4142135623730951
 10
1907.677653671441
 20
727.6169388561893
 42
0.0
 10
1908.745406316432
 20
727.6169388561893
 42
0.0
 97
        0
 92
        7
 72
     1
 73
     1
 93
        3
 10
1909.813158961424
 20
727.6169388561893
 42
0.0
 10
1908.745406316432
 20
727.6169388561893
 42
0.0
 10
1908.745406316432
 20
726.5491862111976
 42
0.4142135623730951
 97
        0
 75
     0
 76
     1
 47
0.0300607626538205
 98
        2
 10
1908.184081717746
 20
727.9885817564045
 10
1908.966184096963
 20
727.1769395039955
450
        0
451
        0
460
0.0
461
0.0
452
        1
462
1.0
453
        2
463
0.0
 63
     5
421
      255
463
1.0
 63
    51
421
 16777113
470
LINEAR
1001
ACAD
1010
0.0
1020
0.0
1030
0.0
  0
ENDSEC
  0
SECTION
  2
OBJECTS
  0
DICTIONARY
  5
C
330
0
100
AcDbDictionary
281
     1
  3
ACAD_COLOR
350
6B
  3
ACAD_GROUP
350
D
  3
ACAD_LAYOUT
350
1A
  3
ACAD_MATERIAL
350
6A
  3
ACAD_MLEADERSTYLE
350
12D
  3
ACAD_MLINESTYLE
350
17
  3
ACAD_PLOTSETTINGS
350
19
  3
ACAD_PLOTSTYLENAME
350
E
  3
ACAD_SCALELIST
350
10C
  3
ACAD_TABLESTYLE
350
7E
  3
ACAD_VISUALSTYLE
350
EF
  3
ACDB_RECOMPOSE_DATA
350
7F2
  3
AcDbVariableDictionary
350
5E
  0
DICTIONARY
  5
3EF
330
2
100
AcDbDictionary
280
     1
281
     1
  3
ACAD_LAYERSTATES
360
3F0
  0
DICTIONARY
  5
13C
330
10
100
AcDbDictionary
280
     1
281
     1
  0
DICTIONARY
  5
3DD
330
3DC
100
AcDbDictionary
280
     1
281
     1
  0
DICTIONARY
  5
3DF
330
3DE
100
AcDbDictionary
280
     1
281
     1
  0
DICTIONARY
  5
3E1
330
3E0
100
AcDbDictionary
280
     1
281
     1
  0
DICTIONARY
  5
1CE
330
1F
100
AcDbDictionary
280
     1
281
     1
  0
DICTIONARY
  5
1F5
330
1F4
100
AcDbDictionary
280
     1
281
     1
  0
DICTIONARY
  5
81F
330
3AE
100
AcDbDictionary
280
     1
281
     1
  3
ACAD_MTEXT_2008_RT
360
820
  0
DICTIONARY
  5
6B
102
{ACAD_REACTORS
330
C
102
}
330
C
100
AcDbDictionary
281
     1
  0
DICTIONARY
  5
D
102
{ACAD_REACTORS
330
C
102
}
330
C
100
AcDbDictionary
281
     1
  0
DICTIONARY
  5
1A
102
{ACAD_REACTORS
330
C
102
}
330
C
100
AcDbDictionary
281
     1
  3
Layout1
350
D3
  3
Layout2
350
D7
  3
Model
350
22
  0
DICTIONARY
  5
6A
102
{ACAD_REACTORS
330
C
102
}
330
C
100
AcDbDictionary
281
     1
  3
ByBlock
350
ED
  3
ByLayer
350
EC
  3
Global
350
EE
  0
DICTIONARY
  5
12D
102
{ACAD_REACTORS
330
C
102
}
330
C
100
AcDbDictionary
281
     1
  3
Annotativa
350
13B
  3
Standard
350
12E
  0
DICTIONARY
  5
17
102
{ACAD_REACTORS
330
C
102
}
330
C
100
AcDbDictionary
281
     1
  3
Standard
350
18
  0
DICTIONARY
  5
19
102
{ACAD_REACTORS
330
C
102
}
330
C
100
AcDbDictionary
281
     1
  0
ACDBDICTIONARYWDFLT
  5
E
102
{ACAD_REACTORS
330
C
102
}
330
C
100
AcDbDictionary
281
     1
  3
Normal
350
F
100
AcDbDictionaryWithDefault
340
F
  0
DICTIONARY
  5
10C
102
{ACAD_REACTORS
330
C
102
}
330
C
100
AcDbDictionary
281
     1
  3
A0
350
10D
  3
A1
350
1BE
  3
A2
350
1BF
  3
A3
350
1C0
  3
A4
350
1C1
  3
A5
350
1C2
  3
A6
350
1C3
  3
A7
350
1C4
  3
A8
350
1C5
  3
A9
350
1C6
  3
B0
350
1C7
  3
B1
350
1C8
  3
B2
350
1C9
  3
B3
350
1CA
  3
B4
350
1CB
  3
B5
350
1CC
  3
B6
350
1CD
  0
DICTIONARY
  5
7E
102
{ACAD_REACTORS
330
C
102
}
330
C
100
AcDbDictionary
281
     1
  3
Standard
350
7F
  0
DICTIONARY
  5
EF
102
{ACAD_REACTORS
330
C
102
}
330
C
100
AcDbDictionary
281
     1
  3
2dWireframe
350
F5
  3
3D Hidden
350
F7
  3
3dWireframe
350
F6
  3
Basic
350
F4
  3
Brighten
350
FB
  3
ColorChange
350
FF
  3
Conceptual
350
F8
  3
Dim
350
FA
  3
EdgeColorOff
350
1E6
  3
Facepattern
350
FE
  3
Flat
350
F0
  3
FlatWithEdges
350
F1
  3
Gouraud
350
F2
  3
GouraudWithEdges
350
F3
  3
JitterOff
350
1E4
  3
Linepattern
350
FD
  3
OverhangOff
350
1E5
  3
Realistic
350
F9
  3
Thicken
350
FC
  0
XRECORD
  5
7F2
102
{ACAD_REACTORS
330
C
102
}
330
C
100
AcDbXrecord
280
     1
 90
        1
330
7F
330
48A
330
48C
  0
DICTIONARY
  5
5E
102
{ACAD_REACTORS
330
C
102
}
330
C
100
AcDbDictionary
281
     1
  3
CANNOSCALE
350
146
  3
CMLEADERSTYLE
350
145
  3
CTABLESTYLE
350
84
  3
DIMASSOC
350
5F
  3
HIDETEXT
350
63
  3
LAYEREVAL
350
1AE
  3
LAYERNOTIFY
350
1AF
  3
LIGHTINGUNITS
350
7ED
  3
MSLTSCALE
350
7EC
  3
PSOLHEIGHT
350
7EF
  3
PSOLWIDTH
350
7EE
  3
XCLIPFRAME
350
7F0
  0
DICTIONARY
  5
3F0
102
{ACAD_REACTORS
330
3EF
102
}
330
3EF
100
AcDbDictionary
281
     1
  0
XRECORD
  5
820
102
{ACAD_REACTORS
330
81F
102
}
330
81F
100
AcDbXrecord
280
     1
 40
5318.0
  1
\A1;45°
  0
LAYOUT
  5
D3
102
{ACAD_REACTORS
330
1A
102
}
330
1A
100
AcDbPlotSettings
  1

  2
C:\Documents and Settings\basas\Application Data\Autodesk\AutoCAD 2005\R16.1\enu\plotters\Default Windows System Printer.pc3
  4

  6

 40
0.0
 41
0.0
 42
0.0
 43
0.0
 44
0.0
 45
0.0
 46
0.0
 47
0.0
 48
0.0
 49
0.0
140
0.0
141
0.0
142
1.0
143
1.0
 70
   688
 72
     0
 73
     0
 74
     5
  7

 75
    16
147
1.0
 76
     0
 77
     2
 78
   300
148
0.0
149
0.0
100
AcDbLayout
  1
Layout1
 70
     1
 71
     1
 10
0.0
 20
0.0
 11
12.0
 21
9.0
 12
0.0
 22
0.0
 32
0.0
 14
0.0
 24
0.0
 34
0.0
 15
0.0
 25
0.0
 35
0.0
146
0.0
 13
0.0
 23
0.0
 33
0.0
 16
1.0
 26
0.0
 36
0.0
 17
0.0
 27
1.0
 37
0.0
 76
     0
330
D2
  0
LAYOUT
  5
D7
102
{ACAD_REACTORS
330
1A
102
}
330
1A
100
AcDbPlotSettings
  1

  2
C:\Documents and Settings\basas\Application Data\Autodesk\AutoCAD 2005\R16.1\enu\plotters\Default Windows System Printer.pc3
  4

  6

 40
0.0
 41
0.0
 42
0.0
 43
0.0
 44
0.0
 45
0.0
 46
0.0
 47
0.0
 48
0.0
 49
0.0
140
0.0
141
0.0
142
1.0
143
1.0
 70
   688
 72
     0
 73
     0
 74
     5
  7

 75
    16
147
1.0
 76
     0
 77
     2
 78
   300
148
0.0
149
0.0
100
AcDbLayout
  1
Layout2
 70
     1
 71
     2
 10
0.0
 20
0.0
 11
12.0
 21
9.0
 12
0.0
 22
0.0
 32
0.0
 14
0.0
 24
0.0
 34
0.0
 15
0.0
 25
0.0
 35
0.0
146
0.0
 13
0.0
 23
0.0
 33
0.0
 16
1.0
 26
0.0
 36
0.0
 17
0.0
 27
1.0
 37
0.0
 76
     0
330
D6
  0
LAYOUT
  5
22
102
{ACAD_REACTORS
330
1A
102
}
330
1A
100
AcDbPlotSettings
  1

  2
none_device
  4
ISO_A4_(210.00_x_297.00_MM)
  6

 40
7.5
 41
20.0
 42
7.5
 43
20.0
 44
210.0
 45
297.0
 46
11.54999923706054
 47
-13.65000009536743
 48
0.0
 49
0.0
140
0.0
141
0.0
142
1.0
143
8.704084754739808
 70
 11952
 72
     1
 73
     0
 74
     0
  7

 75
     0
147
0.1148885871608098
 76
     0
 77
     2
 78
   300
148
0.0
149
0.0
100
AcDbLayout
  1
Model
 70
     1
 71
     0
 10
0.0
 20
0.0
 11
12.0
 21
9.0
 12
0.0
 22
0.0
 32
0.0
 14
0.0
 24
0.0
 34
0.0
 15
0.0
 25
0.0
 35
0.0
146
0.0
 13
0.0
 23
0.0
 33
0.0
 16
1.0
 26
0.0
 36
0.0
 17
0.0
 27
1.0
 37
0.0
 76
     0
330
1F
331
EA
1001
ACAD_PSEXT
1000
None
1000
None
1000
Not applicable
1000
The layout will not be plotted unless a new plotter configuration name is selected.
1070
     0
  0
MATERIAL
  5
ED
102
{ACAD_XDICTIONARY
360
7F6
102
}
102
{ACAD_REACTORS
330
6A
102
}
330
6A
100
AcDbMaterial
  1
ByBlock
  0
MATERIAL
  5
EC
102
{ACAD_XDICTIONARY
360
7F4
102
}
102
{ACAD_REACTORS
330
6A
102
}
330
6A
100
AcDbMaterial
  1
ByLayer
  0
MATERIAL
  5
EE
102
{ACAD_XDICTIONARY
360
173
102
}
102
{ACAD_REACTORS
330
6A
102
}
330
6A
100
AcDbMaterial
  1
Global
 43
0.0007999999797903
 43
0.0
 43
0.0
 43
0.0
 43
0.0
 43
0.0007999999797903
 43
0.0
 43
0.0
 43
0.0
 43
0.0
 43
1.0
 43
0.0
 43
0.0
 43
0.0
 43
0.0
 43
1.0
 49
0.0007999999797903
 49
0.0
 49
0.0
 49
0.0
 49
0.0
 49
0.0007999999797903
 49
0.0
 49
0.0
 49
0.0
 49
0.0
 49
1.0
 49
0.0
 49
0.0
 49
0.0
 49
0.0
 49
1.0
142
0.0007999999797903
142
0.0
142
0.0
142
0.0
142
0.0
142
0.0007999999797903
142
0.0
142
0.0
142
0.0
142
0.0
142
1.0
142
0.0
142
0.0
142
0.0
142
0.0
142
1.0
144
0.0007999999797903
144
0.0
144
0.0
144
0.0
144
0.0
144
0.0007999999797903
144
0.0
144
0.0
144
0.0
144
0.0
144
1.0
144
0.0
144
0.0
144
0.0
144
0.0
144
1.0
1001
ACAD
1070
    -1
1070
     3
1070
     0
1000

1071
        0
1070
     0
  0
MLEADERSTYLE
  5
13B
102
{ACAD_REACTORS
330
12D
102
}
330
12D
100
AcDbMLeaderStyle
170
     2
171
     1
172
     0
 90
        2
 40
0.0
 41
0.0
173
     1
 91
-1056964608
340
14
 92
       -2
290
     1
 42
2.0
291
     1
 43
8.0
  3
Standard
 44
4.0
300

342
11
174
     1
178
     1
175
     1
176
     0
 93
-1056964608
 45
4.0
292
     0
297
     0
 46
4.0
 94
-1056964608
 47
1.0
 49
1.0
140
1.0
293
     1
141
0.0
294
     1
177
     0
142
1.0
295
     0
296
     1
143
3.75
1001
ACAD_MLEADERVER
1070
     2
  0
MLEADERSTYLE
  5
12E
102
{ACAD_REACTORS
330
12D
102
}
330
12D
100
AcDbMLeaderStyle
170
     2
171
     1
172
     0
 90
        2
 40
0.0
 41
0.0
173
     1
 91
-1056964608
340
14
 92
       -2
290
     1
 42
2.0
291
     1
 43
8.0
  3
Standard
 44
4.0
300

342
11
174
     1
178
     1
175
     1
176
     0
 93
-1056964608
 45
4.0
292
     0
297
     0
 46
4.0
 94
-1056964608
 47
1.0
 49
1.0
140
1.0
293
     1
141
0.0
294
     1
177
     0
142
1.0
295
     0
296
     0
143
3.75
1001
ACAD_MLEADERVER
1070
     2
  0
MLINESTYLE
  5
18
102
{ACAD_REACTORS
330
17
102
}
330
17
100
AcDbMlineStyle
  2
STANDARD
 70
     0
  3

 62
   256
 51
90.0
 52
90.0
 71
     2
 49
0.5
 62
   256
  6
BYLAYER
 49
-0.5
 62
   256
  6
BYLAYER
  0
ACDBPLACEHOLDER
  5
F
102
{ACAD_REACTORS
330
E
102
}
330
E
  0
SCALE
  5
10D
102
{ACAD_REACTORS
330
10C
102
}
330
10C
100
AcDbScale
 70
     0
300
1:1
140
1.0
141
1.0
290
     1
  0
SCALE
  5
1BE
102
{ACAD_REACTORS
330
10C
102
}
330
10C
100
AcDbScale
 70
     0
300
1:2
140
1.0
141
2.0
290
     0
  0
SCALE
  5
1BF
102
{ACAD_REACTORS
330
10C
102
}
330
10C
100
AcDbScale
 70
     0
300
1:4
140
1.0
141
4.0
290
     0
  0
SCALE
  5
1C0
102
{ACAD_REACTORS
330
10C
102
}
330
10C
100
AcDbScale
 70
     0
300
1:5
140
1.0
141
5.0
290
     0
  0
SCALE
  5
1C1
102
{ACAD_REACTORS
330
10C
102
}
330
10C
100
AcDbScale
 70
     0
300
1:8
140
1.0
141
8.0
290
     0
  0
SCALE
  5
1C2
102
{ACAD_REACTORS
330
10C
102
}
330
10C
100
AcDbScale
 70
     0
300
1:10
140
1.0
141
10.0
290
     0
  0
SCALE
  5
1C3
102
{ACAD_REACTORS
330
10C
102
}
330
10C
100
AcDbScale
 70
     0
300
1:16
140
1.0
141
16.0
290
     0
  0
SCALE
  5
1C4
102
{ACAD_REACTORS
330
10C
102
}
330
10C
100
AcDbScale
 70
     0
300
1:20
140
1.0
141
20.0
290
     0
  0
SCALE
  5
1C5
102
{ACAD_REACTORS
330
10C
102
}
330
10C
100
AcDbScale
 70
     0
300
1:30
140
1.0
141
30.0
290
     0
  0
SCALE
  5
1C6
102
{ACAD_REACTORS
330
10C
102
}
330
10C
100
AcDbScale
 70
     0
300
1:40
140
1.0
141
40.0
290
     0
  0
SCALE
  5
1C7
102
{ACAD_REACTORS
330
10C
102
}
330
10C
100
AcDbScale
 70
     0
300
1:50
140
1.0
141
50.0
290
     0
  0
SCALE
  5
1C8
102
{ACAD_REACTORS
330
10C
102
}
330
10C
100
AcDbScale
 70
     0
300
1:100
140
1.0
141
100.0
290
     0
  0
SCALE
  5
1C9
102
{ACAD_REACTORS
330
10C
102
}
330
10C
100
AcDbScale
 70
     0
300
2:1
140
2.0
141
1.0
290
     0
  0
SCALE
  5
1CA
102
{ACAD_REACTORS
330
10C
102
}
330
10C
100
AcDbScale
 70
     0
300
4:1
140
4.0
141
1.0
290
     0
  0
SCALE
  5
1CB
102
{ACAD_REACTORS
330
10C
102
}
330
10C
100
AcDbScale
 70
     0
300
8:1
140
8.0
141
1.0
290
     0
  0
SCALE
  5
1CC
102
{ACAD_REACTORS
330
10C
102
}
330
10C
100
AcDbScale
 70
     0
300
10:1
140
10.0
141
1.0
290
     0
  0
SCALE
  5
1CD
102
{ACAD_REACTORS
330
10C
102
}
330
10C
100
AcDbScale
 70
     0
300
100:1
140
100.0
141
1.0
290
     0
  0
TABLESTYLE
  5
7F
102
{ACAD_XDICTIONARY
360
162
102
}
102
{ACAD_REACTORS
330
7E
102
}
330
7E
100
AcDbTableStyle
  3
Standard
 70
     0
 71
     0
 40
1.5
 41
1.5
280
     0
281
     0
  7
Standard
140
4.5
170
     2
 62
     0
 63
     7
283
     0
274
    -2
284
     1
 64
     0
275
    -2
285
     1
 65
     0
276
    -2
286
     1
 66
     0
277
    -2
287
     1
 67
     0
278
    -2
288
     1
 68
     0
279
    -2
289
     1
 69
     0
  7
Standard
140
6.0
170
     5
 62
     0
 63
     7
283
     0
274
    -2
284
     1
 64
     0
275
    -2
285
     1
 65
     0
276
    -2
286
     1
 66
     0
277
    -2
287
     1
 67
     0
278
    -2
288
     1
 68
     0
279
    -2
289
     1
 69
     0
  7
Standard
140
4.5
170
     5
 62
     0
 63
     7
283
     0
274
    -2
284
     1
 64
     0
275
    -2
285
     1
 65
     0
276
    -2
286
     1
 66
     0
277
    -2
287
     1
 67
     0
278
    -2
288
     1
 68
     0
279
    -2
289
     1
 69
     0
  0
VISUALSTYLE
  5
F5
102
{ACAD_XDICTIONARY
360
803
102
}
102
{ACAD_REACTORS
330
EF
102
}
330
EF
100
AcDbVisualStyle
  2
2dWireframe
 70
     4
 71
     0
 72
     2
 73
     1
 90
        0
 40
-0.6
 41
-30.0
 62
     5
 63
     7
421
 16777215
 74
     1
 91
        4
 64
     7
 65
   257
 75
     1
175
     1
 42
1.0
 92
        0
 66
   257
 43
1.0
 76
     1
 77
     6
 78
     2
 67
     7
 79
     5
170
     0
171
     0
290
     0
174
     0
 93
        1
 44
0.0
173
     0
291
     0
 45
0.0
1001
ACAD
1000
AcDbSavedByObjectVersion
1070
     0
  0
VISUALSTYLE
  5
F7
102
{ACAD_XDICTIONARY
360
807
102
}
102
{ACAD_REACTORS
330
EF
102
}
330
EF
100
AcDbVisualStyle
  2
3D Hidden
 70
     6
 71
     1
 72
     2
 73
     2
 90
        0
 40
-0.6
 41
-30.0
 62
     5
 63
     7
421
 16777215
 74
     2
 91
        2
 64
     7
 65
   257
 75
     2
175
     1
 42
40.0
 92
        0
 66
   257
 43
1.0
 76
     1
 77
     6
 78
     2
 67
     7
 79
     3
170
     0
171
     0
290
     0
174
     0
 93
        1
 44
0.0
173
     0
291
     0
 45
0.0
1001
ACAD
1000
AcDbSavedByObjectVersion
1070
     0
  0
VISUALSTYLE
  5
F6
102
{ACAD_XDICTIONARY
360
805
102
}
102
{ACAD_REACTORS
330
EF
102
}
330
EF
100
AcDbVisualStyle
  2
3dWireframe
 70
     5
 71
     0
 72
     2
 73
     1
 90
        0
 40
-0.6
 41
-30.0
 62
     5
 63
     7
421
 16777215
 74
     1
 91
        4
 64
     7
 65
   257
 75
     1
175
     1
 42
1.0
 92
        0
 66
   257
 43
1.0
 76
     1
 77
     6
 78
     2
 67
     7
 79
     5
170
     0
171
     0
290
     0
174
     0
 93
        1
 44
0.0
173
     0
291
     0
 45
0.0
1001
ACAD
1000
AcDbSavedByObjectVersion
1070
     0
  0
VISUALSTYLE
  5
F4
102
{ACAD_XDICTIONARY
360
801
102
}
102
{ACAD_REACTORS
330
EF
102
}
330
EF
100
AcDbVisualStyle
  2
Basic
 70
     7
 71
     1
 72
     0
 73
     1
 90
        0
 40
-0.6
 41
-30.0
 62
     5
 63
     7
421
 16777215
 74
     0
 91
        4
 64
     7
 65
   257
 75
     1
175
     1
 42
1.0
 92
        8
 66
     7
 43
1.0
 76
     1
 77
     6
 78
     2
 67
     7
 79
     5
170
     0
171
     0
290
     0
174
     0
 93
        1
 44
0.0
173
     0
291
     1
 45
0.0
1001
ACAD
1000
AcDbSavedByObjectVersion
1070
     0
  0
VISUALSTYLE
  5
FB
102
{ACAD_XDICTIONARY
360
80F
102
}
102
{ACAD_REACTORS
330
EF
102
}
330
EF
100
AcDbVisualStyle
  2
Brighten
 70
    12
 71
     2
 72
     2
 73
     1
 90
        0
 40
-0.6
 41
-30.0
 62
     5
 63
     7
421
 16777215
 74
     1
 91
        4
 64
     7
 65
   257
 75
     1
175
     1
 42
1.0
 92
        8
 66
     7
 43
1.0
 76
     1
 77
     6
 78
     2
 67
     7
 79
     5
170
     0
171
     0
290
     0
174
     0
 93
        1
 44
50.0
173
     0
291
     1
 45
0.0
1001
ACAD
1000
AcDbSavedByObjectVersion
1070
     0
  0
VISUALSTYLE
  5
FF
102
{ACAD_XDICTIONARY
360
817
102
}
102
{ACAD_REACTORS
330
EF
102
}
330
EF
100
AcDbVisualStyle
  2
ColorChange
 70
    16
 71
     2
 72
     2
 73
     3
 90
        0
 40
-0.6
 41
-30.0
 62
     5
 63
     8
421
  8421504
 74
     1
 91
        4
 64
     7
 65
   257
 75
     1
175
     1
 42
1.0
 92
        8
 66
     8
424
  8421504
 43
1.0
 76
     1
 77
     6
 78
     2
 67
     7
 79
     5
170
     0
171
     0
290
     0
174
     0
 93
        1
 44
0.0
173
     0
291
     1
 45
0.0
1001
ACAD
1000
AcDbSavedByObjectVersion
1070
     0
  0
VISUALSTYLE
  5
F8
102
{ACAD_XDICTIONARY
360
809
102
}
102
{ACAD_REACTORS
330
EF
102
}
330
EF
100
AcDbVisualStyle
  2
Conceptual
 70
     9
 71
     3
 72
     2
 73
     1
 90
        0
 40
-0.6
 41
-30.0
 62
     5
 63
     7
421
 16777215
 74
     2
 91
        2
 64
     7
 65
   257
 75
     1
175
     1
 42
40.0
 92
        8
 66
     7
 43
1.0
 76
     1
 77
     6
 78
     2
 67
     7
 79
     3
170
     0
171
     0
290
     0
174
     0
 93
        1
 44
0.0
173
     0
291
     0
 45
0.0
1001
ACAD
1000
AcDbSavedByObjectVersion
1070
     0
  0
VISUALSTYLE
  5
FA
102
{ACAD_XDICTIONARY
360
80D
102
}
102
{ACAD_REACTORS
330
EF
102
}
330
EF
100
AcDbVisualStyle
  2
Dim
 70
    11
 71
     2
 72
     2
 73
     1
 90
        0
 40
-0.6
 41
-30.0
 62
     5
 63
     7
421
 16777215
 74
     1
 91
        4
 64
     7
 65
   257
 75
     1
175
     1
 42
1.0
 92
        8
 66
     7
 43
1.0
 76
     1
 77
     6
 78
     2
 67
     7
 79
     5
170
     0
171
     0
290
     0
174
     0
 93
        1
 44
-50.0
173
     0
291
     1
 45
0.0
1001
ACAD
1000
AcDbSavedByObjectVersion
1070
     0
  0
VISUALSTYLE
  5
1E6
102
{ACAD_XDICTIONARY
360
81D
102
}
102
{ACAD_REACTORS
330
EF
102
}
330
EF
100
AcDbVisualStyle
  2
EdgeColorOff
 70
    22
 71
     2
 72
     2
 73
     0
 90
        0
 40
-0.6
 41
-30.0
 62
     5
 63
     7
421
 16777215
 74
     1
 91
        4
 64
     7
 65
   257
 75
     1
175
     1
 42
1.0
 92
        8
 66
     7
 43
1.0
 76
     1
 77
     6
 78
     2
 67
     7
 79
     5
170
     0
171
     0
290
     0
174
     0
 93
        1
 44
0.0
173
     0
291
     1
 45
0.0
1001
ACAD
1000
AcDbSavedByObjectVersion
1070
     0
  0
VISUALSTYLE
  5
FE
102
{ACAD_XDICTIONARY
360
815
102
}
102
{ACAD_REACTORS
330
EF
102
}
330
EF
100
AcDbVisualStyle
  2
Facepattern
 70
    15
 71
     2
 72
     2
 73
     1
 90
        0
 40
-0.6
 41
-30.0
 62
     5
 63
     7
421
 16777215
 74
     1
 91
        4
 64
     7
 65
   257
 75
     1
175
     1
 42
1.0
 92
        8
 66
     7
 43
1.0
 76
     1
 77
     6
 78
     2
 67
     7
 79
     5
170
     0
171
     0
290
     0
174
     0
 93
        1
 44
0.0
173
     0
291
     1
 45
0.0
1001
ACAD
1000
AcDbSavedByObjectVersion
1070
     0
  0
VISUALSTYLE
  5
F0
102
{ACAD_XDICTIONARY
360
7F9
102
}
102
{ACAD_REACTORS
330
EF
102
}
330
EF
100
AcDbVisualStyle
  2
Flat
 70
     0
 71
     2
 72
     1
 73
     1
 90
        2
 40
-0.6
 41
30.0
 62
     5
 63
     7
421
 16777215
 74
     0
 91
        4
 64
     7
 65
   257
 75
     1
175
     1
 42
1.0
 92
        8
 66
     7
 43
1.0
 76
     1
 77
     6
 78
     2
 67
     7
 79
     5
170
     0
171
     0
290
     0
174
     0
 93
        1
 44
0.0
173
     0
291
     1
 45
0.0
1001
ACAD
1000
AcDbSavedByObjectVersion
1070
     0
  0
VISUALSTYLE
  5
F1
102
{ACAD_XDICTIONARY
360
7FB
102
}
102
{ACAD_REACTORS
330
EF
102
}
330
EF
100
AcDbVisualStyle
  2
FlatWithEdges
 70
     1
 71
     2
 72
     1
 73
     1
 90
        2
 40
-0.6
 41
30.0
 62
     5
 63
     7
421
 16777215
 74
     1
 91
        4
 64
     7
 65
   257
 75
     1
175
     1
 42
1.0
 92
        0
 66
   257
 43
1.0
 76
     1
 77
     6
 78
     2
 67
     7
 79
     5
170
     0
171
     0
290
     0
174
     0
 93
        1
 44
0.0
173
     0
291
     1
 45
0.0
1001
ACAD
1000
AcDbSavedByObjectVersion
1070
     0
  0
VISUALSTYLE
  5
F2
102
{ACAD_XDICTIONARY
360
7FD
102
}
102
{ACAD_REACTORS
330
EF
102
}
330
EF
100
AcDbVisualStyle
  2
Gouraud
 70
     2
 71
     2
 72
     2
 73
     1
 90
        2
 40
-0.6
 41
30.0
 62
     5
 63
     7
421
 16777215
 74
     0
 91
        4
 64
     7
 65
   257
 75
     1
175
     1
 42
1.0
 92
        0
 66
     7
 43
1.0
 76
     1
 77
     6
 78
     2
 67
     7
 79
     5
170
     0
171
     0
290
     0
174
     0
 93
        1
 44
0.0
173
     0
291
     1
 45
0.0
1001
ACAD
1000
AcDbSavedByObjectVersion
1070
     0
  0
VISUALSTYLE
  5
F3
102
{ACAD_XDICTIONARY
360
7FF
102
}
102
{ACAD_REACTORS
330
EF
102
}
330
EF
100
AcDbVisualStyle
  2
GouraudWithEdges
 70
     3
 71
     2
 72
     2
 73
     1
 90
        2
 40
-0.6
 41
30.0
 62
     5
 63
     7
421
 16777215
 74
     1
 91
        4
 64
     7
 65
   257
 75
     1
175
     1
 42
1.0
 92
        0
 66
   257
 43
1.0
 76
     1
 77
     6
 78
     2
 67
     7
 79
     5
170
     0
171
     0
290
     0
174
     0
 93
        1
 44
0.0
173
     0
291
     1
 45
0.0
1001
ACAD
1000
AcDbSavedByObjectVersion
1070
     0
  0
VISUALSTYLE
  5
1E4
102
{ACAD_XDICTIONARY
360
819
102
}
102
{ACAD_REACTORS
330
EF
102
}
330
EF
100
AcDbVisualStyle
  2
JitterOff
 70
    20
 71
     2
 72
     2
 73
     0
 90
        0
 40
-0.6
 41
-30.0
 62
     5
 63
     7
421
 16777215
 74
     1
 91
        4
 64
     7
 65
   257
 75
     1
175
     1
 42
1.0
 92
       10
 66
     7
 43
1.0
 76
     1
 77
     6
 78
     2
 67
     7
 79
     5
170
     0
171
     0
290
     0
174
     0
 93
        1
 44
0.0
173
     0
291
     1
 45
0.0
1001
ACAD
1000
AcDbSavedByObjectVersion
1070
     0
  0
VISUALSTYLE
  5
FD
102
{ACAD_XDICTIONARY
360
813
102
}
102
{ACAD_REACTORS
330
EF
102
}
330
EF
100
AcDbVisualStyle
  2
Linepattern
 70
    14
 71
     2
 72
     2
 73
     1
 90
        0
 40
-0.6
 41
-30.0
 62
     5
 63
     7
421
 16777215
 74
     1
 91
        4
 64
     7
 65
   257
 75
     7
175
     7
 42
1.0
 92
        8
 66
     7
 43
1.0
 76
     1
 77
     6
 78
     2
 67
     7
 79
     5
170
     0
171
     0
290
     0
174
     0
 93
        1
 44
0.0
173
     0
291
     1
 45
0.0
1001
ACAD
1000
AcDbSavedByObjectVersion
1070
     0
  0
VISUALSTYLE
  5
1E5
102
{ACAD_XDICTIONARY
360
81B
102
}
102
{ACAD_REACTORS
330
EF
102
}
330
EF
100
AcDbVisualStyle
  2
OverhangOff
 70
    21
 71
     2
 72
     2
 73
     0
 90
        0
 40
-0.6
 41
-30.0
 62
     5
 63
     7
421
 16777215
 74
     1
 91
        4
 64
     7
 65
   257
 75
     1
175
     1
 42
1.0
 92
        9
 66
     7
 43
1.0
 76
     1
 77
     6
 78
     2
 67
     7
 79
     5
170
     0
171
     0
290
     0
174
     0
 93
        1
 44
0.0
173
     0
291
     1
 45
0.0
1001
ACAD
1000
AcDbSavedByObjectVersion
1070
     0
  0
VISUALSTYLE
  5
F9
102
{ACAD_XDICTIONARY
360
80B
102
}
102
{ACAD_REACTORS
330
EF
102
}
330
EF
100
AcDbVisualStyle
  2
Realistic
 70
     8
 71
     2
 72
     2
 73
     1
 90
        0
 40
-0.6
 41
-30.0
 62
     5
 63
     7
421
 16777215
 74
     1
 91
        0
 64
     7
 65
   257
 75
     1
175
     1
 42
1.0
 92
        8
 66
     8
424
  7895160
 43
1.0
 76
     1
 77
     6
 78
     2
 67
     7
 79
     5
170
     0
171
     0
290
     0
174
     0
 93
       13
 44
0.0
173
     0
291
     0
 45
0.0
1001
ACAD
1000
AcDbSavedByObjectVersion
1070
     0
  0
VISUALSTYLE
  5
FC
102
{ACAD_XDICTIONARY
360
811
102
}
102
{ACAD_REACTORS
330
EF
102
}
330
EF
100
AcDbVisualStyle
  2
Thicken
 70
    13
 71
     2
 72
     2
 73
     1
 90
        0
 40
-0.6
 41
-30.0
 62
     5
 63
     7
421
 16777215
 74
     1
 91
        4
 64
     7
 65
   257
 75
     1
175
     1
 42
1.0
 92
       12
 66
     7
 43
1.0
 76
     1
 77
     6
 78
     2
 67
     7
 79
     5
170
     0
171
     0
290
     0
174
     0
 93
        1
 44
0.0
173
     0
291
     1
 45
0.0
1001
ACAD
1000
AcDbSavedByObjectVersion
1070
     0
  0
DICTIONARYVAR
  5
146
102
{ACAD_REACTORS
330
5E
102
}
330
5E
100
DictionaryVariables
280
     0
  1
1:1
  0
DICTIONARYVAR
  5
145
102
{ACAD_REACTORS
330
5E
102
}
330
5E
100
DictionaryVariables
280
     0
  1
STANDARD
  0
DICTIONARYVAR
  5
84
102
{ACAD_REACTORS
330
5E
102
}
330
5E
100
DictionaryVariables
280
     0
  1
STANDARD
  0
DICTIONARYVAR
  5
5F
102
{ACAD_REACTORS
330
5E
102
}
330
5E
100
DictionaryVariables
280
     0
  1
2
  0
DICTIONARYVAR
  5
63
102
{ACAD_REACTORS
330
5E
102
}
330
5E
100
DictionaryVariables
280
     0
  1
1
  0
DICTIONARYVAR
  5
1AE
102
{ACAD_REACTORS
330
5E
102
}
330
5E
100
DictionaryVariables
280
     0
  1
0
  0
DICTIONARYVAR
  5
1AF
102
{ACAD_REACTORS
330
5E
102
}
330
5E
100
DictionaryVariables
280
     0
  1
0
  0
DICTIONARYVAR
  5
7ED
102
{ACAD_REACTORS
330
5E
102
}
330
5E
100
DictionaryVariables
280
     0
  1
2
  0
DICTIONARYVAR
  5
7EC
102
{ACAD_REACTORS
330
5E
102
}
330
5E
100
DictionaryVariables
280
     0
  1
1
  0
DICTIONARYVAR
  5
7EF
102
{ACAD_REACTORS
330
5E
102
}
330
5E
100
DictionaryVariables
280
     0
  1
80.000000
  0
DICTIONARYVAR
  5
7EE
102
{ACAD_REACTORS
330
5E
102
}
330
5E
100
DictionaryVariables
280
     0
  1
5.000000
  0
DICTIONARYVAR
  5
7F0
102
{ACAD_REACTORS
330
5E
102
}
330
5E
100
DictionaryVariables
280
     0
  1
2
  0
DICTIONARY
  5
7F6
330
ED
100
AcDbDictionary
280
     1
281
     1
  3
ACAD_XREC_ROUNDTRIP
360
7F7
  0
DICTIONARY
  5
7F4
330
EC
100
AcDbDictionary
280
     1
281
     1
  3
ACAD_XREC_ROUNDTRIP
360
7F5
  0
DICTIONARY
  5
173
330
EE
100
AcDbDictionary
280
     1
281
     1
  3
ACAD_XREC_ROUNDTRIP
360
7F8
  3
BUMPTILE
360
175
  3
DIFFUSETILE
360
174
  3
OPACITYTILE
360
176
  3
REFLECTIONTILE
360
177
  0
DICTIONARY
  5
162
330
7F
100
AcDbDictionary
280
     1
281
     1
  3
ACAD_ROUNDTRIP_2008_TABLESTYLE_CELLSTYLEMAP
360
7F1
  3
ACAD_XREC_ROUNDTRIP
360
7F3
  0
DICTIONARY
  5
803
330
F5
100
AcDbDictionary
280
     1
281
     1
  3
ACAD_XREC_ROUNDTRIP
360
804
  0
DICTIONARY
  5
807
330
F7
100
AcDbDictionary
280
     1
281
     1
  3
ACAD_XREC_ROUNDTRIP
360
808
  0
DICTIONARY
  5
805
330
F6
100
AcDbDictionary
280
     1
281
     1
  3
ACAD_XREC_ROUNDTRIP
360
806
  0
DICTIONARY
  5
801
330
F4
100
AcDbDictionary
280
     1
281
     1
  3
ACAD_XREC_ROUNDTRIP
360
802
  0
DICTIONARY
  5
80F
330
FB
100
AcDbDictionary
280
     1
281
     1
  3
ACAD_XREC_ROUNDTRIP
360
810
  0
DICTIONARY
  5
817
330
FF
100
AcDbDictionary
280
     1
281
     1
  3
ACAD_XREC_ROUNDTRIP
360
818
  0
DICTIONARY
  5
809
330
F8
100
AcDbDictionary
280
     1
281
     1
  3
ACAD_XREC_ROUNDTRIP
360
80A
  0
DICTIONARY
  5
80D
330
FA
100
AcDbDictionary
280
     1
281
     1
  3
ACAD_XREC_ROUNDTRIP
360
80E
  0
DICTIONARY
  5
81D
330
1E6
100
AcDbDictionary
280
     1
281
     1
  3
ACAD_XREC_ROUNDTRIP
360
81E
  0
DICTIONARY
  5
815
330
FE
100
AcDbDictionary
280
     1
281
     1
  3
ACAD_XREC_ROUNDTRIP
360
816
  0
DICTIONARY
  5
7F9
330
F0
100
AcDbDictionary
280
     1
281
     1
  3
ACAD_XREC_ROUNDTRIP
360
7FA
  0
DICTIONARY
  5
7FB
330
F1
100
AcDbDictionary
280
     1
281
     1
  3
ACAD_XREC_ROUNDTRIP
360
7FC
  0
DICTIONARY
  5
7FD
330
F2
100
AcDbDictionary
280
     1
281
     1
  3
ACAD_XREC_ROUNDTRIP
360
7FE
  0
DICTIONARY
  5
7FF
330
F3
100
AcDbDictionary
280
     1
281
     1
  3
ACAD_XREC_ROUNDTRIP
360
800
  0
DICTIONARY
  5
819
330
1E4
100
AcDbDictionary
280
     1
281
     1
  3
ACAD_XREC_ROUNDTRIP
360
81A
  0
DICTIONARY
  5
813
330
FD
100
AcDbDictionary
280
     1
281
     1
  3
ACAD_XREC_ROUNDTRIP
360
814
  0
DICTIONARY
  5
81B
330
1E5
100
AcDbDictionary
280
     1
281
     1
  3
ACAD_XREC_ROUNDTRIP
360
81C
  0
DICTIONARY
  5
80B
330
F9
100
AcDbDictionary
280
     1
281
     1
  3
ACAD_XREC_ROUNDTRIP
360
80C
  0
DICTIONARY
  5
811
330
FC
100
AcDbDictionary
280
     1
281
     1
  3
ACAD_XREC_ROUNDTRIP
360
812
  0
XRECORD
  5
7F7
102
{ACAD_REACTORS
330
7F6
102
}
330
7F6
100
AcDbXrecord
280
     1
102
MATERIAL
148
0.0
149
0.0
149
0.0
 93
        0
 94
       63
282
     0
 72
     1
 77
     1
171
     1
175
     1
179
     1
273
     0
  0
XRECORD
  5
7F5
102
{ACAD_REACTORS
330
7F4
102
}
330
7F4
100
AcDbXrecord
280
     1
102
MATERIAL
148
0.0
149
0.0
149
0.0
 93
        0
 94
       63
282
     0
 72
     1
 77
     1
171
     1
175
     1
179
     1
273
     0
  0
XRECORD
  5
7F8
102
{ACAD_REACTORS
330
173
102
}
330
173
100
AcDbXrecord
280
     1
102
MATERIAL
148
0.0
149
0.0
149
0.0
 93
        0
 94
       63
282
     0
 72
     1
 77
     1
171
     1
175
     1
179
     1
273
     0
  0
XRECORD
  5
175
102
{ACAD_REACTORS
330
173
102
}
330
173
100
AcDbXrecord
280
     1
270
     1
271
     1
  0
XRECORD
  5
174
102
{ACAD_REACTORS
330
173
102
}
330
173
100
AcDbXrecord
280
     1
270
     1
271
     1
  0
XRECORD
  5
176
102
{ACAD_REACTORS
330
173
102
}
330
173
100
AcDbXrecord
280
     1
270
     1
271
     1
  0
XRECORD
  5
177
102
{ACAD_REACTORS
330
173
102
}
330
173
100
AcDbXrecord
280
     1
270
     1
271
     1
  0
CELLSTYLEMAP
  5
7F1
102
{ACAD_REACTORS
330
162
102
}
330
162
100
AcDbCellStyleMap
 90
        3
300
CELLSTYLE
  1
TABLEFORMAT_BEGIN
 90
        5
170
     1
 91
        0
 92
    32768
 62
   257
 93
        1
300
CONTENTFORMAT
  1
CONTENTFORMAT_BEGIN
 90
        0
 91
        0
 92
      512
 93
        0
300

 40
0.0
140
1.0
 94
        5
 62
     0
340
11
144
6.0
309
CONTENTFORMAT_END
171
     1
301
MARGIN
  1
CELLMARGIN_BEGIN
 40
1.5
 40
1.5
 40
1.5
 40
1.5
 40
4.5
 40
4.5
309
CELLMARGIN_END
 94
        6
 95
        1
302
GRIDFORMAT
  1
GRIDFORMAT_BEGIN
 90
        0
 91
        1
 62
     0
 92
       -2
340
14
 93
        0
 40
1.125
309
GRIDFORMAT_END
 95
        2
302
GRIDFORMAT
  1
GRIDFORMAT_BEGIN
 90
        0
 91
        1
 62
     0
 92
       -2
340
14
 93
        0
 40
1.125
309
GRIDFORMAT_END
 95
        4
302
GRIDFORMAT
  1
GRIDFORMAT_BEGIN
 90
        0
 91
        1
 62
     0
 92
       -2
340
14
 93
        0
 40
1.125
309
GRIDFORMAT_END
 95
        8
302
GRIDFORMAT
  1
GRIDFORMAT_BEGIN
 90
        0
 91
        1
 62
     0
 92
       -2
340
14
 93
        0
 40
1.125
309
GRIDFORMAT_END
 95
       16
302
GRIDFORMAT
  1
GRIDFORMAT_BEGIN
 90
        0
 91
        1
 62
     0
 92
       -2
340
14
 93
        0
 40
1.125
309
GRIDFORMAT_END
 95
       32
302
GRIDFORMAT
  1
GRIDFORMAT_BEGIN
 90
        0
 91
        1
 62
     0
 92
       -2
340
14
 93
        0
 40
1.125
309
GRIDFORMAT_END
309
TABLEFORMAT_END
  1
CELLSTYLE_BEGIN
 90
        1
 91
        1
300
_TITLE
309
CELLSTYLE_END
300
CELLSTYLE
  1
TABLEFORMAT_BEGIN
 90
        5
170
     1
 91
        0
 92
        0
 62
   257
 93
        1
300
CONTENTFORMAT
  1
CONTENTFORMAT_BEGIN
 90
        0
 91
        0
 92
      512
 93
        0
300

 40
0.0
140
1.0
 94
        5
 62
     0
340
11
144
4.5
309
CONTENTFORMAT_END
171
     1
301
MARGIN
  1
CELLMARGIN_BEGIN
 40
1.5
 40
1.5
 40
1.5
 40
1.5
 40
4.5
 40
4.5
309
CELLMARGIN_END
 94
        6
 95
        1
302
GRIDFORMAT
  1
GRIDFORMAT_BEGIN
 90
        0
 91
        1
 62
     0
 92
       -2
340
14
 93
        0
 40
1.125
309
GRIDFORMAT_END
 95
        2
302
GRIDFORMAT
  1
GRIDFORMAT_BEGIN
 90
        0
 91
        1
 62
     0
 92
       -2
340
14
 93
        0
 40
1.125
309
GRIDFORMAT_END
 95
        4
302
GRIDFORMAT
  1
GRIDFORMAT_BEGIN
 90
        0
 91
        1
 62
     0
 92
       -2
340
14
 93
        0
 40
1.125
309
GRIDFORMAT_END
 95
        8
302
GRIDFORMAT
  1
GRIDFORMAT_BEGIN
 90
        0
 91
        1
 62
     0
 92
       -2
340
14
 93
        0
 40
1.125
309
GRIDFORMAT_END
 95
       16
302
GRIDFORMAT
  1
GRIDFORMAT_BEGIN
 90
        0
 91
        1
 62
     0
 92
       -2
340
14
 93
        0
 40
1.125
309
GRIDFORMAT_END
 95
       32
302
GRIDFORMAT
  1
GRIDFORMAT_BEGIN
 90
        0
 91
        1
 62
     0
 92
       -2
340
14
 93
        0
 40
1.125
309
GRIDFORMAT_END
309
TABLEFORMAT_END
  1
CELLSTYLE_BEGIN
 90
        2
 91
        1
300
_HEADER
309
CELLSTYLE_END
300
CELLSTYLE
  1
TABLEFORMAT_BEGIN
 90
        5
170
     1
 91
        0
 92
        0
 62
   257
 93
        1
300
CONTENTFORMAT
  1
CONTENTFORMAT_BEGIN
 90
        0
 91
        0
 92
      512
 93
        0
300

 40
0.0
140
1.0
 94
        2
 62
     0
340
11
144
4.5
309
CONTENTFORMAT_END
171
     1
301
MARGIN
  1
CELLMARGIN_BEGIN
 40
1.5
 40
1.5
 40
1.5
 40
1.5
 40
4.5
 40
4.5
309
CELLMARGIN_END
 94
        6
 95
        1
302
GRIDFORMAT
  1
GRIDFORMAT_BEGIN
 90
        0
 91
        1
 62
     0
 92
       -2
340
14
 93
        0
 40
1.125
309
GRIDFORMAT_END
 95
        2
302
GRIDFORMAT
  1
GRIDFORMAT_BEGIN
 90
        0
 91
        1
 62
     0
 92
       -2
340
14
 93
        0
 40
1.125
309
GRIDFORMAT_END
 95
        4
302
GRIDFORMAT
  1
GRIDFORMAT_BEGIN
 90
        0
 91
        1
 62
     0
 92
       -2
340
14
 93
        0
 40
1.125
309
GRIDFORMAT_END
 95
        8
302
GRIDFORMAT
  1
GRIDFORMAT_BEGIN
 90
        0
 91
        1
 62
     0
 92
       -2
340
14
 93
        0
 40
1.125
309
GRIDFORMAT_END
 95
       16
302
GRIDFORMAT
  1
GRIDFORMAT_BEGIN
 90
        0
 91
        1
 62
     0
 92
       -2
340
14
 93
        0
 40
1.125
309
GRIDFORMAT_END
 95
       32
302
GRIDFORMAT
  1
GRIDFORMAT_BEGIN
 90
        0
 91
        1
 62
     0
 92
       -2
340
14
 93
        0
 40
1.125
309
GRIDFORMAT_END
309
TABLEFORMAT_END
  1
CELLSTYLE_BEGIN
 90
        3
 91
        2
300
_DATA
309
CELLSTYLE_END
  0
XRECORD
  5
7F3
102
{ACAD_REACTORS
330
162
102
}
330
162
100
AcDbXrecord
280
     1
102
ACAD_ROUNDTRIP_PRE2007_TABLESTYLE
 90
      512
 91
        0
  1

 92
      512
 93
        0
  2

 94
      512
 95
        0
  3

  0
XRECORD
  5
804
102
{ACAD_REACTORS
330
803
102
}
330
803
100
AcDbXrecord
280
     1
102
RTVSPropertyOp0
 70
     1
102
RTVSPropertyOp1
 70
     1
102
RTVSPropertyOp2
 70
     1
102
RTVSPropertyOp3
 70
     1
102
RTVSPropertyOp4
 70
     1
102
RTVSPropertyOp5
 70
     1
102
RTVSPropertyOp6
 70
     1
102
RTVSPropertyOp7
 70
     1
102
RTVSPropertyOp8
 70
     1
102
RTVSPropertyOp9
 70
     1
102
RTVSPropertyOp10
 70
     1
102
RTVSPropertyOp11
 70
     1
102
RTVSPropertyOp12
 70
     1
102
RTVSPropertyOp13
 70
     1
102
RTVSPropertyOp14
 70
     1
102
RTVSPropertyOp15
 70
     1
102
RTVSPropertyOp16
 70
     1
102
RTVSPropertyOp17
 70
     1
102
RTVSPropertyOp18
 70
     1
102
RTVSPropertyOp19
 70
     1
102
RTVSPropertyOp20
 70
     1
102
RTVSPropertyOp21
 70
     1
102
RTVSPropertyOp22
 70
     1
102
RTVSPropertyOp23
 70
     1
102
RTVSPropertyOp24
 70
     1
102
RTVSPropertyOp25
 70
     1
102
RTVSPropertyOp26
 70
     1
102
RTVSPropertyOp27
 70
     1
  0
XRECORD
  5
808
102
{ACAD_REACTORS
330
807
102
}
330
807
100
AcDbXrecord
280
     1
102
RTVSPropertyOp0
 70
     1
102
RTVSPropertyOp1
 70
     1
102
RTVSPropertyOp2
 70
     1
102
RTVSPropertyOp3
 70
     1
102
RTVSPropertyOp4
 70
     1
102
RTVSPropertyOp5
 70
     1
102
RTVSPropertyOp6
 70
     1
102
RTVSPropertyOp7
 70
     1
102
RTVSPropertyOp8
 70
     1
102
RTVSPropertyOp9
 70
     1
102
RTVSPropertyOp10
 70
     1
102
RTVSPropertyOp11
 70
     1
102
RTVSPropertyOp12
 70
     1
102
RTVSPropertyOp13
 70
     1
102
RTVSPropertyOp14
 70
     1
102
RTVSPropertyOp15
 70
     1
102
RTVSPropertyOp16
 70
     1
102
RTVSPropertyOp17
 70
     1
102
RTVSPropertyOp18
 70
     1
102
RTVSPropertyOp19
 70
     1
102
RTVSPropertyOp20
 70
     1
102
RTVSPropertyOp21
 70
     1
102
RTVSPropertyOp22
 70
     1
102
RTVSPropertyOp23
 70
     1
102
RTVSPropertyOp24
 70
     1
102
RTVSPropertyOp25
 70
     1
102
RTVSPropertyOp26
 70
     1
102
RTVSPropertyOp27
 70
     1
  0
XRECORD
  5
806
102
{ACAD_REACTORS
330
805
102
}
330
805
100
AcDbXrecord
280
     1
102
RTVSPropertyOp0
 70
     1
102
RTVSPropertyOp1
 70
     1
102
RTVSPropertyOp2
 70
     1
102
RTVSPropertyOp3
 70
     1
102
RTVSPropertyOp4
 70
     1
102
RTVSPropertyOp5
 70
     1
102
RTVSPropertyOp6
 70
     1
102
RTVSPropertyOp7
 70
     1
102
RTVSPropertyOp8
 70
     1
102
RTVSPropertyOp9
 70
     1
102
RTVSPropertyOp10
 70
     1
102
RTVSPropertyOp11
 70
     1
102
RTVSPropertyOp12
 70
     1
102
RTVSPropertyOp13
 70
     1
102
RTVSPropertyOp14
 70
     1
102
RTVSPropertyOp15
 70
     1
102
RTVSPropertyOp16
 70
     1
102
RTVSPropertyOp17
 70
     1
102
RTVSPropertyOp18
 70
     1
102
RTVSPropertyOp19
 70
     1
102
RTVSPropertyOp20
 70
     1
102
RTVSPropertyOp21
 70
     1
102
RTVSPropertyOp22
 70
     1
102
RTVSPropertyOp23
 70
     1
102
RTVSPropertyOp24
 70
     1
102
RTVSPropertyOp25
 70
     1
102
RTVSPropertyOp26
 70
     1
102
RTVSPropertyOp27
 70
     1
  0
XRECORD
  5
802
102
{ACAD_REACTORS
330
801
102
}
330
801
100
AcDbXrecord
280
     1
102
RTVSPropertyOp0
 70
     1
102
RTVSPropertyOp1
 70
     1
102
RTVSPropertyOp2
 70
     1
102
RTVSPropertyOp3
 70
     1
102
RTVSPropertyOp4
 70
     1
102
RTVSPropertyOp5
 70
     1
102
RTVSPropertyOp6
 70
     1
102
RTVSPropertyOp7
 70
     1
102
RTVSPropertyOp8
 70
     1
102
RTVSPropertyOp9
 70
     1
102
RTVSPropertyOp10
 70
     1
102
RTVSPropertyOp11
 70
     1
102
RTVSPropertyOp12
 70
     1
102
RTVSPropertyOp13
 70
     1
102
RTVSPropertyOp14
 70
     1
102
RTVSPropertyOp15
 70
     1
102
RTVSPropertyOp16
 70
     1
102
RTVSPropertyOp17
 70
     1
102
RTVSPropertyOp18
 70
     1
102
RTVSPropertyOp19
 70
     1
102
RTVSPropertyOp20
 70
     1
102
RTVSPropertyOp21
 70
     1
102
RTVSPropertyOp22
 70
     1
102
RTVSPropertyOp23
 70
     1
102
RTVSPropertyOp24
 70
     1
102
RTVSPropertyOp25
 70
     1
102
RTVSPropertyOp26
 70
     1
102
RTVSPropertyOp27
 70
     1
  0
XRECORD
  5
810
102
{ACAD_REACTORS
330
80F
102
}
330
80F
100
AcDbXrecord
280
     1
102
RTVSPropertyOp0
 70
     1
102
RTVSPropertyOp1
 70
     1
102
RTVSPropertyOp2
 70
     1
102
RTVSPropertyOp3
 70
     1
102
RTVSPropertyOp4
 70
     1
102
RTVSPropertyOp5
 70
     1
102
RTVSPropertyOp6
 70
     1
102
RTVSPropertyOp7
 70
     1
102
RTVSPropertyOp8
 70
     1
102
RTVSPropertyOp9
 70
     1
102
RTVSPropertyOp10
 70
     1
102
RTVSPropertyOp11
 70
     1
102
RTVSPropertyOp12
 70
     1
102
RTVSPropertyOp13
 70
     1
102
RTVSPropertyOp14
 70
     1
102
RTVSPropertyOp15
 70
     1
102
RTVSPropertyOp16
 70
     1
102
RTVSPropertyOp17
 70
     1
102
RTVSPropertyOp18
 70
     1
102
RTVSPropertyOp19
 70
     1
102
RTVSPropertyOp20
 70
     1
102
RTVSPropertyOp21
 70
     1
102
RTVSPropertyOp22
 70
     1
102
RTVSPropertyOp23
 70
     1
102
RTVSPropertyOp24
 70
     1
102
RTVSPropertyOp25
 70
     1
102
RTVSPropertyOp26
 70
     1
102
RTVSPropertyOp27
 70
     1
  0
XRECORD
  5
818
102
{ACAD_REACTORS
330
817
102
}
330
817
100
AcDbXrecord
280
     1
102
RTVSPropertyOp0
 70
     1
102
RTVSPropertyOp1
 70
     1
102
RTVSPropertyOp2
 70
     1
102
RTVSPropertyOp3
 70
     1
102
RTVSPropertyOp4
 70
     1
102
RTVSPropertyOp5
 70
     1
102
RTVSPropertyOp6
 70
     1
102
RTVSPropertyOp7
 70
     1
102
RTVSPropertyOp8
 70
     1
102
RTVSPropertyOp9
 70
     1
102
RTVSPropertyOp10
 70
     1
102
RTVSPropertyOp11
 70
     1
102
RTVSPropertyOp12
 70
     1
102
RTVSPropertyOp13
 70
     1
102
RTVSPropertyOp14
 70
     1
102
RTVSPropertyOp15
 70
     1
102
RTVSPropertyOp16
 70
     1
102
RTVSPropertyOp17
 70
     1
102
RTVSPropertyOp18
 70
     1
102
RTVSPropertyOp19
 70
     1
102
RTVSPropertyOp20
 70
     1
102
RTVSPropertyOp21
 70
     1
102
RTVSPropertyOp22
 70
     1
102
RTVSPropertyOp23
 70
     1
102
RTVSPropertyOp24
 70
     1
102
RTVSPropertyOp25
 70
     1
102
RTVSPropertyOp26
 70
     1
102
RTVSPropertyOp27
 70
     1
  0
XRECORD
  5
80A
102
{ACAD_REACTORS
330
809
102
}
330
809
100
AcDbXrecord
280
     1
102
RTVSPropertyOp0
 70
     1
102
RTVSPropertyOp1
 70
     1
102
RTVSPropertyOp2
 70
     1
102
RTVSPropertyOp3
 70
     1
102
RTVSPropertyOp4
 70
     1
102
RTVSPropertyOp5
 70
     1
102
RTVSPropertyOp6
 70
     1
102
RTVSPropertyOp7
 70
     1
102
RTVSPropertyOp8
 70
     1
102
RTVSPropertyOp9
 70
     1
102
RTVSPropertyOp10
 70
     1
102
RTVSPropertyOp11
 70
     1
102
RTVSPropertyOp12
 70
     1
102
RTVSPropertyOp13
 70
     1
102
RTVSPropertyOp14
 70
     1
102
RTVSPropertyOp15
 70
     1
102
RTVSPropertyOp16
 70
     1
102
RTVSPropertyOp17
 70
     1
102
RTVSPropertyOp18
 70
     1
102
RTVSPropertyOp19
 70
     1
102
RTVSPropertyOp20
 70
     1
102
RTVSPropertyOp21
 70
     1
102
RTVSPropertyOp22
 70
     1
102
RTVSPropertyOp23
 70
     1
102
RTVSPropertyOp24
 70
     1
102
RTVSPropertyOp25
 70
     1
102
RTVSPropertyOp26
 70
     1
102
RTVSPropertyOp27
 70
     1
  0
XRECORD
  5
80E
102
{ACAD_REACTORS
330
80D
102
}
330
80D
100
AcDbXrecord
280
     1
102
RTVSPropertyOp0
 70
     1
102
RTVSPropertyOp1
 70
     1
102
RTVSPropertyOp2
 70
     1
102
RTVSPropertyOp3
 70
     1
102
RTVSPropertyOp4
 70
     1
102
RTVSPropertyOp5
 70
     1
102
RTVSPropertyOp6
 70
     1
102
RTVSPropertyOp7
 70
     1
102
RTVSPropertyOp8
 70
     1
102
RTVSPropertyOp9
 70
     1
102
RTVSPropertyOp10
 70
     1
102
RTVSPropertyOp11
 70
     1
102
RTVSPropertyOp12
 70
     1
102
RTVSPropertyOp13
 70
     1
102
RTVSPropertyOp14
 70
     1
102
RTVSPropertyOp15
 70
     1
102
RTVSPropertyOp16
 70
     1
102
RTVSPropertyOp17
 70
     1
102
RTVSPropertyOp18
 70
     1
102
RTVSPropertyOp19
 70
     1
102
RTVSPropertyOp20
 70
     1
102
RTVSPropertyOp21
 70
     1
102
RTVSPropertyOp22
 70
     1
102
RTVSPropertyOp23
 70
     1
102
RTVSPropertyOp24
 70
     1
102
RTVSPropertyOp25
 70
     1
102
RTVSPropertyOp26
 70
     1
102
RTVSPropertyOp27
 70
     1
  0
XRECORD
  5
81E
102
{ACAD_REACTORS
330
81D
102
}
330
81D
100
AcDbXrecord
280
     1
102
RTVSPropertyOp0
 70
     0
102
RTVSPropertyOp1
 70
     0
102
RTVSPropertyOp2
 70
     0
102
RTVSPropertyOp3
 70
     0
102
RTVSPropertyOp4
 70
     0
102
RTVSPropertyOp5
 70
     0
102
RTVSPropertyOp6
 70
     0
102
RTVSPropertyOp7
 70
     0
102
RTVSPropertyOp8
 70
     0
102
RTVSPropertyOp9
 70
     0
102
RTVSPropertyOp10
 70
     0
102
RTVSPropertyOp11
 70
     0
102
RTVSPropertyOp12
 70
     0
102
RTVSPropertyOp13
 70
     0
102
RTVSPropertyOp14
 70
     2
102
RTVSPropertyOp15
 70
     0
102
RTVSPropertyOp16
 70
     0
102
RTVSPropertyOp17
 70
     0
102
RTVSPropertyOp18
 70
     0
102
RTVSPropertyOp19
 70
     0
102
RTVSPropertyOp20
 70
     0
102
RTVSPropertyOp21
 70
     0
102
RTVSPropertyOp22
 70
     0
102
RTVSPropertyOp23
 70
     0
102
RTVSPropertyOp24
 70
     0
102
RTVSPropertyOp25
 70
     0
102
RTVSPropertyOp26
 70
     0
102
RTVSPropertyOp27
 70
     0
  0
XRECORD
  5
816
102
{ACAD_REACTORS
330
815
102
}
330
815
100
AcDbXrecord
280
     1
102
RTVSPropertyOp0
 70
     1
102
RTVSPropertyOp1
 70
     1
102
RTVSPropertyOp2
 70
     1
102
RTVSPropertyOp3
 70
     1
102
RTVSPropertyOp4
 70
     1
102
RTVSPropertyOp5
 70
     1
102
RTVSPropertyOp6
 70
     1
102
RTVSPropertyOp7
 70
     1
102
RTVSPropertyOp8
 70
     1
102
RTVSPropertyOp9
 70
     1
102
RTVSPropertyOp10
 70
     1
102
RTVSPropertyOp11
 70
     1
102
RTVSPropertyOp12
 70
     1
102
RTVSPropertyOp13
 70
     1
102
RTVSPropertyOp14
 70
     1
102
RTVSPropertyOp15
 70
     1
102
RTVSPropertyOp16
 70
     1
102
RTVSPropertyOp17
 70
     1
102
RTVSPropertyOp18
 70
     1
102
RTVSPropertyOp19
 70
     1
102
RTVSPropertyOp20
 70
     1
102
RTVSPropertyOp21
 70
     1
102
RTVSPropertyOp22
 70
     1
102
RTVSPropertyOp23
 70
     1
102
RTVSPropertyOp24
 70
     1
102
RTVSPropertyOp25
 70
     1
102
RTVSPropertyOp26
 70
     1
102
RTVSPropertyOp27
 70
     1
  0
XRECORD
  5
7FA
102
{ACAD_REACTORS
330
7F9
102
}
330
7F9
100
AcDbXrecord
280
     1
102
RTVSPropertyOp0
 70
     1
102
RTVSPropertyOp1
 70
     1
102
RTVSPropertyOp2
 70
     1
102
RTVSPropertyOp3
 70
     1
102
RTVSPropertyOp4
 70
     1
102
RTVSPropertyOp5
 70
     1
102
RTVSPropertyOp6
 70
     1
102
RTVSPropertyOp7
 70
     1
102
RTVSPropertyOp8
 70
     1
102
RTVSPropertyOp9
 70
     1
102
RTVSPropertyOp10
 70
     1
102
RTVSPropertyOp11
 70
     1
102
RTVSPropertyOp12
 70
     1
102
RTVSPropertyOp13
 70
     1
102
RTVSPropertyOp14
 70
     1
102
RTVSPropertyOp15
 70
     1
102
RTVSPropertyOp16
 70
     1
102
RTVSPropertyOp17
 70
     1
102
RTVSPropertyOp18
 70
     1
102
RTVSPropertyOp19
 70
     1
102
RTVSPropertyOp20
 70
     1
102
RTVSPropertyOp21
 70
     1
102
RTVSPropertyOp22
 70
     1
102
RTVSPropertyOp23
 70
     1
102
RTVSPropertyOp24
 70
     1
102
RTVSPropertyOp25
 70
     1
102
RTVSPropertyOp26
 70
     1
102
RTVSPropertyOp27
 70
     1
  0
XRECORD
  5
7FC
102
{ACAD_REACTORS
330
7FB
102
}
330
7FB
100
AcDbXrecord
280
     1
102
RTVSPropertyOp0
 70
     1
102
RTVSPropertyOp1
 70
     1
102
RTVSPropertyOp2
 70
     1
102
RTVSPropertyOp3
 70
     1
102
RTVSPropertyOp4
 70
     1
102
RTVSPropertyOp5
 70
     1
102
RTVSPropertyOp6
 70
     1
102
RTVSPropertyOp7
 70
     1
102
RTVSPropertyOp8
 70
     1
102
RTVSPropertyOp9
 70
     1
102
RTVSPropertyOp10
 70
     1
102
RTVSPropertyOp11
 70
     1
102
RTVSPropertyOp12
 70
     1
102
RTVSPropertyOp13
 70
     1
102
RTVSPropertyOp14
 70
     1
102
RTVSPropertyOp15
 70
     1
102
RTVSPropertyOp16
 70
     1
102
RTVSPropertyOp17
 70
     1
102
RTVSPropertyOp18
 70
     1
102
RTVSPropertyOp19
 70
     1
102
RTVSPropertyOp20
 70
     1
102
RTVSPropertyOp21
 70
     1
102
RTVSPropertyOp22
 70
     1
102
RTVSPropertyOp23
 70
     1
102
RTVSPropertyOp24
 70
     1
102
RTVSPropertyOp25
 70
     1
102
RTVSPropertyOp26
 70
     1
102
RTVSPropertyOp27
 70
     1
  0
XRECORD
  5
7FE
102
{ACAD_REACTORS
330
7FD
102
}
330
7FD
100
AcDbXrecord
280
     1
102
RTVSPropertyOp0
 70
     1
102
RTVSPropertyOp1
 70
     1
102
RTVSPropertyOp2
 70
     1
102
RTVSPropertyOp3
 70
     1
102
RTVSPropertyOp4
 70
     1
102
RTVSPropertyOp5
 70
     1
102
RTVSPropertyOp6
 70
     1
102
RTVSPropertyOp7
 70
     1
102
RTVSPropertyOp8
 70
     1
102
RTVSPropertyOp9
 70
     1
102
RTVSPropertyOp10
 70
     1
102
RTVSPropertyOp11
 70
     1
102
RTVSPropertyOp12
 70
     1
102
RTVSPropertyOp13
 70
     1
102
RTVSPropertyOp14
 70
     1
102
RTVSPropertyOp15
 70
     1
102
RTVSPropertyOp16
 70
     1
102
RTVSPropertyOp17
 70
     1
102
RTVSPropertyOp18
 70
     1
102
RTVSPropertyOp19
 70
     1
102
RTVSPropertyOp20
 70
     1
102
RTVSPropertyOp21
 70
     1
102
RTVSPropertyOp22
 70
     1
102
RTVSPropertyOp23
 70
     1
102
RTVSPropertyOp24
 70
     1
102
RTVSPropertyOp25
 70
     1
102
RTVSPropertyOp26
 70
     1
102
RTVSPropertyOp27
 70
     1
  0
XRECORD
  5
800
102
{ACAD_REACTORS
330
7FF
102
}
330
7FF
100
AcDbXrecord
280
     1
102
RTVSPropertyOp0
 70
     1
102
RTVSPropertyOp1
 70
     1
102
RTVSPropertyOp2
 70
     1
102
RTVSPropertyOp3
 70
     1
102
RTVSPropertyOp4
 70
     1
102
RTVSPropertyOp5
 70
     1
102
RTVSPropertyOp6
 70
     1
102
RTVSPropertyOp7
 70
     1
102
RTVSPropertyOp8
 70
     1
102
RTVSPropertyOp9
 70
     1
102
RTVSPropertyOp10
 70
     1
102
RTVSPropertyOp11
 70
     1
102
RTVSPropertyOp12
 70
     1
102
RTVSPropertyOp13
 70
     1
102
RTVSPropertyOp14
 70
     1
102
RTVSPropertyOp15
 70
     1
102
RTVSPropertyOp16
 70
     1
102
RTVSPropertyOp17
 70
     1
102
RTVSPropertyOp18
 70
     1
102
RTVSPropertyOp19
 70
     1
102
RTVSPropertyOp20
 70
     1
102
RTVSPropertyOp21
 70
     1
102
RTVSPropertyOp22
 70
     1
102
RTVSPropertyOp23
 70
     1
102
RTVSPropertyOp24
 70
     1
102
RTVSPropertyOp25
 70
     1
102
RTVSPropertyOp26
 70
     1
102
RTVSPropertyOp27
 70
     1
  0
XRECORD
  5
81A
102
{ACAD_REACTORS
330
819
102
}
330
819
100
AcDbXrecord
280
     1
102
RTVSPropertyOp0
 70
     0
102
RTVSPropertyOp1
 70
     0
102
RTVSPropertyOp2
 70
     0
102
RTVSPropertyOp3
 70
     0
102
RTVSPropertyOp4
 70
     0
102
RTVSPropertyOp5
 70
     0
102
RTVSPropertyOp6
 70
     0
102
RTVSPropertyOp7
 70
     0
102
RTVSPropertyOp8
 70
     0
102
RTVSPropertyOp9
 70
     0
102
RTVSPropertyOp10
 70
     0
102
RTVSPropertyOp11
 70
     0
102
RTVSPropertyOp12
 70
     0
102
RTVSPropertyOp13
 70
     0
102
RTVSPropertyOp14
 70
     2
102
RTVSPropertyOp15
 70
     0
102
RTVSPropertyOp16
 70
     0
102
RTVSPropertyOp17
 70
     0
102
RTVSPropertyOp18
 70
     0
102
RTVSPropertyOp19
 70
     0
102
RTVSPropertyOp20
 70
     0
102
RTVSPropertyOp21
 70
     0
102
RTVSPropertyOp22
 70
     0
102
RTVSPropertyOp23
 70
     0
102
RTVSPropertyOp24
 70
     0
102
RTVSPropertyOp25
 70
     0
102
RTVSPropertyOp26
 70
     0
102
RTVSPropertyOp27
 70
     0
  0
XRECORD
  5
814
102
{ACAD_REACTORS
330
813
102
}
330
813
100
AcDbXrecord
280
     1
102
RTVSPropertyOp0
 70
     1
102
RTVSPropertyOp1
 70
     1
102
RTVSPropertyOp2
 70
     1
102
RTVSPropertyOp3
 70
     1
102
RTVSPropertyOp4
 70
     1
102
RTVSPropertyOp5
 70
     1
102
RTVSPropertyOp6
 70
     1
102
RTVSPropertyOp7
 70
     1
102
RTVSPropertyOp8
 70
     1
102
RTVSPropertyOp9
 70
     1
102
RTVSPropertyOp10
 70
     1
102
RTVSPropertyOp11
 70
     1
102
RTVSPropertyOp12
 70
     1
102
RTVSPropertyOp13
 70
     1
102
RTVSPropertyOp14
 70
     1
102
RTVSPropertyOp15
 70
     1
102
RTVSPropertyOp16
 70
     1
102
RTVSPropertyOp17
 70
     1
102
RTVSPropertyOp18
 70
     1
102
RTVSPropertyOp19
 70
     1
102
RTVSPropertyOp20
 70
     1
102
RTVSPropertyOp21
 70
     1
102
RTVSPropertyOp22
 70
     1
102
RTVSPropertyOp23
 70
     1
102
RTVSPropertyOp24
 70
     1
102
RTVSPropertyOp25
 70
     1
102
RTVSPropertyOp26
 70
     1
102
RTVSPropertyOp27
 70
     1
  0
XRECORD
  5
81C
102
{ACAD_REACTORS
330
81B
102
}
330
81B
100
AcDbXrecord
280
     1
102
RTVSPropertyOp0
 70
     0
102
RTVSPropertyOp1
 70
     0
102
RTVSPropertyOp2
 70
     0
102
RTVSPropertyOp3
 70
     0
102
RTVSPropertyOp4
 70
     0
102
RTVSPropertyOp5
 70
     0
102
RTVSPropertyOp6
 70
     0
102
RTVSPropertyOp7
 70
     0
102
RTVSPropertyOp8
 70
     0
102
RTVSPropertyOp9
 70
     0
102
RTVSPropertyOp10
 70
     0
102
RTVSPropertyOp11
 70
     0
102
RTVSPropertyOp12
 70
     0
102
RTVSPropertyOp13
 70
     0
102
RTVSPropertyOp14
 70
     2
102
RTVSPropertyOp15
 70
     0
102
RTVSPropertyOp16
 70
     0
102
RTVSPropertyOp17
 70
     0
102
RTVSPropertyOp18
 70
     0
102
RTVSPropertyOp19
 70
     0
102
RTVSPropertyOp20
 70
     0
102
RTVSPropertyOp21
 70
     0
102
RTVSPropertyOp22
 70
     0
102
RTVSPropertyOp23
 70
     0
102
RTVSPropertyOp24
 70
     0
102
RTVSPropertyOp25
 70
     0
102
RTVSPropertyOp26
 70
     0
102
RTVSPropertyOp27
 70
     0
  0
XRECORD
  5
80C
102
{ACAD_REACTORS
330
80B
102
}
330
80B
100
AcDbXrecord
280
     1
102
RTVSPropertyOp0
 70
     1
102
RTVSPropertyOp1
 70
     1
102
RTVSPropertyOp2
 70
     1
102
RTVSPropertyOp3
 70
     1
102
RTVSPropertyOp4
 70
     1
102
RTVSPropertyOp5
 70
     1
102
RTVSPropertyOp6
 70
     1
102
RTVSPropertyOp7
 70
     1
102
RTVSPropertyOp8
 70
     1
102
RTVSPropertyOp9
 70
     1
102
RTVSPropertyOp10
 70
     1
102
RTVSPropertyOp11
 70
     1
102
RTVSPropertyOp12
 70
     1
102
RTVSPropertyOp13
 70
     1
102
RTVSPropertyOp14
 70
     1
102
RTVSPropertyOp15
 70
     1
102
RTVSPropertyOp16
 70
     1
102
RTVSPropertyOp17
 70
     1
102
RTVSPropertyOp18
 70
     1
102
RTVSPropertyOp19
 70
     1
102
RTVSPropertyOp20
 70
     1
102
RTVSPropertyOp21
 70
     1
102
RTVSPropertyOp22
 70
     1
102
RTVSPropertyOp23
 70
     1
102
RTVSPropertyOp24
 70
     1
102
RTVSPropertyOp25
 70
     1
102
RTVSPropertyOp26
 70
     1
102
RTVSPropertyOp27
 70
     1
  0
XRECORD
  5
812
102
{ACAD_REACTORS
330
811
102
}
330
811
100
AcDbXrecord
280
     1
102
RTVSPropertyOp0
 70
     1
102
RTVSPropertyOp1
 70
     1
102
RTVSPropertyOp2
 70
     1
102
RTVSPropertyOp3
 70
     1
102
RTVSPropertyOp4
 70
     1
102
RTVSPropertyOp5
 70
     1
102
RTVSPropertyOp6
 70
     1
102
RTVSPropertyOp7
 70
     1
102
RTVSPropertyOp8
 70
     1
102
RTVSPropertyOp9
 70
     1
102
RTVSPropertyOp10
 70
     1
102
RTVSPropertyOp11
 70
     1
102
RTVSPropertyOp12
 70
     1
102
RTVSPropertyOp13
 70
     1
102
RTVSPropertyOp14
 70
     1
102
RTVSPropertyOp15
 70
     1
102
RTVSPropertyOp16
 70
     1
102
RTVSPropertyOp17
 70
     1
102
RTVSPropertyOp18
 70
     1
102
RTVSPropertyOp19
 70
     1
102
RTVSPropertyOp20
 70
     1
102
RTVSPropertyOp21
 70
     1
102
RTVSPropertyOp22
 70
     1
102
RTVSPropertyOp23
 70
     1
102
RTVSPropertyOp24
 70
     1
102
RTVSPropertyOp25
 70
     1
102
RTVSPropertyOp26
 70
     1
102
RTVSPropertyOp27
 70
     1
  0
ENDSEC
  0
EOF
