  0
SECTION
  2
HEADER
  9
$ACADVER
  1
AC1018
  9
$ACADMAINTVER
 70
   104
  9
$DWGCODEPAGE
  3
ANSI_1252
  9
$LASTSAVEDBY
  1
a06741
  9
$INSBASE
 10
0.0
 20
0.0
 30
0.0
  9
$EXTMIN
 10
2319.205459646759
 20
762.5966147475401
 30
-0.0015258207003583
  9
$EXTMAX
 10
2386.011447297525
 20
823.2115479106765
 30
0.0000000349246037
  9
$LIMMIN
 10
0.0
 20
0.0
  9
$LIMMAX
 10
420.0
 20
297.0
  9
$ORTHOMODE
 70
     0
  9
$REGENMODE
 70
     1
  9
$FILLMODE
 70
     1
  9
$QTEXTMODE
 70
     0
  9
$MIRRTEXT
 70
     0
  9
$LTSCALE
 40
1.0
  9
$ATTMODE
 70
     1
  9
$TEXTSIZE
 40
2.5
  9
$TRACEWID
 40
1.0
  9
$TEXTSTYLE
  7
Standard
  9
$CLAYER
  8
0
  9
$CELTYPE
  6
ByLayer
  9
$CECOLOR
 62
   256
  9
$CELTSCALE
 40
1.0
  9
$DISPSILH
 70
     0
  9
$DIMSCALE
 40
1.0
  9
$DIMASZ
 40
2.5
  9
$DIMEXO
 40
0.625
  9
$DIMDLI
 40
3.75
  9
$DIMRND
 40
0.0
  9
$DIMDLE
 40
0.0
  9
$DIMEXE
 40
1.25
  9
$DIMTP
 40
0.0
  9
$DIMTM
 40
0.0
  9
$DIMTXT
 40
2.5
  9
$DIMCEN
 40
2.5
  9
$DIMTSZ
 40
0.0
  9
$DIMTOL
 70
     0
  9
$DIMLIM
 70
     0
  9
$DIMTIH
 70
     0
  9
$DIMTOH
 70
     0
  9
$DIMSE1
 70
     0
  9
$DIMSE2
 70
     0
  9
$DIMTAD
 70
     1
  9
$DIMZIN
 70
     8
  9
$DIMBLK
  1

  9
$DIMASO
 70
     1
  9
$DIMSHO
 70
     1
  9
$DIMPOST
  1

  9
$DIMAPOST
  1

  9
$DIMALT
 70
     0
  9
$DIMALTD
 70
     3
  9
$DIMALTF
 40
0.03937007874016
  9
$DIMLFAC
 40
1.0
  9
$DIMTOFL
 70
     1
  9
$DIMTVP
 40
0.0
  9
$DIMTIX
 70
     0
  9
$DIMSOXD
 70
     0
  9
$DIMSAH
 70
     0
  9
$DIMBLK1
  1

  9
$DIMBLK2
  1

  9
$DIMSTYLE
  2
ISO-25
  9
$DIMCLRD
 70
     0
  9
$DIMCLRE
 70
     0
  9
$DIMCLRT
 70
     0
  9
$DIMTFAC
 40
1.0
  9
$DIMGAP
 40
0.625
  9
$DIMJUST
 70
     0
  9
$DIMSD1
 70
     0
  9
$DIMSD2
 70
     0
  9
$DIMTOLJ
 70
     0
  9
$DIMTZIN
 70
     8
  9
$DIMALTZ
 70
     0
  9
$DIMALTTZ
 70
     0
  9
$DIMUPT
 70
     0
  9
$DIMDEC
 70
     2
  9
$DIMTDEC
 70
     2
  9
$DIMALTU
 70
     2
  9
$DIMALTTD
 70
     3
  9
$DIMTXSTY
  7
Standard
  9
$DIMAUNIT
 70
     0
  9
$DIMADEC
 70
     0
  9
$DIMALTRND
 40
0.0
  9
$DIMAZIN
 70
     0
  9
$DIMDSEP
 70
    44
  9
$DIMATFIT
 70
     3
  9
$DIMFRAC
 70
     0
  9
$DIMLDRBLK
  1

  9
$DIMLUNIT
 70
     2
  9
$DIMLWD
 70
    -2
  9
$DIMLWE
 70
    -2
  9
$DIMTMOVE
 70
     0
  9
$LUNITS
 70
     2
  9
$LUPREC
 70
     4
  9
$SKETCHINC
 40
1.0
  9
$FILLETRAD
 40
0.0
  9
$AUNITS
 70
     0
  9
$AUPREC
 70
     0
  9
$MENU
  1
.
  9
$ELEVATION
 40
0.0
  9
$PELEVATION
 40
0.0
  9
$THICKNESS
 40
0.0
  9
$LIMCHECK
 70
     0
  9
$CHAMFERA
 40
0.0
  9
$CHAMFERB
 40
0.0
  9
$CHAMFERC
 40
0.0
  9
$CHAMFERD
 40
0.0
  9
$SKPOLY
 70
     0
  9
$TDCREATE
 40
2456139.500932095
  9
$TDUCREATE
 40
2456139.417598762
  9
$TDUPDATE
 40
2456139.501757234
  9
$TDUUPDATE
 40
2456139.418423901
  9
$TDINDWG
 40
0.0008257292
  9
$TDUSRTIMER
 40
0.0008257060
  9
$USRTIMER
 70
     1
  9
$ANGBASE
 50
0.0
  9
$ANGDIR
 70
     0
  9
$PDMODE
 70
     0
  9
$PDSIZE
 40
0.0
  9
$PLINEWID
 40
0.0
  9
$SPLFRAME
 70
     0
  9
$SPLINETYPE
 70
     6
  9
$SPLINESEGS
 70
     8
  9
$HANDSEED
  5
48C
  9
$SURFTAB1
 70
     6
  9
$SURFTAB2
 70
     6
  9
$SURFTYPE
 70
     6
  9
$SURFU
 70
     6
  9
$SURFV
 70
     6
  9
$UCSBASE
  2

  9
$UCSNAME
  2

  9
$UCSORG
 10
0.0
 20
0.0
 30
0.0
  9
$UCSXDIR
 10
1.0
 20
0.0
 30
0.0
  9
$UCSYDIR
 10
0.0
 20
1.0
 30
0.0
  9
$UCSORTHOREF
  2

  9
$UCSORTHOVIEW
 70
     0
  9
$UCSORGTOP
 10
0.0
 20
0.0
 30
0.0
  9
$UCSORGBOTTOM
 10
0.0
 20
0.0
 30
0.0
  9
$UCSORGLEFT
 10
0.0
 20
0.0
 30
0.0
  9
$UCSORGRIGHT
 10
0.0
 20
0.0
 30
0.0
  9
$UCSORGFRONT
 10
0.0
 20
0.0
 30
0.0
  9
$UCSORGBACK
 10
0.0
 20
0.0
 30
0.0
  9
$PUCSBASE
  2

  9
$PUCSNAME
  2

  9
$PUCSORG
 10
0.0
 20
0.0
 30
0.0
  9
$PUCSXDIR
 10
1.0
 20
0.0
 30
0.0
  9
$PUCSYDIR
 10
0.0
 20
1.0
 30
0.0
  9
$PUCSORTHOREF
  2

  9
$PUCSORTHOVIEW
 70
     0
  9
$PUCSORGTOP
 10
0.0
 20
0.0
 30
0.0
  9
$PUCSORGBOTTOM
 10
0.0
 20
0.0
 30
0.0
  9
$PUCSORGLEFT
 10
0.0
 20
0.0
 30
0.0
  9
$PUCSORGRIGHT
 10
0.0
 20
0.0
 30
0.0
  9
$PUCSORGFRONT
 10
0.0
 20
0.0
 30
0.0
  9
$PUCSORGBACK
 10
0.0
 20
0.0
 30
0.0
  9
$USERI1
 70
     0
  9
$USERI2
 70
     0
  9
$USERI3
 70
     0
  9
$USERI4
 70
     0
  9
$USERI5
 70
     0
  9
$USERR1
 40
0.0
  9
$USERR2
 40
0.0
  9
$USERR3
 40
0.0
  9
$USERR4
 40
0.0
  9
$USERR5
 40
0.0
  9
$WORLDVIEW
 70
     1
  9
$SHADEDGE
 70
     3
  9
$SHADEDIF
 70
    70
  9
$TILEMODE
 70
     1
  9
$MAXACTVP
 70
    64
  9
$PINSBASE
 10
0.0
 20
0.0
 30
0.0
  9
$PLIMCHECK
 70
     0
  9
$PEXTMIN
 10
0.0
 20
0.0
 30
0.0
  9
$PEXTMAX
 10
0.0
 20
0.0
 30
0.0
  9
$PLIMMIN
 10
0.0
 20
0.0
  9
$PLIMMAX
 10
12.0
 20
9.0
  9
$UNITMODE
 70
     0
  9
$VISRETAIN
 70
     1
  9
$PLINEGEN
 70
     0
  9
$PSLTSCALE
 70
     1
  9
$TREEDEPTH
 70
  3020
  9
$CMLSTYLE
  2
Standard
  9
$CMLJUST
 70
     0
  9
$CMLSCALE
 40
20.0
  9
$PROXYGRAPHICS
 70
     1
  9
$MEASUREMENT
 70
     1
  9
$CELWEIGHT
370
    -1
  9
$ENDCAPS
280
     0
  9
$JOINSTYLE
280
     0
  9
$LWDISPLAY
290
     0
  9
$INSUNITS
 70
     4
  9
$HYPERLINKBASE
  1

  9
$STYLESHEET
  1

  9
$XEDIT
290
     1
  9
$CEPSNTYPE
380
     0
  9
$PSTYLEMODE
290
     1
  9
$FINGERPRINTGUID
  2
{51CABAD5-45EE-4208-93D3-2E9794E45EEC}
  9
$VERSIONGUID
  2
{D9B1991E-BE1D-49BA-9DDD-02EC0EEEA379}
  9
$EXTNAMES
290
     1
  9
$PSVPSCALE
 40
0.0
  9
$OLESTARTUP
290
     0
  9
$SORTENTS
280
   127
  9
$INDEXCTL
280
     0
  9
$HIDETEXT
280
     1
  9
$XCLIPFRAME
290
     0
  9
$HALOGAP
280
     0
  9
$OBSCOLOR
 70
   257
  9
$OBSLTYPE
280
     0
  9
$INTERSECTIONDISPLAY
280
     0
  9
$INTERSECTIONCOLOR
 70
   257
  9
$DIMASSOC
280
     2
  9
$PROJECTNAME
  1

  0
ENDSEC
  0
SECTION
  2
CLASSES
  0
CLASS
  1
ACDBDICTIONARYWDFLT
  2
AcDbDictionaryWithDefault
  3
ObjectDBX Classes
 90
        0
 91
        1
280
     0
281
     0
  0
CLASS
  1
DICTIONARYVAR
  2
AcDbDictionaryVar
  3
ObjectDBX Classes
 90
        0
 91
       17
280
     0
281
     0
  0
CLASS
  1
TABLESTYLE
  2
AcDbTableStyle
  3
ObjectDBX Classes
 90
     4095
 91
        1
280
     0
281
     0
  0
CLASS
  1
MATERIAL
  2
AcDbMaterial
  3
ObjectDBX Classes
 90
     1153
 91
        3
280
     0
281
     0
  0
CLASS
  1
VISUALSTYLE
  2
AcDbVisualStyle
  3
ObjectDBX Classes
 90
     4095
 91
       19
280
     0
281
     0
  0
CLASS
  1
SCALE
  2
AcDbScale
  3
ObjectDBX Classes
 90
     1153
 91
       17
280
     0
281
     0
  0
CLASS
  1
MLEADERSTYLE
  2
AcDbMLeaderStyle
  3
ACDB_MLEADERSTYLE_CLASS
 90
     4095
 91
        2
280
     0
281
     0
  0
CLASS
  1
CELLSTYLEMAP
  2
AcDbCellStyleMap
  3
ObjectDBX Classes
 90
     1152
 91
        2
280
     0
281
     0
  0
CLASS
  1
EXACXREFPANELOBJECT
  2
ExAcXREFPanelObject
  3
EXAC_ESW
 90
     1025
 91
        0
280
     0
281
     0
  0
CLASS
  1
NPOCOLLECTION
  2
AcDbImpNonPersistentObjectsCollection
  3
ObjectDBX Classes
 90
     1153
 91
        0
280
     0
281
     0
  0
CLASS
  1
LAYER_INDEX
  2
AcDbLayerIndex
  3
ObjectDBX Classes
 90
        0
 91
        0
280
     0
281
     0
  0
CLASS
  1
SPATIAL_INDEX
  2
AcDbSpatialIndex
  3
ObjectDBX Classes
 90
        0
 91
        0
280
     0
281
     0
  0
CLASS
  1
IDBUFFER
  2
AcDbIdBuffer
  3
ObjectDBX Classes
 90
        0
 91
        0
280
     0
281
     0
  0
CLASS
  1
DIMASSOC
  2
AcDbDimAssoc
  3
"AcDbDimAssoc|Product Desc:     AcDim ARX App For Dimension|Company:          Autodesk, Inc.|WEB Address:      www.autodesk.com"
 90
        0
 91
       28
280
     0
281
     0
  0
CLASS
  1
SORTENTSTABLE
  2
AcDbSortentsTable
  3
ObjectDBX Classes
 90
        0
 91
        1
280
     0
281
     0
  0
ENDSEC
  0
SECTION
  2
TABLES
  0
TABLE
  2
VPORT
  5
8
330
0
100
AcDbSymbolTable
 70
     1
  0
VPORT
  5
EA
330
8
100
AcDbSymbolTableRecord
100
AcDbViewportTableRecord
  2
*Active
 70
     0
 10
0.0
 20
0.0
 11
1.0
 21
1.0
 12
2352.608453472142
 22
792.9040813291083
 13
0.0
 23
0.0
 14
10.0
 24
10.0
 15
10.0
 25
10.0
 16
0.0
 26
0.0
 36
1.0
 17
0.0
 27
0.0
 37
0.0
 40
61.09985262844134
 41
2.132176234979973
 42
50.0
 43
0.0
 44
0.0
 50
0.0
 51
0.0
 71
     0
 72
  1000
 73
     1
 74
     3
 75
     0
 76
     0
 77
     0
 78
     0
281
     0
 65
     1
110
0.0
120
0.0
130
0.0
111
1.0
121
0.0
131
0.0
112
0.0
122
1.0
132
0.0
 79
     0
146
0.0
  0
ENDTAB
  0
TABLE
  2
LTYPE
  5
5
330
0
100
AcDbSymbolTable
 70
     2
  0
LTYPE
  5
14
330
5
100
AcDbSymbolTableRecord
100
AcDbLinetypeTableRecord
  2
ByBlock
 70
     0
  3

 72
    65
 73
     0
 40
0.0
  0
LTYPE
  5
15
330
5
100
AcDbSymbolTableRecord
100
AcDbLinetypeTableRecord
  2
ByLayer
 70
     0
  3

 72
    65
 73
     0
 40
0.0
  0
LTYPE
  5
16
330
5
100
AcDbSymbolTableRecord
100
AcDbLinetypeTableRecord
  2
Continuous
 70
     0
  3
Solid line
 72
    65
 73
     0
 40
0.0
  0
LTYPE
  5
2A6
330
5
100
AcDbSymbolTableRecord
100
AcDbLinetypeTableRecord
  2
ACAD_ISO10W100
 70
     0
  3
ISO dash dot __ . __ . __ . __ . __ . __ . __ .
 72
    65
 73
     4
 40
18.0
 49
12.0
 74
     0
 49
-3.0
 74
     0
 49
0.0
 74
     0
 49
-3.0
 74
     0
  0
ENDTAB
  0
TABLE
  2
LAYER
  5
2
102
{ACAD_XDICTIONARY
360
2B8
102
}
330
0
100
AcDbSymbolTable
 70
     6
  0
LAYER
  5
10
102
{ACAD_XDICTIONARY
360
13C
102
}
330
2
100
AcDbSymbolTableRecord
100
AcDbLayerTableRecord
  2
0
 70
     0
 62
     7
  6
Continuous
370
    -3
390
F
  0
LAYER
  5
2A7
330
2
100
AcDbSymbolTableRecord
100
AcDbLayerTableRecord
  2
Defpoints
 70
     0
 62
     7
  6
Continuous
290
     0
370
    -3
390
F
  0
LAYER
  5
2A8
102
{ACAD_XDICTIONARY
360
2A9
102
}
330
2
100
AcDbSymbolTableRecord
100
AcDbLayerTableRecord
  2
S10_Quote
 70
     0
 62
     7
  6
Continuous
370
    -3
390
F
  0
LAYER
  5
2AA
102
{ACAD_XDICTIONARY
360
2AB
102
}
330
2
100
AcDbSymbolTableRecord
100
AcDbLayerTableRecord
  2
S08_Retino
 70
     0
 62
   252
  6
Continuous
370
    -3
390
F
  0
LAYER
  5
2AC
102
{ACAD_XDICTIONARY
360
2AD
102
}
330
2
100
AcDbSymbolTableRecord
100
AcDbLayerTableRecord
  2
S07_Prospetto
 70
     0
 62
     1
  6
Continuous
370
    -3
390
F
1001
AcAecLayerStandard
1000

1000

  0
LAYER
  5
2AE
330
2
100
AcDbSymbolTableRecord
100
AcDbLayerTableRecord
  2
Sichtbar (ISO)
 70
     0
 62
     5
  6
Continuous
370
    35
390
F
  0
ENDTAB
  0
TABLE
  2
STYLE
  5
3
330
0
100
AcDbSymbolTable
 70
     4
  0
STYLE
  5
11
330
3
100
AcDbSymbolTableRecord
100
AcDbTextStyleTableRecord
  2
Standard
 70
     0
 40
0.0
 41
1.0
 50
0.0
 71
     0
 42
2.5
  3
ARIAL.TTF
  4

1001
ACAD
1000
Arial
1071
       34
  0
STYLE
  5
132
330
3
100
AcDbSymbolTableRecord
100
AcDbTextStyleTableRecord
  2
Annotativa
 70
     0
 40
0.0
 41
1.0
 50
0.0
 71
     0
 42
2.5
  3
ARIAL.TTF
  4

1001
AcadAnnotative
1000
AnnotativeData
1002
{
1070
     1
1070
     1
1002
}
1001
ACAD
1000
Arial
1071
       34
  0
STYLE
  5
2AF
330
3
100
AcDbSymbolTableRecord
100
AcDbTextStyleTableRecord
  2
ROMANS
 70
     0
 40
0.0
 41
1.0
 50
0.0
 71
     0
 42
0.21
  3
ROMANS.shx
  4

  0
STYLE
  5
2B0
330
3
100
AcDbSymbolTableRecord
100
AcDbTextStyleTableRecord
  2
wurth
 70
     0
 40
0.0
 41
1.0
 50
0.0
 71
     0
 42
40.0
  3
WuerthBook.ttf
  4

1001
ACAD
1000
Wuerth Book
1071
        2
  0
ENDTAB
  0
TABLE
  2
VIEW
  5
6
330
0
100
AcDbSymbolTable
 70
     0
  0
ENDTAB
  0
TABLE
  2
UCS
  5
7
330
0
100
AcDbSymbolTable
 70
     0
  0
ENDTAB
  0
TABLE
  2
APPID
  5
9
330
0
100
AcDbSymbolTable
 70
    11
  0
APPID
  5
12
330
9
100
AcDbSymbolTableRecord
100
AcDbRegAppTableRecord
  2
ACAD
 70
     0
  0
APPID
  5
9E
330
9
100
AcDbSymbolTableRecord
100
AcDbRegAppTableRecord
  2
ACAD_PSEXT
 70
     0
  0
APPID
  5
133
330
9
100
AcDbSymbolTableRecord
100
AcDbRegAppTableRecord
  2
AcadAnnoPO
 70
     0
  0
APPID
  5
134
330
9
100
AcDbSymbolTableRecord
100
AcDbRegAppTableRecord
  2
AcadAnnotative
 70
     0
  0
APPID
  5
135
330
9
100
AcDbSymbolTableRecord
100
AcDbRegAppTableRecord
  2
ACAD_DSTYLE_DIMJAG
 70
     0
  0
APPID
  5
136
330
9
100
AcDbSymbolTableRecord
100
AcDbRegAppTableRecord
  2
ACAD_DSTYLE_DIMTALN
 70
     0
  0
APPID
  5
165
330
9
100
AcDbSymbolTableRecord
100
AcDbRegAppTableRecord
  2
ACAD_MLEADERVER
 70
     0
  0
APPID
  5
2B4
330
9
100
AcDbSymbolTableRecord
100
AcDbRegAppTableRecord
  2
AcAecLayerStandard
 70
     0
  0
APPID
  5
2B5
330
9
100
AcDbSymbolTableRecord
100
AcDbRegAppTableRecord
  2
AcDbDynamicBlockGUID
 70
     0
  0
APPID
  5
2B6
330
9
100
AcDbSymbolTableRecord
100
AcDbRegAppTableRecord
  2
AcDbBlockRepETag
 70
     0
  0
APPID
  5
2B7
330
9
100
AcDbSymbolTableRecord
100
AcDbRegAppTableRecord
  2
ACAD_DSTYLE_DIMBREAK
 70
     0
  0
ENDTAB
  0
TABLE
  2
DIMSTYLE
  5
A
330
0
100
AcDbSymbolTable
 70
     6
100
AcDbDimStyleTable
 71
     2
340
27
340
137
  0
DIMSTYLE
105
1B0
330
A
100
AcDbSymbolTableRecord
100
AcDbDimStyleTableRecord
  2
Standard
 70
     0
340
11
  0
DIMSTYLE
105
137
330
A
100
AcDbSymbolTableRecord
100
AcDbDimStyleTableRecord
  2
Annotativa
 70
     0
 40
0.0
 41
2.5
 42
0.625
 43
3.75
 44
1.25
 73
     0
 74
     0
 77
     1
 78
     8
140
2.5
141
2.5
143
0.03937007874016
147
0.625
171
     3
172
     1
271
     2
272
     2
274
     3
278
    44
283
     0
284
     8
340
11
1001
AcadAnnotative
1000
AnnotativeData
1002
{
1070
     1
1070
     1
1002
}
1001
ACAD_DSTYLE_DIMJAG
1070
   388
1040
1.5
1001
ACAD_DSTYLE_DIMTALN
1070
   392
1070
     0
  0
DIMSTYLE
105
27
330
A
100
AcDbSymbolTableRecord
100
AcDbDimStyleTableRecord
  2
ISO-25
 70
     0
 41
2.5
 42
0.625
 43
3.75
 44
1.25
 73
     0
 74
     0
 77
     1
 78
     8
140
2.5
141
2.5
143
0.03937007874016
147
0.625
171
     3
172
     1
271
     2
272
     2
274
     3
278
    44
283
     0
284
     8
340
11
  0
DIMSTYLE
105
2B1
330
A
100
AcDbSymbolTableRecord
100
AcDbDimStyleTableRecord
  2
mm 1_5
 70
     0
 40
5.0
 41
0.015
 42
0.625
 43
1.0
 44
1.25
 73
     0
 74
     0
 75
     1
 76
     1
 77
     1
 78
     8
140
2.0
141
0.5
143
0.03937007874016
147
0.8
171
     3
172
     1
174
     1
179
     2
271
     1
272
     1
274
     3
283
     0
284
     8
340
2AF
342
1F4
  0
DIMSTYLE
105
2B2
102
{ACAD_REACTORS
330
2C5
330
2C8
330
2CB
330
2CE
330
2D1
330
2D4
330
2D7
330
2DA
330
2DD
330
2E0
330
2E3
330
2E6
330
2E9
330
2EC
330
302
330
305
330
308
330
30B
330
30E
330
311
330
314
330
317
330
31A
330
31D
330
320
330
323
330
326
330
329
102
}
330
A
100
AcDbSymbolTableRecord
100
AcDbDimStyleTableRecord
  2
mm 1_1
 70
     0
 41
0.015
 42
0.625
 43
1.0
 44
1.25
 73
     0
 74
     0
 77
     1
 78
     8
140
2.0
141
0.5
143
0.03937007874016
147
0.8
171
     3
172
     1
174
     1
179
     2
271
     2
272
     2
274
     3
283
     0
284
     8
340
2B0
342
1F4
1001
ACAD_DSTYLE_DIMBREAK
1070
   391
1040
3.75
1001
ACAD_DSTYLE_DIMJAG
1070
   388
1040
1.5
1001
ACAD_DSTYLE_DIMTALN
1070
   392
1070
     0
  0
DIMSTYLE
105
2B3
330
A
100
AcDbSymbolTableRecord
100
AcDbDimStyleTableRecord
  2
mm 1_1 x4
 70
     0
 41
0.015
 42
0.625
 43
1.0
 44
1.25
 73
     0
 74
     0
 77
     1
 78
     8
140
2.0
141
0.5
143
0.03937007874016
144
0.25
147
0.8
171
     3
172
     1
174
     1
179
     2
271
     2
272
     2
274
     3
283
     0
284
     8
340
2B0
342
1F4
1001
ACAD_DSTYLE_DIMBREAK
1070
   391
1040
3.75
1001
ACAD_DSTYLE_DIMJAG
1070
   388
1040
1.5
1001
ACAD_DSTYLE_DIMTALN
1070
   392
1070
     0
  0
ENDTAB
  0
TABLE
  2
BLOCK_RECORD
  5
1
330
0
100
AcDbSymbolTable
 70
    31
  0
BLOCK_RECORD
  5
1F
102
{ACAD_XDICTIONARY
360
1CE
102
}
330
1
100
AcDbSymbolTableRecord
100
AcDbBlockTableRecord
  2
*Model_Space
340
22
  0
BLOCK_RECORD
  5
D2
330
1
100
AcDbSymbolTableRecord
100
AcDbBlockTableRecord
  2
*Paper_Space
340
D3
  0
BLOCK_RECORD
  5
D6
330
1
100
AcDbSymbolTableRecord
100
AcDbBlockTableRecord
  2
*Paper_Space0
340
D7
  0
BLOCK_RECORD
  5
1F4
102
{ACAD_XDICTIONARY
360
1F5
102
}
330
1
100
AcDbSymbolTableRecord
100
AcDbBlockTableRecord
  2
A$C79C4041D
340
0
102
{BLKREFS
331
1FF
331
200
331
20B
331
20C
331
217
331
218
331
223
331
224
331
231
331
232
331
23F
331
240
331
24B
331
24C
331
257
331
258
331
263
331
264
331
26F
331
270
331
27B
331
27C
331
287
331
288
331
293
331
294
331
29F
331
2A0
331
34A
331
34B
331
364
331
365
331
372
331
373
331
3AE
331
3AF
331
3BA
331
3BB
331
3D2
331
3D3
331
3DB
331
3DC
331
3E4
331
3E5
331
3ED
331
3EE
331
3F6
331
3F7
331
3FF
331
400
331
408
331
409
331
411
331
412
331
41A
331
41B
102
}
1001
AcDbDynamicBlockGUID
1000
{93BD5B1E-816B-4960-B1CC-7C46A00E0667}
1001
AcDbBlockRepETag
1070
     1
1071
        2
  0
BLOCK_RECORD
  5
1FA
330
1
100
AcDbSymbolTableRecord
100
AcDbBlockTableRecord
  2
*D2
340
0
  0
BLOCK_RECORD
  5
206
330
1
100
AcDbSymbolTableRecord
100
AcDbBlockTableRecord
  2
*D3
340
0
  0
BLOCK_RECORD
  5
212
330
1
100
AcDbSymbolTableRecord
100
AcDbBlockTableRecord
  2
*D4
340
0
  0
BLOCK_RECORD
  5
21E
330
1
100
AcDbSymbolTableRecord
100
AcDbBlockTableRecord
  2
*D5
340
0
  0
BLOCK_RECORD
  5
22A
330
1
100
AcDbSymbolTableRecord
100
AcDbBlockTableRecord
  2
*D6
340
0
  0
BLOCK_RECORD
  5
238
330
1
100
AcDbSymbolTableRecord
100
AcDbBlockTableRecord
  2
*D7
340
0
  0
BLOCK_RECORD
  5
246
330
1
100
AcDbSymbolTableRecord
100
AcDbBlockTableRecord
  2
*D8
340
0
  0
BLOCK_RECORD
  5
252
330
1
100
AcDbSymbolTableRecord
100
AcDbBlockTableRecord
  2
*D9
340
0
  0
BLOCK_RECORD
  5
25E
330
1
100
AcDbSymbolTableRecord
100
AcDbBlockTableRecord
  2
*D10
340
0
  0
BLOCK_RECORD
  5
26A
330
1
100
AcDbSymbolTableRecord
100
AcDbBlockTableRecord
  2
*D11
340
0
  0
BLOCK_RECORD
  5
276
330
1
100
AcDbSymbolTableRecord
100
AcDbBlockTableRecord
  2
*D12
340
0
  0
BLOCK_RECORD
  5
282
330
1
100
AcDbSymbolTableRecord
100
AcDbBlockTableRecord
  2
*D13
340
0
  0
BLOCK_RECORD
  5
28E
330
1
100
AcDbSymbolTableRecord
100
AcDbBlockTableRecord
  2
*D14
340
0
  0
BLOCK_RECORD
  5
29A
330
1
100
AcDbSymbolTableRecord
100
AcDbBlockTableRecord
  2
*D15
340
0
  0
BLOCK_RECORD
  5
32C
330
1
100
AcDbSymbolTableRecord
100
AcDbBlockTableRecord
  2
*D17
340
0
  0
BLOCK_RECORD
  5
338
330
1
100
AcDbSymbolTableRecord
100
AcDbBlockTableRecord
  2
*D18
340
0
  0
BLOCK_RECORD
  5
344
330
1
100
AcDbSymbolTableRecord
100
AcDbBlockTableRecord
  2
*D19
340
0
  0
BLOCK_RECORD
  5
350
330
1
100
AcDbSymbolTableRecord
100
AcDbBlockTableRecord
  2
*D20
340
0
  0
BLOCK_RECORD
  5
35C
330
1
100
AcDbSymbolTableRecord
100
AcDbBlockTableRecord
  2
*D21
340
0
  0
BLOCK_RECORD
  5
36A
330
1
100
AcDbSymbolTableRecord
100
AcDbBlockTableRecord
  2
*D22
340
0
  0
BLOCK_RECORD
  5
378
330
1
100
AcDbSymbolTableRecord
100
AcDbBlockTableRecord
  2
*D23
340
0
  0
BLOCK_RECORD
  5
384
330
1
100
AcDbSymbolTableRecord
100
AcDbBlockTableRecord
  2
*D24
340
0
  0
BLOCK_RECORD
  5
390
330
1
100
AcDbSymbolTableRecord
100
AcDbBlockTableRecord
  2
*D25
340
0
  0
BLOCK_RECORD
  5
39C
330
1
100
AcDbSymbolTableRecord
100
AcDbBlockTableRecord
  2
*D26
340
0
  0
BLOCK_RECORD
  5
3A8
330
1
100
AcDbSymbolTableRecord
100
AcDbBlockTableRecord
  2
*D27
340
0
  0
BLOCK_RECORD
  5
3B4
330
1
100
AcDbSymbolTableRecord
100
AcDbBlockTableRecord
  2
*D28
340
0
  0
BLOCK_RECORD
  5
3C0
330
1
100
AcDbSymbolTableRecord
100
AcDbBlockTableRecord
  2
*D29
340
0
  0
BLOCK_RECORD
  5
3CC
330
1
100
AcDbSymbolTableRecord
100
AcDbBlockTableRecord
  2
*D30
340
0
  0
ENDTAB
  0
ENDSEC
  0
SECTION
  2
BLOCKS
  0
BLOCK
  5
20
330
1F
100
AcDbEntity
  8
0
100
AcDbBlockBegin
  2
*Model_Space
 70
     0
 10
0.0
 20
0.0
 30
0.0
  3
*Model_Space
  1

  0
ENDBLK
  5
21
330
1F
100
AcDbEntity
  8
0
100
AcDbBlockEnd
  0
BLOCK
  5
D4
330
D2
100
AcDbEntity
 67
     1
  8
0
100
AcDbBlockBegin
  2
*Paper_Space
 70
     0
 10
0.0
 20
0.0
 30
0.0
  3
*Paper_Space
  1

  0
ENDBLK
  5
D5
330
D2
100
AcDbEntity
 67
     1
  8
0
100
AcDbBlockEnd
  0
BLOCK
  5
D8
330
D6
100
AcDbEntity
 67
     1
  8
0
100
AcDbBlockBegin
  2
*Paper_Space0
 70
     0
 10
0.0
 20
0.0
 30
0.0
  3
*Paper_Space0
  1

  0
ENDBLK
  5
D9
330
D6
100
AcDbEntity
 67
     1
  8
0
100
AcDbBlockEnd
  0
BLOCK
  5
1F6
330
1F4
100
AcDbEntity
  8
0
 62
     3
100
AcDbBlockBegin
  2
A$C79C4041D
 70
     0
 10
0.0
 20
0.0
 30
0.0
  3
A$C79C4041D
  1

  0
LINE
  5
1F7
330
1F4
100
AcDbEntity
  8
S10_Quote
 62
     4
100
AcDbLine
 10
-20.0
 20
-50.0
 30
0.0
 11
20.0
 21
50.0
 31
0.0
1001
AcDbBlockRepETag
1070
     1
1071
        0
1005
1F7
  0
LINE
  5
1F8
330
1F4
100
AcDbEntity
  8
S10_Quote
100
AcDbLine
 10
0.0
 20
50.0
 30
0.0
 11
0.0
 21
-50.0
 31
0.0
1001
AcDbBlockRepETag
1070
     1
1071
        1
1005
1F8
  0
ENDBLK
  5
1F9
330
1F4
100
AcDbEntity
  8
0
 62
     3
100
AcDbBlockEnd
  0
BLOCK
  5
1FB
330
1FA
100
AcDbEntity
  8
0
100
AcDbBlockBegin
  2
*D2
 70
     1
 10
0.0
 20
0.0
 30
0.0
  3
*D2
  1

  0
LINE
  5
1FC
330
1FA
100
AcDbEntity
  8
S10_Quote
 62
     0
370
    -2
100
AcDbLine
 10
481.4260144007356
 20
5303.862855966587
 30
0.0
 11
481.4260144007356
 21
5311.922170185597
 31
0.0
  0
LINE
  5
1FD
330
1FA
100
AcDbEntity
  8
S10_Quote
 62
     0
370
    -2
100
AcDbLine
 10
505.826014400826
 20
5303.862855966499
 30
0.0
 11
505.826014400826
 21
5311.922170185597
 31
0.0
  0
LINE
  5
1FE
330
1FA
100
AcDbEntity
  8
S10_Quote
 62
     0
370
    -2
100
AcDbLine
 10
481.4410144007356
 20
5310.672170185597
 30
0.0
 11
505.811014400826
 21
5310.672170185597
 31
0.0
  0
INSERT
  5
1FF
330
1FA
100
AcDbEntity
  8
S10_Quote
 62
     0
370
    -2
100
AcDbBlockReference
  2
A$C79C4041D
 10
481.4260144007356
 20
5310.672170185597
 30
0.0
 41
0.015
 42
0.015
 43
0.015
 50
180.0
  0
INSERT
  5
200
330
1FA
100
AcDbEntity
  8
S10_Quote
 62
     0
370
    -2
100
AcDbBlockReference
  2
A$C79C4041D
 10
505.826014400826
 20
5310.672170185597
 30
0.0
 41
0.015
 42
0.015
 43
0.015
  0
MTEXT
  5
201
330
1FA
100
AcDbEntity
  8
S10_Quote
 62
     0
100
AcDbMText
 10
493.6260144007808
 20
5312.493848507275
 30
0.0
 40
2.0
 41
0.0
 71
     5
 72
     1
  1
24.4
  7
wurth
 73
     1
 44
1.0
  0
POINT
  5
202
330
1FA
100
AcDbEntity
  8
Defpoints
 62
     0
100
AcDbPoint
 10
481.4260144007356
 20
5303.237855966586
 30
0.0
  0
POINT
  5
203
330
1FA
100
AcDbEntity
  8
Defpoints
 62
     0
100
AcDbPoint
 10
505.826014400826
 20
5303.2378559665
 30
0.0
  0
POINT
  5
204
330
1FA
100
AcDbEntity
  8
Defpoints
 62
     0
100
AcDbPoint
 10
505.826014400826
 20
5310.672170185597
 30
0.0
  0
ENDBLK
  5
205
330
1FA
100
AcDbEntity
  8
0
100
AcDbBlockEnd
  0
BLOCK
  5
207
330
206
100
AcDbEntity
  8
0
100
AcDbBlockBegin
  2
*D3
 70
     1
 10
0.0
 20
0.0
 30
0.0
  3
*D3
  1

  0
LINE
  5
208
330
206
100
AcDbEntity
  8
S10_Quote
 62
     0
370
    -2
100
AcDbLine
 10
478.1260144006814
 20
5305.16285596656
 30
0.0
 11
478.1260144006814
 21
5316.812544623314
 31
0.0
  0
LINE
  5
209
330
206
100
AcDbEntity
  8
S10_Quote
 62
     0
370
    -2
100
AcDbLine
 10
509.1260144006816
 20
5305.162855966473
 30
0.0
 11
509.1260144006816
 21
5316.812544623314
 31
0.0
  0
LINE
  5
20A
330
206
100
AcDbEntity
  8
S10_Quote
 62
     0
370
    -2
100
AcDbLine
 10
478.1410144006813
 20
5315.562544623314
 30
0.0
 11
509.1110144006815
 21
5315.562544623314
 31
0.0
  0
INSERT
  5
20B
330
206
100
AcDbEntity
  8
S10_Quote
 62
     0
370
    -2
100
AcDbBlockReference
  2
A$C79C4041D
 10
478.1260144006814
 20
5315.562544623314
 30
0.0
 41
0.015
 42
0.015
 43
0.015
 50
180.0
  0
INSERT
  5
20C
330
206
100
AcDbEntity
  8
S10_Quote
 62
     0
370
    -2
100
AcDbBlockReference
  2
A$C79C4041D
 10
509.1260144006816
 20
5315.562544623314
 30
0.0
 41
0.015
 42
0.015
 43
0.015
  0
MTEXT
  5
20D
330
206
100
AcDbEntity
  8
S10_Quote
 62
     0
100
AcDbMText
 10
493.6260144006815
 20
5317.377929238698
 30
0.0
 40
2.0
 41
0.0
 71
     5
 72
     1
  1
31
  7
wurth
 73
     1
 44
1.0
  0
POINT
  5
20E
330
206
100
AcDbEntity
  8
Defpoints
 62
     0
100
AcDbPoint
 10
478.1260144006814
 20
5304.53785596656
 30
0.0
  0
POINT
  5
20F
330
206
100
AcDbEntity
  8
Defpoints
 62
     0
100
AcDbPoint
 10
509.1260144006816
 20
5304.537855966473
 30
0.0
  0
POINT
  5
210
330
206
100
AcDbEntity
  8
Defpoints
 62
     0
100
AcDbPoint
 10
509.1260144006816
 20
5315.562544623314
 30
0.0
  0
ENDBLK
  5
211
330
206
100
AcDbEntity
  8
0
100
AcDbBlockEnd
  0
BLOCK
  5
213
330
212
100
AcDbEntity
  8
0
100
AcDbBlockBegin
  2
*D4
 70
     1
 10
0.0
 20
0.0
 30
0.0
  3
*D4
  1

  0
LINE
  5
214
330
212
100
AcDbEntity
  8
S10_Quote
 62
     0
370
    -2
100
AcDbLine
 10
507.2288387136063
 20
5304.737855966479
 30
0.0
 11
530.9491550492391
 21
5304.737855966479
 31
0.0
  0
LINE
  5
215
330
212
100
AcDbEntity
  8
S10_Quote
 62
     0
370
    -2
100
AcDbLine
 10
507.228838713583
 20
5264.737855966497
 30
0.0
 11
530.9491550492391
 21
5264.737855966497
 31
0.0
  0
LINE
  5
216
330
212
100
AcDbEntity
  8
S10_Quote
 62
     0
370
    -2
100
AcDbLine
 10
529.6991550492391
 20
5304.722855966479
 30
0.0
 11
529.6991550492391
 21
5264.752855966498
 31
0.0
  0
INSERT
  5
217
330
212
100
AcDbEntity
  8
S10_Quote
 62
     0
370
    -2
100
AcDbBlockReference
  2
A$C79C4041D
 10
529.6991550492391
 20
5304.737855966479
 30
0.0
 41
0.015
 42
0.015
 43
0.015
 50
90.0
  0
INSERT
  5
218
330
212
100
AcDbEntity
  8
S10_Quote
 62
     0
370
    -2
100
AcDbBlockReference
  2
A$C79C4041D
 10
529.6991550492391
 20
5264.737855966497
 30
0.0
 41
0.015
 42
0.015
 43
0.015
 50
270.0
  0
MTEXT
  5
219
330
212
100
AcDbEntity
  8
S10_Quote
 62
     0
100
AcDbMText
 10
527.8760781261614
 20
5284.737855966489
 30
0.0
 40
2.0
 41
0.0
 71
     5
 72
     1
  1
40
  7
wurth
 11
0.0000000000000001
 21
1.0
 31
0.0
 73
     1
 44
1.0
  0
POINT
  5
21A
330
212
100
AcDbEntity
  8
Defpoints
 62
     0
100
AcDbPoint
 10
506.6038387136063
 20
5304.737855966479
 30
0.0
  0
POINT
  5
21B
330
212
100
AcDbEntity
  8
Defpoints
 62
     0
100
AcDbPoint
 10
506.6038387135829
 20
5264.737855966497
 30
0.0
  0
POINT
  5
21C
330
212
100
AcDbEntity
  8
Defpoints
 62
     0
100
AcDbPoint
 10
529.6991550492391
 20
5264.737855966497
 30
0.0
  0
ENDBLK
  5
21D
330
212
100
AcDbEntity
  8
0
100
AcDbBlockEnd
  0
BLOCK
  5
21F
330
21E
100
AcDbEntity
  8
0
100
AcDbBlockBegin
  2
*D5
 70
     1
 10
0.0
 20
0.0
 30
0.0
  3
*D5
  1

  0
LINE
  5
220
330
21E
100
AcDbEntity
  8
S10_Quote
 62
     0
370
    -2
100
AcDbLine
 10
515.5260144005999
 20
5265.989142079888
 30
0.0
 11
515.5260144005999
 21
5258.357078269091
 31
0.0
  0
LINE
  5
221
330
21E
100
AcDbEntity
  8
S10_Quote
 62
     0
370
    -2
100
AcDbLine
 10
478.1260144006764
 20
5265.989142079888
 30
0.0
 11
478.1260144006764
 21
5258.357078269091
 31
0.0
  0
LINE
  5
222
330
21E
100
AcDbEntity
  8
S10_Quote
 62
     0
370
    -2
100
AcDbLine
 10
515.5110144005999
 20
5259.607078269091
 30
0.0
 11
478.1410144006764
 21
5259.607078269091
 31
0.0
  0
INSERT
  5
223
330
21E
100
AcDbEntity
  8
S10_Quote
 62
     0
370
    -2
100
AcDbBlockReference
  2
A$C79C4041D
 10
515.5260144005999
 20
5259.607078269091
 30
0.0
 41
0.015
 42
0.015
 43
0.015
  0
INSERT
  5
224
330
21E
100
AcDbEntity
  8
S10_Quote
 62
     0
370
    -2
100
AcDbBlockReference
  2
A$C79C4041D
 10
478.1260144006764
 20
5259.607078269091
 30
0.0
 41
0.015
 42
0.015
 43
0.015
 50
180.0
  0
MTEXT
  5
225
330
21E
100
AcDbEntity
  8
S10_Quote
 62
     0
100
AcDbMText
 10
496.8260144006381
 20
5261.437148199161
 30
0.0
 40
2.0
 41
0.0
 71
     5
 72
     1
  1
37.4
  7
wurth
 73
     1
 44
1.0
  0
POINT
  5
226
330
21E
100
AcDbEntity
  8
Defpoints
 62
     0
100
AcDbPoint
 10
515.5260144005999
 20
5266.614142079887
 30
0.0
  0
POINT
  5
227
330
21E
100
AcDbEntity
  8
Defpoints
 62
     0
100
AcDbPoint
 10
478.1260144006764
 20
5266.614142079887
 30
0.0
  0
POINT
  5
228
330
21E
100
AcDbEntity
  8
Defpoints
 62
     0
100
AcDbPoint
 10
478.1260144006764
 20
5259.607078269091
 30
0.0
  0
ENDBLK
  5
229
330
21E
100
AcDbEntity
  8
0
100
AcDbBlockEnd
  0
BLOCK
  5
22B
330
22A
100
AcDbEntity
  8
0
100
AcDbBlockBegin
  2
*D6
 70
     1
 10
0.0
 20
0.0
 30
0.0
  3
*D6
  1

  0
LINE
  5
22C
330
22A
100
AcDbEntity
  8
S10_Quote
 62
     0
370
    -2
100
AcDbLine
 10
479.4260144006764
 20
5278.935804983415
 30
0.0
 11
479.4260144006764
 21
5279.855020871841
 31
0.0
  0
LINE
  5
22D
330
22A
100
AcDbEntity
  8
S10_Quote
 62
     0
370
    -2
100
AcDbLine
 10
478.1260144006764
 20
5278.935804983415
 30
0.0
 11
478.1260144006764
 21
5279.855020871841
 31
0.0
  0
LINE
  5
22E
330
22A
100
AcDbEntity
  8
S10_Quote
 62
     0
370
    -2
100
AcDbLine
 10
479.4410144006763
 20
5278.60502087184
 30
0.0
 11
479.4560144006764
 21
5278.60502087184
 31
0.0
  0
LINE
  5
22F
330
22A
100
AcDbEntity
  8
S10_Quote
 62
     0
370
    -2
100
AcDbLine
 10
478.1110144006764
 20
5278.60502087184
 30
0.0
 11
472.7724386059946
 21
5278.60502087184
 31
0.0
  0
LINE
  5
230
330
22A
100
AcDbEntity
  8
S10_Quote
 62
     0
370
    -2
100
AcDbLine
 10
479.4260144006764
 20
5278.60502087184
 30
0.0
 11
478.1260144006764
 21
5278.60502087184
 31
0.0
  0
INSERT
  5
231
330
22A
100
AcDbEntity
  8
S10_Quote
 62
     0
370
    -2
100
AcDbBlockReference
  2
A$C79C4041D
 10
479.4260144006764
 20
5278.60502087184
 30
0.0
 41
0.015
 42
0.015
 43
0.015
 50
180.0
  0
INSERT
  5
232
330
22A
100
AcDbEntity
  8
S10_Quote
 62
     0
370
    -2
100
AcDbBlockReference
  2
A$C79C4041D
 10
478.1260144006764
 20
5278.60502087184
 30
0.0
 41
0.015
 42
0.015
 43
0.015
  0
MTEXT
  5
233
330
22A
100
AcDbEntity
  8
S10_Quote
 62
     0
100
AcDbMText
 10
475.1416693752253
 20
5280.420405487225
 30
0.0
 40
2.0
 41
0.0
 71
     5
 72
     1
  1
1.3
  7
wurth
 73
     1
 44
1.0
  0
POINT
  5
234
330
22A
100
AcDbEntity
  8
Defpoints
 62
     0
100
AcDbPoint
 10
479.4260144006764
 20
5278.310804983415
 30
0.0
  0
POINT
  5
235
330
22A
100
AcDbEntity
  8
Defpoints
 62
     0
100
AcDbPoint
 10
478.1260144006764
 20
5278.310804983415
 30
0.0
  0
POINT
  5
236
330
22A
100
AcDbEntity
  8
Defpoints
 62
     0
100
AcDbPoint
 10
478.1260144006764
 20
5278.60502087184
 30
0.0
  0
ENDBLK
  5
237
330
22A
100
AcDbEntity
  8
0
100
AcDbBlockEnd
  0
BLOCK
  5
239
330
238
100
AcDbEntity
  8
0
100
AcDbBlockBegin
  2
*D7
 70
     1
 10
0.0
 20
0.0
 30
0.0
  3
*D7
  1

  0
LINE
  5
23A
330
238
100
AcDbEntity
  8
S10_Quote
 62
     0
370
    -2
100
AcDbLine
 10
494.2510144006819
 20
5304.737855966514
 30
0.0
 11
498.9831967849495
 21
5304.737855966514
 31
0.0
  0
LINE
  5
23B
330
238
100
AcDbEntity
  8
S10_Quote
 62
     0
370
    -2
100
AcDbLine
 10
494.2510144006782
 20
5303.437855966551
 30
0.0
 11
498.9831967849495
 21
5303.437855966551
 31
0.0
  0
LINE
  5
23C
330
238
100
AcDbEntity
  8
S10_Quote
 62
     0
370
    -2
100
AcDbLine
 10
497.7331967849495
 20
5303.422855966551
 30
0.0
 11
497.7331967849495
 21
5303.407855966551
 31
0.0
  0
LINE
  5
23D
330
238
100
AcDbEntity
  8
S10_Quote
 62
     0
370
    -2
100
AcDbLine
 10
497.7331967849495
 20
5304.752855966516
 30
0.0
 11
497.7331967849495
 21
5309.506317504977
 31
0.0
  0
LINE
  5
23E
330
238
100
AcDbEntity
  8
S10_Quote
 62
     0
370
    -2
100
AcDbLine
 10
497.7331967849495
 20
5303.437855966551
 30
0.0
 11
497.7331967849495
 21
5304.737855966514
 31
0.0
  0
INSERT
  5
23F
330
238
100
AcDbEntity
  8
S10_Quote
 62
     0
370
    -2
100
AcDbBlockReference
  2
A$C79C4041D
 10
497.7331967849495
 20
5303.437855966551
 30
0.0
 41
0.015
 42
0.015
 43
0.015
 50
90.0
  0
INSERT
  5
240
330
238
100
AcDbEntity
  8
S10_Quote
 62
     0
370
    -2
100
AcDbBlockReference
  2
A$C79C4041D
 10
497.7331967849495
 20
5304.737855966514
 30
0.0
 41
0.015
 42
0.015
 43
0.015
 50
270.0
  0
MTEXT
  5
241
330
238
100
AcDbEntity
  8
S10_Quote
 62
     0
100
AcDbMText
 10
495.9178121695639
 20
5307.137086735746
 30
0.0
 40
2.0
 41
0.0
 71
     5
 72
     1
  1
1.3
  7
wurth
 11
0.0000000000000001
 21
1.0
 31
0.0
 73
     1
 44
1.0
  0
POINT
  5
242
330
238
100
AcDbEntity
  8
Defpoints
 62
     0
100
AcDbPoint
 10
493.6260144006819
 20
5304.737855966514
 30
0.0
  0
POINT
  5
243
330
238
100
AcDbEntity
  8
Defpoints
 62
     0
100
AcDbPoint
 10
493.6260144006781
 20
5303.437855966551
 30
0.0
  0
POINT
  5
244
330
238
100
AcDbEntity
  8
Defpoints
 62
     0
100
AcDbPoint
 10
497.7331967849495
 20
5303.437855966551
 30
0.0
  0
ENDBLK
  5
245
330
238
100
AcDbEntity
  8
0
100
AcDbBlockEnd
  0
BLOCK
  5
247
330
246
100
AcDbEntity
  8
0
100
AcDbBlockBegin
  2
*D8
 70
     1
 10
0.0
 20
0.0
 30
0.0
  3
*D8
  1

  0
LINE
  5
248
330
246
100
AcDbEntity
  8
S10_Quote
 62
     0
370
    -2
100
AcDbLine
 10
477.7010144006764
 20
5264.737855966493
 30
0.0
 11
466.4942612607701
 21
5264.737855966493
 31
0.0
  0
LINE
  5
249
330
246
100
AcDbEntity
  8
S10_Quote
 62
     0
370
    -2
100
AcDbLine
 10
477.5063646027827
 20
5290.736592955125
 30
0.0
 11
466.4942612607701
 21
5290.736592955125
 31
0.0
  0
LINE
  5
24A
330
246
100
AcDbEntity
  8
S10_Quote
 62
     0
370
    -2
100
AcDbLine
 10
467.7442612607701
 20
5264.752855966493
 30
0.0
 11
467.7442612607701
 21
5290.721592955125
 31
0.0
  0
INSERT
  5
24B
330
246
100
AcDbEntity
  8
S10_Quote
 62
     0
370
    -2
100
AcDbBlockReference
  2
A$C79C4041D
 10
467.7442612607701
 20
5264.737855966493
 30
0.0
 41
0.015
 42
0.015
 43
0.015
 50
270.0
  0
INSERT
  5
24C
330
246
100
AcDbEntity
  8
S10_Quote
 62
     0
370
    -2
100
AcDbBlockReference
  2
A$C79C4041D
 10
467.7442612607701
 20
5290.736592955125
 30
0.0
 41
0.015
 42
0.015
 43
0.015
 50
90.0
  0
MTEXT
  5
24D
330
246
100
AcDbEntity
  8
S10_Quote
 62
     0
100
AcDbMText
 10
465.9288766453847
 20
5277.737224460809
 30
0.0
 40
2.0
 41
0.0
 71
     5
 72
     1
  1
26
  7
wurth
 11
0.0000000000000001
 21
1.0
 31
0.0
 73
     1
 44
1.0
  0
POINT
  5
24E
330
246
100
AcDbEntity
  8
Defpoints
 62
     0
100
AcDbPoint
 10
478.3260144006764
 20
5264.737855966493
 30
0.0
  0
POINT
  5
24F
330
246
100
AcDbEntity
  8
Defpoints
 62
     0
100
AcDbPoint
 10
478.1313646027826
 20
5290.736592955125
 30
0.0
  0
POINT
  5
250
330
246
100
AcDbEntity
  8
Defpoints
 62
     0
100
AcDbPoint
 10
467.7442612607701
 20
5290.736592955125
 30
0.0
  0
ENDBLK
  5
251
330
246
100
AcDbEntity
  8
0
100
AcDbBlockEnd
  0
BLOCK
  5
253
330
252
100
AcDbEntity
  8
0
100
AcDbBlockBegin
  2
*D9
 70
     1
 10
0.0
 20
0.0
 30
0.0
  3
*D9
  1

  0
LINE
  5
254
330
252
100
AcDbEntity
  8
S10_Quote
 62
     0
370
    -2
100
AcDbLine
 10
477.5063646027827
 20
5290.736592955125
 30
0.0
 11
466.4942612607701
 21
5290.736592955125
 31
0.0
  0
LINE
  5
255
330
252
100
AcDbEntity
  8
S10_Quote
 62
     0
370
    -2
100
AcDbLine
 10
479.4956641985432
 20
5294.739118977905
 30
0.0
 11
466.4942612607701
 21
5294.739118977905
 31
0.0
  0
LINE
  5
256
330
252
100
AcDbEntity
  8
S10_Quote
 62
     0
370
    -2
100
AcDbLine
 10
467.7442612607701
 20
5290.751592955126
 30
0.0
 11
467.7442612607701
 21
5294.724118977905
 31
0.0
  0
INSERT
  5
257
330
252
100
AcDbEntity
  8
S10_Quote
 62
     0
370
    -2
100
AcDbBlockReference
  2
A$C79C4041D
 10
467.7442612607701
 20
5290.736592955125
 30
0.0
 41
0.015
 42
0.015
 43
0.015
 50
270.0
  0
INSERT
  5
258
330
252
100
AcDbEntity
  8
S10_Quote
 62
     0
370
    -2
100
AcDbBlockReference
  2
A$C79C4041D
 10
467.7442612607701
 20
5294.739118977905
 30
0.0
 41
0.015
 42
0.015
 43
0.015
 50
90.0
  0
MTEXT
  5
259
330
252
100
AcDbEntity
  8
S10_Quote
 62
     0
100
AcDbMText
 10
465.9365689530769
 20
5292.737855966516
 30
0.0
 40
2.0
 41
0.0
 71
     5
 72
     1
  1
4
  7
wurth
 11
0.0000000000000001
 21
1.0
 31
0.0
 73
     1
 44
1.0
  0
POINT
  5
25A
330
252
100
AcDbEntity
  8
Defpoints
 62
     0
100
AcDbPoint
 10
478.1313646027826
 20
5290.736592955125
 30
0.0
  0
POINT
  5
25B
330
252
100
AcDbEntity
  8
Defpoints
 62
     0
100
AcDbPoint
 10
480.1206641985433
 20
5294.739118977905
 30
0.0
  0
POINT
  5
25C
330
252
100
AcDbEntity
  8
Defpoints
 62
     0
100
AcDbPoint
 10
467.7442612607701
 20
5294.739118977905
 30
0.0
  0
ENDBLK
  5
25D
330
252
100
AcDbEntity
  8
0
100
AcDbBlockEnd
  0
BLOCK
  5
25F
330
25E
100
AcDbEntity
  8
0
100
AcDbBlockBegin
  2
*D10
 70
     1
 10
0.0
 20
0.0
 30
0.0
  3
*D10
  1

  0
LINE
  5
260
330
25E
100
AcDbEntity
  8
S10_Quote
 62
     0
370
    -2
100
AcDbLine
 10
479.4956641985432
 20
5294.739118977905
 30
0.0
 11
466.4942612607701
 21
5294.739118977905
 31
0.0
  0
LINE
  5
261
330
25E
100
AcDbEntity
  8
S10_Quote
 62
     0
370
    -2
100
AcDbLine
 10
477.8108184958731
 20
5304.737855966557
 30
0.0
 11
466.4942612607701
 21
5304.737855966557
 31
0.0
  0
LINE
  5
262
330
25E
100
AcDbEntity
  8
S10_Quote
 62
     0
370
    -2
100
AcDbLine
 10
467.7442612607701
 20
5294.754118977905
 30
0.0
 11
467.7442612607701
 21
5304.722855966556
 31
0.0
  0
INSERT
  5
263
330
25E
100
AcDbEntity
  8
S10_Quote
 62
     0
370
    -2
100
AcDbBlockReference
  2
A$C79C4041D
 10
467.7442612607701
 20
5294.739118977905
 30
0.0
 41
0.015
 42
0.015
 43
0.015
 50
270.0
  0
INSERT
  5
264
330
25E
100
AcDbEntity
  8
S10_Quote
 62
     0
370
    -2
100
AcDbBlockReference
  2
A$C79C4041D
 10
467.7442612607701
 20
5304.737855966557
 30
0.0
 41
0.015
 42
0.015
 43
0.015
 50
90.0
  0
MTEXT
  5
265
330
25E
100
AcDbEntity
  8
S10_Quote
 62
     0
100
AcDbMText
 10
465.9288766453847
 20
5299.738487472231
 30
0.0
 40
2.0
 41
0.0
 71
     5
 72
     1
  1
10
  7
wurth
 11
0.0000000000000001
 21
1.0
 31
0.0
 73
     1
 44
1.0
  0
POINT
  5
266
330
25E
100
AcDbEntity
  8
Defpoints
 62
     0
100
AcDbPoint
 10
480.1206641985433
 20
5294.739118977905
 30
0.0
  0
POINT
  5
267
330
25E
100
AcDbEntity
  8
Defpoints
 62
     0
100
AcDbPoint
 10
478.4358184958731
 20
5304.737855966557
 30
0.0
  0
POINT
  5
268
330
25E
100
AcDbEntity
  8
Defpoints
 62
     0
100
AcDbPoint
 10
467.7442612607701
 20
5304.737855966557
 30
0.0
  0
ENDBLK
  5
269
330
25E
100
AcDbEntity
  8
0
100
AcDbBlockEnd
  0
BLOCK
  5
26B
330
26A
100
AcDbEntity
  8
0
100
AcDbBlockBegin
  2
*D11
 70
     1
 10
0.0
 20
0.0
 30
0.0
  3
*D11
  1

  0
LINE
  5
26C
330
26A
100
AcDbEntity
  8
S10_Quote
 62
     0
370
    -2
100
AcDbLine
 10
507.3105956514127
 20
5292.363451196772
 30
0.0
 11
507.3105956514127
 21
5294.940335661348
 31
0.0
  0
LINE
  5
26D
330
26A
100
AcDbEntity
  8
S10_Quote
 62
     0
370
    -2
100
AcDbLine
 10
515.5260144005999
 20
5291.270520580119
 30
0.0
 11
515.5260144005999
 21
5294.940335661348
 31
0.0
  0
LINE
  5
26E
330
26A
100
AcDbEntity
  8
S10_Quote
 62
     0
370
    -2
100
AcDbLine
 10
507.3255956514127
 20
5293.690335661349
 30
0.0
 11
515.5110144005999
 21
5293.690335661349
 31
0.0
  0
INSERT
  5
26F
330
26A
100
AcDbEntity
  8
S10_Quote
 62
     0
370
    -2
100
AcDbBlockReference
  2
A$C79C4041D
 10
507.3105956514127
 20
5293.690335661349
 30
0.0
 41
0.015
 42
0.015
 43
0.015
 50
180.0
  0
INSERT
  5
270
330
26A
100
AcDbEntity
  8
S10_Quote
 62
     0
370
    -2
100
AcDbBlockReference
  2
A$C79C4041D
 10
515.5260144005999
 20
5293.690335661349
 30
0.0
 41
0.015
 42
0.015
 43
0.015
  0
MTEXT
  5
271
330
26A
100
AcDbEntity
  8
S10_Quote
 62
     0
100
AcDbMText
 10
511.4183050260063
 20
5295.505720276732
 30
0.0
 40
2.0
 41
0.0
 71
     5
 72
     1
  1
8.22
  7
wurth
 73
     1
 44
1.0
  0
POINT
  5
272
330
26A
100
AcDbEntity
  8
Defpoints
 62
     0
100
AcDbPoint
 10
507.3105956514127
 20
5291.738451196772
 30
0.0
  0
POINT
  5
273
330
26A
100
AcDbEntity
  8
Defpoints
 62
     0
100
AcDbPoint
 10
515.5260144005999
 20
5290.645520580119
 30
0.0
  0
POINT
  5
274
330
26A
100
AcDbEntity
  8
Defpoints
 62
     0
100
AcDbPoint
 10
515.5260144005999
 20
5293.690335661349
 30
0.0
  0
ENDBLK
  5
275
330
26A
100
AcDbEntity
  8
0
100
AcDbBlockEnd
  0
BLOCK
  5
277
330
276
100
AcDbEntity
  8
0
100
AcDbBlockBegin
  2
*D12
 70
     1
 10
0.0
 20
0.0
 30
0.0
  3
*D12
  1

  0
LINE
  5
278
330
276
100
AcDbEntity
  8
S10_Quote
 62
     0
370
    -2
100
AcDbLine
 10
514.9510144005999
 20
5264.737855966493
 30
0.0
 11
522.295433618948
 21
5264.737855966493
 31
0.0
  0
LINE
  5
279
330
276
100
AcDbEntity
  8
S10_Quote
 62
     0
370
    -2
100
AcDbLine
 10
514.9510144005999
 20
5271.237855966493
 30
0.0
 11
522.295433618948
 21
5271.237855966493
 31
0.0
  0
LINE
  5
27A
330
276
100
AcDbEntity
  8
S10_Quote
 62
     0
370
    -2
100
AcDbLine
 10
521.045433618948
 20
5264.752855966493
 30
0.0
 11
521.045433618948
 21
5271.222855966493
 31
0.0
  0
INSERT
  5
27B
330
276
100
AcDbEntity
  8
S10_Quote
 62
     0
370
    -2
100
AcDbBlockReference
  2
A$C79C4041D
 10
521.045433618948
 20
5264.737855966493
 30
0.0
 41
0.015
 42
0.015
 43
0.015
 50
270.0
  0
INSERT
  5
27C
330
276
100
AcDbEntity
  8
S10_Quote
 62
     0
370
    -2
100
AcDbBlockReference
  2
A$C79C4041D
 10
521.045433618948
 20
5271.237855966493
 30
0.0
 41
0.015
 42
0.015
 43
0.015
 50
90.0
  0
MTEXT
  5
27D
330
276
100
AcDbEntity
  8
S10_Quote
 62
     0
100
AcDbMText
 10
519.2300490035626
 20
5267.987855966492
 30
0.0
 40
2.0
 41
0.0
 71
     5
 72
     1
  1
6.5
  7
wurth
 11
0.0000000000000001
 21
1.0
 31
0.0
 73
     1
 44
1.0
  0
POINT
  5
27E
330
276
100
AcDbEntity
  8
Defpoints
 62
     0
100
AcDbPoint
 10
514.3260144005998
 20
5264.737855966493
 30
0.0
  0
POINT
  5
27F
330
276
100
AcDbEntity
  8
Defpoints
 62
     0
100
AcDbPoint
 10
514.3260144005998
 20
5271.237855966493
 30
0.0
  0
POINT
  5
280
330
276
100
AcDbEntity
  8
Defpoints
 62
     0
100
AcDbPoint
 10
521.045433618948
 20
5271.237855966493
 30
0.0
  0
ENDBLK
  5
281
330
276
100
AcDbEntity
  8
0
100
AcDbBlockEnd
  0
BLOCK
  5
283
330
282
100
AcDbEntity
  8
0
100
AcDbBlockBegin
  2
*D13
 70
     1
 10
0.0
 20
0.0
 30
0.0
  3
*D13
  1

  0
LINE
  5
284
330
282
100
AcDbEntity
  8
S10_Quote
 62
     0
370
    -2
100
AcDbLine
 10
514.9510144005999
 20
5271.237855966493
 30
0.0
 11
522.295433618948
 21
5271.237855966493
 31
0.0
  0
LINE
  5
285
330
282
100
AcDbEntity
  8
S10_Quote
 62
     0
370
    -2
100
AcDbLine
 10
514.746517036399
 20
5285.237855966493
 30
0.0
 11
522.295433618948
 21
5285.237855966493
 31
0.0
  0
LINE
  5
286
330
282
100
AcDbEntity
  8
S10_Quote
 62
     0
370
    -2
100
AcDbLine
 10
521.045433618948
 20
5271.252855966493
 30
0.0
 11
521.045433618948
 21
5285.222855966493
 31
0.0
  0
INSERT
  5
287
330
282
100
AcDbEntity
  8
S10_Quote
 62
     0
370
    -2
100
AcDbBlockReference
  2
A$C79C4041D
 10
521.045433618948
 20
5271.237855966493
 30
0.0
 41
0.015
 42
0.015
 43
0.015
 50
270.0
  0
INSERT
  5
288
330
282
100
AcDbEntity
  8
S10_Quote
 62
     0
370
    -2
100
AcDbBlockReference
  2
A$C79C4041D
 10
521.045433618948
 20
5285.237855966493
 30
0.0
 41
0.015
 42
0.015
 43
0.015
 50
90.0
  0
MTEXT
  5
289
330
282
100
AcDbEntity
  8
S10_Quote
 62
     0
100
AcDbMText
 10
519.2377413112549
 20
5278.237855966493
 30
0.0
 40
2.0
 41
0.0
 71
     5
 72
     1
  1
14
  7
wurth
 11
0.0000000000000001
 21
1.0
 31
0.0
 73
     1
 44
1.0
  0
POINT
  5
28A
330
282
100
AcDbEntity
  8
Defpoints
 62
     0
100
AcDbPoint
 10
514.3260144005998
 20
5271.237855966493
 30
0.0
  0
POINT
  5
28B
330
282
100
AcDbEntity
  8
Defpoints
 62
     0
100
AcDbPoint
 10
514.121517036399
 20
5285.237855966493
 30
0.0
  0
POINT
  5
28C
330
282
100
AcDbEntity
  8
Defpoints
 62
     0
100
AcDbPoint
 10
521.045433618948
 20
5285.237855966493
 30
0.0
  0
ENDBLK
  5
28D
330
282
100
AcDbEntity
  8
0
100
AcDbBlockEnd
  0
BLOCK
  5
28F
330
28E
100
AcDbEntity
  8
0
100
AcDbBlockBegin
  2
*D14
 70
     1
 10
0.0
 20
0.0
 30
0.0
  3
*D14
  1

  0
LINE
  5
290
330
28E
100
AcDbEntity
  8
S10_Quote
 62
     0
370
    -2
100
AcDbLine
 10
514.746517036399
 20
5285.237855966493
 30
0.0
 11
522.295433618948
 21
5285.237855966493
 31
0.0
  0
LINE
  5
291
330
28E
100
AcDbEntity
  8
S10_Quote
 62
     0
370
    -2
100
AcDbLine
 10
515.0046042390853
 20
5291.737855966492
 30
0.0
 11
522.295433618948
 21
5291.737855966492
 31
0.0
  0
LINE
  5
292
330
28E
100
AcDbEntity
  8
S10_Quote
 62
     0
370
    -2
100
AcDbLine
 10
521.045433618948
 20
5285.252855966493
 30
0.0
 11
521.045433618948
 21
5291.722855966492
 31
0.0
  0
INSERT
  5
293
330
28E
100
AcDbEntity
  8
S10_Quote
 62
     0
370
    -2
100
AcDbBlockReference
  2
A$C79C4041D
 10
521.045433618948
 20
5285.237855966493
 30
0.0
 41
0.015
 42
0.015
 43
0.015
 50
270.0
  0
INSERT
  5
294
330
28E
100
AcDbEntity
  8
S10_Quote
 62
     0
370
    -2
100
AcDbBlockReference
  2
A$C79C4041D
 10
521.045433618948
 20
5291.737855966492
 30
0.0
 41
0.015
 42
0.015
 43
0.015
 50
90.0
  0
MTEXT
  5
295
330
28E
100
AcDbEntity
  8
S10_Quote
 62
     0
100
AcDbMText
 10
519.2300490035626
 20
5288.487855966492
 30
0.0
 40
2.0
 41
0.0
 71
     5
 72
     1
  1
6.5
  7
wurth
 11
0.0000000000000001
 21
1.0
 31
0.0
 73
     1
 44
1.0
  0
POINT
  5
296
330
28E
100
AcDbEntity
  8
Defpoints
 62
     0
100
AcDbPoint
 10
514.121517036399
 20
5285.237855966493
 30
0.0
  0
POINT
  5
297
330
28E
100
AcDbEntity
  8
Defpoints
 62
     0
100
AcDbPoint
 10
514.3796042390853
 20
5291.737855966492
 30
0.0
  0
POINT
  5
298
330
28E
100
AcDbEntity
  8
Defpoints
 62
     0
100
AcDbPoint
 10
521.045433618948
 20
5291.737855966492
 30
0.0
  0
ENDBLK
  5
299
330
28E
100
AcDbEntity
  8
0
100
AcDbBlockEnd
  0
BLOCK
  5
29B
330
29A
100
AcDbEntity
  8
0
100
AcDbBlockBegin
  2
*D15
 70
     1
 10
0.0
 20
0.0
 30
0.0
  3
*D15
  1

  0
LINE
  5
29C
330
29A
100
AcDbEntity
  8
S10_Quote
 62
     0
370
    -2
100
AcDbLine
 10
513.6260144005998
 20
5271.662855966493
 30
0.0
 11
513.6260144005998
 21
5274.221852096615
 31
0.0
  0
LINE
  5
29D
330
29A
100
AcDbEntity
  8
S10_Quote
 62
     0
370
    -2
100
AcDbLine
 10
507.1260144005997
 20
5271.713700949542
 30
0.0
 11
507.1260144005997
 21
5274.221852096615
 31
0.0
  0
LINE
  5
29E
330
29A
100
AcDbEntity
  8
S10_Quote
 62
     0
370
    -2
100
AcDbLine
 10
513.6110144005998
 20
5272.971852096614
 30
0.0
 11
507.1410144005997
 21
5272.971852096614
 31
0.0
  0
INSERT
  5
29F
330
29A
100
AcDbEntity
  8
S10_Quote
 62
     0
370
    -2
100
AcDbBlockReference
  2
A$C79C4041D
 10
513.6260144005998
 20
5272.971852096614
 30
0.0
 41
0.015
 42
0.015
 43
0.015
  0
INSERT
  5
2A0
330
29A
100
AcDbEntity
  8
S10_Quote
 62
     0
370
    -2
100
AcDbBlockReference
  2
A$C79C4041D
 10
507.1260144005997
 20
5272.971852096614
 30
0.0
 41
0.015
 42
0.015
 43
0.015
 50
180.0
  0
MTEXT
  5
2A1
330
29A
100
AcDbEntity
  8
S10_Quote
 62
     0
100
AcDbMText
 10
510.3760144005997
 20
5274.787236711999
 30
0.0
 40
2.0
 41
0.0
 71
     5
 72
     1
  1
6.5
  7
wurth
 73
     1
 44
1.0
  0
POINT
  5
2A2
330
29A
100
AcDbEntity
  8
Defpoints
 62
     0
100
AcDbPoint
 10
513.6260144005998
 20
5271.037855966493
 30
0.0
  0
POINT
  5
2A3
330
29A
100
AcDbEntity
  8
Defpoints
 62
     0
100
AcDbPoint
 10
507.1260144005997
 20
5271.088700949542
 30
0.0
  0
POINT
  5
2A4
330
29A
100
AcDbEntity
  8
Defpoints
 62
     0
100
AcDbPoint
 10
507.1260144005997
 20
5272.971852096614
 30
0.0
  0
ENDBLK
  5
2A5
330
29A
100
AcDbEntity
  8
0
100
AcDbBlockEnd
  0
BLOCK
  5
32D
330
32C
100
AcDbEntity
  8
0
100
AcDbBlockBegin
  2
*D17
 70
     1
 10
0.0
 20
0.0
 30
0.0
  3
*D17
  1

  0
LINE
  5
3D8
330
32C
100
AcDbEntity
  8
S10_Quote
 62
     0
370
    -2
100
AcDbLine
 10
2336.415488025238
 20
808.1086509454387
 30
0.0
 11
2336.415488025238
 21
816.1679651644487
 31
0.0
  0
LINE
  5
3D9
330
32C
100
AcDbEntity
  8
S10_Quote
 62
     0
370
    -2
100
AcDbLine
 10
2360.815488025329
 20
808.1086509453514
 30
0.0
 11
2360.815488025329
 21
816.1679651644487
 31
0.0
  0
LINE
  5
3DA
330
32C
100
AcDbEntity
  8
S10_Quote
 62
     0
370
    -2
100
AcDbLine
 10
2336.430488025238
 20
814.9179651644487
 30
0.0
 11
2360.800488025328
 21
814.9179651644487
 31
0.0
  0
INSERT
  5
3DB
330
32C
100
AcDbEntity
  8
S10_Quote
 62
     0
370
    -2
100
AcDbBlockReference
  2
A$C79C4041D
 10
2336.415488025238
 20
814.9179651644487
 30
0.0
 41
0.015
 42
0.015
 43
0.015
 50
180.0
  0
INSERT
  5
3DC
330
32C
100
AcDbEntity
  8
S10_Quote
 62
     0
370
    -2
100
AcDbBlockReference
  2
A$C79C4041D
 10
2360.815488025329
 20
814.9179651644487
 30
0.0
 41
0.015
 42
0.015
 43
0.015
  0
MTEXT
  5
3DD
330
32C
100
AcDbEntity
  8
S10_Quote
 62
     0
100
AcDbMText
 10
2348.615488025283
 20
816.739643486127
 30
0.0
 40
2.0
 41
0.0
 71
     5
 72
     1
  1
24.4
  7
wurth
 73
     1
 44
1.0
  0
POINT
  5
3DE
330
32C
100
AcDbEntity
  8
Defpoints
 62
     0
100
AcDbPoint
 10
2336.415488025238
 20
807.4836509454387
 30
0.0
  0
POINT
  5
3DF
330
32C
100
AcDbEntity
  8
Defpoints
 62
     0
100
AcDbPoint
 10
2360.815488025329
 20
807.4836509453515
 30
0.0
  0
POINT
  5
3E0
330
32C
100
AcDbEntity
  8
Defpoints
 62
     0
100
AcDbPoint
 10
2360.815488025329
 20
814.9179651644487
 30
0.0
  0
ENDBLK
  5
32E
330
32C
100
AcDbEntity
  8
0
100
AcDbBlockEnd
  0
BLOCK
  5
339
330
338
100
AcDbEntity
  8
0
100
AcDbBlockBegin
  2
*D18
 70
     1
 10
0.0
 20
0.0
 30
0.0
  3
*D18
  1

  0
LINE
  5
3E1
330
338
100
AcDbEntity
  8
S10_Quote
 62
     0
370
    -2
100
AcDbLine
 10
2333.115488025184
 20
809.4086509454115
 30
0.0
 11
2333.115488025184
 21
821.0583396021654
 31
0.0
  0
LINE
  5
3E2
330
338
100
AcDbEntity
  8
S10_Quote
 62
     0
370
    -2
100
AcDbLine
 10
2364.115488025184
 20
809.4086509453251
 30
0.0
 11
2364.115488025184
 21
821.0583396021654
 31
0.0
  0
LINE
  5
3E3
330
338
100
AcDbEntity
  8
S10_Quote
 62
     0
370
    -2
100
AcDbLine
 10
2333.130488025184
 20
819.8083396021653
 30
0.0
 11
2364.100488025184
 21
819.8083396021653
 31
0.0
  0
INSERT
  5
3E4
330
338
100
AcDbEntity
  8
S10_Quote
 62
     0
370
    -2
100
AcDbBlockReference
  2
A$C79C4041D
 10
2333.115488025184
 20
819.8083396021653
 30
0.0
 41
0.015
 42
0.015
 43
0.015
 50
180.0
  0
INSERT
  5
3E5
330
338
100
AcDbEntity
  8
S10_Quote
 62
     0
370
    -2
100
AcDbBlockReference
  2
A$C79C4041D
 10
2364.115488025184
 20
819.8083396021653
 30
0.0
 41
0.015
 42
0.015
 43
0.015
  0
MTEXT
  5
3E6
330
338
100
AcDbEntity
  8
S10_Quote
 62
     0
100
AcDbMText
 10
2348.615488025184
 20
821.6237242175498
 30
0.0
 40
2.0
 41
0.0
 71
     5
 72
     1
  1
31
  7
wurth
 73
     1
 44
1.0
  0
POINT
  5
3E7
330
338
100
AcDbEntity
  8
Defpoints
 62
     0
100
AcDbPoint
 10
2333.115488025184
 20
808.7836509454115
 30
0.0
  0
POINT
  5
3E8
330
338
100
AcDbEntity
  8
Defpoints
 62
     0
100
AcDbPoint
 10
2364.115488025184
 20
808.783650945325
 30
0.0
  0
POINT
  5
3E9
330
338
100
AcDbEntity
  8
Defpoints
 62
     0
100
AcDbPoint
 10
2364.115488025184
 20
819.8083396021653
 30
0.0
  0
ENDBLK
  5
33A
330
338
100
AcDbEntity
  8
0
100
AcDbBlockEnd
  0
BLOCK
  5
345
330
344
100
AcDbEntity
  8
0
100
AcDbBlockBegin
  2
*D19
 70
     1
 10
0.0
 20
0.0
 30
0.0
  3
*D19
  1

  0
LINE
  5
347
330
344
100
AcDbEntity
  8
S10_Quote
 62
     0
370
    -2
100
AcDbLine
 10
2362.218312338109
 20
808.9836509453316
 30
0.0
 11
2385.938628673742
 21
808.9836509453316
 31
0.0
  0
LINE
  5
348
330
344
100
AcDbEntity
  8
S10_Quote
 62
     0
370
    -2
100
AcDbLine
 10
2362.218312338086
 20
768.9836509453498
 30
0.0
 11
2385.938628673742
 21
768.9836509453498
 31
0.0
  0
LINE
  5
349
330
344
100
AcDbEntity
  8
S10_Quote
 62
     0
370
    -2
100
AcDbLine
 10
2384.688628673742
 20
808.9686509453317
 30
0.0
 11
2384.688628673742
 21
768.9986509453498
 31
0.0
  0
INSERT
  5
34A
330
344
100
AcDbEntity
  8
S10_Quote
 62
     0
370
    -2
100
AcDbBlockReference
  2
A$C79C4041D
 10
2384.688628673742
 20
808.9836509453316
 30
0.0
 41
0.015
 42
0.015
 43
0.015
 50
90.0
  0
INSERT
  5
34B
330
344
100
AcDbEntity
  8
S10_Quote
 62
     0
370
    -2
100
AcDbBlockReference
  2
A$C79C4041D
 10
2384.688628673742
 20
768.9836509453498
 30
0.0
 41
0.015
 42
0.015
 43
0.015
 50
270.0
  0
MTEXT
  5
34C
330
344
100
AcDbEntity
  8
S10_Quote
 62
     0
100
AcDbMText
 10
2382.865551750665
 20
788.9836509453411
 30
0.0
 40
2.0
 41
0.0
 71
     5
 72
     1
  1
40
  7
wurth
 11
0.0000000000000001
 21
1.0
 31
0.0
 73
     1
 44
1.0
  0
POINT
  5
34D
330
344
100
AcDbEntity
  8
Defpoints
 62
     0
100
AcDbPoint
 10
2361.593312338109
 20
808.9836509453316
 30
0.0
  0
POINT
  5
34E
330
344
100
AcDbEntity
  8
Defpoints
 62
     0
100
AcDbPoint
 10
2361.593312338086
 20
768.9836509453498
 30
0.0
  0
POINT
  5
34F
330
344
100
AcDbEntity
  8
Defpoints
 62
     0
100
AcDbPoint
 10
2384.688628673742
 20
768.9836509453498
 30
0.0
  0
ENDBLK
  5
346
330
344
100
AcDbEntity
  8
0
100
AcDbBlockEnd
  0
BLOCK
  5
351
330
350
100
AcDbEntity
  8
0
100
AcDbBlockBegin
  2
*D20
 70
     1
 10
0.0
 20
0.0
 30
0.0
  3
*D20
  1

  0
LINE
  5
3EA
330
350
100
AcDbEntity
  8
S10_Quote
 62
     0
370
    -2
100
AcDbLine
 10
2370.515488025102
 20
770.2349370587399
 30
0.0
 11
2370.515488025102
 21
762.6028732479436
 31
0.0
  0
LINE
  5
3EB
330
350
100
AcDbEntity
  8
S10_Quote
 62
     0
370
    -2
100
AcDbLine
 10
2333.115488025179
 20
770.2349370587399
 30
0.0
 11
2333.115488025179
 21
762.6028732479436
 31
0.0
  0
LINE
  5
3EC
330
350
100
AcDbEntity
  8
S10_Quote
 62
     0
370
    -2
100
AcDbLine
 10
2370.500488025102
 20
763.8528732479436
 30
0.0
 11
2333.130488025179
 21
763.8528732479436
 31
0.0
  0
INSERT
  5
3ED
330
350
100
AcDbEntity
  8
S10_Quote
 62
     0
370
    -2
100
AcDbBlockReference
  2
A$C79C4041D
 10
2370.515488025102
 20
763.8528732479436
 30
0.0
 41
0.015
 42
0.015
 43
0.015
  0
INSERT
  5
3EE
330
350
100
AcDbEntity
  8
S10_Quote
 62
     0
370
    -2
100
AcDbBlockReference
  2
A$C79C4041D
 10
2333.115488025179
 20
763.8528732479436
 30
0.0
 41
0.015
 42
0.015
 43
0.015
 50
180.0
  0
MTEXT
  5
3EF
330
350
100
AcDbEntity
  8
S10_Quote
 62
     0
100
AcDbMText
 10
2351.81548802514
 20
765.6829431780136
 30
0.0
 40
2.0
 41
0.0
 71
     5
 72
     1
  1
37.4
  7
wurth
 73
     1
 44
1.0
  0
POINT
  5
3F0
330
350
100
AcDbEntity
  8
Defpoints
 62
     0
100
AcDbPoint
 10
2370.515488025102
 20
770.85993705874
 30
0.0
  0
POINT
  5
3F1
330
350
100
AcDbEntity
  8
Defpoints
 62
     0
100
AcDbPoint
 10
2333.115488025179
 20
770.85993705874
 30
0.0
  0
POINT
  5
3F2
330
350
100
AcDbEntity
  8
Defpoints
 62
     0
100
AcDbPoint
 10
2333.115488025179
 20
763.8528732479436
 30
0.0
  0
ENDBLK
  5
352
330
350
100
AcDbEntity
  8
0
100
AcDbBlockEnd
  0
BLOCK
  5
35D
330
35C
100
AcDbEntity
  8
0
100
AcDbBlockBegin
  2
*D21
 70
     1
 10
0.0
 20
0.0
 30
0.0
  3
*D21
  1

  0
LINE
  5
35F
330
35C
100
AcDbEntity
  8
S10_Quote
 62
     0
370
    -2
100
AcDbLine
 10
2334.415488025179
 20
783.1815999622667
 30
0.0
 11
2334.415488025179
 21
784.1008158506929
 31
0.0
  0
LINE
  5
360
330
35C
100
AcDbEntity
  8
S10_Quote
 62
     0
370
    -2
100
AcDbLine
 10
2333.115488025179
 20
783.1815999622667
 30
0.0
 11
2333.115488025179
 21
784.1008158506929
 31
0.0
  0
LINE
  5
361
330
35C
100
AcDbEntity
  8
S10_Quote
 62
     0
370
    -2
100
AcDbLine
 10
2334.430488025179
 20
782.8508158506929
 30
0.0
 11
2334.445488025179
 21
782.8508158506929
 31
0.0
  0
LINE
  5
362
330
35C
100
AcDbEntity
  8
S10_Quote
 62
     0
370
    -2
100
AcDbLine
 10
2333.100488025179
 20
782.8508158506929
 30
0.0
 11
2327.761912230497
 21
782.8508158506929
 31
0.0
  0
LINE
  5
363
330
35C
100
AcDbEntity
  8
S10_Quote
 62
     0
370
    -2
100
AcDbLine
 10
2334.415488025179
 20
782.8508158506929
 30
0.0
 11
2333.115488025179
 21
782.8508158506929
 31
0.0
  0
INSERT
  5
364
330
35C
100
AcDbEntity
  8
S10_Quote
 62
     0
370
    -2
100
AcDbBlockReference
  2
A$C79C4041D
 10
2334.415488025179
 20
782.8508158506929
 30
0.0
 41
0.015
 42
0.015
 43
0.015
 50
180.0
  0
INSERT
  5
365
330
35C
100
AcDbEntity
  8
S10_Quote
 62
     0
370
    -2
100
AcDbBlockReference
  2
A$C79C4041D
 10
2333.115488025179
 20
782.8508158506929
 30
0.0
 41
0.015
 42
0.015
 43
0.015
  0
MTEXT
  5
366
330
35C
100
AcDbEntity
  8
S10_Quote
 62
     0
100
AcDbMText
 10
2330.131142999728
 20
784.6662004660775
 30
0.0
 40
2.0
 41
0.0
 71
     5
 72
     1
  1
1.3
  7
wurth
 73
     1
 44
1.0
  0
POINT
  5
367
330
35C
100
AcDbEntity
  8
Defpoints
 62
     0
100
AcDbPoint
 10
2334.415488025179
 20
782.5565999622668
 30
0.0
  0
POINT
  5
368
330
35C
100
AcDbEntity
  8
Defpoints
 62
     0
100
AcDbPoint
 10
2333.115488025179
 20
782.5565999622668
 30
0.0
  0
POINT
  5
369
330
35C
100
AcDbEntity
  8
Defpoints
 62
     0
100
AcDbPoint
 10
2333.115488025179
 20
782.8508158506929
 30
0.0
  0
ENDBLK
  5
35E
330
35C
100
AcDbEntity
  8
0
100
AcDbBlockEnd
  0
BLOCK
  5
36B
330
36A
100
AcDbEntity
  8
0
100
AcDbBlockBegin
  2
*D22
 70
     1
 10
0.0
 20
0.0
 30
0.0
  3
*D22
  1

  0
LINE
  5
36D
330
36A
100
AcDbEntity
  8
S10_Quote
 62
     0
370
    -2
100
AcDbLine
 10
2349.240488025184
 20
808.9836509453672
 30
0.0
 11
2353.972670409451
 21
808.9836509453672
 31
0.0
  0
LINE
  5
36E
330
36A
100
AcDbEntity
  8
S10_Quote
 62
     0
370
    -2
100
AcDbLine
 10
2349.240488025181
 20
807.6836509454032
 30
0.0
 11
2353.972670409451
 21
807.6836509454032
 31
0.0
  0
LINE
  5
36F
330
36A
100
AcDbEntity
  8
S10_Quote
 62
     0
370
    -2
100
AcDbLine
 10
2352.722670409451
 20
807.6686509454033
 30
0.0
 11
2352.722670409451
 21
807.6536509454033
 31
0.0
  0
LINE
  5
370
330
36A
100
AcDbEntity
  8
S10_Quote
 62
     0
370
    -2
100
AcDbLine
 10
2352.722670409451
 20
808.9986509453671
 30
0.0
 11
2352.722670409451
 21
813.752112483829
 31
0.0
  0
LINE
  5
371
330
36A
100
AcDbEntity
  8
S10_Quote
 62
     0
370
    -2
100
AcDbLine
 10
2352.722670409451
 20
807.6836509454032
 30
0.0
 11
2352.722670409451
 21
808.9836509453672
 31
0.0
  0
INSERT
  5
372
330
36A
100
AcDbEntity
  8
S10_Quote
 62
     0
370
    -2
100
AcDbBlockReference
  2
A$C79C4041D
 10
2352.722670409451
 20
807.6836509454032
 30
0.0
 41
0.015
 42
0.015
 43
0.015
 50
90.0
  0
INSERT
  5
373
330
36A
100
AcDbEntity
  8
S10_Quote
 62
     0
370
    -2
100
AcDbBlockReference
  2
A$C79C4041D
 10
2352.722670409451
 20
808.9836509453672
 30
0.0
 41
0.015
 42
0.015
 43
0.015
 50
270.0
  0
MTEXT
  5
374
330
36A
100
AcDbEntity
  8
S10_Quote
 62
     0
100
AcDbMText
 10
2350.907285794066
 20
811.3828817145986
 30
0.0
 40
2.0
 41
0.0
 71
     5
 72
     1
  1
1.3
  7
wurth
 11
0.0000000000000001
 21
1.0
 31
0.0
 73
     1
 44
1.0
  0
POINT
  5
375
330
36A
100
AcDbEntity
  8
Defpoints
 62
     0
100
AcDbPoint
 10
2348.615488025184
 20
808.9836509453672
 30
0.0
  0
POINT
  5
376
330
36A
100
AcDbEntity
  8
Defpoints
 62
     0
100
AcDbPoint
 10
2348.615488025181
 20
807.6836509454032
 30
0.0
  0
POINT
  5
377
330
36A
100
AcDbEntity
  8
Defpoints
 62
     0
100
AcDbPoint
 10
2352.722670409451
 20
807.6836509454032
 30
0.0
  0
ENDBLK
  5
36C
330
36A
100
AcDbEntity
  8
0
100
AcDbBlockEnd
  0
BLOCK
  5
379
330
378
100
AcDbEntity
  8
0
100
AcDbBlockBegin
  2
*D23
 70
     1
 10
0.0
 20
0.0
 30
0.0
  3
*D23
  1

  0
LINE
  5
3F3
330
378
100
AcDbEntity
  8
S10_Quote
 62
     0
370
    -2
100
AcDbLine
 10
2332.690488025178
 20
768.983650945345
 30
0.0
 11
2321.483734885273
 21
768.983650945345
 31
0.0
  0
LINE
  5
3F4
330
378
100
AcDbEntity
  8
S10_Quote
 62
     0
370
    -2
100
AcDbLine
 10
2332.495838227286
 20
794.9823879339771
 30
0.0
 11
2321.483734885273
 21
794.9823879339771
 31
0.0
  0
LINE
  5
3F5
330
378
100
AcDbEntity
  8
S10_Quote
 62
     0
370
    -2
100
AcDbLine
 10
2322.733734885273
 20
768.998650945345
 30
0.0
 11
2322.733734885273
 21
794.9673879339772
 31
0.0
  0
INSERT
  5
3F6
330
378
100
AcDbEntity
  8
S10_Quote
 62
     0
370
    -2
100
AcDbBlockReference
  2
A$C79C4041D
 10
2322.733734885273
 20
768.983650945345
 30
0.0
 41
0.015
 42
0.015
 43
0.015
 50
270.0
  0
INSERT
  5
3F7
330
378
100
AcDbEntity
  8
S10_Quote
 62
     0
370
    -2
100
AcDbBlockReference
  2
A$C79C4041D
 10
2322.733734885273
 20
794.9823879339771
 30
0.0
 41
0.015
 42
0.015
 43
0.015
 50
90.0
  0
MTEXT
  5
3F8
330
378
100
AcDbEntity
  8
S10_Quote
 62
     0
100
AcDbMText
 10
2320.918350269888
 20
781.9830194396615
 30
0.0
 40
2.0
 41
0.0
 71
     5
 72
     1
  1
26
  7
wurth
 11
0.0000000000000001
 21
1.0
 31
0.0
 73
     1
 44
1.0
  0
POINT
  5
3F9
330
378
100
AcDbEntity
  8
Defpoints
 62
     0
100
AcDbPoint
 10
2333.315488025179
 20
768.983650945345
 30
0.0
  0
POINT
  5
3FA
330
378
100
AcDbEntity
  8
Defpoints
 62
     0
100
AcDbPoint
 10
2333.120838227285
 20
794.9823879339771
 30
0.0
  0
POINT
  5
3FB
330
378
100
AcDbEntity
  8
Defpoints
 62
     0
100
AcDbPoint
 10
2322.733734885273
 20
794.9823879339771
 30
0.0
  0
ENDBLK
  5
37A
330
378
100
AcDbEntity
  8
0
100
AcDbBlockEnd
  0
BLOCK
  5
385
330
384
100
AcDbEntity
  8
0
100
AcDbBlockBegin
  2
*D24
 70
     1
 10
0.0
 20
0.0
 30
0.0
  3
*D24
  1

  0
LINE
  5
3FC
330
384
100
AcDbEntity
  8
S10_Quote
 62
     0
370
    -2
100
AcDbLine
 10
2332.495838227285
 20
794.9823879339772
 30
0.0
 11
2321.483734885272
 21
794.9823879339772
 31
0.0
  0
LINE
  5
3FD
330
384
100
AcDbEntity
  8
S10_Quote
 62
     0
370
    -2
100
AcDbLine
 10
2334.485137823045
 20
798.9849139567576
 30
0.0
 11
2321.483734885272
 21
798.9849139567576
 31
0.0
  0
LINE
  5
3FE
330
384
100
AcDbEntity
  8
S10_Quote
 62
     0
370
    -2
100
AcDbLine
 10
2322.733734885272
 20
794.9973879339773
 30
0.0
 11
2322.733734885272
 21
798.9699139567576
 31
0.0
  0
INSERT
  5
3FF
330
384
100
AcDbEntity
  8
S10_Quote
 62
     0
370
    -2
100
AcDbBlockReference
  2
A$C79C4041D
 10
2322.733734885272
 20
794.9823879339772
 30
0.0
 41
0.015
 42
0.015
 43
0.015
 50
270.0
  0
INSERT
  5
400
330
384
100
AcDbEntity
  8
S10_Quote
 62
     0
370
    -2
100
AcDbBlockReference
  2
A$C79C4041D
 10
2322.733734885272
 20
798.9849139567576
 30
0.0
 41
0.015
 42
0.015
 43
0.015
 50
90.0
  0
MTEXT
  5
401
330
384
100
AcDbEntity
  8
S10_Quote
 62
     0
100
AcDbMText
 10
2320.92604257758
 20
796.9836509453679
 30
0.0
 40
2.0
 41
0.0
 71
     5
 72
     1
  1
4
  7
wurth
 11
0.0000000000000001
 21
1.0
 31
0.0
 73
     1
 44
1.0
  0
POINT
  5
402
330
384
100
AcDbEntity
  8
Defpoints
 62
     0
100
AcDbPoint
 10
2333.120838227285
 20
794.9823879339772
 30
0.0
  0
POINT
  5
403
330
384
100
AcDbEntity
  8
Defpoints
 62
     0
100
AcDbPoint
 10
2335.110137823045
 20
798.9849139567576
 30
0.0
  0
POINT
  5
404
330
384
100
AcDbEntity
  8
Defpoints
 62
     0
100
AcDbPoint
 10
2322.733734885272
 20
798.9849139567576
 30
0.0
  0
ENDBLK
  5
386
330
384
100
AcDbEntity
  8
0
100
AcDbBlockEnd
  0
BLOCK
  5
391
330
390
100
AcDbEntity
  8
0
100
AcDbBlockBegin
  2
*D25
 70
     1
 10
0.0
 20
0.0
 30
0.0
  3
*D25
  1

  0
LINE
  5
405
330
390
100
AcDbEntity
  8
S10_Quote
 62
     0
370
    -2
100
AcDbLine
 10
2334.485137823046
 20
798.9849139567577
 30
0.0
 11
2321.483734885273
 21
798.9849139567577
 31
0.0
  0
LINE
  5
406
330
390
100
AcDbEntity
  8
S10_Quote
 62
     0
370
    -2
100
AcDbLine
 10
2332.800292120376
 20
808.9836509454089
 30
0.0
 11
2321.483734885273
 21
808.9836509454089
 31
0.0
  0
LINE
  5
407
330
390
100
AcDbEntity
  8
S10_Quote
 62
     0
370
    -2
100
AcDbLine
 10
2322.733734885273
 20
798.9999139567577
 30
0.0
 11
2322.733734885273
 21
808.9686509454089
 31
0.0
  0
INSERT
  5
408
330
390
100
AcDbEntity
  8
S10_Quote
 62
     0
370
    -2
100
AcDbBlockReference
  2
A$C79C4041D
 10
2322.733734885273
 20
798.9849139567577
 30
0.0
 41
0.015
 42
0.015
 43
0.015
 50
270.0
  0
INSERT
  5
409
330
390
100
AcDbEntity
  8
S10_Quote
 62
     0
370
    -2
100
AcDbBlockReference
  2
A$C79C4041D
 10
2322.733734885273
 20
808.9836509454089
 30
0.0
 41
0.015
 42
0.015
 43
0.015
 50
90.0
  0
MTEXT
  5
40A
330
390
100
AcDbEntity
  8
S10_Quote
 62
     0
100
AcDbMText
 10
2320.918350269888
 20
803.9842824510838
 30
0.0
 40
2.0
 41
0.0
 71
     5
 72
     1
  1
10
  7
wurth
 11
0.0000000000000001
 21
1.0
 31
0.0
 73
     1
 44
1.0
  0
POINT
  5
40B
330
390
100
AcDbEntity
  8
Defpoints
 62
     0
100
AcDbPoint
 10
2335.110137823046
 20
798.9849139567577
 30
0.0
  0
POINT
  5
40C
330
390
100
AcDbEntity
  8
Defpoints
 62
     0
100
AcDbPoint
 10
2333.425292120375
 20
808.9836509454089
 30
0.0
  0
POINT
  5
40D
330
390
100
AcDbEntity
  8
Defpoints
 62
     0
100
AcDbPoint
 10
2322.733734885273
 20
808.9836509454089
 30
0.0
  0
ENDBLK
  5
392
330
390
100
AcDbEntity
  8
0
100
AcDbBlockEnd
  0
BLOCK
  5
39D
330
39C
100
AcDbEntity
  8
0
100
AcDbBlockBegin
  2
*D26
 70
     1
 10
0.0
 20
0.0
 30
0.0
  3
*D26
  1

  0
LINE
  5
40E
330
39C
100
AcDbEntity
  8
S10_Quote
 62
     0
370
    -2
100
AcDbLine
 10
2362.125962899572
 20
796.744774292432
 30
0.0
 11
2362.125962899572
 21
799.3216587570082
 31
0.0
  0
LINE
  5
40F
330
39C
100
AcDbEntity
  8
S10_Quote
 62
     0
370
    -2
100
AcDbLine
 10
2370.515488025102
 20
795.5163155589707
 30
0.0
 11
2370.515488025102
 21
799.3216587570082
 31
0.0
  0
LINE
  5
410
330
39C
100
AcDbEntity
  8
S10_Quote
 62
     0
370
    -2
100
AcDbLine
 10
2362.140962899572
 20
798.0716587570082
 30
0.0
 11
2370.500488025102
 21
798.0716587570082
 31
0.0
  0
INSERT
  5
411
330
39C
100
AcDbEntity
  8
S10_Quote
 62
     0
370
    -2
100
AcDbBlockReference
  2
A$C79C4041D
 10
2362.125962899572
 20
798.0716587570082
 30
0.0
 41
0.015
 42
0.015
 43
0.015
 50
180.0
  0
INSERT
  5
412
330
39C
100
AcDbEntity
  8
S10_Quote
 62
     0
370
    -2
100
AcDbBlockReference
  2
A$C79C4041D
 10
2370.515488025102
 20
798.0716587570082
 30
0.0
 41
0.015
 42
0.015
 43
0.015
  0
MTEXT
  5
413
330
39C
100
AcDbEntity
  8
S10_Quote
 62
     0
100
AcDbMText
 10
2366.320725462337
 20
799.8947356800851
 30
0.0
 40
2.0
 41
0.0
 71
     5
 72
     1
  1
8.39
  7
wurth
 73
     1
 44
1.0
  0
POINT
  5
414
330
39C
100
AcDbEntity
  8
Defpoints
 62
     0
100
AcDbPoint
 10
2362.125962899572
 20
796.119774292432
 30
0.0
  0
POINT
  5
415
330
39C
100
AcDbEntity
  8
Defpoints
 62
     0
100
AcDbPoint
 10
2370.515488025102
 20
794.8913155589707
 30
0.0
  0
POINT
  5
416
330
39C
100
AcDbEntity
  8
Defpoints
 62
     0
100
AcDbPoint
 10
2370.515488025102
 20
798.0716587570082
 30
0.0
  0
ENDBLK
  5
39E
330
39C
100
AcDbEntity
  8
0
100
AcDbBlockEnd
  0
BLOCK
  5
3A9
330
3A8
100
AcDbEntity
  8
0
100
AcDbBlockBegin
  2
*D27
 70
     1
 10
0.0
 20
0.0
 30
0.0
  3
*D27
  1

  0
LINE
  5
3AB
330
3A8
100
AcDbEntity
  8
S10_Quote
 62
     0
370
    -2
100
AcDbLine
 10
2369.940488025102
 20
768.9836509453453
 30
0.0
 11
2377.28490724345
 21
768.9836509453453
 31
0.0
  0
LINE
  5
3AC
330
3A8
100
AcDbEntity
  8
S10_Quote
 62
     0
370
    -2
100
AcDbLine
 10
2369.940488025102
 20
775.4836509453452
 30
0.0
 11
2377.28490724345
 21
775.4836509453452
 31
0.0
  0
LINE
  5
3AD
330
3A8
100
AcDbEntity
  8
S10_Quote
 62
     0
370
    -2
100
AcDbLine
 10
2376.03490724345
 20
768.9986509453452
 30
0.0
 11
2376.03490724345
 21
775.4686509453453
 31
0.0
  0
INSERT
  5
3AE
330
3A8
100
AcDbEntity
  8
S10_Quote
 62
     0
370
    -2
100
AcDbBlockReference
  2
A$C79C4041D
 10
2376.03490724345
 20
768.9836509453453
 30
0.0
 41
0.015
 42
0.015
 43
0.015
 50
270.0
  0
INSERT
  5
3AF
330
3A8
100
AcDbEntity
  8
S10_Quote
 62
     0
370
    -2
100
AcDbBlockReference
  2
A$C79C4041D
 10
2376.03490724345
 20
775.4836509453452
 30
0.0
 41
0.015
 42
0.015
 43
0.015
 50
90.0
  0
MTEXT
  5
3B0
330
3A8
100
AcDbEntity
  8
S10_Quote
 62
     0
100
AcDbMText
 10
2374.219522628066
 20
772.2336509453457
 30
0.0
 40
2.0
 41
0.0
 71
     5
 72
     1
  1
6.5
  7
wurth
 11
0.0000000000000001
 21
1.0
 31
0.0
 73
     1
 44
1.0
  0
POINT
  5
3B1
330
3A8
100
AcDbEntity
  8
Defpoints
 62
     0
100
AcDbPoint
 10
2369.315488025102
 20
768.9836509453453
 30
0.0
  0
POINT
  5
3B2
330
3A8
100
AcDbEntity
  8
Defpoints
 62
     0
100
AcDbPoint
 10
2369.315488025102
 20
775.4836509453452
 30
0.0
  0
POINT
  5
3B3
330
3A8
100
AcDbEntity
  8
Defpoints
 62
     0
100
AcDbPoint
 10
2376.03490724345
 20
775.4836509453452
 30
0.0
  0
ENDBLK
  5
3AA
330
3A8
100
AcDbEntity
  8
0
100
AcDbBlockEnd
  0
BLOCK
  5
3B5
330
3B4
100
AcDbEntity
  8
0
100
AcDbBlockBegin
  2
*D28
 70
     1
 10
0.0
 20
0.0
 30
0.0
  3
*D28
  1

  0
LINE
  5
3B7
330
3B4
100
AcDbEntity
  8
S10_Quote
 62
     0
370
    -2
100
AcDbLine
 10
2369.940488025102
 20
775.4836509453452
 30
0.0
 11
2377.28490724345
 21
775.4836509453452
 31
0.0
  0
LINE
  5
3B8
330
3B4
100
AcDbEntity
  8
S10_Quote
 62
     0
370
    -2
100
AcDbLine
 10
2369.735990660901
 20
789.4836509453453
 30
0.0
 11
2377.28490724345
 21
789.4836509453453
 31
0.0
  0
LINE
  5
3B9
330
3B4
100
AcDbEntity
  8
S10_Quote
 62
     0
370
    -2
100
AcDbLine
 10
2376.03490724345
 20
775.4986509453453
 30
0.0
 11
2376.03490724345
 21
789.4686509453452
 31
0.0
  0
INSERT
  5
3BA
330
3B4
100
AcDbEntity
  8
S10_Quote
 62
     0
370
    -2
100
AcDbBlockReference
  2
A$C79C4041D
 10
2376.03490724345
 20
775.4836509453452
 30
0.0
 41
0.015
 42
0.015
 43
0.015
 50
270.0
  0
INSERT
  5
3BB
330
3B4
100
AcDbEntity
  8
S10_Quote
 62
     0
370
    -2
100
AcDbBlockReference
  2
A$C79C4041D
 10
2376.03490724345
 20
789.4836509453453
 30
0.0
 41
0.015
 42
0.015
 43
0.015
 50
90.0
  0
MTEXT
  5
3BC
330
3B4
100
AcDbEntity
  8
S10_Quote
 62
     0
100
AcDbMText
 10
2374.227214935758
 20
782.4836509453457
 30
0.0
 40
2.0
 41
0.0
 71
     5
 72
     1
  1
14
  7
wurth
 11
0.0000000000000001
 21
1.0
 31
0.0
 73
     1
 44
1.0
  0
POINT
  5
3BD
330
3B4
100
AcDbEntity
  8
Defpoints
 62
     0
100
AcDbPoint
 10
2369.315488025102
 20
775.4836509453452
 30
0.0
  0
POINT
  5
3BE
330
3B4
100
AcDbEntity
  8
Defpoints
 62
     0
100
AcDbPoint
 10
2369.110990660901
 20
789.4836509453453
 30
0.0
  0
POINT
  5
3BF
330
3B4
100
AcDbEntity
  8
Defpoints
 62
     0
100
AcDbPoint
 10
2376.03490724345
 20
789.4836509453453
 30
0.0
  0
ENDBLK
  5
3B6
330
3B4
100
AcDbEntity
  8
0
100
AcDbBlockEnd
  0
BLOCK
  5
3C1
330
3C0
100
AcDbEntity
  8
0
100
AcDbBlockBegin
  2
*D29
 70
     1
 10
0.0
 20
0.0
 30
0.0
  3
*D29
  1

  0
LINE
  5
417
330
3C0
100
AcDbEntity
  8
S10_Quote
 62
     0
370
    -2
100
AcDbLine
 10
2369.735990660902
 20
789.4836509453453
 30
0.0
 11
2377.284907243451
 21
789.4836509453453
 31
0.0
  0
LINE
  5
418
330
3C0
100
AcDbEntity
  8
S10_Quote
 62
     0
370
    -2
100
AcDbLine
 10
2369.994077863589
 20
795.9836509453444
 30
0.0
 11
2377.284907243451
 21
795.9836509453444
 31
0.0
  0
LINE
  5
419
330
3C0
100
AcDbEntity
  8
S10_Quote
 62
     0
370
    -2
100
AcDbLine
 10
2376.03490724345
 20
789.4986509453453
 30
0.0
 11
2376.03490724345
 21
795.9686509453444
 31
0.0
  0
INSERT
  5
41A
330
3C0
100
AcDbEntity
  8
S10_Quote
 62
     0
370
    -2
100
AcDbBlockReference
  2
A$C79C4041D
 10
2376.03490724345
 20
789.4836509453453
 30
0.0
 41
0.015
 42
0.015
 43
0.015
 50
270.0
  0
INSERT
  5
41B
330
3C0
100
AcDbEntity
  8
S10_Quote
 62
     0
370
    -2
100
AcDbBlockReference
  2
A$C79C4041D
 10
2376.03490724345
 20
795.9836509453444
 30
0.0
 41
0.015
 42
0.015
 43
0.015
 50
90.0
  0
MTEXT
  5
41C
330
3C0
100
AcDbEntity
  8
S10_Quote
 62
     0
100
AcDbMText
 10
2374.219522628066
 20
792.7336509453453
 30
0.0
 40
2.0
 41
0.0
 71
     5
 72
     1
  1
6.5
  7
wurth
 11
0.0000000000000001
 21
1.0
 31
0.0
 73
     1
 44
1.0
  0
POINT
  5
41D
330
3C0
100
AcDbEntity
  8
Defpoints
 62
     0
100
AcDbPoint
 10
2369.110990660902
 20
789.4836509453453
 30
0.0
  0
POINT
  5
41E
330
3C0
100
AcDbEntity
  8
Defpoints
 62
     0
100
AcDbPoint
 10
2369.369077863588
 20
795.9836509453444
 30
0.0
  0
POINT
  5
41F
330
3C0
100
AcDbEntity
  8
Defpoints
 62
     0
100
AcDbPoint
 10
2376.03490724345
 20
795.9836509453444
 30
0.0
  0
ENDBLK
  5
3C2
330
3C0
100
AcDbEntity
  8
0
100
AcDbBlockEnd
  0
BLOCK
  5
3CD
330
3CC
100
AcDbEntity
  8
0
100
AcDbBlockBegin
  2
*D30
 70
     1
 10
0.0
 20
0.0
 30
0.0
  3
*D30
  1

  0
LINE
  5
3CF
330
3CC
100
AcDbEntity
  8
S10_Quote
 62
     0
370
    -2
100
AcDbLine
 10
2368.615488025103
 20
775.9086509453454
 30
0.0
 11
2368.615488025103
 21
778.4676470754666
 31
0.0
  0
LINE
  5
3D0
330
3CC
100
AcDbEntity
  8
S10_Quote
 62
     0
370
    -2
100
AcDbLine
 10
2362.115488025102
 20
775.9594959283941
 30
0.0
 11
2362.115488025102
 21
778.4676470754666
 31
0.0
  0
LINE
  5
3D1
330
3CC
100
AcDbEntity
  8
S10_Quote
 62
     0
370
    -2
100
AcDbLine
 10
2368.600488025103
 20
777.2176470754666
 30
0.0
 11
2362.130488025102
 21
777.2176470754666
 31
0.0
  0
INSERT
  5
3D2
330
3CC
100
AcDbEntity
  8
S10_Quote
 62
     0
370
    -2
100
AcDbBlockReference
  2
A$C79C4041D
 10
2368.615488025103
 20
777.2176470754666
 30
0.0
 41
0.015
 42
0.015
 43
0.015
  0
INSERT
  5
3D3
330
3CC
100
AcDbEntity
  8
S10_Quote
 62
     0
370
    -2
100
AcDbBlockReference
  2
A$C79C4041D
 10
2362.115488025102
 20
777.2176470754666
 30
0.0
 41
0.015
 42
0.015
 43
0.015
 50
180.0
  0
MTEXT
  5
3D4
330
3CC
100
AcDbEntity
  8
S10_Quote
 62
     0
100
AcDbMText
 10
2365.365488025103
 20
779.0330316908511
 30
0.0
 40
2.0
 41
0.0
 71
     5
 72
     1
  1
6.5
  7
wurth
 73
     1
 44
1.0
  0
POINT
  5
3D5
330
3CC
100
AcDbEntity
  8
Defpoints
 62
     0
100
AcDbPoint
 10
2368.615488025103
 20
775.2836509453454
 30
0.0
  0
POINT
  5
3D6
330
3CC
100
AcDbEntity
  8
Defpoints
 62
     0
100
AcDbPoint
 10
2362.115488025102
 20
775.334495928394
 30
0.0
  0
POINT
  5
3D7
330
3CC
100
AcDbEntity
  8
Defpoints
 62
     0
100
AcDbPoint
 10
2362.115488025102
 20
777.2176470754666
 30
0.0
  0
ENDBLK
  5
3CE
330
3CC
100
AcDbEntity
  8
0
100
AcDbBlockEnd
  0
ENDSEC
  0
SECTION
  2
ENTITIES
  0
LINE
  5
2F8
330
1F
100
AcDbEntity
  8
S10_Quote
100
AcDbLine
 10
2349.64858802514
 20
788.6488509453457
 30
0.0
 11
2353.64858802514
 21
788.6488509453457
 31
0.0
  0
REGION
  5
2F9
102
{ACAD_REACTORS
330
304
330
307
330
30A
330
30D
330
310
330
313
330
316
330
319
330
31C
330
31F
330
322
330
325
330
328
330
32B
102
}
330
1F
100
AcDbEntity
  8
Sichtbar (ISO)
100
AcDbModelerGeometry
 70
     1
  1
mogoo lgg m o         
  1
ni ^ *+0;:,4 ^ *+0\^ [ nf ^ LR mnjqoqoqkmnk QK o  
  1
n fqfffffffffffffffj:rooh n:rono 
  1
>,27:>;:- {rn rn _nm mnjqoqoqkmnk |
  1
=0;& {rn rn {rn {m {rn {rn |
  1
3*2/ {rn rn {rn {rn {l {n |
  1
,7:33 {rn rn {rn {rn {rn {k {rn {m |
  1
9><: {rn rn {rn {rn {j {l {rn {i 90-(>-; ;0*=3: 0*+ |
  1
300/ {rn rn {rn {h {g {k |
  1
/3>1:r,*-9><: {rn rn {rn mljlqmihojigoljfll hggqollonlmjfgkmgj o o o n n o o 90-(>-;@) V V V V |
  1
300/ {rn rn {rn {rn {f {k |
  1
<0:;8: {rn rn {rn {no {nn {rn {nm 90-(>-; {j {rn |
  1
<0:;8: {rn rn {rn {nl {nk {rn {nj 90-(>-; {h {rn |
  1
<0:;8: {rn rn {rn {ni {g {rn {nh 90-(>-; {j {rn |
  1
<0:;8: {rn rn {rn {g {ng {rn {nf 90-(>-; {j {rn |
  1
:;8: {rn rn {rn {mo o {mn kqlhhhoghiknogghig {g {mm 90-(>-; _h *1410(1 |
  1
<0:;8: {rn rn {rn {ml {f {rn {mk 90-(>-; {h {rn |
  1
<0:;8: {rn rn {rn {f {mj {rn {mi 90-(>-; {h {rn |
  1
:;8: {rn rn {rn {mh rlqnknjfmijljfklkoi {mg rnqjhohfilmihgfmnmm {f {mf 90-(>-; _h *1410(1 |
  1
<0:;8: {rn rn {rn {lo {no {rn {ln 90-(>-; {j {rn |
  1
:;8: {rn rn {rn {mn roqkilikhiogffkkjogk {lm rkqjkhkhljoggikgffh:ronm {no {ll 90-(>-; _h *1410(1 |
  1
<0:;8: {rn rn {rn {nn {lk {rn {lj 90-(>-; {j {rn |
  1
:;8: {rn rn {rn {li rlqnknjfmijljgfhfln {mo rmqihhfkjokkjfkfinl {nn {lh 90-(>-; _h *1410(1 |
  1
):-+:' {rn rn {rn {nm {lg |
  1
):-+:' {rn rn {rn {nm {lf |
  1
,+->687+r<*-): {rn rn {rn mllkqkliiomjgifhgi hfkqhngffnifgmmnjk o oqkkhmnljfjkfjnnhnf oqgfkkmhnfnoomllimj o Y o Y kqlhhhoghiknogghig |
  1
<0:;8: {rn rn {rn {ko {nl {rn {kn 90-(>-; {h {rn |
  1
:;8: {rn rn {rn {mg nqlikmkmojmihnjkhm:ronm {km ljqffffffffffmklfg {nl {kl 90-(>-; _h *1410(1 |
  1
<0:;8: {rn rn {rn {nk {kk {rn {kj 90-(>-; {h {rn |
  1
:;8: {rn rn {rn {ki o {mh mjqhjmhgikokjmmlk {nk {kh 90-(>-; _h *1410(1 |
  1
):-+:' {rn rn {rn {nj {kg |
  1
):-+:' {rn rn {rn {nj {kf |
  1
:336/,:r<*-): {rn rn {rn mlllqlnjkggomjnhhh hifqnglijofkjlkjnn o o o n oqmooooooooooooooon o o n V V |
  1
<0:;8: {rn rn {rn {jo {ni {rn {jn 90-(>-; {j {rn |
  1
:;8: {rn rn {rn {lm rgqhjfihkhhjmnnljnj {jm o {ni {jl 90-(>-; _h *1410(1 |
  1
):-+:' {rn rn {rn {ln {jk |
  1
:336/,:r<*-): {rn rn {rn mlliqmnjkggomjmoji hfgqhmlfhinhommgjl o o o n oqmooooooooooooooon o o n Y roqkilikhiogffkkjogk Y rkqjkhkhljoggikgffh:ronm |
  1
<0:;8: {rn rn {rn {ng {jj {rn {ji 90-(>-; {j {rn |
  1
:;8: {rn rn {rn {jh o {li mkqnkjgfgollhnmoon {ng {jg 90-(>-; _h *1410(1 |
  1
):-+:' {rn rn {rn {nf {jf |
  1
:336/,:r<*-): {rn rn {rn mllkqinjkggomjnhgg hfkqimfjkgfhfnmmhh o ro ro rn oqmooooooooooooooon o o n Y rlqnknjfmijljgfhfln Y rmqihhfkjokkjfkfinl |
  1
/061+ {rn rn {rn mllkqkliiomjgifhgi hfkqhngffnifgmmnjk o |
  1
/061+ {rn rn {rn mlliqlfklhlkilkoil hfgqilkjllkjnnmfhi o |
  1
<0:;8: {rn rn {rn {io {ml {rn {in 90-(>-; {h {rn |
  1
:;8: {rn rn {rn {km rnqjhohfilmihfhnhol {im o {ml {il 90-(>-; _h *1410(1 |
  1
):-+:' {rn rn {rn {mk {ik |
  1
,+->687+r<*-): {rn rn {rn mlllqlnjkggomjnhhl higqfglijofkjliimn o n rjqgnoiiojfkihmjhhn:ronl o V V |
  1
<0:;8: {rn rn {rn {mj {ij {rn {ii -:):-,:; {h {rn |
  1
:;8: {rn rn {rn {ih mqihhfkjokkjfkfinl {ki lqnknjfmijljgfhfln {mj {ig 90-(>-; _h *1410(1 |
  1
):-+:' {rn rn {rn {kj {if |
  1
,+->687+r<*-): {rn rn {rn mlllqnnjkggomjnhgg hfkqfliklhlkfgigli o o rn o V V |
  1
/061+ {rn rn {rn mlllqnnjkggomjnhhf hifqnglijofkjlkiom o |
  1
/061+ {rn rn {rn mlllqlnjkggomjnhgi higqfglijofkjlkjmf o |
  1
<0:;8: {rn rn {rn {ho {lo {rn {hn 90-(>-; {j {rn |
  1
:;8: {rn rn {rn {jm rlqnknjfmijljgjmkji {hm rnqjhohfilmihfmojkk {lo {hl 90-(>-; _h *1410(1 |
  1
):-+:' {rn rn {rn {jn {hk |
  1
,+->687+r<*-): {rn rn {rn mlliqknjkggomjmlgn gohqkglijofkjklgfh o lqihmgfiohmnjliihj:ronm n o Y rgqhjfihkhhjmnnljnj Y ro |
  1
/061+ {rn rn {rn mlliqknjkggomjmojg hfgqhmlfhinhommhim o |
  1
<0:;8: {rn rn {rn {lk {hj {rn {hi 90-(>-; {j {rn |
  1
:;8: {rn rn {rn {hh nqjhohfilmihfhnhol {jh lqnknjfmijljgfhfln {lk {hg 90-(>-; _h *1410(1 |
  1
):-+:' {rn rn {rn {lj {hf |
  1
,+->687+r<*-): {rn rn {rn mllkqknjkggomjnhf hhoqkglijofkjknohh o o n o Y o Y mkqnkjgfgollhnmoon |
  1
/061+ {rn rn {rn mllkqknjkggomjnhf hfkqimfjkgfhfnmmhh o |
  1
<0:;8: {rn rn {rn {go {ko {rn {gn -:):-,:; {h {rn |
  1
:;8: {rn rn {rn {im o {gm oqjglfjohmhomomlhjk {ko {gl 90-(>-; _h *1410(1 |
  1
):-+:' {rn rn {rn {kn {gk |
  1
:336/,:r<*-): {rn rn {rn mlifqlnjkggomjnomm hifqnglijofkjlkjnn o o o n oqnfffffffffffffhfi o o n V V |
  1
/061+ {rn rn {rn mlifqlnjkggomjnong higqfglijofkjlkjmf o |
  1
<0:;8: {rn rn {rn {kk {gj {rn {gi -:):-,:; {h {rn |
  1
:;8: {rn rn {rn {ih o {gh kqlhhhoghilfgggilk {kk {gg 90-(>-; _h *1410(1 |
  1
):-+:' {rn rn {rn {ii {gf |
  1
:336/,:r<*-): {rn rn {rn mlllqlnjkggomjnhgi hfkqfliklhlkfgigli o o o n oqmooooooooooooooon o o n V V |
  1
/061+ {rn rn {rn mlllqnnjkggomjnhgg hfkqfliklhlkfgigli o |
  1
<0:;8: {rn rn {rn {fo {jo {rn {fn 90-(>-; {j {rn |
  1
:;8: {rn rn {rn {hm rmkqoooooooooofomih {fm o {jo {fl 90-(>-; _h *1410(1 |
  1
):-+:' {rn rn {rn {hn {fk |
  1
:336/,:r<*-): {rn rn {rn mlliqinjkggomjmlhf gohqkglijofkjklgoi o ro ro rn oqmooooooooooooooon o o n Y rlqnknjfmijljgjmkji Y rnqjhohfilmihfmojkk |
  1
/061+ {rn rn {rn mlliqknjkggomjmlgn gohqkglijofkjklgfh o |
  1
<0:;8: {rn rn {rn {jj {fo {rn {fj 90-(>-; {j {rn |
  1
:;8: {rn rn {rn {fi rmiqooooooooooniffi {hh o {jj {fh 90-(>-; _h *1410(1 |
  1
):-+:' {rn rn {rn {ji {fg |
  1
:336/,:r<*-): {rn rn {rn mllkqinjkggomjnhgg hhoqkglijofkjknohh o ro ro rn oqmoooooooooooookim o o n Y nqjhohfilmihfhnhol Y lqnknjfmijljgfhfln |
  1
/061+ {rn rn {rn mllkqknjkggomjnhf hhoqkglijofkjknohh o |
  1
<0:;8: {rn rn {rn {ff {io {rn {noo 90-(>-; {h {rn |
  1
:;8: {rn rn {rn {non mqlnmjinmjggfohgfl {gm lqnknjfmijljgfhfln {io {nom 90-(>-; _h *1410(1 |
  1
):-+:' {rn rn {rn {in {nol |
  1
,+->687+r<*-): {rn rn {rn mlifqjnjkggomjnomn hifqnglijofkjlkjnn o rmqfmomgjomfojhnjli:ronl n o V V |
  1
/061+ {rn rn {rn mlifqjnjkggomjnomn hifqnglijofkjlkjnn o |
  1
<0:;8: {rn rn {rn {ij {nok {rn {noj 90-(>-; {h {rn |
  1
:;8: {rn rn {rn {gh roqkilikhiogffklmlih {noi rkqjkhkhljoggikgffh:ronm {ij {noh 90-(>-; _h *1410(1 |
  1
):-+:' {rn rn {rn {gi {nog |
  1
,+->687+r<*-): {rn rn {rn mlllqnliiomjgifhgk hfjqomjggooigfihnl o oqkkhmnljfjkfjnnhnf oqgfkkmhnfnoomllink o V V |
  1
/061+ {rn rn {rn mlllqnliiomjgifhgk hfjqomjggooigfihnl o |
  1
<0:;8: {rn rn {rn {hj {ho {rn {nof 90-(>-; {j {rn |
  1
:;8: {rn rn {rn {fm rnqjhohfilmihfmojkk {nno kqjkhkhljoggikgffh:ronm {ho {nnn 90-(>-; _h *1410(1 |
  1
):-+:' {rn rn {rn {fn {nnm |
  1
,+->687+r<*-): {rn rn {rn mlioqinjkggomjlmgf gohqiglijofkjlihgk o n rmqfnhfimnignhhnifg:ronm o Y rmkqoooooooooofomih Y ro |
  1
/061+ {rn rn {rn mlliqinjkggomjmlgk gohqiglijofkjklhgg o |
  1
:;8: {rn rn {rn {nnl kqjkhkhljoggikgffh:ronm {fi nqjhohfilmihfhhlgh {hj {nnk 90-(>-; _h *1410(1 |
  1
):-+:' {rn rn {rn {hi {nnj |
  1
,+->687+r<*-): {rn rn {rn mllkqinjkggomjnhgk hhoqmglijofkjknofj o rn nqfmlflnofffolonli:ronm o Y rmiqooooooooooniffi Y ro |
  1
/061+ {rn rn {rn mllkqinjkggomjnhgk hhoqmglijofkjknofj o |
  1
<0:;8: {rn rn {rn {nni {go {rn {nnh 90-(>-; {h {rn |
  1
:;8: {rn rn {rn {non iqmgikokihoflmjmn:ronk {nng nqngollhkfmjjmknjf {go {nnf 90-(>-; _h *1410(1 |
  1
):-+:' {rn rn {rn {gn {nmo |
  1
:336/,:r<*-): {rn rn {rn mlifqhnjkggomjnonf hifqhihionihmlijlk o o o n oqnfffffffffffffjhk o o n V V |
  1
/061+ {rn rn {rn mlifqjnjkggomjnomn hifqhihionihmlijlk o |
  1
<0:;8: {rn rn {rn {gj {nmn {rn {nmm -:):-,:; {h {rn |
  1
:;8: {rn rn {rn {nml o {noi iqgokmjgmihnofinh {gj {nmk 90-(>-; _h *1410(1 |
  1
):-+:' {rn rn {rn {noj {nmj |
  1
:336/,:r<*-): {rn rn {rn mllkqfnjkggomjnjmm hffqologikjkogiihf o o o n oqmooooooooooooooon o o n V V |
  1
/061+ {rn rn {rn mlljqofklhlkilljmk hfgqfknkmngmnhigom o |
  1
:;8: {rn rn {rn {nno rlhqooooooooooohmhi {nnl ro {fo {nmi 90-(>-; _h *1410(1 |
  1
):-+:' {rn rn {rn {nof {nmh |
  1
:336/,:r<*-): {rn rn {rn mlioqinjkggomjlmg gohqkglijofkjligol o ro ro rn oqmooooooooooooooon o o n Y rnqjhohfilmihfmojkk Y kqjkhkhljoggikgffh:ronm |
  1
/061+ {rn rn {rn mlioqinjkggomjlmgf gohqiglijofkjlihgk o |
  1
):-+:' {rn rn {rn {fj {nmg |
  1
:336/,:r<*-): {rn rn {rn mlioqinjkggomjnfin hhoqkglijofkjliohj o ro ro rn oqnffffffffffffgigj o o n Y kqjkhkhljoggikgffh:ronm Y nqjhohfilmihfhhlgh |
  1
/061+ {rn rn {rn mlioqinjkggomjnfjm hhoqmglijofkjliofl o |
  1
<0:;8: {rn rn {rn {nmf {ff {rn {nlo 90-(>-; {h {rn |
  1
:;8: {rn rn {rn {nng roqgmfolnlfkifgmholi {nln oqgmfolnlfkiffoolhg {ff {nlm 90-(>-; _h *1410(1 |
  1
):-+:' {rn rn {rn {noo {nll |
  1
,+->687+r<*-): {rn rn {rn mlifqjgoliffgljhfm hifqfnjojhnlfhmhij o oqhlhmhhllignomoklj oqihjjfomohinjjhmhi o V V |
  1
/061+ {rn rn {rn mlifqjgoliffgljhfm hifqfnjojhnlfhmhij o |
  1
<0:;8: {rn rn {rn {nok {nlk {rn {nlj 90-(>-; {h {rn |
  1
:;8: {rn rn {rn {nml o {nli mqljinfkkfonfomonm {nok {nlh 90-(>-; _h *1410(1 |
  1
):-+:' {rn rn {rn {nmm {nlg |
  1
,+->687+r<*-): {rn rn {rn mlljqnnjkggomjnhji gojqgljnmmgohfhjkf o rlqkjomknnihhfglmhi:ronm rn o V V |
  1
/061+ {rn rn {rn mlljqnnjkggomjnjm hffqologikjkogijgg o |
  1
,+->687+r<*-): {rn rn {rn mlioqgnjkggomjnfjf hhoqkglijofkjljfgk o rlqjhijmikimlhiimmh:ronm rn ro Y rlhqooooooooooohmhi Y ro |
  1
/061+ {rn rn {rn mlioqgnjkggomjlmgm gohqkglijofkjlihnm o |
  1
/061+ {rn rn {rn mlioqgnjkggomjnfjf hhoqkglijofkjljfgk o |
  1
<0:;8: {rn rn {rn {nlf {nni {rn {nko -:):-,:; {h {rn |
  1
:;8: {rn rn {rn {nln iqmgikokihofljhfmi:ronk {nkn nqngollhkfmjjngonl {nni {nkm 90-(>-; _h *1410(1 |
  1
):-+:' {rn rn {rn {nnh {nkl |
  1
:336/,:r<*-): {rn rn {rn mlhoqlnjkggomjnomm hhoqgjfflhojghlfgf o o o n oqnffffffffffffffnm o o n V V |
  1
/061+ {rn rn {rn mlhoqkjoioioiiimjk hhoqhnmkgnjfnlhhjg o |
  1
<0:;8: {rn rn {rn {nmn {nkk {rn {nkj 90-(>-; {h {rn |
  1
:;8: {rn rn {rn {nki gqolgghllggkgknn:ronk {nli nqlhfgfgfghlnmoimi {nmn {nkh 90-(>-; _h *1410(1 |
  1
):-+:' {rn rn {rn {nlj {nkg |
  1
:336/,:r<*-): {rn rn {rn mllkqgnjkggomjnhlm gojqgljnmmgohfhjkf o o o n oqloooooooooomojkfi o o n V V |
  1
/061+ {rn rn {rn mlljqnnjkggomjnhji gojqgljnmmgohfhjkf o |
  1
<0:;8: {rn rn {rn {nkf {nmf {rn {njo 90-(>-; {h {rn |
  1
:;8: {rn rn {rn {njn mqlnmjinmjggfohgfl {nkn lqfhoimkokgmggoill {nmf {njm 90-(>-; _h *1410(1 |
  1
):-+:' {rn rn {rn {nlo {njl |
  1
,+->687+r<*-): {rn rn {rn mlhoqkjoioioiiimjk hhnqoohlfmjminomnf o roqhlhmhhllignojggoj oqihjjfomohinjnjlgh o V V |
  1
/061+ {rn rn {rn mlhoqkjoioioiiimjk hhnqoohlfmjminomnf o |
  1
<0:;8: {rn rn {rn {nlk {njk {rn {njj 90-(>-; {h {rn |
  1
:;8: {rn rn {rn {nji rlqnknjfmijljfmgmkj {nki roqhgjlfgnillfgijkm {nlk {njh 90-(>-; _h *1410(1 |
  1
):-+:' {rn rn {rn {nkj {njg |
  1
,+->687+r<*-): {rn rn {rn mlllqimhimoojfjll gojqohnjngfnnojjnk o oqhohnoihgnnggjgiin oqhohnoihgnngkjogkl o V V |
  1
/061+ {rn rn {rn mllkqiolljjffognij goiqokhmjkgkmlllnl o |
  1
<0:;8: {rn rn {rn {njf {nlf {rn {nio 90-(>-; {h {rn |
  1
:;8: {rn rn {rn {njn iqmgikokihoflmjmn:ronk {nin nqngollhkfmjjmknjf {nlf {nim 90-(>-; _h *1410(1 |
  1
):-+:' {rn rn {rn {nko {nil |
  1
:336/,:r<*-): {rn rn {rn mlifqhnjkggomjnonf hhnqfjmmhmkkjnnljm o o o n oqnfffffffffffffhhf o o n V V |
  1
/061+ {rn rn {rn mlifqjgoliffgljhgh hhnqgokgnifhhhjnmm o |
  1
<0:;8: {rn rn {rn {nkk {nik {rn {nij 90-(>-; {h {rn |
  1
:;8: {rn rn {rn {nii o {nji lqkffffffffffhmhnj {nkk {nih 90-(>-; _h *1410(1 |
  1
):-+:' {rn rn {rn {njj {nig |
  1
:336/,:r<*-): {rn rn {rn mlllqknjkggomjnhil gojqmglijofkjknmhh o o o n oqloooooooooomojnfi o o n V V |
  1
/061+ {rn rn {rn mlllqimhimoojfjll gojqohnjngfnnojjnk o |
  1
<0:;8: {rn rn {rn {nif {nkf {rn {nho 90-(>-; {h {rn |
  1
:;8: {rn rn {rn {nin roqgmfolnlfkifgmholi {nhn oqgmfolnlfkiffoolhg {nkf {nhm 90-(>-; _h *1410(1 |
  1
):-+:' {rn rn {rn {njo {nhl |
  1
,+->687+r<*-): {rn rn {rn mlifqjgoliffgljhfm hhmqoffhmhfnmkhjgl o oqhlhmhhllignomoklj oqihjjfomohinjjhmhi o V V |
  1
/061+ {rn rn {rn mlifqjgoliffgljhfm hhmqoffhmhfnmkhjgl o |
  1
<0:;8: {rn rn {rn {njk {nhk {rn {nhj 90-(>-; {h {rn |
  1
:;8: {rn rn {rn {nhi nqjhohfilmihfmojkk {nii lqnknjfmijljgfhfln {njk {nhh 90-(>-; _h *1410(1 |
  1
):-+:' {rn rn {rn {nij {nhg |
  1
,+->687+r<*-): {rn rn {rn mlllqnnjkggomjnglg gogqhglijofkjknofj o rmqgofiggfgfkohgklg:ronm rn o V V |
  1
/061+ {rn rn {rn mlllqnnjkggomjnhlg gojqmglijofkjknlig o |
  1
<0:;8: {rn rn {rn {nhf {njf {rn {ngo -:):-,:; {h {rn |
  1
:;8: {rn rn {rn {nhn iqmgikokihoflmjmn:ronk {ngn nqngollhkfmjjmknjf {njf {ngm 90-(>-; _h *1410(1 |
  1
):-+:' {rn rn {rn {nio {ngl |
  1
:336/,:r<*-): {rn rn {rn mlhoqlnjkggomjnomm hhlqokkiohglnkggoh o o o n oqnffffffffffffffnm o o n V V |
  1
/061+ {rn rn {rn mlhoqkjoioioiiimjk hhmqgfhnjmliknmjhi o |
  1
<0:;8: {rn rn {rn {nik {ngk {rn {ngj 90-(>-; {h {rn |
  1
:;8: {rn rn {rn {ngi o {nhi loqiooooooooooonli {nik {ngh 90-(>-; _h *1410(1 |
  1
):-+:' {rn rn {rn {nhj {ngg |
  1
:336/,:r<*-): {rn rn {rn mlllqlnjkggomjngli gogqhglijofkjknofj o o o n oqnfffffffffffffjhk o o n V V |
  1
/061+ {rn rn {rn mlllqnnjkggomjnglg gogqhglijofkjknofj o |
  1
<0:;8: {rn rn {rn {ngf {nif {rn {nfo 90-(>-; {h {rn |
  1
:;8: {rn rn {rn {nfn mqlnmjinmjggfohgfl {ngn lqfhoimkokgmgkffn {nif {nfm 90-(>-; _h *1410(1 |
  1
):-+:' {rn rn {rn {nho {nfl |
  1
,+->687+r<*-): {rn rn {rn mlhoqkjoioioiiimjk hhlqnfmoilmfggjolh o roqhlhmhhllignomoklj oqihjjfomohinjjhmhi o V V |
  1
/061+ {rn rn {rn mlhoqkjoioioiiimjk hhlqnfmoilmfggjolh o |
  1
<0:;8: {rn rn {rn {nhk {nfk {rn {nfj 90-(>-; {h {rn |
  1
:;8: {rn rn {rn {nfi rkqjkhkhljoggiliohm:ronm {ngi nqjhohfilmihfmojkk {nhk {nfh 90-(>-; _h *1410(1 |
  1
):-+:' {rn rn {rn {ngj {nfg |
  1
,+->687+r<*-): {rn rn {rn mlilqfnjkggomjngkj gogqfglijofkjlmjmg o rn mqhlkkmgjnjnlkmgnf:ronm o V V |
  1
/061+ {rn rn {rn mlllqlnjkggomjngkn gogqfglijofkjkogfj o |
  1
<0:;8: {rn rn {rn {nff {nhf {rn {moo 90-(>-; {h {rn |
  1
:;8: {rn rn {rn {nfn iqmgikokihoflmjmn:ronk {mon nqngollhkfmjjmknjf {nhf {mom 90-(>-; _h *1410(1 |
  1
):-+:' {rn rn {rn {ngo {mol |
  1
:336/,:r<*-): {rn rn {rn mlifqhnjkggomjnonf hhkqnlifklmnhginh o o o n oqnfffffffffffffinl o o n V V |
  1
/061+ {rn rn {rn mlifqjgoliffgljhgh hhlqfgfkghhjojool o |
  1
<0:;8: {rn rn {rn {ngk {mok {rn {moj 90-(>-; {h {rn |
  1
:;8: {rn rn {rn {moi o {nfi lqkffffffffffhmhnj {ngk {moh 90-(>-; _h *1410(1 |
  1
):-+:' {rn rn {rn {nfj {mog |
  1
:336/,:r<*-): {rn rn {rn mlilqfnjkggomjnglj gogqhglijofkjlmjki o o o n oqnfffffffffffffhfi o o n V V |
  1
/061+ {rn rn {rn mlilqfnjkggomjngkj gogqfglijofkjlmjmg o |
  1
<0:;8: {rn rn {rn {mof {ngf {rn {mno 90-(>-; {h {rn |
  1
:;8: {rn rn {rn {mon roqgmfolnlfkifgmholi {mnn oqgmfolnlfkiffoolhg {ngf {mnm 90-(>-; _h *1410(1 |
  1
):-+:' {rn rn {rn {nfo {mnl |
  1
,+->687+r<*-): {rn rn {rn mlifqjgoliffgljhfm hhkqmgklfgigjmmkon o oqhlhmhhllignomoklj oqihjjfomohinjjhmhi o V V |
  1
/061+ {rn rn {rn mlifqjgoliffgljhfm hhkqmgklfgigjmmkon o |
  1
<0:;8: {rn rn {rn {nfk {mnk {rn {mnj 90-(>-; {h {rn |
  1
:;8: {rn rn {rn {mni rmqljinfkkfonfjomkj {moi o {nfk {mnh 90-(>-; _h *1410(1 |
  1
):-+:' {rn rn {rn {moj {mng |
  1
,+->687+r<*-): {rn rn {rn mlikqnnjkggomjnhlg gojqmglijofkjlmhmg o mqgkmnhofklokminij:ronm n o V V |
  1
/061+ {rn rn {rn mlikqnnjkggomjnglg gogqhglijofkjlmkjj o |
  1
<0:;8: {rn rn {rn {mnf {nff {rn {mmo 90-(>-; {h {rn |
  1
:;8: {rn rn {rn {mnn iqmgikokihofighnom:ronk {mmn oqogokgnmkjnllnfojhi {nff {mmm 90-(>-; _h *1410(1 |
  1
):-+:' {rn rn {rn {moo {mml |
  1
:336/,:r<*-): {rn rn {rn mlhoqlnjkggomjnomm hhjqmmfmhgiokmlimk o o o n oqnffffffffffffffnm o o n V V |
  1
/061+ {rn rn {rn mlhoqkjoioioiiimjk hhjqogngmlnlighlfk o |
  1
<0:;8: {rn rn {rn {mok {mmk {rn {mmj -:):-,:; {h {rn |
  1
:;8: {rn rn {rn {mmi o {mni nqlhfgfgfghlnkljlh {mok {mmh 90-(>-; _h *1410(1 |
  1
):-+:' {rn rn {rn {mnj {mmg |
  1
:336/,:r<*-): {rn rn {rn mlilqgnjkggomjnhng gojqmglijofkjlmhmg o o o n oqloooooooooomojkfi o o n V V |
  1
/061+ {rn rn {rn mlikqnnjkggomjnhlg gojqmglijofkjlmhmg o |
  1
<0:;8: {rn rn {rn {mmf {mof {rn {mlo 90-(>-; {h {rn |
  1
:;8: {rn rn {rn {mmn oqgmfolnlfkifjnfgnj {mln nqjhohfilmihfkgfii {mof {mlm 90-(>-; _h *1410(1 |
  1
):-+:' {rn rn {rn {mno {mll |
  1
,+->687+r<*-): {rn rn {rn mlhoqkjoioioiiimjk hhjqlhihlkohnjfgjj o roqhlhmhhllignkkkgil oqihjjfomohinofkojh o V V |
  1
/061+ {rn rn {rn mlhoqkjoioioiiimjk hhjqlhihlkohnjfgjj o |
  1
<0:;8: {rn rn {rn {mnk {mlk {rn {mlj 90-(>-; {h {rn |
  1
:;8: {rn rn {rn {mmi oqhgjlfgnillfkmlmhk {mli lqnknjfmijljfmgmkj {mnk {mlh 90-(>-; _h *1410(1 |
  1
):-+:' {rn rn {rn {mmj {mlg |
  1
,+->687+r<*-): {rn rn {rn mlimqimhimoojfjlkk goiqokhmjkgkmmjjgm o oqhohnoihgnngkkghhg roqhohnoihgnnggiohmi o V V |
  1
/061+ {rn rn {rn mlilqiolljjffognlh gojqohnjngfnofhojj o |
  1
<0:;8: {rn rn {rn {mlf {mnf {rn {mko 90-(>-; {h {rn |
  1
:;8: {rn rn {rn {mln o {mkn nqkkoiiloonfmkjhih {mnf {mkm 90-(>-; _h *1410(1 |
  1
):-+:' {rn rn {rn {mmo {mkl |
  1
:336/,:r<*-): {rn rn {rn mlhoqmjinjnomhomh hhjqmglijofkjlkjkh o o o n oqmoooooooooooooohf o o n V V |
  1
/061+ {rn rn {rn mlhoqlfnmifoigjjom hhjqklnnoiknmhoigh o |
  1
<0:;8: {rn rn {rn {mmk {mkk {rn {mkj -:):-,:; {h {rn |
  1
:;8: {rn rn {rn {mki o {mli fqijnkhngimjfolifh {mmk {mkh 90-(>-; _h *1410(1 |
  1
):-+:' {rn rn {rn {mlj {mkg |
  1
:336/,:r<*-): {rn rn {rn mlimqknjkggomjnhil gojqgljnmmgohgffn o o o n oqloooooooooomojknm o o n V V |
  1
/061+ {rn rn {rn mlimqimhimoojfjlkk goiqokhmjkgkmmjjgm o |
  1
<0:;8: {rn rn {rn {mkf {mmf {rn {mjo 90-(>-; {h {rn |
  1
:;8: {rn rn {rn {mkn nqjhohfilmihfkgfii {mjn lqnknjfmijljgfhfln {mmf {mjm 90-(>-; _h *1410(1 |
  1
):-+:' {rn rn {rn {mlo {mjl |
  1
,+->687+r<*-): {rn rn {rn mlhoqmjinjnomhomh hhjqkglijofkjlkjmf o rn o o V V |
  1
/061+ {rn rn {rn mlhoqmjinjnomhomh hhjqkglijofkjlkjmf o |
  1
<0:;8: {rn rn {rn {mlk {mjk {rn {mjj 90-(>-; {h {rn |
  1
:;8: {rn rn {rn {mki rlqnknjfmijljgfhfln {mji rnqjhohfilmihgfmnmm {mlk {mjh 90-(>-; _h *1410(1 |
  1
):-+:' {rn rn {rn {mkj {mjg |
  1
,+->687+r<*-): {rn rn {rn mlimqnnjkggomjnmgg hfiqnglijofkjlohgm o kqgkhnjonfjnhnmhih:ronm n o V V |
  1
/061+ {rn rn {rn mlimqnnjkggomjnhjm gojqgljnmmgohgfgnf o |
  1
<0:;8: {rn rn {rn {mjf {mlf {rn {mio -:):-,:; {h {rn |
  1
:;8: {rn rn {rn {mjn o {min kqnooooooooooolilg {mlf {mim 90-(>-; _h *1410(1 |
  1
):-+:' {rn rn {rn {mko {mil |
  1
:336/,:r<*-): {rn rn {rn mligqgnjkggomjnomm hhjqmglijofkjlkjkh o o o n oqnfffffffffffffjhk o o n V V |
  1
/061+ {rn rn {rn mligqgnjkggomjnomm hhjqkglijofkjlkjmf o |
  1
<0:;8: {rn rn {rn {mkk {mik {rn {mij 90-(>-; {h {rn |
  1
:;8: {rn rn {rn {mii o {mji hqojljgfglgkjhfmkn {mkk {mih 90-(>-; _h *1410(1 |
  1
):-+:' {rn rn {rn {mjj {mig |
  1
:336/,:r<*-): {rn rn {rn mlimqlnjkggomjnmgi hfiqnglijofkjlohgm o o o n oqmoooooooooooooong o o n V V |
  1
/061+ {rn rn {rn mlimqnnjkggomjnmgg hfiqnglijofkjlohgm o |
  1
<0:;8: {rn rn {rn {mif {mkf {rn {mho 90-(>-; {h {rn |
  1
:;8: {rn rn {rn {mhn rnqjhohfilmihfkgfii {min o {mkf {mhm 90-(>-; _h *1410(1 |
  1
):-+:' {rn rn {rn {mjo {mhl |
  1
,+->687+r<*-): {rn rn {rn mligqinjkggomjnomk hhjqmglijofkjlkjkh o rnqlgikmkgjomilkgh:ronk rn o V V |
  1
/061+ {rn rn {rn mligqinjkggomjnomk hhjqmglijofkjlkjkh o |
  1
<0:;8: {rn rn {rn {mjk {mhk {rn {mhj -:):-,:; {h {rn |
  1
:;8: {rn rn {rn {mhi oqjmljfghhjiooojkog {mii nqjhohfilmigooonmj {mjk {mhh 90-(>-; _h *1410(1 |
  1
):-+:' {rn rn {rn {mij {mhg |
  1
,+->687+r<*-): {rn rn {rn mlifqlifohhgiljghg hfjqfglijofkjlkklg o rn rjqnjhimhlhgfhghgkm:ronm o V V |
  1
/061+ {rn rn {rn mlimqlnjkggomjnmfj hfjqfglijofkjlog o |
  1
<0:;8: {rn rn {rn {mhf {mjf {rn {mgo -:):-,:; {h {rn |
  1
:;8: {rn rn {rn {mhn o {mgn iqoffffffffffffofn {mjf {mgm 90-(>-; _h *1410(1 |
  1
):-+:' {rn rn {rn {mio {mgl |
  1
:336/,:r<*-): {rn rn {rn mligqknjkggomjnomn hhnqnglijofkjlkjnn o o o n oqnfffffffffffffhfi o o n V V |
  1
/061+ {rn rn {rn mligqinjkggomjnomk hhnqnglijofkjlkjnn o |
  1
<0:;8: {rn rn {rn {mik {mgk {rn {mgj 90-(>-; {h {rn |
  1
:;8: {rn rn {rn {mhi rmqinhfflghhfgfnhoj {mgi rmqlnmjinmjggfnjml {mik {mgh 90-(>-; _h *1410(1 |
  1
):-+:' {rn rn {rn {mhj {mgg |
  1
:336/,:r<*-): {rn rn {rn mlifqlifohhgiljggh hfjqhglijofkjlkkji o o o n oqmooooooooooooonok o o n V V |
  1
/061+ {rn rn {rn mlifqlifohhgiljghg hfjqfglijofkjlkklg o |
  1
<0:;8: {rn rn {rn {mgf {mif {rn {mfo 90-(>-; {h {rn |
  1
:;8: {rn rn {rn {mfn rlqnknjfmijljgfhfln {mgn rnqjhohfilmihflhjfh {mif {mfm 90-(>-; _h *1410(1 |
  1
):-+:' {rn rn {rn {mho {mfl |
  1
,+->687+r<*-): {rn rn {rn mligqknjkggomjnomn hhoqfglijofkjlkjmf o rn o o V V |
  1
/061+ {rn rn {rn mligqknjkggomjnomn hhoqfglijofkjlkjmf o |
  1
<0:;8: {rn rn {rn {mhk {mfk {rn {mfj 90-(>-; {h {rn |
  1
:;8: {rn rn {rn {mfi iqmgikokihoflmjmn:ronk {mgi nqngollhkfmjjmknjf {mhk {mfh 90-(>-; _h *1410(1 |
  1
):-+:' {rn rn {rn {mgj {mfg |
  1
:336/,:r<*-): {rn rn {rn mlifqhnjkggomjnonf hfjqfglijofkjlkjmf o o o n oqnffffffffffffohm o o n V V |
  1
/061+ {rn rn {rn mlifqjkmmgmfkklkjj hfjqgglijofkjlkkfl o |
  1
<0:;8: {rn rn {rn {mff {mhf {rn {loo -:):-,:; {h {rn |
  1
:;8: {rn rn {rn {mfn o {lon mmqiooooooooooolik {mhf {lom 90-(>-; _h *1410(1 |
  1
):-+:' {rn rn {rn {mgo {lol |
  1
:336/,:r<*-): {rn rn {rn mlimqlnjkggomjnomm hhnqnglijofkjlkjnn o o o n oqnfffffffffffffhfi o o n V V |
  1
/061+ {rn rn {rn mlimqlnjkggomjnomm hhoqfglijofkjlkjmf o |
  1
<0:;8: {rn rn {rn {mgk {lok {rn {loj 90-(>-; {h {rn |
  1
:;8: {rn rn {rn {loi roqgmfolnlfkifgmholi {mfi oqgmfolnlfkiffoolhg {mgk {loh 90-(>-; _h *1410(1 |
  1
):-+:' {rn rn {rn {mfj {log |
  1
,+->687+r<*-): {rn rn {rn mlhoqkjoioioiiimjk hfjqolghhnomillloj o roqhlhmhhllignomoklj oqihjjfomohinjjhmhi o V V |
  1
/061+ {rn rn {rn mlifqjgoliffgljhgh hfjqglinfjkhhfgmfg o |
  1
<0:;8: {rn rn {rn {lof {mgf {rn {lno 90-(>-; {h {rn |
  1
:;8: {rn rn {rn {lnn nqjhohfilmihfkgfii {lon lqnknjfmijljgfhfln {mgf {lnm 90-(>-; _h *1410(1 |
  1
):-+:' {rn rn {rn {mfo {lnl |
  1
,+->687+r<*-): {rn rn {rn mlimqnnjkggomjnom hhnqnglijofkjlkjnn o hqjkjjgijhkkklkmn:ronj n o V V |
  1
/061+ {rn rn {rn mlimqnnjkggomjnom hhnqnglijofkjlkjnn o |
  1
<0:;8: {rn rn {rn {mfk {lnk {rn {lnj -:):-,:; {h {rn |
  1
:;8: {rn rn {rn {lni iqmgikokihofljhfmi:ronk {loi nqngollhkfmjjngonl {mfk {lnh 90-(>-; _h *1410(1 |
  1
):-+:' {rn rn {rn {loj {lng |
  1
:336/,:r<*-): {rn rn {rn mlhoqlnjkggomjnomm hfkqgfnlnjjjgfhohj o o o n oqnffffffffffffffnm o o n V V |
  1
/061+ {rn rn {rn mlhoqkjoioioiiimjk hfjqolghhnomillloj o |
  1
<0:;8: {rn rn {rn {lnf {mff {rn {lmo -:):-,:; {h {rn |
  1
:;8: {rn rn {rn {lnn o {lmn iqnooooooooooonlik {mff {lmm 90-(>-; _h *1410(1 |
  1
):-+:' {rn rn {rn {loo {lml |
  1
:336/,:r<*-): {rn rn {rn mlimqlnjkggomjnomm hflqhglijofkjlkjkh o o o n oqnfffffffffffffhfi o o n V V |
  1
/061+ {rn rn {rn mlimqnnjkggomjnomk hflqhglijofkjlkjkh o |
  1
<0:;8: {rn rn {rn {lok {lmk {rn {lmj 90-(>-; {h {rn |
  1
:;8: {rn rn {rn {lni mqlnmjinmjggfohgfl {lmi lqfhoimkokgmghgjli {lok {lmh 90-(>-; _h *1410(1 |
  1
):-+:' {rn rn {rn {lnj {lmg |
  1
,+->687+r<*-): {rn rn {rn mlifqjgoliffgljhfm hflqfkikljilffjfkm o oqhlhmhhllignojggoj oqihjjfomohinjnjlgh o V V |
  1
/061+ {rn rn {rn mlhoqkjoioioiiimjk hfkqhklgioofniogkk o |
  1
<0:;8: {rn rn {rn {lmf {lof {rn {llo 90-(>-; {h {rn |
  1
:;8: {rn rn {rn {lln o {lmn nqjhohfilmihfkgfii {lof {llm 90-(>-; _h *1410(1 |
  1
):-+:' {rn rn {rn {lno {lll |
  1
,+->687+r<*-): {rn rn {rn mlimqlnjkggomjnomm hflqfglijofkjlkjmf o n o o V V |
  1
/061+ {rn rn {rn mlimqlnjkggomjnomm hflqfglijofkjlkjmf o |
  1
<0:;8: {rn rn {rn {lnk {llk {rn {llj 90-(>-; {h {rn |
  1
:;8: {rn rn {rn {lli iqmgikokihoflmhohg:ronk {lmi nqngollhkfmjjmkjhh {lnk {llh 90-(>-; _h *1410(1 |
  1
):-+:' {rn rn {rn {lmj {llg |
  1
:336/,:r<*-): {rn rn {rn mlifqhnjkggomjnonf hflqhfgfgonhmjfhnn o o o n oqnfffffffffffffinl o o n V V |
  1
/061+ {rn rn {rn mlifqjgoliffgljhfm hflqfkikljilffjfkm o |
  1
<0:;8: {rn rn {rn {llf {lnf {rn {lko 90-(>-; {h {rn |
  1
:;8: {rn rn {rn {lln o {lkn kqnooooooooooolilg {lnf {lkm 90-(>-; _h *1410(1 |
  1
):-+:' {rn rn {rn {lmo {lkl |
  1
:336/,:r<*-): {rn rn {rn mligqknjkggomjnomn hflqhglijofkjlkjkh o o o n oqmoooooooooooooong o o n V V |
  1
/061+ {rn rn {rn mligqknjkggomjnomn hflqfglijofkjlkjmf o |
  1
<0:;8: {rn rn {rn {lmk {lkk {rn {lkj 90-(>-; {h {rn |
  1
:;8: {rn rn {rn {lki roqgmfolnlfkifgmholi {lli oqgmfolnlfkiffoolih {lmk {lkh 90-(>-; _h *1410(1 |
  1
):-+:' {rn rn {rn {llj {lkg |
  1
,+->687+r<*-): {rn rn {rn mlhoqkjoioioiiimjk hfmqgjknoomjljgkgh o roqhlhmhhllignommimm oqihjjfomohinjjkghg o V V |
  1
/061+ {rn rn {rn mlifqjgoliffgljhgh hflqijnjmkhojmlkgn o |
  1
<0:;8: {rn rn {rn {lkf {lmf {rn {ljo -:):-,:; {h {rn |
  1
:;8: {rn rn {rn {lkn rlqnknjfmijljgfhfln {ljn rnqjhohfilmihfkgfii {lmf {ljm 90-(>-; _h *1410(1 |
  1
):-+:' {rn rn {rn {llo {ljl |
  1
,+->687+r<*-): {rn rn {rn mligqinjkggomjnomk hflqhglijofkjlkjkh o nqlgikmkgjomilkgh:ronk rn o V V |
  1
/061+ {rn rn {rn mligqinjkggomjnomk hflqhglijofkjlkjkh o |
  1
<0:;8: {rn rn {rn {llk {ljk {rn {ljj -:):-,:; {h {rn |
  1
:;8: {rn rn {rn {lji iqmgikokihoflmjmn:ronk {lki nqngollhkfmjjmknjf {llk {ljh 90-(>-; _h *1410(1 |
  1
):-+:' {rn rn {rn {lkj {ljg |
  1
:336/,:r<*-): {rn rn {rn mlhoqlnjkggomjnomm hfmqhoiikkhgimmmjh o o o n oqnfffffffffffffghl o o n V V |
  1
/061+ {rn rn {rn mlhoqkjoioioiiimjk hfmqgjknoomjljgkgh o |
  1
<0:;8: {rn rn {rn {ljf {llf {rn {lio 90-(>-; {h {rn |
  1
:;8: {rn rn {rn {lin o {ljn oqjfnoojmhnjfghiolh {llf {lim 90-(>-; _h *1410(1 |
  1
):-+:' {rn rn {rn {lko {lil |
  1
:336/,:r<*-): {rn rn {rn mligqgnjkggomjnomm hgfqiglijofkjlkjnn o o o n oqnffffffffffffgfog o o n V V |
  1
/061+ {rn rn {rn mligqinjkggomjnomk hgfqiglijofkjlkjnn o |
  1
<0:;8: {rn rn {rn {lkk {lik {rn {lij 90-(>-; {h {rn |
  1
:;8: {rn rn {rn {lji mqlnmjinmjggfohgfl {lii lqfhoimkokgmgkffn {lkk {lih 90-(>-; _h *1410(1 |
  1
):-+:' {rn rn {rn {ljj {lig |
  1
,+->687+r<*-): {rn rn {rn mlifqjgoliffgljhfm hfnqhinhikgihmnoll o oqhlhmhhllignomoklj oqihjjfomohinjjhmhi o V V |
  1
/061+ {rn rn {rn mlhoqkjoioioiiimjk hfmqjjfngflnggiomi o |
  1
<0:;8: {rn rn {rn {lif {lkf {rn {lho -:):-,:; {h {rn |
  1
:;8: {rn rn {rn {lin rnqjhohfilmihfkgfii {lhn roqiggokglgkflohkini {lkf {lhm 90-(>-; _h *1410(1 |
  1
):-+:' {rn rn {rn {ljo {lhl |
  1
,+->687+r<*-): {rn rn {rn mlifqkoikflmfihoog hgfqkglijofkjlkjmf o rn o o V V |
  1
/061+ {rn rn {rn mligqgnjkggomjnomm hgfqkglijofkjlkjmf o |
  1
<0:;8: {rn rn {rn {ljk {lif {rn {lhk 90-(>-; {h {rn |
  1
:;8: {rn rn {rn {lhj iqmgikokihoflmjmn:ronk {lii nqngollhkfmjjmknjf {ljk {lhi 90-(>-; _h *1410(1 |
  1
):-+:' {rn rn {rn {lij {lhh |
  1
:336/,:r<*-): {rn rn {rn mlifqhnjkggomjnonf hfnqinkloflffgkgol o o o n oqnfffffffffffffjhk o o n V V |
  1
/061+ {rn rn {rn mlifqjgoliffgljhfm hfnqhinhikgihmnoll o |
  1
<0:;8: {rn rn {rn {lik {ljf {rn {lhg 90-(>-; {h {rn |
  1
:;8: {rn rn {rn {lhf mqlnmjinmjggfjkllm {lhn mqkjljkkmigijljkfn {ljf {lgo 90-(>-; _h *1410(1 |
  1
):-+:' {rn rn {rn {lio {lgn |
  1
:336/,:r<*-): {rn rn {rn mlifqkoikflmfihoog hgfqiglijofkjlkjnn o o o n oqnffffffffffffglmm o o n V V |
  1
/061+ {rn rn {rn mlifqkoikflmfihoog hgfqkglijofkjlkjmf o |
  1
:;8: {rn rn {rn {lgm roqgmfolnlfkifgmholi {lhj oqgmfolnlfkiffoolih {lik {lgl 90-(>-; _h *1410(1 |
  1
):-+:' {rn rn {rn {lhk {lgk |
  1
,+->687+r<*-): {rn rn {rn mlhoqkjoioioiiimjk hfoqiifkmfkgoglih o roqhlhmhhllignomoklj oqihjjfomohinjjhmhi o V V |
  1
/061+ {rn rn {rn mlifqjgoliffgljhgh hfnqkiigjlflmkgiil o |
  1
:;8: {rn rn {rn {lhf rgqlgnghmgfkjhklmgn:ronk {lgm nqngollhkfmjjllijk {lif {lgj 90-(>-; _h *1410(1 |
  1
):-+:' {rn rn {rn {lho {lgi |
  1
:336/,:r<*-): {rn rn {rn mlifqhnjkggomjnonf hgfqkmfilgimhoffgj o o o n oqnfffffffffffhihgf o o n V V |
  1
/061+ {rn rn {rn mlifqjioffoiiofoni hgfqjjiikkhgimmmfl o |
  1
):-+:' {rn rn {rn {lhg {lgh |
  1
:336/,:r<*-): {rn rn {rn mlhoqlnjkggomjnomm hfoqjmnfhkonlkhklf o o o n oqnfffffffffffffghl o o n V V |
  1
/061+ {rn rn {rn mlhoqkjoioioiiimjk hfoqiifkmfkgoglih o |
  1
,+->687+r<*-): {rn rn {rn mlifqjgoliffgljhgh hgfqjhhofkofkkinmk o oqhlhmhhlligofffinf oqihjjfomohinjhffif o V V |
  1
/061+ {rn rn {rn mlifqjgoliffgljhgh hgfqjhhofkofkkinmk o |
  1
/061+ {rn rn {rn mlhoqkjoioioiiimjk hfoqlhkjngjkinnmof o |
  0
HATCH
  5
2FA
330
1F
100
AcDbEntity
  8
0
  6
ACAD_ISO10W100
 62
     4
100
AcDbHatch
 10
0.0
 20
0.0
 30
0.0
210
0.0
220
0.0
230
1.0
  2
SOLID
 70
     1
 71
     0
 91
        2
 92
        7
 72
     1
 73
     1
 93
        3
 10
2351.64858802514
 20
789.7166035903373
 42
0.4142135623730951
 10
2350.580835380148
 20
788.6488509453457
 42
0.0
 10
2351.64858802514
 20
788.6488509453457
 42
0.0
 97
        0
 92
        7
 72
     1
 73
     1
 93
        3
 10
2352.716340670132
 20
788.6488509453457
 42
0.0
 10
2351.64858802514
 20
788.6488509453457
 42
0.0
 10
2351.64858802514
 20
787.5810983003539
 42
0.4142135623730951
 97
        0
 75
     0
 76
     1
 47
0.0300607626538205
 98
        2
 10
2351.087263426455
 20
789.0204938455608
 10
2351.869365805671
 20
788.2088515931518
450
        0
451
        0
460
0.0
461
0.0
452
        1
462
1.0
453
        2
463
0.0
 63
     5
421
      255
463
1.0
 63
    51
421
 16777113
470
LINEAR
1001
ACAD
1010
0.0
1020
0.0
1030
0.0
  0
LINE
  5
2FB
330
1F
100
AcDbEntity
  8
0
  6
ACAD_ISO10W100
 62
     4
100
AcDbLine
 10
2351.64858802514
 20
788.6488509453457
 30
0.0
 11
2356.64858802514
 21
788.6488509453457
 31
0.0
  0
LINE
  5
2FC
330
1F
100
AcDbEntity
  8
0
  6
ACAD_ISO10W100
 62
     4
100
AcDbLine
 10
2351.64858802514
 20
788.6488509453457
 30
0.0
 11
2351.64858802514
 21
793.6488509453456
 31
0.0
  0
LINE
  5
2FD
330
1F
100
AcDbEntity
  8
0
  6
ACAD_ISO10W100
 62
     4
100
AcDbLine
 10
2351.64858802514
 20
788.6488509453457
 30
0.0
 11
2346.648588025141
 21
788.6488509453457
 31
0.0
  0
LINE
  5
2FE
330
1F
100
AcDbEntity
  8
0
  6
ACAD_ISO10W100
 62
     4
100
AcDbLine
 10
2351.64858802514
 20
788.6488509453457
 30
0.0
 11
2351.64858802514
 21
783.6488509453456
 31
0.0
  0
HATCH
  5
2FF
330
1F
100
AcDbEntity
  8
S07_Prospetto
100
AcDbHatch
 10
0.0
 20
0.0
 30
0.0
210
0.0
220
0.0
230
1.0
  2
ANSI31
 70
     0
 71
     0
 91
        3
 92
        7
 72
     1
 73
     1
 93
       60
 10
2364.115488025184
 20
808.7836509453254
 42
0.4142135623731264
 10
2363.915488025185
 20
808.9836509453261
 42
0.0
 10
2333.315488025184
 20
808.9836509454116
 42
0.4142135623730736
 10
2333.115488025184
 20
808.7836509454119
 42
0.0
 10
2333.115488025174
 20
805.2836509454136
 42
0.6681786379192971
 10
2333.627620059533
 20
805.0715189110551
 42
0.0
 10
2334.603355990816
 20
806.0472548423341
 42
-0.6681786379195355
 10
2335.115488025175
 20
805.8351228079745
 42
0.0
 10
2335.115488025152
 20
798.983650945368
 42
0.0
 10
2333.136602586979
 20
795.025880068968
 42
0.1164338214644681
 10
2333.115488025179
 20
794.9364373498683
 42
0.0
 10
2333.115488025177
 20
769.1836509453451
 42
0.4142135623731108
 10
2333.315488025178
 20
768.9836509453453
 42
0.0
 10
2369.315488025102
 20
768.9836509453453
 42
0.4142135623731796
 10
2369.515488025102
 20
769.1836509453451
 42
0.0
 10
2369.515488025102
 20
769.7676016723653
 42
-0.2102773852971897
 10
2369.580369983579
 20
769.9150571397276
 42
0.0
 10
2370.450606066626
 20
770.7124815913784
 42
0.4400105308920312
 10
2370.450606066626
 20
771.0073925261021
 42
0.0
 10
2369.580369983579
 20
771.8048169777521
 42
-0.4400105308920156
 10
2369.580369983579
 20
772.0997279124758
 42
0.0
 10
2370.450606066626
 20
772.8971523641266
 42
0.4400105308918743
 10
2370.450606066626
 20
773.1920632988503
 42
0.0
 10
2369.580369983579
 20
773.9894877505003
 42
-0.4400105308918518
 10
2369.580369983579
 20
774.284398685224
 42
0.0
 10
2370.450606066626
 20
775.0818231368748
 42
0.4400105308923449
 10
2370.450606066626
 20
775.3767340715985
 42
0.3028244616900302
 10
2370.256151027025
 20
775.4836509453452
 42
0.0
 10
2368.815488025102
 20
775.4836509453462
 42
0.4142135623730951
 10
2368.615488025103
 20
775.2836509453454
 42
0.0
 10
2368.615488025103
 20
771.183650945345
 42
-0.4142135623730978
 10
2368.415488025102
 20
770.9836509453452
 42
0.0
 10
2362.315488025102
 20
770.9836509453452
 42
-0.4142135623730901
 10
2362.115488025102
 20
771.183650945345
 42
0.0
 10
2362.115488025102
 20
793.7836509453455
 42
-0.4142135623730925
 10
2362.315488025102
 20
793.9836509453462
 42
0.0
 10
2368.415488025102
 20
793.9836509453462
 42
-0.4142135623730823
 10
2368.615488025103
 20
793.7836509453455
 42
0.0
 10
2368.615488025102
 20
789.6836509453451
 42
0.4142135623730898
 10
2368.815488025102
 20
789.4836509453453
 42
0.0
 10
2369.406493296701
 20
789.4836509453453
 42
0.2397702262468164
 10
2369.568159401425
 20
789.5659051573812
 42
0.0
 10
2370.450606066626
 20
790.3745185461129
 42
0.4400105308918114
 10
2370.450606066626
 20
790.6694294808366
 42
0.0
 10
2369.580369983579
 20
791.4668539324866
 42
-0.4400105308918518
 10
2369.580369983579
 20
791.7617648672103
 42
0.0
 10
2370.450606066626
 20
792.5591893188611
 42
0.4400105308918624
 10
2370.450606066626
 20
792.8541002535848
 42
0.0
 10
2369.580369983579
 20
793.6515247052357
 42
-0.4400105308920354
 10
2369.580369983579
 20
793.9464356399594
 42
0.0
 10
2370.450606066626
 20
794.7438600916093
 42
0.4400105308920234
 10
2370.450606066626
 20
795.038771026333
 42
0.0
 10
2369.55364858359
 20
795.8606811298068
 42
0.3026172876787988
 10
2369.369077863588
 20
795.9836509453452
 42
0.0
 10
2362.31548802513
 20
795.9836509453079
 42
-0.4142135623760335
 10
2362.115488025129
 20
796.1836509453087
 42
0.0
 10
2362.115488025175
 20
805.8351228079009
 42
-0.6681786379185996
 10
2362.627620059535
 20
806.0472548422557
 42
0.0
 10
2363.603355990814
 20
805.0715189109705
 42
0.6681786379193273
 10
2364.115488025174
 20
805.2836509453264
 42
0.0
 97
        0
 92
       22
 72
     1
 73
     1
 93
       11
 10
2360.815488025329
 20
807.4836509453671
 42
0.0
 10
2360.815488025196
 20
770.4836509453607
 42
-0.4142135623726085
 10
2360.615488025196
 20
770.2836509453609
 42
0.0
 10
2334.615488025178
 20
770.2836509454109
 42
-0.4142135623725228
 10
2334.415488025179
 20
770.4836509454107
 42
0.0
 10
2334.415488025179
 20
794.6767625746215
 42
0.0
 10
2336.394373463406
 20
798.6345334511297
 42
0.1164338214635597
 10
2336.415488025206
 20
798.7239761702285
 42
0.0
 10
2336.415488025238
 20
807.4836509454389
 42
-0.4142135623728727
 10
2336.615488025238
 20
807.6836509454388
 42
0.0
 10
2360.615488025329
 20
807.6836509453688
 42
-0.4142135623735597
 97
        0
 92
        6
 72
     1
 73
     1
 93
        2
 10
2352.716340670132
 20
788.6488509453457
 42
-1.0
 10
2350.580835380148
 20
788.6488509453457
 42
-1.0
 97
        0
 75
     0
 76
     1
 52
0.0
 41
0.25
 77
     0
 78
     1
 53
45.0
 43
2351.64858802514
 44
788.6488509453457
 45
-0.5612660075668221
 46
0.5612660075668221
 79
     0
 47
0.1485592028441212
 98
        3
 10
2362.762869639452
 20
808.1807795252725
 10
2362.762869639452
 20
808.1807795252725
 10
2362.762869639452
 20
808.1807795252725
1001
ACAD
1010
0.0
1020
0.0
1030
0.0
  0
CIRCLE
  5
300
330
1F
100
AcDbEntity
  8
0
  6
ACAD_ISO10W100
 62
     4
100
AcDbCircle
 10
2351.64858802514
 20
788.6488509453457
 30
0.0
 40
1.067752644991514
  0
DIMENSION
  5
302
102
{ACAD_XDICTIONARY
360
303
102
}
102
{ACAD_REACTORS
330
304
102
}
330
1F
100
AcDbEntity
  8
S10_Quote
100
AcDbDimension
  2
*D17
 10
2360.815488025329
 20
814.9179651644487
 30
0.0
 11
2348.615488025283
 21
816.739643486127
 31
0.0
 70
    32
 71
     5
 42
24.40000000009013
  3
mm 1_1
100
AcDbAlignedDimension
 13
2336.415488025238
 23
807.4836509454387
 33
0.0
 14
2360.815488025329
 24
807.4836509453515
 34
0.0
100
AcDbRotatedDimension
  0
DIMENSION
  5
305
102
{ACAD_XDICTIONARY
360
306
102
}
102
{ACAD_REACTORS
330
307
102
}
330
1F
100
AcDbEntity
  8
S10_Quote
100
AcDbDimension
  2
*D18
 10
2364.115488025184
 20
819.8083396021653
 30
0.0
 11
2348.615488025184
 21
821.6237242175498
 31
0.0
 70
    32
 71
     5
 42
31.0
  3
mm 1_1
100
AcDbAlignedDimension
 13
2333.115488025184
 23
808.7836509454115
 33
0.0
 14
2364.115488025184
 24
808.783650945325
 34
0.0
100
AcDbRotatedDimension
  0
DIMENSION
  5
308
102
{ACAD_XDICTIONARY
360
309
102
}
102
{ACAD_REACTORS
330
30A
102
}
330
1F
100
AcDbEntity
  8
S10_Quote
100
AcDbDimension
  2
*D19
 10
2384.688628673742
 20
768.9836509453498
 30
0.0
 11
2382.865551750665
 21
788.9836509453411
 31
0.0
 70
    32
 71
     5
 42
39.99999999998181
  3
mm 1_1
100
AcDbAlignedDimension
 13
2361.593312338109
 23
808.9836509453316
 33
0.0
 14
2361.593312338086
 24
768.9836509453498
 34
0.0
 50
90.0
100
AcDbRotatedDimension
  0
DIMENSION
  5
30B
102
{ACAD_XDICTIONARY
360
30C
102
}
102
{ACAD_REACTORS
330
30D
102
}
330
1F
100
AcDbEntity
  8
S10_Quote
100
AcDbDimension
  2
*D20
 10
2333.115488025179
 20
763.8528732479436
 30
0.0
 11
2351.81548802514
 21
765.6829431780136
 31
0.0
 70
    32
 71
     5
 42
37.39999999992324
  3
mm 1_1
100
AcDbAlignedDimension
 13
2370.515488025102
 23
770.85993705874
 33
0.0
 14
2333.115488025179
 24
770.85993705874
 34
0.0
100
AcDbRotatedDimension
  0
DIMENSION
  5
30E
102
{ACAD_XDICTIONARY
360
30F
102
}
102
{ACAD_REACTORS
330
310
102
}
330
1F
100
AcDbEntity
  8
S10_Quote
100
AcDbDimension
  2
*D21
 10
2333.115488025179
 20
782.8508158506929
 30
0.0
 11
2330.131142999728
 21
782.8508158506929
 31
0.0
 70
   160
 71
     5
 42
1.300000000000181
  3
mm 1_1
100
AcDbAlignedDimension
 13
2334.415488025179
 23
782.5565999622668
 33
0.0
 14
2333.115488025179
 24
782.5565999622668
 34
0.0
100
AcDbRotatedDimension
  0
DIMENSION
  5
311
102
{ACAD_XDICTIONARY
360
312
102
}
102
{ACAD_REACTORS
330
313
102
}
330
1F
100
AcDbEntity
  8
S10_Quote
100
AcDbDimension
  2
*D22
 10
2352.722670409451
 20
807.6836509454032
 30
0.0
 11
2352.722670409451
 21
811.3828817145986
 31
0.0
 70
   160
 71
     5
 42
1.299999999963802
  3
mm 1_1
100
AcDbAlignedDimension
 13
2348.615488025184
 23
808.9836509453672
 33
0.0
 14
2348.615488025181
 24
807.6836509454032
 34
0.0
 50
90.0
100
AcDbRotatedDimension
  0
DIMENSION
  5
314
102
{ACAD_XDICTIONARY
360
315
102
}
102
{ACAD_REACTORS
330
316
102
}
330
1F
100
AcDbEntity
  8
S10_Quote
100
AcDbDimension
  2
*D23
 10
2322.733734885273
 20
794.9823879339771
 30
0.0
 11
2320.918350269888
 21
781.9830194396615
 31
0.0
 70
    32
 71
     5
 42
25.99873698863212
  3
mm 1_1
100
AcDbAlignedDimension
 13
2333.315488025179
 23
768.983650945345
 33
0.0
 14
2333.120838227285
 24
794.9823879339771
 34
0.0
 50
90.0
100
AcDbRotatedDimension
  0
DIMENSION
  5
317
102
{ACAD_XDICTIONARY
360
318
102
}
102
{ACAD_REACTORS
330
319
102
}
330
1F
100
AcDbEntity
  8
S10_Quote
100
AcDbDimension
  2
*D24
 10
2322.733734885272
 20
798.9849139567576
 30
0.0
 11
2320.92604257758
 21
796.9836509453679
 31
0.0
 70
    32
 71
     5
 42
4.00252602278033
  3
mm 1_1
100
AcDbAlignedDimension
 13
2333.120838227285
 23
794.9823879339772
 33
0.0
 14
2335.110137823045
 24
798.9849139567576
 34
0.0
 50
90.0
100
AcDbRotatedDimension
1001
ACAD
1000
DSTYLE
1002
{
1070
   279
1070
     1
1002
}
  0
DIMENSION
  5
31A
102
{ACAD_XDICTIONARY
360
31B
102
}
102
{ACAD_REACTORS
330
31C
102
}
330
1F
100
AcDbEntity
  8
S10_Quote
100
AcDbDimension
  2
*D25
 10
2322.733734885273
 20
808.9836509454089
 30
0.0
 11
2320.918350269888
 21
803.9842824510838
 31
0.0
 70
    32
 71
     5
 42
9.998736988651216
  3
mm 1_1
100
AcDbAlignedDimension
 13
2335.110137823046
 23
798.9849139567577
 33
0.0
 14
2333.425292120375
 24
808.9836509454089
 34
0.0
 50
90.0
100
AcDbRotatedDimension
1001
ACAD
1000
DSTYLE
1002
{
1070
   279
1070
     1
1002
}
  0
DIMENSION
  5
31D
102
{ACAD_XDICTIONARY
360
31E
102
}
102
{ACAD_REACTORS
330
31F
102
}
330
1F
100
AcDbEntity
  8
S10_Quote
100
AcDbDimension
  2
*D26
 10
2370.515488025102
 20
798.0716587570082
 30
0.0
 11
2366.320725462337
 21
799.8947356800851
 31
0.0
 70
    32
 71
     5
 42
8.389525125530326
  3
mm 1_1
100
AcDbAlignedDimension
 13
2362.125962899572
 23
796.119774292432
 33
0.0
 14
2370.515488025102
 24
794.8913155589707
 34
0.0
100
AcDbRotatedDimension
  0
DIMENSION
  5
320
102
{ACAD_XDICTIONARY
360
321
102
}
102
{ACAD_REACTORS
330
322
102
}
330
1F
100
AcDbEntity
  8
S10_Quote
100
AcDbDimension
  2
*D27
 10
2376.03490724345
 20
775.4836509453452
 30
0.0
 11
2374.219522628066
 21
772.2336509453457
 31
0.0
 70
    32
 71
     5
 42
6.5
  3
mm 1_1
100
AcDbAlignedDimension
 13
2369.315488025102
 23
768.9836509453453
 33
0.0
 14
2369.315488025102
 24
775.4836509453452
 34
0.0
 50
90.0
100
AcDbRotatedDimension
  0
DIMENSION
  5
323
102
{ACAD_XDICTIONARY
360
324
102
}
102
{ACAD_REACTORS
330
325
102
}
330
1F
100
AcDbEntity
  8
S10_Quote
100
AcDbDimension
  2
*D28
 10
2376.03490724345
 20
789.4836509453453
 30
0.0
 11
2374.227214935758
 21
782.4836509453457
 31
0.0
 70
    32
 71
     5
 42
14.0
  3
mm 1_1
100
AcDbAlignedDimension
 13
2369.315488025102
 23
775.4836509453452
 33
0.0
 14
2369.110990660901
 24
789.4836509453453
 34
0.0
 50
90.0
100
AcDbRotatedDimension
1001
ACAD
1000
DSTYLE
1002
{
1070
   279
1070
     1
1002
}
  0
DIMENSION
  5
326
102
{ACAD_XDICTIONARY
360
327
102
}
102
{ACAD_REACTORS
330
328
102
}
330
1F
100
AcDbEntity
  8
S10_Quote
100
AcDbDimension
  2
*D29
 10
2376.03490724345
 20
795.9836509453444
 30
0.0
 11
2374.219522628066
 21
792.7336509453453
 31
0.0
 70
    32
 71
     5
 42
6.49999999999909
  3
mm 1_1
100
AcDbAlignedDimension
 13
2369.110990660902
 23
789.4836509453453
 33
0.0
 14
2369.369077863588
 24
795.9836509453444
 34
0.0
 50
90.0
100
AcDbRotatedDimension
1001
ACAD
1000
DSTYLE
1002
{
1070
   279
1070
     1
1002
}
  0
DIMENSION
  5
329
102
{ACAD_XDICTIONARY
360
32A
102
}
102
{ACAD_REACTORS
330
32B
102
}
330
1F
100
AcDbEntity
  8
S10_Quote
100
AcDbDimension
  2
*D30
 10
2362.115488025102
 20
777.2176470754666
 30
0.0
 11
2365.365488025103
 21
779.0330316908511
 31
0.0
 70
    32
 71
     5
 42
6.500000000000454
  3
mm 1_1
100
AcDbAlignedDimension
 13
2368.615488025103
 23
775.2836509453454
 33
0.0
 14
2362.115488025102
 24
775.334495928394
 34
0.0
100
AcDbRotatedDimension
  0
ENDSEC
  0
SECTION
  2
OBJECTS
  0
DICTIONARY
  5
C
330
0
100
AcDbDictionary
281
     1
  3
ACAD_COLOR
350
6B
  3
ACAD_GROUP
350
D
  3
ACAD_LAYOUT
350
1A
  3
ACAD_MATERIAL
350
6A
  3
ACAD_MLEADERSTYLE
350
12D
  3
ACAD_MLINESTYLE
350
17
  3
ACAD_PLOTSETTINGS
350
19
  3
ACAD_PLOTSTYLENAME
350
E
  3
ACAD_SCALELIST
350
10C
  3
ACAD_TABLESTYLE
350
7E
  3
ACAD_VISUALSTYLE
350
EF
  3
ACDB_RECOMPOSE_DATA
350
45D
  3
AcDbVariableDictionary
350
5E
  0
DICTIONARY
  5
2B8
330
2
100
AcDbDictionary
280
     1
281
     1
  3
ACAD_LAYERSTATES
360
2B9
  0
DICTIONARY
  5
13C
330
10
100
AcDbDictionary
280
     1
281
     1
  0
DICTIONARY
  5
2A9
330
2A8
100
AcDbDictionary
280
     1
281
     1
  0
DICTIONARY
  5
2AB
330
2AA
100
AcDbDictionary
280
     1
281
     1
  0
DICTIONARY
  5
2AD
330
2AC
100
AcDbDictionary
280
     1
281
     1
  0
DICTIONARY
  5
1CE
330
1F
100
AcDbDictionary
280
     1
281
     1
  0
DICTIONARY
  5
1F5
330
1F4
100
AcDbDictionary
280
     1
281
     1
  0
DICTIONARY
  5
303
330
302
100
AcDbDictionary
280
     1
281
     1
  3
ACAD_DIMASSOC
360
304
  0
DICTIONARY
  5
306
330
305
100
AcDbDictionary
280
     1
281
     1
  3
ACAD_DIMASSOC
360
307
  0
DICTIONARY
  5
309
330
308
100
AcDbDictionary
280
     1
281
     1
  3
ACAD_DIMASSOC
360
30A
  0
DICTIONARY
  5
30C
330
30B
100
AcDbDictionary
280
     1
281
     1
  3
ACAD_DIMASSOC
360
30D
  0
DICTIONARY
  5
30F
330
30E
100
AcDbDictionary
280
     1
281
     1
  3
ACAD_DIMASSOC
360
310
  0
DICTIONARY
  5
312
330
311
100
AcDbDictionary
280
     1
281
     1
  3
ACAD_DIMASSOC
360
313
  0
DICTIONARY
  5
315
330
314
100
AcDbDictionary
280
     1
281
     1
  3
ACAD_DIMASSOC
360
316
  0
DICTIONARY
  5
318
330
317
100
AcDbDictionary
280
     1
281
     1
  3
ACAD_DIMASSOC
360
319
  0
DICTIONARY
  5
31B
330
31A
100
AcDbDictionary
280
     1
281
     1
  3
ACAD_DIMASSOC
360
31C
  0
DICTIONARY
  5
31E
330
31D
100
AcDbDictionary
280
     1
281
     1
  3
ACAD_DIMASSOC
360
31F
  0
DICTIONARY
  5
321
330
320
100
AcDbDictionary
280
     1
281
     1
  3
ACAD_DIMASSOC
360
322
  0
DICTIONARY
  5
324
330
323
100
AcDbDictionary
280
     1
281
     1
  3
ACAD_DIMASSOC
360
325
  0
DICTIONARY
  5
327
330
326
100
AcDbDictionary
280
     1
281
     1
  3
ACAD_DIMASSOC
360
328
  0
DICTIONARY
  5
32A
330
329
100
AcDbDictionary
280
     1
281
     1
  3
ACAD_DIMASSOC
360
32B
  0
DICTIONARY
  5
6B
102
{ACAD_REACTORS
330
C
102
}
330
C
100
AcDbDictionary
281
     1
  0
DICTIONARY
  5
D
102
{ACAD_REACTORS
330
C
102
}
330
C
100
AcDbDictionary
281
     1
  0
DICTIONARY
  5
1A
102
{ACAD_REACTORS
330
C
102
}
330
C
100
AcDbDictionary
281
     1
  3
Layout1
350
D3
  3
Layout2
350
D7
  3
Model
350
22
  0
DICTIONARY
  5
6A
102
{ACAD_REACTORS
330
C
102
}
330
C
100
AcDbDictionary
281
     1
  3
ByBlock
350
ED
  3
ByLayer
350
EC
  3
Global
350
EE
  0
DICTIONARY
  5
12D
102
{ACAD_REACTORS
330
C
102
}
330
C
100
AcDbDictionary
281
     1
  3
Annotativa
350
13B
  3
Standard
350
12E
  0
DICTIONARY
  5
17
102
{ACAD_REACTORS
330
C
102
}
330
C
100
AcDbDictionary
281
     1
  3
Standard
350
18
  0
DICTIONARY
  5
19
102
{ACAD_REACTORS
330
C
102
}
330
C
100
AcDbDictionary
281
     1
  0
ACDBDICTIONARYWDFLT
  5
E
102
{ACAD_REACTORS
330
C
102
}
330
C
100
AcDbDictionary
281
     1
  3
Normal
350
F
100
AcDbDictionaryWithDefault
340
F
  0
DICTIONARY
  5
10C
102
{ACAD_REACTORS
330
C
102
}
330
C
100
AcDbDictionary
281
     1
  3
A0
350
10D
  3
A1
350
1BE
  3
A2
350
1BF
  3
A3
350
1C0
  3
A4
350
1C1
  3
A5
350
1C2
  3
A6
350
1C3
  3
A7
350
1C4
  3
A8
350
1C5
  3
A9
350
1C6
  3
B0
350
1C7
  3
B1
350
1C8
  3
B2
350
1C9
  3
B3
350
1CA
  3
B4
350
1CB
  3
B5
350
1CC
  3
B6
350
1CD
  0
DICTIONARY
  5
7E
102
{ACAD_REACTORS
330
C
102
}
330
C
100
AcDbDictionary
281
     1
  3
Standard
350
7F
  0
DICTIONARY
  5
EF
102
{ACAD_REACTORS
330
C
102
}
330
C
100
AcDbDictionary
281
     1
  3
2dWireframe
350
F5
  3
3D Hidden
350
F7
  3
3dWireframe
350
F6
  3
Basic
350
F4
  3
Brighten
350
FB
  3
ColorChange
350
FF
  3
Conceptual
350
F8
  3
Dim
350
FA
  3
EdgeColorOff
350
1E6
  3
Facepattern
350
FE
  3
Flat
350
F0
  3
FlatWithEdges
350
F1
  3
Gouraud
350
F2
  3
GouraudWithEdges
350
F3
  3
JitterOff
350
1E4
  3
Linepattern
350
FD
  3
OverhangOff
350
1E5
  3
Realistic
350
F9
  3
Thicken
350
FC
  0
XRECORD
  5
45D
102
{ACAD_REACTORS
330
C
102
}
330
C
100
AcDbXrecord
280
     1
 90
        1
330
7F
  0
DICTIONARY
  5
5E
102
{ACAD_REACTORS
330
C
102
}
330
C
100
AcDbDictionary
281
     1
  3
CANNOSCALE
350
146
  3
CMLEADERSTYLE
350
145
  3
CTABLESTYLE
350
84
  3
DIMASSOC
350
5F
  3
HIDETEXT
350
63
  3
LAYEREVAL
350
1AE
  3
LAYERNOTIFY
350
1AF
  3
LIGHTINGUNITS
350
458
  3
MSLTSCALE
350
457
  3
PSOLHEIGHT
350
45A
  3
PSOLWIDTH
350
459
  3
XCLIPFRAME
350
45B
  0
DICTIONARY
  5
2B9
102
{ACAD_REACTORS
330
2B8
102
}
330
2B8
100
AcDbDictionary
281
     1
  0
DIMASSOC
  5
304
102
{ACAD_REACTORS
330
303
102
}
330
303
100
AcDbDimAssoc
330
302
 90
        3
 70
     0
 71
     0
  1
AcDbOsnapPointRef
 72
     6
331
2F9
 73
     2
 91
        4
 40
0.0000000000036771
 10
0.0
 20
0.0
 30
0.0
332
2F9
 74
     2
 92
        3
 75
     0
  1
AcDbOsnapPointRef
 72
     8
331
2F9
 73
     2
 91
        7
 40
0.0
 10
0.0
 20
0.0
 30
0.0
 75
     1
  1
AcDbOsnapPointRef
 72
     6
331
2F9
 73
     2
 91
        4
 40
0.0000000000036771
 10
0.0
 20
0.0
 30
0.0
332
2F9
 74
     2
 92
        3
 75
     0
  0
DIMASSOC
  5
307
102
{ACAD_REACTORS
330
306
102
}
330
306
100
AcDbDimAssoc
330
305
 90
        3
 70
     0
 71
     0
  1
AcDbOsnapPointRef
 72
     6
331
2F9
 73
     2
 91
       68
 40
0.0
 10
0.0
 20
0.0
 30
0.0
332
2F9
 74
     2
 92
       67
 75
     0
  1
AcDbOsnapPointRef
 72
     8
331
2F9
 73
     2
 91
       65
 40
6.283185307176797
 10
0.0
 20
0.0
 30
0.0
 75
     1
  1
AcDbOsnapPointRef
 72
     6
331
2F9
 73
     2
 91
       68
 40
0.0
 10
0.0
 20
0.0
 30
0.0
332
2F9
 74
     2
 92
       67
 75
     0
  0
DIMASSOC
  5
30A
102
{ACAD_REACTORS
330
309
102
}
330
309
100
AcDbDimAssoc
330
308
 90
        3
 70
     0
 71
     0
  1
AcDbOsnapPointRef
 72
     8
331
2F9
 73
     2
 91
       66
 40
0.0758880943488779
 10
0.0
 20
0.0
 30
0.0
 75
     1
  1
AcDbOsnapPointRef
 72
     0
 40
0.0
 10
9.944724312998005
 20
31.15948865682003
 30
0.0
 75
     0
  1
AcDbOsnapPointRef
 72
     8
331
2F9
 73
     2
 91
       14
 40
0.7854951198046427
 10
0.0
 20
0.0
 30
0.0
 75
     1
  1
AcDbOsnapPointRef
 72
     8
331
2F9
 73
     2
 91
       66
 40
0.0758880943488779
 10
0.0
 20
0.0
 30
0.0
 75
     1
  1
AcDbOsnapPointRef
 72
     0
 40
0.0
 10
9.944724312998005
 20
31.15948865682003
 30
0.0
 75
     0
  0
DIMASSOC
  5
30D
102
{ACAD_REACTORS
330
30C
102
}
330
30C
100
AcDbDimAssoc
330
30B
 90
        3
 70
     0
 71
     0
  1
AcDbOsnapPointRef
 72
     2
331
2F9
 73
     2
 91
       19
 40
6.283185307179959
 10
0.0
 20
0.0
 30
0.0
 75
     0
  1
AcDbOsnapPointRef
 72
     8
331
2F9
 73
     2
 91
       76
 40
0.9349085536973358
 10
0.0
 20
0.0
 30
0.0
 75
     1
  1
AcDbOsnapPointRef
 72
     2
331
2F9
 73
     2
 91
       19
 40
6.283185307179959
 10
0.0
 20
0.0
 30
0.0
 75
     0
  0
DIMASSOC
  5
310
102
{ACAD_REACTORS
330
30F
102
}
330
30F
100
AcDbDimAssoc
330
30E
 90
        3
 70
     0
 71
     0
  1
AcDbOsnapPointRef
 72
     2
331
2F9
 73
     2
 91
       11
 40
0.5
 10
0.0
 20
0.0
 30
0.0
 75
     0
  1
AcDbOsnapPointRef
 72
     8
331
2F9
 73
     2
 91
       76
 40
0.4807183655057851
 10
0.0
 20
0.0
 30
0.0
 75
     1
  1
AcDbOsnapPointRef
 72
     2
331
2F9
 73
     2
 91
       11
 40
0.5
 10
0.0
 20
0.0
 30
0.0
 75
     0
  0
DIMASSOC
  5
313
102
{ACAD_REACTORS
330
312
102
}
330
312
100
AcDbDimAssoc
330
311
 90
        3
 70
     0
 71
     0
  1
AcDbOsnapPointRef
 72
     2
331
2F9
 73
     2
 91
       66
 40
0.5
 10
0.0
 20
0.0
 30
0.0
 75
     0
  1
AcDbOsnapPointRef
 72
     8
331
2F9
 73
     2
 91
        5
 40
0.499999999995702
 10
0.0
 20
0.0
 30
0.0
 75
     1
  1
AcDbOsnapPointRef
 72
     2
331
2F9
 73
     2
 91
       66
 40
0.5
 10
0.0
 20
0.0
 30
0.0
 75
     0
  0
DIMASSOC
  5
316
102
{ACAD_REACTORS
330
315
102
}
330
315
100
AcDbDimAssoc
330
314
 90
        3
 70
     0
 71
     0
  1
AcDbOsnapPointRef
 72
     1
331
2F9
 73
     2
 91
       13
 40
4.712388980390374
 10
0.0
 20
0.0
 30
2.000000000000000E+50
 75
     0
  1
AcDbOsnapPointRef
 72
     2
331
2F9
 73
     2
 91
       75
 40
2.909768849092376
 10
0.0
 20
0.0
 30
0.0
 75
     0
  0
DIMASSOC
  5
319
102
{ACAD_REACTORS
330
318
102
}
330
318
100
AcDbDimAssoc
330
317
 90
        3
 70
     0
 71
     0
  1
AcDbOsnapPointRef
 72
     2
331
2F9
 73
     2
 91
       75
 40
2.909768849092376
 10
0.0
 20
0.0
 30
0.0
 75
     0
  1
AcDbOsnapPointRef
 72
     2
331
2F9
 73
     2
 91
       73
 40
6.051361502680153
 10
0.0
 20
0.0
 30
0.0
 75
     0
  0
DIMASSOC
  5
31C
102
{ACAD_REACTORS
330
31B
102
}
330
31B
100
AcDbDimAssoc
330
31A
 90
        1
 70
     0
 71
     0
  1
AcDbOsnapPointRef
 72
     2
331
2F9
 73
     2
 91
       73
 40
6.051361502680153
 10
0.0
 20
0.0
 30
0.0
 75
     0
  0
DIMASSOC
  5
31F
102
{ACAD_REACTORS
330
31E
102
}
330
31E
100
AcDbDimAssoc
330
31D
 90
        3
 70
     0
 71
     0
  1
AcDbOsnapPointRef
 72
     8
331
2F9
 73
     2
 91
       59
 40
0.0
 10
0.0
 20
0.0
 30
0.0
 75
     1
  1
AcDbOsnapPointRef
 72
     0
 40
0.0
 10
39.13710129148967
 20
-19.66519999999552
 30
0.0
 75
     0
  1
AcDbOsnapPointRef
 72
     2
331
2F9
 73
     2
 91
       54
 40
6.283185307179954
 10
0.0
 20
0.0
 30
0.0
 75
     0
  0
DIMASSOC
  5
322
102
{ACAD_REACTORS
330
321
102
}
330
321
100
AcDbDimAssoc
330
320
 90
        2
 70
     0
 71
     0
  1
AcDbOsnapPointRef
 72
     8
331
2F9
 73
     2
 91
       30
 40
0.6529375715680547
 10
0.0
 20
0.0
 30
0.0
 75
     1
  1
AcDbOsnapPointRef
 72
     0
 40
0.0
 10
17.66689999996197
 20
-19.66520000000018
 30
0.0
 75
     0
  0
DIMASSOC
  5
325
102
{ACAD_REACTORS
330
324
102
}
330
324
100
AcDbDimAssoc
330
323
 90
        3
 70
     0
 71
     0
  1
AcDbOsnapPointRef
 72
     8
331
2F9
 73
     2
 91
       30
 40
0.6529375715680547
 10
0.0
 20
0.0
 30
0.0
 75
     1
  1
AcDbOsnapPointRef
 72
     0
 40
0.0
 10
17.46240263576112
 20
0.8348000000000013
 30
0.0
 75
     0
  1
AcDbOsnapPointRef
 72
     2
331
2F9
 73
     2
 91
       42
 40
0.5
 10
0.0
 20
0.0
 30
0.0
 75
     0
  0
DIMASSOC
  5
328
102
{ACAD_REACTORS
330
327
102
}
330
327
100
AcDbDimAssoc
330
326
 90
        3
 70
     0
 71
     0
  1
AcDbOsnapPointRef
 72
     2
331
2F9
 73
     2
 91
       42
 40
0.5
 10
0.0
 20
0.0
 30
0.0
 75
     0
  1
AcDbOsnapPointRef
 72
    13
331
2F9
 73
     2
 91
       58
 40
0.0
 10
0.0
 20
0.0
 30
2.000000000000000E+50
 75
     0
  0
DIMASSOC
  5
32B
102
{ACAD_REACTORS
330
32A
102
}
330
32A
100
AcDbDimAssoc
330
329
 90
        2
 70
     0
 71
     0
  1
AcDbOsnapPointRef
 72
     8
331
2F9
 73
     2
 91
       36
 40
0.1836657072145177
 10
0.0
 20
0.0
 30
0.0
 75
     1
  1
AcDbOsnapPointRef
 72
     8
331
2F9
 73
     2
 91
       31
 40
2.884546450055911
 10
0.0
 20
0.0
 30
0.0
 75
     1
  1
AcDbOsnapPointRef
 72
     0
 40
0.0
 10
24.38631921831007
 20
-15.26290510314112
 30
0.0
 75
     0
  0
LAYOUT
  5
D3
102
{ACAD_REACTORS
330
1A
102
}
330
1A
100
AcDbPlotSettings
  1

  2
C:\Documents and Settings\basas\Application Data\Autodesk\AutoCAD 2005\R16.1\enu\plotters\Default Windows System Printer.pc3
  4

  6

 40
0.0
 41
0.0
 42
0.0
 43
0.0
 44
0.0
 45
0.0
 46
0.0
 47
0.0
 48
0.0
 49
0.0
140
0.0
141
0.0
142
1.0
143
1.0
 70
   688
 72
     0
 73
     0
 74
     5
  7

 75
    16
147
1.0
 76
     0
 77
     2
 78
   300
148
0.0
149
0.0
100
AcDbLayout
  1
Layout1
 70
     1
 71
     1
 10
0.0
 20
0.0
 11
12.0
 21
9.0
 12
0.0
 22
0.0
 32
0.0
 14
0.0
 24
0.0
 34
0.0
 15
0.0
 25
0.0
 35
0.0
146
0.0
 13
0.0
 23
0.0
 33
0.0
 16
1.0
 26
0.0
 36
0.0
 17
0.0
 27
1.0
 37
0.0
 76
     0
330
D2
  0
LAYOUT
  5
D7
102
{ACAD_REACTORS
330
1A
102
}
330
1A
100
AcDbPlotSettings
  1

  2
C:\Documents and Settings\basas\Application Data\Autodesk\AutoCAD 2005\R16.1\enu\plotters\Default Windows System Printer.pc3
  4

  6

 40
0.0
 41
0.0
 42
0.0
 43
0.0
 44
0.0
 45
0.0
 46
0.0
 47
0.0
 48
0.0
 49
0.0
140
0.0
141
0.0
142
1.0
143
1.0
 70
   688
 72
     0
 73
     0
 74
     5
  7

 75
    16
147
1.0
 76
     0
 77
     2
 78
   300
148
0.0
149
0.0
100
AcDbLayout
  1
Layout2
 70
     1
 71
     2
 10
0.0
 20
0.0
 11
12.0
 21
9.0
 12
0.0
 22
0.0
 32
0.0
 14
0.0
 24
0.0
 34
0.0
 15
0.0
 25
0.0
 35
0.0
146
0.0
 13
0.0
 23
0.0
 33
0.0
 16
1.0
 26
0.0
 36
0.0
 17
0.0
 27
1.0
 37
0.0
 76
     0
330
D6
  0
LAYOUT
  5
22
102
{ACAD_REACTORS
330
1A
102
}
330
1A
100
AcDbPlotSettings
  1

  2
none_device
  4
ISO_A4_(210.00_x_297.00_MM)
  6

 40
7.5
 41
20.0
 42
7.5
 43
20.0
 44
210.0
 45
297.0
 46
11.54999923706054
 47
-13.65000009536743
 48
0.0
 49
0.0
140
0.0
141
0.0
142
1.0
143
8.704084754739808
 70
 11952
 72
     1
 73
     0
 74
     0
  7

 75
     0
147
0.1148885871608098
 76
     0
 77
     2
 78
   300
148
0.0
149
0.0
100
AcDbLayout
  1
Model
 70
     1
 71
     0
 10
0.0
 20
0.0
 11
12.0
 21
9.0
 12
0.0
 22
0.0
 32
0.0
 14
0.0
 24
0.0
 34
0.0
 15
0.0
 25
0.0
 35
0.0
146
0.0
 13
0.0
 23
0.0
 33
0.0
 16
1.0
 26
0.0
 36
0.0
 17
0.0
 27
1.0
 37
0.0
 76
     0
330
1F
331
EA
1001
ACAD_PSEXT
1000
None
1000
None
1000
Not applicable
1000
The layout will not be plotted unless a new plotter configuration name is selected.
1070
     0
  0
MATERIAL
  5
ED
102
{ACAD_XDICTIONARY
360
461
102
}
102
{ACAD_REACTORS
330
6A
102
}
330
6A
100
AcDbMaterial
  1
ByBlock
  0
MATERIAL
  5
EC
102
{ACAD_XDICTIONARY
360
45F
102
}
102
{ACAD_REACTORS
330
6A
102
}
330
6A
100
AcDbMaterial
  1
ByLayer
  0
MATERIAL
  5
EE
102
{ACAD_XDICTIONARY
360
173
102
}
102
{ACAD_REACTORS
330
6A
102
}
330
6A
100
AcDbMaterial
  1
Global
 43
0.0007999999797903
 43
0.0
 43
0.0
 43
0.0
 43
0.0
 43
0.0007999999797903
 43
0.0
 43
0.0
 43
0.0
 43
0.0
 43
1.0
 43
0.0
 43
0.0
 43
0.0
 43
0.0
 43
1.0
 49
0.0007999999797903
 49
0.0
 49
0.0
 49
0.0
 49
0.0
 49
0.0007999999797903
 49
0.0
 49
0.0
 49
0.0
 49
0.0
 49
1.0
 49
0.0
 49
0.0
 49
0.0
 49
0.0
 49
1.0
142
0.0007999999797903
142
0.0
142
0.0
142
0.0
142
0.0
142
0.0007999999797903
142
0.0
142
0.0
142
0.0
142
0.0
142
1.0
142
0.0
142
0.0
142
0.0
142
0.0
142
1.0
144
0.0007999999797903
144
0.0
144
0.0
144
0.0
144
0.0
144
0.0007999999797903
144
0.0
144
0.0
144
0.0
144
0.0
144
1.0
144
0.0
144
0.0
144
0.0
144
0.0
144
1.0
1001
ACAD
1070
    -1
1070
     3
1070
     0
1000

1071
        0
1070
     0
  0
MLEADERSTYLE
  5
13B
102
{ACAD_REACTORS
330
12D
102
}
330
12D
100
AcDbMLeaderStyle
170
     2
171
     1
172
     0
 90
        2
 40
0.0
 41
0.0
173
     1
 91
-1056964608
340
14
 92
       -2
290
     1
 42
2.0
291
     1
 43
8.0
  3
Standard
 44
4.0
300

342
11
174
     1
178
     1
175
     1
176
     0
 93
-1056964608
 45
4.0
292
     0
297
     0
 46
4.0
 94
-1056964608
 47
1.0
 49
1.0
140
1.0
293
     1
141
0.0
294
     1
177
     0
142
1.0
295
     0
296
     1
143
3.75
1001
ACAD_MLEADERVER
1070
     2
  0
MLEADERSTYLE
  5
12E
102
{ACAD_REACTORS
330
12D
102
}
330
12D
100
AcDbMLeaderStyle
170
     2
171
     1
172
     0
 90
        2
 40
0.0
 41
0.0
173
     1
 91
-1056964608
340
14
 92
       -2
290
     1
 42
2.0
291
     1
 43
8.0
  3
Standard
 44
4.0
300

342
11
174
     1
178
     1
175
     1
176
     0
 93
-1056964608
 45
4.0
292
     0
297
     0
 46
4.0
 94
-1056964608
 47
1.0
 49
1.0
140
1.0
293
     1
141
0.0
294
     1
177
     0
142
1.0
295
     0
296
     0
143
3.75
1001
ACAD_MLEADERVER
1070
     2
  0
MLINESTYLE
  5
18
102
{ACAD_REACTORS
330
17
102
}
330
17
100
AcDbMlineStyle
  2
STANDARD
 70
     0
  3

 62
   256
 51
90.0
 52
90.0
 71
     2
 49
0.5
 62
   256
  6
BYLAYER
 49
-0.5
 62
   256
  6
BYLAYER
  0
ACDBPLACEHOLDER
  5
F
102
{ACAD_REACTORS
330
E
102
}
330
E
  0
SCALE
  5
10D
102
{ACAD_REACTORS
330
10C
102
}
330
10C
100
AcDbScale
 70
     0
300
1:1
140
1.0
141
1.0
290
     1
  0
SCALE
  5
1BE
102
{ACAD_REACTORS
330
10C
102
}
330
10C
100
AcDbScale
 70
     0
300
1:2
140
1.0
141
2.0
290
     0
  0
SCALE
  5
1BF
102
{ACAD_REACTORS
330
10C
102
}
330
10C
100
AcDbScale
 70
     0
300
1:4
140
1.0
141
4.0
290
     0
  0
SCALE
  5
1C0
102
{ACAD_REACTORS
330
10C
102
}
330
10C
100
AcDbScale
 70
     0
300
1:5
140
1.0
141
5.0
290
     0
  0
SCALE
  5
1C1
102
{ACAD_REACTORS
330
10C
102
}
330
10C
100
AcDbScale
 70
     0
300
1:8
140
1.0
141
8.0
290
     0
  0
SCALE
  5
1C2
102
{ACAD_REACTORS
330
10C
102
}
330
10C
100
AcDbScale
 70
     0
300
1:10
140
1.0
141
10.0
290
     0
  0
SCALE
  5
1C3
102
{ACAD_REACTORS
330
10C
102
}
330
10C
100
AcDbScale
 70
     0
300
1:16
140
1.0
141
16.0
290
     0
  0
SCALE
  5
1C4
102
{ACAD_REACTORS
330
10C
102
}
330
10C
100
AcDbScale
 70
     0
300
1:20
140
1.0
141
20.0
290
     0
  0
SCALE
  5
1C5
102
{ACAD_REACTORS
330
10C
102
}
330
10C
100
AcDbScale
 70
     0
300
1:30
140
1.0
141
30.0
290
     0
  0
SCALE
  5
1C6
102
{ACAD_REACTORS
330
10C
102
}
330
10C
100
AcDbScale
 70
     0
300
1:40
140
1.0
141
40.0
290
     0
  0
SCALE
  5
1C7
102
{ACAD_REACTORS
330
10C
102
}
330
10C
100
AcDbScale
 70
     0
300
1:50
140
1.0
141
50.0
290
     0
  0
SCALE
  5
1C8
102
{ACAD_REACTORS
330
10C
102
}
330
10C
100
AcDbScale
 70
     0
300
1:100
140
1.0
141
100.0
290
     0
  0
SCALE
  5
1C9
102
{ACAD_REACTORS
330
10C
102
}
330
10C
100
AcDbScale
 70
     0
300
2:1
140
2.0
141
1.0
290
     0
  0
SCALE
  5
1CA
102
{ACAD_REACTORS
330
10C
102
}
330
10C
100
AcDbScale
 70
     0
300
4:1
140
4.0
141
1.0
290
     0
  0
SCALE
  5
1CB
102
{ACAD_REACTORS
330
10C
102
}
330
10C
100
AcDbScale
 70
     0
300
8:1
140
8.0
141
1.0
290
     0
  0
SCALE
  5
1CC
102
{ACAD_REACTORS
330
10C
102
}
330
10C
100
AcDbScale
 70
     0
300
10:1
140
10.0
141
1.0
290
     0
  0
SCALE
  5
1CD
102
{ACAD_REACTORS
330
10C
102
}
330
10C
100
AcDbScale
 70
     0
300
100:1
140
100.0
141
1.0
290
     0
  0
TABLESTYLE
  5
7F
102
{ACAD_XDICTIONARY
360
162
102
}
102
{ACAD_REACTORS
330
7E
102
}
330
7E
100
AcDbTableStyle
  3
Standard
 70
     0
 71
     0
 40
1.5
 41
1.5
280
     0
281
     0
  7
Standard
140
4.5
170
     2
 62
     0
 63
     7
283
     0
274
    -2
284
     1
 64
     0
275
    -2
285
     1
 65
     0
276
    -2
286
     1
 66
     0
277
    -2
287
     1
 67
     0
278
    -2
288
     1
 68
     0
279
    -2
289
     1
 69
     0
  7
Standard
140
6.0
170
     5
 62
     0
 63
     7
283
     0
274
    -2
284
     1
 64
     0
275
    -2
285
     1
 65
     0
276
    -2
286
     1
 66
     0
277
    -2
287
     1
 67
     0
278
    -2
288
     1
 68
     0
279
    -2
289
     1
 69
     0
  7
Standard
140
4.5
170
     5
 62
     0
 63
     7
283
     0
274
    -2
284
     1
 64
     0
275
    -2
285
     1
 65
     0
276
    -2
286
     1
 66
     0
277
    -2
287
     1
 67
     0
278
    -2
288
     1
 68
     0
279
    -2
289
     1
 69
     0
  0
VISUALSTYLE
  5
F5
102
{ACAD_XDICTIONARY
360
46E
102
}
102
{ACAD_REACTORS
330
EF
102
}
330
EF
100
AcDbVisualStyle
  2
2dWireframe
 70
     4
 71
     0
 72
     2
 73
     1
 90
        0
 40
-0.6
 41
-30.0
 62
     5
 63
     7
421
 16777215
 74
     1
 91
        4
 64
     7
 65
   257
 75
     1
175
     1
 42
1.0
 92
        0
 66
   257
 43
1.0
 76
     1
 77
     6
 78
     2
 67
     7
 79
     5
170
     0
171
     0
290
     0
174
     0
 93
        1
 44
0.0
173
     0
291
     0
 45
0.0
1001
ACAD
1000
AcDbSavedByObjectVersion
1070
     0
  0
VISUALSTYLE
  5
F7
102
{ACAD_XDICTIONARY
360
472
102
}
102
{ACAD_REACTORS
330
EF
102
}
330
EF
100
AcDbVisualStyle
  2
3D Hidden
 70
     6
 71
     1
 72
     2
 73
     2
 90
        0
 40
-0.6
 41
-30.0
 62
     5
 63
     7
421
 16777215
 74
     2
 91
        2
 64
     7
 65
   257
 75
     2
175
     1
 42
40.0
 92
        0
 66
   257
 43
1.0
 76
     1
 77
     6
 78
     2
 67
     7
 79
     3
170
     0
171
     0
290
     0
174
     0
 93
        1
 44
0.0
173
     0
291
     0
 45
0.0
1001
ACAD
1000
AcDbSavedByObjectVersion
1070
     0
  0
VISUALSTYLE
  5
F6
102
{ACAD_XDICTIONARY
360
470
102
}
102
{ACAD_REACTORS
330
EF
102
}
330
EF
100
AcDbVisualStyle
  2
3dWireframe
 70
     5
 71
     0
 72
     2
 73
     1
 90
        0
 40
-0.6
 41
-30.0
 62
     5
 63
     7
421
 16777215
 74
     1
 91
        4
 64
     7
 65
   257
 75
     1
175
     1
 42
1.0
 92
        0
 66
   257
 43
1.0
 76
     1
 77
     6
 78
     2
 67
     7
 79
     5
170
     0
171
     0
290
     0
174
     0
 93
        1
 44
0.0
173
     0
291
     0
 45
0.0
1001
ACAD
1000
AcDbSavedByObjectVersion
1070
     0
  0
VISUALSTYLE
  5
F4
102
{ACAD_XDICTIONARY
360
46C
102
}
102
{ACAD_REACTORS
330
EF
102
}
330
EF
100
AcDbVisualStyle
  2
Basic
 70
     7
 71
     1
 72
     0
 73
     1
 90
        0
 40
-0.6
 41
-30.0
 62
     5
 63
     7
421
 16777215
 74
     0
 91
        4
 64
     7
 65
   257
 75
     1
175
     1
 42
1.0
 92
        8
 66
     7
 43
1.0
 76
     1
 77
     6
 78
     2
 67
     7
 79
     5
170
     0
171
     0
290
     0
174
     0
 93
        1
 44
0.0
173
     0
291
     1
 45
0.0
1001
ACAD
1000
AcDbSavedByObjectVersion
1070
     0
  0
VISUALSTYLE
  5
FB
102
{ACAD_XDICTIONARY
360
47A
102
}
102
{ACAD_REACTORS
330
EF
102
}
330
EF
100
AcDbVisualStyle
  2
Brighten
 70
    12
 71
     2
 72
     2
 73
     1
 90
        0
 40
-0.6
 41
-30.0
 62
     5
 63
     7
421
 16777215
 74
     1
 91
        4
 64
     7
 65
   257
 75
     1
175
     1
 42
1.0
 92
        8
 66
     7
 43
1.0
 76
     1
 77
     6
 78
     2
 67
     7
 79
     5
170
     0
171
     0
290
     0
174
     0
 93
        1
 44
50.0
173
     0
291
     1
 45
0.0
1001
ACAD
1000
AcDbSavedByObjectVersion
1070
     0
  0
VISUALSTYLE
  5
FF
102
{ACAD_XDICTIONARY
360
482
102
}
102
{ACAD_REACTORS
330
EF
102
}
330
EF
100
AcDbVisualStyle
  2
ColorChange
 70
    16
 71
     2
 72
     2
 73
     3
 90
        0
 40
-0.6
 41
-30.0
 62
     5
 63
     8
421
  8421504
 74
     1
 91
        4
 64
     7
 65
   257
 75
     1
175
     1
 42
1.0
 92
        8
 66
     8
424
  8421504
 43
1.0
 76
     1
 77
     6
 78
     2
 67
     7
 79
     5
170
     0
171
     0
290
     0
174
     0
 93
        1
 44
0.0
173
     0
291
     1
 45
0.0
1001
ACAD
1000
AcDbSavedByObjectVersion
1070
     0
  0
VISUALSTYLE
  5
F8
102
{ACAD_XDICTIONARY
360
474
102
}
102
{ACAD_REACTORS
330
EF
102
}
330
EF
100
AcDbVisualStyle
  2
Conceptual
 70
     9
 71
     3
 72
     2
 73
     1
 90
        0
 40
-0.6
 41
-30.0
 62
     5
 63
     7
421
 16777215
 74
     2
 91
        2
 64
     7
 65
   257
 75
     1
175
     1
 42
40.0
 92
        8
 66
     7
 43
1.0
 76
     1
 77
     6
 78
     2
 67
     7
 79
     3
170
     0
171
     0
290
     0
174
     0
 93
        1
 44
0.0
173
     0
291
     0
 45
0.0
1001
ACAD
1000
AcDbSavedByObjectVersion
1070
     0
  0
VISUALSTYLE
  5
FA
102
{ACAD_XDICTIONARY
360
478
102
}
102
{ACAD_REACTORS
330
EF
102
}
330
EF
100
AcDbVisualStyle
  2
Dim
 70
    11
 71
     2
 72
     2
 73
     1
 90
        0
 40
-0.6
 41
-30.0
 62
     5
 63
     7
421
 16777215
 74
     1
 91
        4
 64
     7
 65
   257
 75
     1
175
     1
 42
1.0
 92
        8
 66
     7
 43
1.0
 76
     1
 77
     6
 78
     2
 67
     7
 79
     5
170
     0
171
     0
290
     0
174
     0
 93
        1
 44
-50.0
173
     0
291
     1
 45
0.0
1001
ACAD
1000
AcDbSavedByObjectVersion
1070
     0
  0
VISUALSTYLE
  5
1E6
102
{ACAD_XDICTIONARY
360
488
102
}
102
{ACAD_REACTORS
330
EF
102
}
330
EF
100
AcDbVisualStyle
  2
EdgeColorOff
 70
    22
 71
     2
 72
     2
 73
     0
 90
        0
 40
-0.6
 41
-30.0
 62
     5
 63
     7
421
 16777215
 74
     1
 91
        4
 64
     7
 65
   257
 75
     1
175
     1
 42
1.0
 92
        8
 66
     7
 43
1.0
 76
     1
 77
     6
 78
     2
 67
     7
 79
     5
170
     0
171
     0
290
     0
174
     0
 93
        1
 44
0.0
173
     0
291
     1
 45
0.0
1001
ACAD
1000
AcDbSavedByObjectVersion
1070
     0
  0
VISUALSTYLE
  5
FE
102
{ACAD_XDICTIONARY
360
480
102
}
102
{ACAD_REACTORS
330
EF
102
}
330
EF
100
AcDbVisualStyle
  2
Facepattern
 70
    15
 71
     2
 72
     2
 73
     1
 90
        0
 40
-0.6
 41
-30.0
 62
     5
 63
     7
421
 16777215
 74
     1
 91
        4
 64
     7
 65
   257
 75
     1
175
     1
 42
1.0
 92
        8
 66
     7
 43
1.0
 76
     1
 77
     6
 78
     2
 67
     7
 79
     5
170
     0
171
     0
290
     0
174
     0
 93
        1
 44
0.0
173
     0
291
     1
 45
0.0
1001
ACAD
1000
AcDbSavedByObjectVersion
1070
     0
  0
VISUALSTYLE
  5
F0
102
{ACAD_XDICTIONARY
360
464
102
}
102
{ACAD_REACTORS
330
EF
102
}
330
EF
100
AcDbVisualStyle
  2
Flat
 70
     0
 71
     2
 72
     1
 73
     1
 90
        2
 40
-0.6
 41
30.0
 62
     5
 63
     7
421
 16777215
 74
     0
 91
        4
 64
     7
 65
   257
 75
     1
175
     1
 42
1.0
 92
        8
 66
     7
 43
1.0
 76
     1
 77
     6
 78
     2
 67
     7
 79
     5
170
     0
171
     0
290
     0
174
     0
 93
        1
 44
0.0
173
     0
291
     1
 45
0.0
1001
ACAD
1000
AcDbSavedByObjectVersion
1070
     0
  0
VISUALSTYLE
  5
F1
102
{ACAD_XDICTIONARY
360
466
102
}
102
{ACAD_REACTORS
330
EF
102
}
330
EF
100
AcDbVisualStyle
  2
FlatWithEdges
 70
     1
 71
     2
 72
     1
 73
     1
 90
        2
 40
-0.6
 41
30.0
 62
     5
 63
     7
421
 16777215
 74
     1
 91
        4
 64
     7
 65
   257
 75
     1
175
     1
 42
1.0
 92
        0
 66
   257
 43
1.0
 76
     1
 77
     6
 78
     2
 67
     7
 79
     5
170
     0
171
     0
290
     0
174
     0
 93
        1
 44
0.0
173
     0
291
     1
 45
0.0
1001
ACAD
1000
AcDbSavedByObjectVersion
1070
     0
  0
VISUALSTYLE
  5
F2
102
{ACAD_XDICTIONARY
360
468
102
}
102
{ACAD_REACTORS
330
EF
102
}
330
EF
100
AcDbVisualStyle
  2
Gouraud
 70
     2
 71
     2
 72
     2
 73
     1
 90
        2
 40
-0.6
 41
30.0
 62
     5
 63
     7
421
 16777215
 74
     0
 91
        4
 64
     7
 65
   257
 75
     1
175
     1
 42
1.0
 92
        0
 66
     7
 43
1.0
 76
     1
 77
     6
 78
     2
 67
     7
 79
     5
170
     0
171
     0
290
     0
174
     0
 93
        1
 44
0.0
173
     0
291
     1
 45
0.0
1001
ACAD
1000
AcDbSavedByObjectVersion
1070
     0
  0
VISUALSTYLE
  5
F3
102
{ACAD_XDICTIONARY
360
46A
102
}
102
{ACAD_REACTORS
330
EF
102
}
330
EF
100
AcDbVisualStyle
  2
GouraudWithEdges
 70
     3
 71
     2
 72
     2
 73
     1
 90
        2
 40
-0.6
 41
30.0
 62
     5
 63
     7
421
 16777215
 74
     1
 91
        4
 64
     7
 65
   257
 75
     1
175
     1
 42
1.0
 92
        0
 66
   257
 43
1.0
 76
     1
 77
     6
 78
     2
 67
     7
 79
     5
170
     0
171
     0
290
     0
174
     0
 93
        1
 44
0.0
173
     0
291
     1
 45
0.0
1001
ACAD
1000
AcDbSavedByObjectVersion
1070
     0
  0
VISUALSTYLE
  5
1E4
102
{ACAD_XDICTIONARY
360
484
102
}
102
{ACAD_REACTORS
330
EF
102
}
330
EF
100
AcDbVisualStyle
  2
JitterOff
 70
    20
 71
     2
 72
     2
 73
     0
 90
        0
 40
-0.6
 41
-30.0
 62
     5
 63
     7
421
 16777215
 74
     1
 91
        4
 64
     7
 65
   257
 75
     1
175
     1
 42
1.0
 92
       10
 66
     7
 43
1.0
 76
     1
 77
     6
 78
     2
 67
     7
 79
     5
170
     0
171
     0
290
     0
174
     0
 93
        1
 44
0.0
173
     0
291
     1
 45
0.0
1001
ACAD
1000
AcDbSavedByObjectVersion
1070
     0
  0
VISUALSTYLE
  5
FD
102
{ACAD_XDICTIONARY
360
47E
102
}
102
{ACAD_REACTORS
330
EF
102
}
330
EF
100
AcDbVisualStyle
  2
Linepattern
 70
    14
 71
     2
 72
     2
 73
     1
 90
        0
 40
-0.6
 41
-30.0
 62
     5
 63
     7
421
 16777215
 74
     1
 91
        4
 64
     7
 65
   257
 75
     7
175
     7
 42
1.0
 92
        8
 66
     7
 43
1.0
 76
     1
 77
     6
 78
     2
 67
     7
 79
     5
170
     0
171
     0
290
     0
174
     0
 93
        1
 44
0.0
173
     0
291
     1
 45
0.0
1001
ACAD
1000
AcDbSavedByObjectVersion
1070
     0
  0
VISUALSTYLE
  5
1E5
102
{ACAD_XDICTIONARY
360
486
102
}
102
{ACAD_REACTORS
330
EF
102
}
330
EF
100
AcDbVisualStyle
  2
OverhangOff
 70
    21
 71
     2
 72
     2
 73
     0
 90
        0
 40
-0.6
 41
-30.0
 62
     5
 63
     7
421
 16777215
 74
     1
 91
        4
 64
     7
 65
   257
 75
     1
175
     1
 42
1.0
 92
        9
 66
     7
 43
1.0
 76
     1
 77
     6
 78
     2
 67
     7
 79
     5
170
     0
171
     0
290
     0
174
     0
 93
        1
 44
0.0
173
     0
291
     1
 45
0.0
1001
ACAD
1000
AcDbSavedByObjectVersion
1070
     0
  0
VISUALSTYLE
  5
F9
102
{ACAD_XDICTIONARY
360
476
102
}
102
{ACAD_REACTORS
330
EF
102
}
330
EF
100
AcDbVisualStyle
  2
Realistic
 70
     8
 71
     2
 72
     2
 73
     1
 90
        0
 40
-0.6
 41
-30.0
 62
     5
 63
     7
421
 16777215
 74
     1
 91
        0
 64
     7
 65
   257
 75
     1
175
     1
 42
1.0
 92
        8
 66
     8
424
  7895160
 43
1.0
 76
     1
 77
     6
 78
     2
 67
     7
 79
     5
170
     0
171
     0
290
     0
174
     0
 93
       13
 44
0.0
173
     0
291
     0
 45
0.0
1001
ACAD
1000
AcDbSavedByObjectVersion
1070
     0
  0
VISUALSTYLE
  5
FC
102
{ACAD_XDICTIONARY
360
47C
102
}
102
{ACAD_REACTORS
330
EF
102
}
330
EF
100
AcDbVisualStyle
  2
Thicken
 70
    13
 71
     2
 72
     2
 73
     1
 90
        0
 40
-0.6
 41
-30.0
 62
     5
 63
     7
421
 16777215
 74
     1
 91
        4
 64
     7
 65
   257
 75
     1
175
     1
 42
1.0
 92
       12
 66
     7
 43
1.0
 76
     1
 77
     6
 78
     2
 67
     7
 79
     5
170
     0
171
     0
290
     0
174
     0
 93
        1
 44
0.0
173
     0
291
     1
 45
0.0
1001
ACAD
1000
AcDbSavedByObjectVersion
1070
     0
  0
DICTIONARYVAR
  5
146
102
{ACAD_REACTORS
330
5E
102
}
330
5E
100
DictionaryVariables
280
     0
  1
1:1
  0
DICTIONARYVAR
  5
145
102
{ACAD_REACTORS
330
5E
102
}
330
5E
100
DictionaryVariables
280
     0
  1
STANDARD
  0
DICTIONARYVAR
  5
84
102
{ACAD_REACTORS
330
5E
102
}
330
5E
100
DictionaryVariables
280
     0
  1
STANDARD
  0
DICTIONARYVAR
  5
5F
102
{ACAD_REACTORS
330
5E
102
}
330
5E
100
DictionaryVariables
280
     0
  1
2
  0
DICTIONARYVAR
  5
63
102
{ACAD_REACTORS
330
5E
102
}
330
5E
100
DictionaryVariables
280
     0
  1
1
  0
DICTIONARYVAR
  5
1AE
102
{ACAD_REACTORS
330
5E
102
}
330
5E
100
DictionaryVariables
280
     0
  1
0
  0
DICTIONARYVAR
  5
1AF
102
{ACAD_REACTORS
330
5E
102
}
330
5E
100
DictionaryVariables
280
     0
  1
0
  0
DICTIONARYVAR
  5
458
102
{ACAD_REACTORS
330
5E
102
}
330
5E
100
DictionaryVariables
280
     0
  1
2
  0
DICTIONARYVAR
  5
457
102
{ACAD_REACTORS
330
5E
102
}
330
5E
100
DictionaryVariables
280
     0
  1
1
  0
DICTIONARYVAR
  5
45A
102
{ACAD_REACTORS
330
5E
102
}
330
5E
100
DictionaryVariables
280
     0
  1
80.000000
  0
DICTIONARYVAR
  5
459
102
{ACAD_REACTORS
330
5E
102
}
330
5E
100
DictionaryVariables
280
     0
  1
5.000000
  0
DICTIONARYVAR
  5
45B
102
{ACAD_REACTORS
330
5E
102
}
330
5E
100
DictionaryVariables
280
     0
  1
2
  0
DICTIONARY
  5
461
330
ED
100
AcDbDictionary
280
     1
281
     1
  3
ACAD_XREC_ROUNDTRIP
360
462
  0
DICTIONARY
  5
45F
330
EC
100
AcDbDictionary
280
     1
281
     1
  3
ACAD_XREC_ROUNDTRIP
360
460
  0
DICTIONARY
  5
173
330
EE
100
AcDbDictionary
280
     1
281
     1
  3
ACAD_XREC_ROUNDTRIP
360
463
  3
BUMPTILE
360
175
  3
DIFFUSETILE
360
174
  3
OPACITYTILE
360
176
  3
REFLECTIONTILE
360
177
  0
DICTIONARY
  5
162
330
7F
100
AcDbDictionary
280
     1
281
     1
  3
ACAD_ROUNDTRIP_2008_TABLESTYLE_CELLSTYLEMAP
360
45C
  3
ACAD_XREC_ROUNDTRIP
360
45E
  0
DICTIONARY
  5
46E
330
F5
100
AcDbDictionary
280
     1
281
     1
  3
ACAD_XREC_ROUNDTRIP
360
46F
  0
DICTIONARY
  5
472
330
F7
100
AcDbDictionary
280
     1
281
     1
  3
ACAD_XREC_ROUNDTRIP
360
473
  0
DICTIONARY
  5
470
330
F6
100
AcDbDictionary
280
     1
281
     1
  3
ACAD_XREC_ROUNDTRIP
360
471
  0
DICTIONARY
  5
46C
330
F4
100
AcDbDictionary
280
     1
281
     1
  3
ACAD_XREC_ROUNDTRIP
360
46D
  0
DICTIONARY
  5
47A
330
FB
100
AcDbDictionary
280
     1
281
     1
  3
ACAD_XREC_ROUNDTRIP
360
47B
  0
DICTIONARY
  5
482
330
FF
100
AcDbDictionary
280
     1
281
     1
  3
ACAD_XREC_ROUNDTRIP
360
483
  0
DICTIONARY
  5
474
330
F8
100
AcDbDictionary
280
     1
281
     1
  3
ACAD_XREC_ROUNDTRIP
360
475
  0
DICTIONARY
  5
478
330
FA
100
AcDbDictionary
280
     1
281
     1
  3
ACAD_XREC_ROUNDTRIP
360
479
  0
DICTIONARY
  5
488
330
1E6
100
AcDbDictionary
280
     1
281
     1
  3
ACAD_XREC_ROUNDTRIP
360
489
  0
DICTIONARY
  5
480
330
FE
100
AcDbDictionary
280
     1
281
     1
  3
ACAD_XREC_ROUNDTRIP
360
481
  0
DICTIONARY
  5
464
330
F0
100
AcDbDictionary
280
     1
281
     1
  3
ACAD_XREC_ROUNDTRIP
360
465
  0
DICTIONARY
  5
466
330
F1
100
AcDbDictionary
280
     1
281
     1
  3
ACAD_XREC_ROUNDTRIP
360
467
  0
DICTIONARY
  5
468
330
F2
100
AcDbDictionary
280
     1
281
     1
  3
ACAD_XREC_ROUNDTRIP
360
469
  0
DICTIONARY
  5
46A
330
F3
100
AcDbDictionary
280
     1
281
     1
  3
ACAD_XREC_ROUNDTRIP
360
46B
  0
DICTIONARY
  5
484
330
1E4
100
AcDbDictionary
280
     1
281
     1
  3
ACAD_XREC_ROUNDTRIP
360
485
  0
DICTIONARY
  5
47E
330
FD
100
AcDbDictionary
280
     1
281
     1
  3
ACAD_XREC_ROUNDTRIP
360
47F
  0
DICTIONARY
  5
486
330
1E5
100
AcDbDictionary
280
     1
281
     1
  3
ACAD_XREC_ROUNDTRIP
360
487
  0
DICTIONARY
  5
476
330
F9
100
AcDbDictionary
280
     1
281
     1
  3
ACAD_XREC_ROUNDTRIP
360
477
  0
DICTIONARY
  5
47C
330
FC
100
AcDbDictionary
280
     1
281
     1
  3
ACAD_XREC_ROUNDTRIP
360
47D
  0
XRECORD
  5
462
102
{ACAD_REACTORS
330
461
102
}
330
461
100
AcDbXrecord
280
     1
102
MATERIAL
148
0.0
149
0.0
149
0.0
 93
        0
 94
       63
282
     0
 72
     1
 77
     1
171
     1
175
     1
179
     1
273
     0
  0
XRECORD
  5
460
102
{ACAD_REACTORS
330
45F
102
}
330
45F
100
AcDbXrecord
280
     1
102
MATERIAL
148
0.0
149
0.0
149
0.0
 93
        0
 94
       63
282
     0
 72
     1
 77
     1
171
     1
175
     1
179
     1
273
     0
  0
XRECORD
  5
463
102
{ACAD_REACTORS
330
173
102
}
330
173
100
AcDbXrecord
280
     1
102
MATERIAL
148
0.0
149
0.0
149
0.0
 93
        0
 94
       63
282
     0
 72
     1
 77
     1
171
     1
175
     1
179
     1
273
     0
  0
XRECORD
  5
175
102
{ACAD_REACTORS
330
173
102
}
330
173
100
AcDbXrecord
280
     1
270
     1
271
     1
  0
XRECORD
  5
174
102
{ACAD_REACTORS
330
173
102
}
330
173
100
AcDbXrecord
280
     1
270
     1
271
     1
  0
XRECORD
  5
176
102
{ACAD_REACTORS
330
173
102
}
330
173
100
AcDbXrecord
280
     1
270
     1
271
     1
  0
XRECORD
  5
177
102
{ACAD_REACTORS
330
173
102
}
330
173
100
AcDbXrecord
280
     1
270
     1
271
     1
  0
CELLSTYLEMAP
  5
45C
102
{ACAD_REACTORS
330
162
102
}
330
162
100
AcDbCellStyleMap
 90
        3
300
CELLSTYLE
  1
TABLEFORMAT_BEGIN
 90
        5
170
     1
 91
        0
 92
    32768
 62
   257
 93
        1
300
CONTENTFORMAT
  1
CONTENTFORMAT_BEGIN
 90
        0
 91
        0
 92
      512
 93
        0
300

 40
0.0
140
1.0
 94
        5
 62
     0
340
11
144
6.0
309
CONTENTFORMAT_END
171
     1
301
MARGIN
  1
CELLMARGIN_BEGIN
 40
1.5
 40
1.5
 40
1.5
 40
1.5
 40
4.5
 40
4.5
309
CELLMARGIN_END
 94
        6
 95
        1
302
GRIDFORMAT
  1
GRIDFORMAT_BEGIN
 90
        0
 91
        1
 62
     0
 92
       -2
340
14
 93
        0
 40
1.125
309
GRIDFORMAT_END
 95
        2
302
GRIDFORMAT
  1
GRIDFORMAT_BEGIN
 90
        0
 91
        1
 62
     0
 92
       -2
340
14
 93
        0
 40
1.125
309
GRIDFORMAT_END
 95
        4
302
GRIDFORMAT
  1
GRIDFORMAT_BEGIN
 90
        0
 91
        1
 62
     0
 92
       -2
340
14
 93
        0
 40
1.125
309
GRIDFORMAT_END
 95
        8
302
GRIDFORMAT
  1
GRIDFORMAT_BEGIN
 90
        0
 91
        1
 62
     0
 92
       -2
340
14
 93
        0
 40
1.125
309
GRIDFORMAT_END
 95
       16
302
GRIDFORMAT
  1
GRIDFORMAT_BEGIN
 90
        0
 91
        1
 62
     0
 92
       -2
340
14
 93
        0
 40
1.125
309
GRIDFORMAT_END
 95
       32
302
GRIDFORMAT
  1
GRIDFORMAT_BEGIN
 90
        0
 91
        1
 62
     0
 92
       -2
340
14
 93
        0
 40
1.125
309
GRIDFORMAT_END
309
TABLEFORMAT_END
  1
CELLSTYLE_BEGIN
 90
        1
 91
        1
300
_TITLE
309
CELLSTYLE_END
300
CELLSTYLE
  1
TABLEFORMAT_BEGIN
 90
        5
170
     1
 91
        0
 92
        0
 62
   257
 93
        1
300
CONTENTFORMAT
  1
CONTENTFORMAT_BEGIN
 90
        0
 91
        0
 92
      512
 93
        0
300

 40
0.0
140
1.0
 94
        5
 62
     0
340
11
144
4.5
309
CONTENTFORMAT_END
171
     1
301
MARGIN
  1
CELLMARGIN_BEGIN
 40
1.5
 40
1.5
 40
1.5
 40
1.5
 40
4.5
 40
4.5
309
CELLMARGIN_END
 94
        6
 95
        1
302
GRIDFORMAT
  1
GRIDFORMAT_BEGIN
 90
        0
 91
        1
 62
     0
 92
       -2
340
14
 93
        0
 40
1.125
309
GRIDFORMAT_END
 95
        2
302
GRIDFORMAT
  1
GRIDFORMAT_BEGIN
 90
        0
 91
        1
 62
     0
 92
       -2
340
14
 93
        0
 40
1.125
309
GRIDFORMAT_END
 95
        4
302
GRIDFORMAT
  1
GRIDFORMAT_BEGIN
 90
        0
 91
        1
 62
     0
 92
       -2
340
14
 93
        0
 40
1.125
309
GRIDFORMAT_END
 95
        8
302
GRIDFORMAT
  1
GRIDFORMAT_BEGIN
 90
        0
 91
        1
 62
     0
 92
       -2
340
14
 93
        0
 40
1.125
309
GRIDFORMAT_END
 95
       16
302
GRIDFORMAT
  1
GRIDFORMAT_BEGIN
 90
        0
 91
        1
 62
     0
 92
       -2
340
14
 93
        0
 40
1.125
309
GRIDFORMAT_END
 95
       32
302
GRIDFORMAT
  1
GRIDFORMAT_BEGIN
 90
        0
 91
        1
 62
     0
 92
       -2
340
14
 93
        0
 40
1.125
309
GRIDFORMAT_END
309
TABLEFORMAT_END
  1
CELLSTYLE_BEGIN
 90
        2
 91
        1
300
_HEADER
309
CELLSTYLE_END
300
CELLSTYLE
  1
TABLEFORMAT_BEGIN
 90
        5
170
     1
 91
        0
 92
        0
 62
   257
 93
        1
300
CONTENTFORMAT
  1
CONTENTFORMAT_BEGIN
 90
        0
 91
        0
 92
      512
 93
        0
300

 40
0.0
140
1.0
 94
        2
 62
     0
340
11
144
4.5
309
CONTENTFORMAT_END
171
     1
301
MARGIN
  1
CELLMARGIN_BEGIN
 40
1.5
 40
1.5
 40
1.5
 40
1.5
 40
4.5
 40
4.5
309
CELLMARGIN_END
 94
        6
 95
        1
302
GRIDFORMAT
  1
GRIDFORMAT_BEGIN
 90
        0
 91
        1
 62
     0
 92
       -2
340
14
 93
        0
 40
1.125
309
GRIDFORMAT_END
 95
        2
302
GRIDFORMAT
  1
GRIDFORMAT_BEGIN
 90
        0
 91
        1
 62
     0
 92
       -2
340
14
 93
        0
 40
1.125
309
GRIDFORMAT_END
 95
        4
302
GRIDFORMAT
  1
GRIDFORMAT_BEGIN
 90
        0
 91
        1
 62
     0
 92
       -2
340
14
 93
        0
 40
1.125
309
GRIDFORMAT_END
 95
        8
302
GRIDFORMAT
  1
GRIDFORMAT_BEGIN
 90
        0
 91
        1
 62
     0
 92
       -2
340
14
 93
        0
 40
1.125
309
GRIDFORMAT_END
 95
       16
302
GRIDFORMAT
  1
GRIDFORMAT_BEGIN
 90
        0
 91
        1
 62
     0
 92
       -2
340
14
 93
        0
 40
1.125
309
GRIDFORMAT_END
 95
       32
302
GRIDFORMAT
  1
GRIDFORMAT_BEGIN
 90
        0
 91
        1
 62
     0
 92
       -2
340
14
 93
        0
 40
1.125
309
GRIDFORMAT_END
309
TABLEFORMAT_END
  1
CELLSTYLE_BEGIN
 90
        3
 91
        2
300
_DATA
309
CELLSTYLE_END
  0
XRECORD
  5
45E
102
{ACAD_REACTORS
330
162
102
}
330
162
100
AcDbXrecord
280
     1
102
ACAD_ROUNDTRIP_PRE2007_TABLESTYLE
 90
      512
 91
        0
  1

 92
      512
 93
        0
  2

 94
      512
 95
        0
  3

  0
XRECORD
  5
46F
102
{ACAD_REACTORS
330
46E
102
}
330
46E
100
AcDbXrecord
280
     1
102
RTVSPropertyOp0
 70
     1
102
RTVSPropertyOp1
 70
     1
102
RTVSPropertyOp2
 70
     1
102
RTVSPropertyOp3
 70
     1
102
RTVSPropertyOp4
 70
     1
102
RTVSPropertyOp5
 70
     1
102
RTVSPropertyOp6
 70
     1
102
RTVSPropertyOp7
 70
     1
102
RTVSPropertyOp8
 70
     1
102
RTVSPropertyOp9
 70
     1
102
RTVSPropertyOp10
 70
     1
102
RTVSPropertyOp11
 70
     1
102
RTVSPropertyOp12
 70
     1
102
RTVSPropertyOp13
 70
     1
102
RTVSPropertyOp14
 70
     1
102
RTVSPropertyOp15
 70
     1
102
RTVSPropertyOp16
 70
     1
102
RTVSPropertyOp17
 70
     1
102
RTVSPropertyOp18
 70
     1
102
RTVSPropertyOp19
 70
     1
102
RTVSPropertyOp20
 70
     1
102
RTVSPropertyOp21
 70
     1
102
RTVSPropertyOp22
 70
     1
102
RTVSPropertyOp23
 70
     1
102
RTVSPropertyOp24
 70
     1
102
RTVSPropertyOp25
 70
     1
102
RTVSPropertyOp26
 70
     1
102
RTVSPropertyOp27
 70
     1
  0
XRECORD
  5
473
102
{ACAD_REACTORS
330
472
102
}
330
472
100
AcDbXrecord
280
     1
102
RTVSPropertyOp0
 70
     1
102
RTVSPropertyOp1
 70
     1
102
RTVSPropertyOp2
 70
     1
102
RTVSPropertyOp3
 70
     1
102
RTVSPropertyOp4
 70
     1
102
RTVSPropertyOp5
 70
     1
102
RTVSPropertyOp6
 70
     1
102
RTVSPropertyOp7
 70
     1
102
RTVSPropertyOp8
 70
     1
102
RTVSPropertyOp9
 70
     1
102
RTVSPropertyOp10
 70
     1
102
RTVSPropertyOp11
 70
     1
102
RTVSPropertyOp12
 70
     1
102
RTVSPropertyOp13
 70
     1
102
RTVSPropertyOp14
 70
     1
102
RTVSPropertyOp15
 70
     1
102
RTVSPropertyOp16
 70
     1
102
RTVSPropertyOp17
 70
     1
102
RTVSPropertyOp18
 70
     1
102
RTVSPropertyOp19
 70
     1
102
RTVSPropertyOp20
 70
     1
102
RTVSPropertyOp21
 70
     1
102
RTVSPropertyOp22
 70
     1
102
RTVSPropertyOp23
 70
     1
102
RTVSPropertyOp24
 70
     1
102
RTVSPropertyOp25
 70
     1
102
RTVSPropertyOp26
 70
     1
102
RTVSPropertyOp27
 70
     1
  0
XRECORD
  5
471
102
{ACAD_REACTORS
330
470
102
}
330
470
100
AcDbXrecord
280
     1
102
RTVSPropertyOp0
 70
     1
102
RTVSPropertyOp1
 70
     1
102
RTVSPropertyOp2
 70
     1
102
RTVSPropertyOp3
 70
     1
102
RTVSPropertyOp4
 70
     1
102
RTVSPropertyOp5
 70
     1
102
RTVSPropertyOp6
 70
     1
102
RTVSPropertyOp7
 70
     1
102
RTVSPropertyOp8
 70
     1
102
RTVSPropertyOp9
 70
     1
102
RTVSPropertyOp10
 70
     1
102
RTVSPropertyOp11
 70
     1
102
RTVSPropertyOp12
 70
     1
102
RTVSPropertyOp13
 70
     1
102
RTVSPropertyOp14
 70
     1
102
RTVSPropertyOp15
 70
     1
102
RTVSPropertyOp16
 70
     1
102
RTVSPropertyOp17
 70
     1
102
RTVSPropertyOp18
 70
     1
102
RTVSPropertyOp19
 70
     1
102
RTVSPropertyOp20
 70
     1
102
RTVSPropertyOp21
 70
     1
102
RTVSPropertyOp22
 70
     1
102
RTVSPropertyOp23
 70
     1
102
RTVSPropertyOp24
 70
     1
102
RTVSPropertyOp25
 70
     1
102
RTVSPropertyOp26
 70
     1
102
RTVSPropertyOp27
 70
     1
  0
XRECORD
  5
46D
102
{ACAD_REACTORS
330
46C
102
}
330
46C
100
AcDbXrecord
280
     1
102
RTVSPropertyOp0
 70
     1
102
RTVSPropertyOp1
 70
     1
102
RTVSPropertyOp2
 70
     1
102
RTVSPropertyOp3
 70
     1
102
RTVSPropertyOp4
 70
     1
102
RTVSPropertyOp5
 70
     1
102
RTVSPropertyOp6
 70
     1
102
RTVSPropertyOp7
 70
     1
102
RTVSPropertyOp8
 70
     1
102
RTVSPropertyOp9
 70
     1
102
RTVSPropertyOp10
 70
     1
102
RTVSPropertyOp11
 70
     1
102
RTVSPropertyOp12
 70
     1
102
RTVSPropertyOp13
 70
     1
102
RTVSPropertyOp14
 70
     1
102
RTVSPropertyOp15
 70
     1
102
RTVSPropertyOp16
 70
     1
102
RTVSPropertyOp17
 70
     1
102
RTVSPropertyOp18
 70
     1
102
RTVSPropertyOp19
 70
     1
102
RTVSPropertyOp20
 70
     1
102
RTVSPropertyOp21
 70
     1
102
RTVSPropertyOp22
 70
     1
102
RTVSPropertyOp23
 70
     1
102
RTVSPropertyOp24
 70
     1
102
RTVSPropertyOp25
 70
     1
102
RTVSPropertyOp26
 70
     1
102
RTVSPropertyOp27
 70
     1
  0
XRECORD
  5
47B
102
{ACAD_REACTORS
330
47A
102
}
330
47A
100
AcDbXrecord
280
     1
102
RTVSPropertyOp0
 70
     1
102
RTVSPropertyOp1
 70
     1
102
RTVSPropertyOp2
 70
     1
102
RTVSPropertyOp3
 70
     1
102
RTVSPropertyOp4
 70
     1
102
RTVSPropertyOp5
 70
     1
102
RTVSPropertyOp6
 70
     1
102
RTVSPropertyOp7
 70
     1
102
RTVSPropertyOp8
 70
     1
102
RTVSPropertyOp9
 70
     1
102
RTVSPropertyOp10
 70
     1
102
RTVSPropertyOp11
 70
     1
102
RTVSPropertyOp12
 70
     1
102
RTVSPropertyOp13
 70
     1
102
RTVSPropertyOp14
 70
     1
102
RTVSPropertyOp15
 70
     1
102
RTVSPropertyOp16
 70
     1
102
RTVSPropertyOp17
 70
     1
102
RTVSPropertyOp18
 70
     1
102
RTVSPropertyOp19
 70
     1
102
RTVSPropertyOp20
 70
     1
102
RTVSPropertyOp21
 70
     1
102
RTVSPropertyOp22
 70
     1
102
RTVSPropertyOp23
 70
     1
102
RTVSPropertyOp24
 70
     1
102
RTVSPropertyOp25
 70
     1
102
RTVSPropertyOp26
 70
     1
102
RTVSPropertyOp27
 70
     1
  0
XRECORD
  5
483
102
{ACAD_REACTORS
330
482
102
}
330
482
100
AcDbXrecord
280
     1
102
RTVSPropertyOp0
 70
     1
102
RTVSPropertyOp1
 70
     1
102
RTVSPropertyOp2
 70
     1
102
RTVSPropertyOp3
 70
     1
102
RTVSPropertyOp4
 70
     1
102
RTVSPropertyOp5
 70
     1
102
RTVSPropertyOp6
 70
     1
102
RTVSPropertyOp7
 70
     1
102
RTVSPropertyOp8
 70
     1
102
RTVSPropertyOp9
 70
     1
102
RTVSPropertyOp10
 70
     1
102
RTVSPropertyOp11
 70
     1
102
RTVSPropertyOp12
 70
     1
102
RTVSPropertyOp13
 70
     1
102
RTVSPropertyOp14
 70
     1
102
RTVSPropertyOp15
 70
     1
102
RTVSPropertyOp16
 70
     1
102
RTVSPropertyOp17
 70
     1
102
RTVSPropertyOp18
 70
     1
102
RTVSPropertyOp19
 70
     1
102
RTVSPropertyOp20
 70
     1
102
RTVSPropertyOp21
 70
     1
102
RTVSPropertyOp22
 70
     1
102
RTVSPropertyOp23
 70
     1
102
RTVSPropertyOp24
 70
     1
102
RTVSPropertyOp25
 70
     1
102
RTVSPropertyOp26
 70
     1
102
RTVSPropertyOp27
 70
     1
  0
XRECORD
  5
475
102
{ACAD_REACTORS
330
474
102
}
330
474
100
AcDbXrecord
280
     1
102
RTVSPropertyOp0
 70
     1
102
RTVSPropertyOp1
 70
     1
102
RTVSPropertyOp2
 70
     1
102
RTVSPropertyOp3
 70
     1
102
RTVSPropertyOp4
 70
     1
102
RTVSPropertyOp5
 70
     1
102
RTVSPropertyOp6
 70
     1
102
RTVSPropertyOp7
 70
     1
102
RTVSPropertyOp8
 70
     1
102
RTVSPropertyOp9
 70
     1
102
RTVSPropertyOp10
 70
     1
102
RTVSPropertyOp11
 70
     1
102
RTVSPropertyOp12
 70
     1
102
RTVSPropertyOp13
 70
     1
102
RTVSPropertyOp14
 70
     1
102
RTVSPropertyOp15
 70
     1
102
RTVSPropertyOp16
 70
     1
102
RTVSPropertyOp17
 70
     1
102
RTVSPropertyOp18
 70
     1
102
RTVSPropertyOp19
 70
     1
102
RTVSPropertyOp20
 70
     1
102
RTVSPropertyOp21
 70
     1
102
RTVSPropertyOp22
 70
     1
102
RTVSPropertyOp23
 70
     1
102
RTVSPropertyOp24
 70
     1
102
RTVSPropertyOp25
 70
     1
102
RTVSPropertyOp26
 70
     1
102
RTVSPropertyOp27
 70
     1
  0
XRECORD
  5
479
102
{ACAD_REACTORS
330
478
102
}
330
478
100
AcDbXrecord
280
     1
102
RTVSPropertyOp0
 70
     1
102
RTVSPropertyOp1
 70
     1
102
RTVSPropertyOp2
 70
     1
102
RTVSPropertyOp3
 70
     1
102
RTVSPropertyOp4
 70
     1
102
RTVSPropertyOp5
 70
     1
102
RTVSPropertyOp6
 70
     1
102
RTVSPropertyOp7
 70
     1
102
RTVSPropertyOp8
 70
     1
102
RTVSPropertyOp9
 70
     1
102
RTVSPropertyOp10
 70
     1
102
RTVSPropertyOp11
 70
     1
102
RTVSPropertyOp12
 70
     1
102
RTVSPropertyOp13
 70
     1
102
RTVSPropertyOp14
 70
     1
102
RTVSPropertyOp15
 70
     1
102
RTVSPropertyOp16
 70
     1
102
RTVSPropertyOp17
 70
     1
102
RTVSPropertyOp18
 70
     1
102
RTVSPropertyOp19
 70
     1
102
RTVSPropertyOp20
 70
     1
102
RTVSPropertyOp21
 70
     1
102
RTVSPropertyOp22
 70
     1
102
RTVSPropertyOp23
 70
     1
102
RTVSPropertyOp24
 70
     1
102
RTVSPropertyOp25
 70
     1
102
RTVSPropertyOp26
 70
     1
102
RTVSPropertyOp27
 70
     1
  0
XRECORD
  5
489
102
{ACAD_REACTORS
330
488
102
}
330
488
100
AcDbXrecord
280
     1
102
RTVSPropertyOp0
 70
     0
102
RTVSPropertyOp1
 70
     0
102
RTVSPropertyOp2
 70
     0
102
RTVSPropertyOp3
 70
     0
102
RTVSPropertyOp4
 70
     0
102
RTVSPropertyOp5
 70
     0
102
RTVSPropertyOp6
 70
     0
102
RTVSPropertyOp7
 70
     0
102
RTVSPropertyOp8
 70
     0
102
RTVSPropertyOp9
 70
     0
102
RTVSPropertyOp10
 70
     0
102
RTVSPropertyOp11
 70
     0
102
RTVSPropertyOp12
 70
     0
102
RTVSPropertyOp13
 70
     0
102
RTVSPropertyOp14
 70
     2
102
RTVSPropertyOp15
 70
     0
102
RTVSPropertyOp16
 70
     0
102
RTVSPropertyOp17
 70
     0
102
RTVSPropertyOp18
 70
     0
102
RTVSPropertyOp19
 70
     0
102
RTVSPropertyOp20
 70
     0
102
RTVSPropertyOp21
 70
     0
102
RTVSPropertyOp22
 70
     0
102
RTVSPropertyOp23
 70
     0
102
RTVSPropertyOp24
 70
     0
102
RTVSPropertyOp25
 70
     0
102
RTVSPropertyOp26
 70
     0
102
RTVSPropertyOp27
 70
     0
  0
XRECORD
  5
481
102
{ACAD_REACTORS
330
480
102
}
330
480
100
AcDbXrecord
280
     1
102
RTVSPropertyOp0
 70
     1
102
RTVSPropertyOp1
 70
     1
102
RTVSPropertyOp2
 70
     1
102
RTVSPropertyOp3
 70
     1
102
RTVSPropertyOp4
 70
     1
102
RTVSPropertyOp5
 70
     1
102
RTVSPropertyOp6
 70
     1
102
RTVSPropertyOp7
 70
     1
102
RTVSPropertyOp8
 70
     1
102
RTVSPropertyOp9
 70
     1
102
RTVSPropertyOp10
 70
     1
102
RTVSPropertyOp11
 70
     1
102
RTVSPropertyOp12
 70
     1
102
RTVSPropertyOp13
 70
     1
102
RTVSPropertyOp14
 70
     1
102
RTVSPropertyOp15
 70
     1
102
RTVSPropertyOp16
 70
     1
102
RTVSPropertyOp17
 70
     1
102
RTVSPropertyOp18
 70
     1
102
RTVSPropertyOp19
 70
     1
102
RTVSPropertyOp20
 70
     1
102
RTVSPropertyOp21
 70
     1
102
RTVSPropertyOp22
 70
     1
102
RTVSPropertyOp23
 70
     1
102
RTVSPropertyOp24
 70
     1
102
RTVSPropertyOp25
 70
     1
102
RTVSPropertyOp26
 70
     1
102
RTVSPropertyOp27
 70
     1
  0
XRECORD
  5
465
102
{ACAD_REACTORS
330
464
102
}
330
464
100
AcDbXrecord
280
     1
102
RTVSPropertyOp0
 70
     1
102
RTVSPropertyOp1
 70
     1
102
RTVSPropertyOp2
 70
     1
102
RTVSPropertyOp3
 70
     1
102
RTVSPropertyOp4
 70
     1
102
RTVSPropertyOp5
 70
     1
102
RTVSPropertyOp6
 70
     1
102
RTVSPropertyOp7
 70
     1
102
RTVSPropertyOp8
 70
     1
102
RTVSPropertyOp9
 70
     1
102
RTVSPropertyOp10
 70
     1
102
RTVSPropertyOp11
 70
     1
102
RTVSPropertyOp12
 70
     1
102
RTVSPropertyOp13
 70
     1
102
RTVSPropertyOp14
 70
     1
102
RTVSPropertyOp15
 70
     1
102
RTVSPropertyOp16
 70
     1
102
RTVSPropertyOp17
 70
     1
102
RTVSPropertyOp18
 70
     1
102
RTVSPropertyOp19
 70
     1
102
RTVSPropertyOp20
 70
     1
102
RTVSPropertyOp21
 70
     1
102
RTVSPropertyOp22
 70
     1
102
RTVSPropertyOp23
 70
     1
102
RTVSPropertyOp24
 70
     1
102
RTVSPropertyOp25
 70
     1
102
RTVSPropertyOp26
 70
     1
102
RTVSPropertyOp27
 70
     1
  0
XRECORD
  5
467
102
{ACAD_REACTORS
330
466
102
}
330
466
100
AcDbXrecord
280
     1
102
RTVSPropertyOp0
 70
     1
102
RTVSPropertyOp1
 70
     1
102
RTVSPropertyOp2
 70
     1
102
RTVSPropertyOp3
 70
     1
102
RTVSPropertyOp4
 70
     1
102
RTVSPropertyOp5
 70
     1
102
RTVSPropertyOp6
 70
     1
102
RTVSPropertyOp7
 70
     1
102
RTVSPropertyOp8
 70
     1
102
RTVSPropertyOp9
 70
     1
102
RTVSPropertyOp10
 70
     1
102
RTVSPropertyOp11
 70
     1
102
RTVSPropertyOp12
 70
     1
102
RTVSPropertyOp13
 70
     1
102
RTVSPropertyOp14
 70
     1
102
RTVSPropertyOp15
 70
     1
102
RTVSPropertyOp16
 70
     1
102
RTVSPropertyOp17
 70
     1
102
RTVSPropertyOp18
 70
     1
102
RTVSPropertyOp19
 70
     1
102
RTVSPropertyOp20
 70
     1
102
RTVSPropertyOp21
 70
     1
102
RTVSPropertyOp22
 70
     1
102
RTVSPropertyOp23
 70
     1
102
RTVSPropertyOp24
 70
     1
102
RTVSPropertyOp25
 70
     1
102
RTVSPropertyOp26
 70
     1
102
RTVSPropertyOp27
 70
     1
  0
XRECORD
  5
469
102
{ACAD_REACTORS
330
468
102
}
330
468
100
AcDbXrecord
280
     1
102
RTVSPropertyOp0
 70
     1
102
RTVSPropertyOp1
 70
     1
102
RTVSPropertyOp2
 70
     1
102
RTVSPropertyOp3
 70
     1
102
RTVSPropertyOp4
 70
     1
102
RTVSPropertyOp5
 70
     1
102
RTVSPropertyOp6
 70
     1
102
RTVSPropertyOp7
 70
     1
102
RTVSPropertyOp8
 70
     1
102
RTVSPropertyOp9
 70
     1
102
RTVSPropertyOp10
 70
     1
102
RTVSPropertyOp11
 70
     1
102
RTVSPropertyOp12
 70
     1
102
RTVSPropertyOp13
 70
     1
102
RTVSPropertyOp14
 70
     1
102
RTVSPropertyOp15
 70
     1
102
RTVSPropertyOp16
 70
     1
102
RTVSPropertyOp17
 70
     1
102
RTVSPropertyOp18
 70
     1
102
RTVSPropertyOp19
 70
     1
102
RTVSPropertyOp20
 70
     1
102
RTVSPropertyOp21
 70
     1
102
RTVSPropertyOp22
 70
     1
102
RTVSPropertyOp23
 70
     1
102
RTVSPropertyOp24
 70
     1
102
RTVSPropertyOp25
 70
     1
102
RTVSPropertyOp26
 70
     1
102
RTVSPropertyOp27
 70
     1
  0
XRECORD
  5
46B
102
{ACAD_REACTORS
330
46A
102
}
330
46A
100
AcDbXrecord
280
     1
102
RTVSPropertyOp0
 70
     1
102
RTVSPropertyOp1
 70
     1
102
RTVSPropertyOp2
 70
     1
102
RTVSPropertyOp3
 70
     1
102
RTVSPropertyOp4
 70
     1
102
RTVSPropertyOp5
 70
     1
102
RTVSPropertyOp6
 70
     1
102
RTVSPropertyOp7
 70
     1
102
RTVSPropertyOp8
 70
     1
102
RTVSPropertyOp9
 70
     1
102
RTVSPropertyOp10
 70
     1
102
RTVSPropertyOp11
 70
     1
102
RTVSPropertyOp12
 70
     1
102
RTVSPropertyOp13
 70
     1
102
RTVSPropertyOp14
 70
     1
102
RTVSPropertyOp15
 70
     1
102
RTVSPropertyOp16
 70
     1
102
RTVSPropertyOp17
 70
     1
102
RTVSPropertyOp18
 70
     1
102
RTVSPropertyOp19
 70
     1
102
RTVSPropertyOp20
 70
     1
102
RTVSPropertyOp21
 70
     1
102
RTVSPropertyOp22
 70
     1
102
RTVSPropertyOp23
 70
     1
102
RTVSPropertyOp24
 70
     1
102
RTVSPropertyOp25
 70
     1
102
RTVSPropertyOp26
 70
     1
102
RTVSPropertyOp27
 70
     1
  0
XRECORD
  5
485
102
{ACAD_REACTORS
330
484
102
}
330
484
100
AcDbXrecord
280
     1
102
RTVSPropertyOp0
 70
     0
102
RTVSPropertyOp1
 70
     0
102
RTVSPropertyOp2
 70
     0
102
RTVSPropertyOp3
 70
     0
102
RTVSPropertyOp4
 70
     0
102
RTVSPropertyOp5
 70
     0
102
RTVSPropertyOp6
 70
     0
102
RTVSPropertyOp7
 70
     0
102
RTVSPropertyOp8
 70
     0
102
RTVSPropertyOp9
 70
     0
102
RTVSPropertyOp10
 70
     0
102
RTVSPropertyOp11
 70
     0
102
RTVSPropertyOp12
 70
     0
102
RTVSPropertyOp13
 70
     0
102
RTVSPropertyOp14
 70
     2
102
RTVSPropertyOp15
 70
     0
102
RTVSPropertyOp16
 70
     0
102
RTVSPropertyOp17
 70
     0
102
RTVSPropertyOp18
 70
     0
102
RTVSPropertyOp19
 70
     0
102
RTVSPropertyOp20
 70
     0
102
RTVSPropertyOp21
 70
     0
102
RTVSPropertyOp22
 70
     0
102
RTVSPropertyOp23
 70
     0
102
RTVSPropertyOp24
 70
     0
102
RTVSPropertyOp25
 70
     0
102
RTVSPropertyOp26
 70
     0
102
RTVSPropertyOp27
 70
     0
  0
XRECORD
  5
47F
102
{ACAD_REACTORS
330
47E
102
}
330
47E
100
AcDbXrecord
280
     1
102
RTVSPropertyOp0
 70
     1
102
RTVSPropertyOp1
 70
     1
102
RTVSPropertyOp2
 70
     1
102
RTVSPropertyOp3
 70
     1
102
RTVSPropertyOp4
 70
     1
102
RTVSPropertyOp5
 70
     1
102
RTVSPropertyOp6
 70
     1
102
RTVSPropertyOp7
 70
     1
102
RTVSPropertyOp8
 70
     1
102
RTVSPropertyOp9
 70
     1
102
RTVSPropertyOp10
 70
     1
102
RTVSPropertyOp11
 70
     1
102
RTVSPropertyOp12
 70
     1
102
RTVSPropertyOp13
 70
     1
102
RTVSPropertyOp14
 70
     1
102
RTVSPropertyOp15
 70
     1
102
RTVSPropertyOp16
 70
     1
102
RTVSPropertyOp17
 70
     1
102
RTVSPropertyOp18
 70
     1
102
RTVSPropertyOp19
 70
     1
102
RTVSPropertyOp20
 70
     1
102
RTVSPropertyOp21
 70
     1
102
RTVSPropertyOp22
 70
     1
102
RTVSPropertyOp23
 70
     1
102
RTVSPropertyOp24
 70
     1
102
RTVSPropertyOp25
 70
     1
102
RTVSPropertyOp26
 70
     1
102
RTVSPropertyOp27
 70
     1
  0
XRECORD
  5
487
102
{ACAD_REACTORS
330
486
102
}
330
486
100
AcDbXrecord
280
     1
102
RTVSPropertyOp0
 70
     0
102
RTVSPropertyOp1
 70
     0
102
RTVSPropertyOp2
 70
     0
102
RTVSPropertyOp3
 70
     0
102
RTVSPropertyOp4
 70
     0
102
RTVSPropertyOp5
 70
     0
102
RTVSPropertyOp6
 70
     0
102
RTVSPropertyOp7
 70
     0
102
RTVSPropertyOp8
 70
     0
102
RTVSPropertyOp9
 70
     0
102
RTVSPropertyOp10
 70
     0
102
RTVSPropertyOp11
 70
     0
102
RTVSPropertyOp12
 70
     0
102
RTVSPropertyOp13
 70
     0
102
RTVSPropertyOp14
 70
     2
102
RTVSPropertyOp15
 70
     0
102
RTVSPropertyOp16
 70
     0
102
RTVSPropertyOp17
 70
     0
102
RTVSPropertyOp18
 70
     0
102
RTVSPropertyOp19
 70
     0
102
RTVSPropertyOp20
 70
     0
102
RTVSPropertyOp21
 70
     0
102
RTVSPropertyOp22
 70
     0
102
RTVSPropertyOp23
 70
     0
102
RTVSPropertyOp24
 70
     0
102
RTVSPropertyOp25
 70
     0
102
RTVSPropertyOp26
 70
     0
102
RTVSPropertyOp27
 70
     0
  0
XRECORD
  5
477
102
{ACAD_REACTORS
330
476
102
}
330
476
100
AcDbXrecord
280
     1
102
RTVSPropertyOp0
 70
     1
102
RTVSPropertyOp1
 70
     1
102
RTVSPropertyOp2
 70
     1
102
RTVSPropertyOp3
 70
     1
102
RTVSPropertyOp4
 70
     1
102
RTVSPropertyOp5
 70
     1
102
RTVSPropertyOp6
 70
     1
102
RTVSPropertyOp7
 70
     1
102
RTVSPropertyOp8
 70
     1
102
RTVSPropertyOp9
 70
     1
102
RTVSPropertyOp10
 70
     1
102
RTVSPropertyOp11
 70
     1
102
RTVSPropertyOp12
 70
     1
102
RTVSPropertyOp13
 70
     1
102
RTVSPropertyOp14
 70
     1
102
RTVSPropertyOp15
 70
     1
102
RTVSPropertyOp16
 70
     1
102
RTVSPropertyOp17
 70
     1
102
RTVSPropertyOp18
 70
     1
102
RTVSPropertyOp19
 70
     1
102
RTVSPropertyOp20
 70
     1
102
RTVSPropertyOp21
 70
     1
102
RTVSPropertyOp22
 70
     1
102
RTVSPropertyOp23
 70
     1
102
RTVSPropertyOp24
 70
     1
102
RTVSPropertyOp25
 70
     1
102
RTVSPropertyOp26
 70
     1
102
RTVSPropertyOp27
 70
     1
  0
XRECORD
  5
47D
102
{ACAD_REACTORS
330
47C
102
}
330
47C
100
AcDbXrecord
280
     1
102
RTVSPropertyOp0
 70
     1
102
RTVSPropertyOp1
 70
     1
102
RTVSPropertyOp2
 70
     1
102
RTVSPropertyOp3
 70
     1
102
RTVSPropertyOp4
 70
     1
102
RTVSPropertyOp5
 70
     1
102
RTVSPropertyOp6
 70
     1
102
RTVSPropertyOp7
 70
     1
102
RTVSPropertyOp8
 70
     1
102
RTVSPropertyOp9
 70
     1
102
RTVSPropertyOp10
 70
     1
102
RTVSPropertyOp11
 70
     1
102
RTVSPropertyOp12
 70
     1
102
RTVSPropertyOp13
 70
     1
102
RTVSPropertyOp14
 70
     1
102
RTVSPropertyOp15
 70
     1
102
RTVSPropertyOp16
 70
     1
102
RTVSPropertyOp17
 70
     1
102
RTVSPropertyOp18
 70
     1
102
RTVSPropertyOp19
 70
     1
102
RTVSPropertyOp20
 70
     1
102
RTVSPropertyOp21
 70
     1
102
RTVSPropertyOp22
 70
     1
102
RTVSPropertyOp23
 70
     1
102
RTVSPropertyOp24
 70
     1
102
RTVSPropertyOp25
 70
     1
102
RTVSPropertyOp26
 70
     1
102
RTVSPropertyOp27
 70
     1
  0
ENDSEC
  0
EOF
