  0
SECTION
  2
HEADER
  9
$ACADVER
  1
AC1018
  9
$ACADMAINTVER
 70
   104
  9
$DWGCODEPAGE
  3
ANSI_1252
  9
$LASTSAVEDBY
  1
a06741
  9
$INSBASE
 10
0.0
 20
0.0
 30
0.0
  9
$EXTMIN
 10
1672.775667506481
 20
771.1042287501259
 30
0.0
  9
$EXTMAX
 10
1727.424298328193
 20
846.8706513246685
 30
0.0
  9
$LIMMIN
 10
0.0
 20
0.0
  9
$LIMMAX
 10
420.0
 20
297.0
  9
$ORTHOMODE
 70
     0
  9
$REGENMODE
 70
     1
  9
$FILLMODE
 70
     1
  9
$QTEXTMODE
 70
     0
  9
$MIRRTEXT
 70
     0
  9
$LTSCALE
 40
1.0
  9
$ATTMODE
 70
     1
  9
$TEXTSIZE
 40
2.5
  9
$TRACEWID
 40
1.0
  9
$TEXTSTYLE
  7
Standard
  9
$CLAYER
  8
0
  9
$CELTYPE
  6
ByLayer
  9
$CECOLOR
 62
   256
  9
$CELTSCALE
 40
1.0
  9
$DISPSILH
 70
     0
  9
$DIMSCALE
 40
1.0
  9
$DIMASZ
 40
2.5
  9
$DIMEXO
 40
0.625
  9
$DIMDLI
 40
3.75
  9
$DIMRND
 40
0.0
  9
$DIMDLE
 40
0.0
  9
$DIMEXE
 40
1.25
  9
$DIMTP
 40
0.0
  9
$DIMTM
 40
0.0
  9
$DIMTXT
 40
2.5
  9
$DIMCEN
 40
2.5
  9
$DIMTSZ
 40
0.0
  9
$DIMTOL
 70
     0
  9
$DIMLIM
 70
     0
  9
$DIMTIH
 70
     0
  9
$DIMTOH
 70
     0
  9
$DIMSE1
 70
     0
  9
$DIMSE2
 70
     0
  9
$DIMTAD
 70
     1
  9
$DIMZIN
 70
     8
  9
$DIMBLK
  1

  9
$DIMASO
 70
     1
  9
$DIMSHO
 70
     1
  9
$DIMPOST
  1

  9
$DIMAPOST
  1

  9
$DIMALT
 70
     0
  9
$DIMALTD
 70
     3
  9
$DIMALTF
 40
0.03937007874016
  9
$DIMLFAC
 40
1.0
  9
$DIMTOFL
 70
     1
  9
$DIMTVP
 40
0.0
  9
$DIMTIX
 70
     0
  9
$DIMSOXD
 70
     0
  9
$DIMSAH
 70
     0
  9
$DIMBLK1
  1

  9
$DIMBLK2
  1

  9
$DIMSTYLE
  2
ISO-25
  9
$DIMCLRD
 70
     0
  9
$DIMCLRE
 70
     0
  9
$DIMCLRT
 70
     0
  9
$DIMTFAC
 40
1.0
  9
$DIMGAP
 40
0.625
  9
$DIMJUST
 70
     0
  9
$DIMSD1
 70
     0
  9
$DIMSD2
 70
     0
  9
$DIMTOLJ
 70
     0
  9
$DIMTZIN
 70
     8
  9
$DIMALTZ
 70
     0
  9
$DIMALTTZ
 70
     0
  9
$DIMUPT
 70
     0
  9
$DIMDEC
 70
     2
  9
$DIMTDEC
 70
     2
  9
$DIMALTU
 70
     2
  9
$DIMALTTD
 70
     3
  9
$DIMTXSTY
  7
Standard
  9
$DIMAUNIT
 70
     0
  9
$DIMADEC
 70
     0
  9
$DIMALTRND
 40
0.0
  9
$DIMAZIN
 70
     0
  9
$DIMDSEP
 70
    44
  9
$DIMATFIT
 70
     3
  9
$DIMFRAC
 70
     0
  9
$DIMLDRBLK
  1

  9
$DIMLUNIT
 70
     2
  9
$DIMLWD
 70
    -2
  9
$DIMLWE
 70
    -2
  9
$DIMTMOVE
 70
     0
  9
$LUNITS
 70
     2
  9
$LUPREC
 70
     4
  9
$SKETCHINC
 40
1.0
  9
$FILLETRAD
 40
0.0
  9
$AUNITS
 70
     0
  9
$AUPREC
 70
     0
  9
$MENU
  1
.
  9
$ELEVATION
 40
0.0
  9
$PELEVATION
 40
0.0
  9
$THICKNESS
 40
0.0
  9
$LIMCHECK
 70
     0
  9
$CHAMFERA
 40
0.0
  9
$CHAMFERB
 40
0.0
  9
$CHAMFERC
 40
0.0
  9
$CHAMFERD
 40
0.0
  9
$SKPOLY
 70
     0
  9
$TDCREATE
 40
2456139.503559803
  9
$TDUCREATE
 40
2456139.420226470
  9
$TDUPDATE
 40
2456139.504259468
  9
$TDUUPDATE
 40
2456139.420926134
  9
$TDINDWG
 40
0.0007002662
  9
$TDUSRTIMER
 40
0.0007002315
  9
$USRTIMER
 70
     1
  9
$ANGBASE
 50
0.0
  9
$ANGDIR
 70
     0
  9
$PDMODE
 70
     0
  9
$PDSIZE
 40
0.0
  9
$PLINEWID
 40
0.0
  9
$SPLFRAME
 70
     0
  9
$SPLINETYPE
 70
     6
  9
$SPLINESEGS
 70
     8
  9
$HANDSEED
  5
523
  9
$SURFTAB1
 70
     6
  9
$SURFTAB2
 70
     6
  9
$SURFTYPE
 70
     6
  9
$SURFU
 70
     6
  9
$SURFV
 70
     6
  9
$UCSBASE
  2

  9
$UCSNAME
  2

  9
$UCSORG
 10
0.0
 20
0.0
 30
0.0
  9
$UCSXDIR
 10
1.0
 20
0.0
 30
0.0
  9
$UCSYDIR
 10
0.0
 20
1.0
 30
0.0
  9
$UCSORTHOREF
  2

  9
$UCSORTHOVIEW
 70
     0
  9
$UCSORGTOP
 10
0.0
 20
0.0
 30
0.0
  9
$UCSORGBOTTOM
 10
0.0
 20
0.0
 30
0.0
  9
$UCSORGLEFT
 10
0.0
 20
0.0
 30
0.0
  9
$UCSORGRIGHT
 10
0.0
 20
0.0
 30
0.0
  9
$UCSORGFRONT
 10
0.0
 20
0.0
 30
0.0
  9
$UCSORGBACK
 10
0.0
 20
0.0
 30
0.0
  9
$PUCSBASE
  2

  9
$PUCSNAME
  2

  9
$PUCSORG
 10
0.0
 20
0.0
 30
0.0
  9
$PUCSXDIR
 10
1.0
 20
0.0
 30
0.0
  9
$PUCSYDIR
 10
0.0
 20
1.0
 30
0.0
  9
$PUCSORTHOREF
  2

  9
$PUCSORTHOVIEW
 70
     0
  9
$PUCSORGTOP
 10
0.0
 20
0.0
 30
0.0
  9
$PUCSORGBOTTOM
 10
0.0
 20
0.0
 30
0.0
  9
$PUCSORGLEFT
 10
0.0
 20
0.0
 30
0.0
  9
$PUCSORGRIGHT
 10
0.0
 20
0.0
 30
0.0
  9
$PUCSORGFRONT
 10
0.0
 20
0.0
 30
0.0
  9
$PUCSORGBACK
 10
0.0
 20
0.0
 30
0.0
  9
$USERI1
 70
     0
  9
$USERI2
 70
     0
  9
$USERI3
 70
     0
  9
$USERI4
 70
     0
  9
$USERI5
 70
     0
  9
$USERR1
 40
0.0
  9
$USERR2
 40
0.0
  9
$USERR3
 40
0.0
  9
$USERR4
 40
0.0
  9
$USERR5
 40
0.0
  9
$WORLDVIEW
 70
     1
  9
$SHADEDGE
 70
     3
  9
$SHADEDIF
 70
    70
  9
$TILEMODE
 70
     1
  9
$MAXACTVP
 70
    64
  9
$PINSBASE
 10
0.0
 20
0.0
 30
0.0
  9
$PLIMCHECK
 70
     0
  9
$PEXTMIN
 10
0.0
 20
0.0
 30
0.0
  9
$PEXTMAX
 10
0.0
 20
0.0
 30
0.0
  9
$PLIMMIN
 10
0.0
 20
0.0
  9
$PLIMMAX
 10
12.0
 20
9.0
  9
$UNITMODE
 70
     0
  9
$VISRETAIN
 70
     1
  9
$PLINEGEN
 70
     0
  9
$PSLTSCALE
 70
     1
  9
$TREEDEPTH
 70
  3020
  9
$CMLSTYLE
  2
Standard
  9
$CMLJUST
 70
     0
  9
$CMLSCALE
 40
20.0
  9
$PROXYGRAPHICS
 70
     1
  9
$MEASUREMENT
 70
     1
  9
$CELWEIGHT
370
    -1
  9
$ENDCAPS
280
     0
  9
$JOINSTYLE
280
     0
  9
$LWDISPLAY
290
     0
  9
$INSUNITS
 70
     4
  9
$HYPERLINKBASE
  1

  9
$STYLESHEET
  1

  9
$XEDIT
290
     1
  9
$CEPSNTYPE
380
     0
  9
$PSTYLEMODE
290
     1
  9
$FINGERPRINTGUID
  2
{668D02C8-352D-4EC9-B0B7-5B9143B6156B}
  9
$VERSIONGUID
  2
{16F7C355-DA1B-4CD2-85A4-EBD31C859F92}
  9
$EXTNAMES
290
     1
  9
$PSVPSCALE
 40
0.0
  9
$OLESTARTUP
290
     0
  9
$SORTENTS
280
   127
  9
$INDEXCTL
280
     0
  9
$HIDETEXT
280
     1
  9
$XCLIPFRAME
290
     0
  9
$HALOGAP
280
     0
  9
$OBSCOLOR
 70
   257
  9
$OBSLTYPE
280
     0
  9
$INTERSECTIONDISPLAY
280
     0
  9
$INTERSECTIONCOLOR
 70
   257
  9
$DIMASSOC
280
     2
  9
$PROJECTNAME
  1

  0
ENDSEC
  0
SECTION
  2
CLASSES
  0
CLASS
  1
ACDBDICTIONARYWDFLT
  2
AcDbDictionaryWithDefault
  3
ObjectDBX Classes
 90
        0
 91
        1
280
     0
281
     0
  0
CLASS
  1
DICTIONARYVAR
  2
AcDbDictionaryVar
  3
ObjectDBX Classes
 90
        0
 91
       17
280
     0
281
     0
  0
CLASS
  1
TABLESTYLE
  2
AcDbTableStyle
  3
ObjectDBX Classes
 90
     4095
 91
        1
280
     0
281
     0
  0
CLASS
  1
MATERIAL
  2
AcDbMaterial
  3
ObjectDBX Classes
 90
     1153
 91
        3
280
     0
281
     0
  0
CLASS
  1
VISUALSTYLE
  2
AcDbVisualStyle
  3
ObjectDBX Classes
 90
     4095
 91
       19
280
     0
281
     0
  0
CLASS
  1
SCALE
  2
AcDbScale
  3
ObjectDBX Classes
 90
     1153
 91
       17
280
     0
281
     0
  0
CLASS
  1
MLEADERSTYLE
  2
AcDbMLeaderStyle
  3
ACDB_MLEADERSTYLE_CLASS
 90
     4095
 91
        2
280
     0
281
     0
  0
CLASS
  1
CELLSTYLEMAP
  2
AcDbCellStyleMap
  3
ObjectDBX Classes
 90
     1152
 91
        2
280
     0
281
     0
  0
CLASS
  1
EXACXREFPANELOBJECT
  2
ExAcXREFPanelObject
  3
EXAC_ESW
 90
     1025
 91
        0
280
     0
281
     0
  0
CLASS
  1
NPOCOLLECTION
  2
AcDbImpNonPersistentObjectsCollection
  3
ObjectDBX Classes
 90
     1153
 91
        0
280
     0
281
     0
  0
CLASS
  1
LAYER_INDEX
  2
AcDbLayerIndex
  3
ObjectDBX Classes
 90
        0
 91
        0
280
     0
281
     0
  0
CLASS
  1
SPATIAL_INDEX
  2
AcDbSpatialIndex
  3
ObjectDBX Classes
 90
        0
 91
        0
280
     0
281
     0
  0
CLASS
  1
IDBUFFER
  2
AcDbIdBuffer
  3
ObjectDBX Classes
 90
        0
 91
        0
280
     0
281
     0
  0
CLASS
  1
SORTENTSTABLE
  2
AcDbSortentsTable
  3
ObjectDBX Classes
 90
        0
 91
        2
280
     0
281
     0
  0
CLASS
  1
DIMASSOC
  2
AcDbDimAssoc
  3
"AcDbDimAssoc|Product Desc:     AcDim ARX App For Dimension|Company:          Autodesk, Inc.|WEB Address:      www.autodesk.com"
 90
        0
 91
        4
280
     0
281
     0
  0
ENDSEC
  0
SECTION
  2
TABLES
  0
TABLE
  2
VPORT
  5
8
330
0
100
AcDbSymbolTable
 70
     1
  0
VPORT
  5
EA
330
8
100
AcDbSymbolTableRecord
100
AcDbViewportTableRecord
  2
*Active
 70
     0
 10
0.0
 20
0.0
 11
1.0
 21
1.0
 12
1700.099982917337
 22
808.9874400373972
 13
0.0
 23
0.0
 14
10.0
 24
10.0
 15
10.0
 25
10.0
 16
0.0
 26
0.0
 36
1.0
 17
0.0
 27
0.0
 37
0.0
 40
76.37255395513887
 41
2.132176234979973
 42
50.0
 43
0.0
 44
0.0
 50
0.0
 51
0.0
 71
     0
 72
  1000
 73
     1
 74
     3
 75
     0
 76
     0
 77
     0
 78
     0
281
     0
 65
     1
110
0.0
120
0.0
130
0.0
111
1.0
121
0.0
131
0.0
112
0.0
122
1.0
132
0.0
 79
     0
146
0.0
  0
ENDTAB
  0
TABLE
  2
LTYPE
  5
5
330
0
100
AcDbSymbolTable
 70
     1
  0
LTYPE
  5
14
330
5
100
AcDbSymbolTableRecord
100
AcDbLinetypeTableRecord
  2
ByBlock
 70
     0
  3

 72
    65
 73
     0
 40
0.0
  0
LTYPE
  5
15
330
5
100
AcDbSymbolTableRecord
100
AcDbLinetypeTableRecord
  2
ByLayer
 70
     0
  3

 72
    65
 73
     0
 40
0.0
  0
LTYPE
  5
16
330
5
100
AcDbSymbolTableRecord
100
AcDbLinetypeTableRecord
  2
Continuous
 70
     0
  3
Solid line
 72
    65
 73
     0
 40
0.0
  0
ENDTAB
  0
TABLE
  2
LAYER
  5
2
102
{ACAD_XDICTIONARY
360
2F1
102
}
330
0
100
AcDbSymbolTable
 70
     7
  0
LAYER
  5
10
102
{ACAD_XDICTIONARY
360
13C
102
}
330
2
100
AcDbSymbolTableRecord
100
AcDbLayerTableRecord
  2
0
 70
     0
 62
     7
  6
Continuous
370
    -3
390
F
  0
LAYER
  5
2DE
330
2
100
AcDbSymbolTableRecord
100
AcDbLayerTableRecord
  2
Defpoints
 70
     0
 62
     7
  6
Continuous
290
     0
370
    -3
390
F
  0
LAYER
  5
2DF
102
{ACAD_XDICTIONARY
360
2E0
102
}
330
2
100
AcDbSymbolTableRecord
100
AcDbLayerTableRecord
  2
S10_Quote
 70
     0
 62
     7
  6
Continuous
370
    -3
390
F
  0
LAYER
  5
2E1
102
{ACAD_XDICTIONARY
360
2E2
102
}
330
2
100
AcDbSymbolTableRecord
100
AcDbLayerTableRecord
  2
S05_Acciaio
 70
     0
 62
     3
  6
Continuous
370
    -3
390
F
1001
AcAecLayerStandard
1000

1000

  0
LAYER
  5
2E3
102
{ACAD_XDICTIONARY
360
2E4
102
}
330
2
100
AcDbSymbolTableRecord
100
AcDbLayerTableRecord
  2
S08_Retino
 70
     0
 62
   252
  6
Continuous
370
    -3
390
F
  0
LAYER
  5
2E5
102
{ACAD_XDICTIONARY
360
2E6
102
}
330
2
100
AcDbSymbolTableRecord
100
AcDbLayerTableRecord
  2
S07_Prospetto
 70
     0
 62
     1
  6
Continuous
370
    -3
390
F
1001
AcAecLayerStandard
1000

1000

  0
LAYER
  5
2E7
330
2
100
AcDbSymbolTableRecord
100
AcDbLayerTableRecord
  2
Sichtbar (ISO)
 70
     0
 62
     5
  6
Continuous
370
    35
390
F
  0
ENDTAB
  0
TABLE
  2
STYLE
  5
3
330
0
100
AcDbSymbolTable
 70
     4
  0
STYLE
  5
11
330
3
100
AcDbSymbolTableRecord
100
AcDbTextStyleTableRecord
  2
Standard
 70
     0
 40
0.0
 41
1.0
 50
0.0
 71
     0
 42
2.5
  3
ARIAL.TTF
  4

1001
ACAD
1000
Arial
1071
       34
  0
STYLE
  5
132
330
3
100
AcDbSymbolTableRecord
100
AcDbTextStyleTableRecord
  2
Annotativa
 70
     0
 40
0.0
 41
1.0
 50
0.0
 71
     0
 42
2.5
  3
ARIAL.TTF
  4

1001
AcadAnnotative
1000
AnnotativeData
1002
{
1070
     1
1070
     1
1002
}
1001
ACAD
1000
Arial
1071
       34
  0
STYLE
  5
2E8
330
3
100
AcDbSymbolTableRecord
100
AcDbTextStyleTableRecord
  2
ROMANS
 70
     0
 40
0.0
 41
1.0
 50
0.0
 71
     0
 42
0.21
  3
ROMANS.shx
  4

  0
STYLE
  5
2E9
330
3
100
AcDbSymbolTableRecord
100
AcDbTextStyleTableRecord
  2
wurth
 70
     0
 40
0.0
 41
1.0
 50
0.0
 71
     0
 42
40.0
  3
WuerthBook.ttf
  4

1001
ACAD
1000
Wuerth Book
1071
        2
  0
ENDTAB
  0
TABLE
  2
VIEW
  5
6
330
0
100
AcDbSymbolTable
 70
     0
  0
ENDTAB
  0
TABLE
  2
UCS
  5
7
330
0
100
AcDbSymbolTable
 70
     0
  0
ENDTAB
  0
TABLE
  2
APPID
  5
9
330
0
100
AcDbSymbolTable
 70
    11
  0
APPID
  5
12
330
9
100
AcDbSymbolTableRecord
100
AcDbRegAppTableRecord
  2
ACAD
 70
     0
  0
APPID
  5
9E
330
9
100
AcDbSymbolTableRecord
100
AcDbRegAppTableRecord
  2
ACAD_PSEXT
 70
     0
  0
APPID
  5
133
330
9
100
AcDbSymbolTableRecord
100
AcDbRegAppTableRecord
  2
AcadAnnoPO
 70
     0
  0
APPID
  5
134
330
9
100
AcDbSymbolTableRecord
100
AcDbRegAppTableRecord
  2
AcadAnnotative
 70
     0
  0
APPID
  5
135
330
9
100
AcDbSymbolTableRecord
100
AcDbRegAppTableRecord
  2
ACAD_DSTYLE_DIMJAG
 70
     0
  0
APPID
  5
136
330
9
100
AcDbSymbolTableRecord
100
AcDbRegAppTableRecord
  2
ACAD_DSTYLE_DIMTALN
 70
     0
  0
APPID
  5
165
330
9
100
AcDbSymbolTableRecord
100
AcDbRegAppTableRecord
  2
ACAD_MLEADERVER
 70
     0
  0
APPID
  5
2ED
330
9
100
AcDbSymbolTableRecord
100
AcDbRegAppTableRecord
  2
AcAecLayerStandard
 70
     0
  0
APPID
  5
2EE
330
9
100
AcDbSymbolTableRecord
100
AcDbRegAppTableRecord
  2
AcDbDynamicBlockGUID
 70
     0
  0
APPID
  5
2EF
330
9
100
AcDbSymbolTableRecord
100
AcDbRegAppTableRecord
  2
AcDbBlockRepETag
 70
     0
  0
APPID
  5
2F0
330
9
100
AcDbSymbolTableRecord
100
AcDbRegAppTableRecord
  2
ACAD_DSTYLE_DIMBREAK
 70
     0
  0
ENDTAB
  0
TABLE
  2
DIMSTYLE
  5
A
330
0
100
AcDbSymbolTable
 70
     6
100
AcDbDimStyleTable
 71
     2
340
27
340
137
  0
DIMSTYLE
105
1B0
330
A
100
AcDbSymbolTableRecord
100
AcDbDimStyleTableRecord
  2
Standard
 70
     0
340
11
  0
DIMSTYLE
105
137
330
A
100
AcDbSymbolTableRecord
100
AcDbDimStyleTableRecord
  2
Annotativa
 70
     0
 40
0.0
 41
2.5
 42
0.625
 43
3.75
 44
1.25
 73
     0
 74
     0
 77
     1
 78
     8
140
2.5
141
2.5
143
0.03937007874016
147
0.625
171
     3
172
     1
271
     2
272
     2
274
     3
278
    44
283
     0
284
     8
340
11
1001
AcadAnnotative
1000
AnnotativeData
1002
{
1070
     1
1070
     1
1002
}
1001
ACAD_DSTYLE_DIMJAG
1070
   388
1040
1.5
1001
ACAD_DSTYLE_DIMTALN
1070
   392
1070
     0
  0
DIMSTYLE
105
27
330
A
100
AcDbSymbolTableRecord
100
AcDbDimStyleTableRecord
  2
ISO-25
 70
     0
 41
2.5
 42
0.625
 43
3.75
 44
1.25
 73
     0
 74
     0
 77
     1
 78
     8
140
2.5
141
2.5
143
0.03937007874016
147
0.625
171
     3
172
     1
271
     2
272
     2
274
     3
278
    44
283
     0
284
     8
340
11
  0
DIMSTYLE
105
2EA
330
A
100
AcDbSymbolTableRecord
100
AcDbDimStyleTableRecord
  2
mm 1_5
 70
     0
 40
5.0
 41
0.015
 42
0.625
 43
1.0
 44
1.25
 73
     0
 74
     0
 75
     1
 76
     1
 77
     1
 78
     8
140
2.0
141
0.5
143
0.03937007874016
147
0.8
171
     3
172
     1
174
     1
179
     2
271
     1
272
     1
274
     3
283
     0
284
     8
340
2E8
342
1F4
  0
DIMSTYLE
105
2EB
102
{ACAD_REACTORS
330
349
330
34A
330
34B
330
34C
330
34D
330
34E
330
34F
330
350
330
351
330
352
330
355
330
3B6
330
3B7
330
3B8
330
3B9
330
3BA
330
3BB
330
3BC
330
3BD
330
3BE
330
3BF
330
3C2
102
}
330
A
100
AcDbSymbolTableRecord
100
AcDbDimStyleTableRecord
  2
mm 1_1
 70
     0
 41
0.015
 42
0.625
 43
1.0
 44
1.25
 73
     0
 74
     0
 77
     1
 78
     8
140
2.0
141
0.5
143
0.03937007874016
147
0.8
171
     3
172
     1
174
     1
179
     2
271
     2
272
     2
274
     3
283
     0
284
     8
340
2E9
342
1F4
1001
ACAD_DSTYLE_DIMBREAK
1070
   391
1040
3.75
1001
ACAD_DSTYLE_DIMJAG
1070
   388
1040
1.5
1001
ACAD_DSTYLE_DIMTALN
1070
   392
1070
     0
  0
DIMSTYLE
105
2EC
330
A
100
AcDbSymbolTableRecord
100
AcDbDimStyleTableRecord
  2
mm 1_1 x4
 70
     0
 41
0.015
 42
0.625
 43
1.0
 44
1.25
 73
     0
 74
     0
 77
     1
 78
     8
140
2.0
141
0.5
143
0.03937007874016
144
0.25
147
0.8
171
     3
172
     1
174
     1
179
     2
271
     2
272
     2
274
     3
283
     0
284
     8
340
2E9
342
1F4
1001
ACAD_DSTYLE_DIMBREAK
1070
   391
1040
3.75
1001
ACAD_DSTYLE_DIMJAG
1070
   388
1040
1.5
1001
ACAD_DSTYLE_DIMTALN
1070
   392
1070
     0
  0
ENDTAB
  0
TABLE
  2
BLOCK_RECORD
  5
1
330
0
100
AcDbSymbolTable
 70
    26
  0
BLOCK_RECORD
  5
1F
102
{ACAD_XDICTIONARY
360
1CE
102
}
330
1
100
AcDbSymbolTableRecord
100
AcDbBlockTableRecord
  2
*Model_Space
340
22
  0
BLOCK_RECORD
  5
D2
330
1
100
AcDbSymbolTableRecord
100
AcDbBlockTableRecord
  2
*Paper_Space
340
D3
  0
BLOCK_RECORD
  5
D6
330
1
100
AcDbSymbolTableRecord
100
AcDbBlockTableRecord
  2
*Paper_Space0
340
D7
  0
BLOCK_RECORD
  5
1F4
102
{ACAD_XDICTIONARY
360
1F5
102
}
330
1
100
AcDbSymbolTableRecord
100
AcDbBlockTableRecord
  2
A$C79C4041D
340
0
102
{BLKREFS
331
200
331
201
331
210
331
211
331
21C
331
21D
331
228
331
229
331
234
331
235
331
240
331
241
331
24C
331
24D
331
258
331
259
331
264
331
265
331
271
331
272
331
27E
331
27F
331
43A
331
43B
331
447
331
448
331
450
331
451
331
459
331
45A
331
462
331
463
331
46B
331
46C
331
474
331
475
331
47D
331
47E
331
486
331
487
331
4AB
331
4AC
331
4B5
331
4B6
102
}
1001
AcDbDynamicBlockGUID
1000
{93BD5B1E-816B-4960-B1CC-7C46A00E0667}
1001
AcDbBlockRepETag
1070
     1
1071
        2
  0
BLOCK_RECORD
  5
1FA
330
1
100
AcDbSymbolTableRecord
100
AcDbBlockTableRecord
  2
*D2
340
0
  0
BLOCK_RECORD
  5
206
330
1
100
AcDbSymbolTableRecord
100
AcDbBlockTableRecord
  2
*D3
340
0
  0
BLOCK_RECORD
  5
216
330
1
100
AcDbSymbolTableRecord
100
AcDbBlockTableRecord
  2
*D4
340
0
  0
BLOCK_RECORD
  5
222
330
1
100
AcDbSymbolTableRecord
100
AcDbBlockTableRecord
  2
*D5
340
0
  0
BLOCK_RECORD
  5
22E
330
1
100
AcDbSymbolTableRecord
100
AcDbBlockTableRecord
  2
*D6
340
0
  0
BLOCK_RECORD
  5
23A
330
1
100
AcDbSymbolTableRecord
100
AcDbBlockTableRecord
  2
*D7
340
0
  0
BLOCK_RECORD
  5
246
330
1
100
AcDbSymbolTableRecord
100
AcDbBlockTableRecord
  2
*D8
340
0
  0
BLOCK_RECORD
  5
252
330
1
100
AcDbSymbolTableRecord
100
AcDbBlockTableRecord
  2
*D9
340
0
  0
BLOCK_RECORD
  5
25E
330
1
100
AcDbSymbolTableRecord
100
AcDbBlockTableRecord
  2
*D10
340
0
  0
BLOCK_RECORD
  5
26A
330
1
100
AcDbSymbolTableRecord
100
AcDbBlockTableRecord
  2
*D11
340
0
  0
BLOCK_RECORD
  5
278
330
1
100
AcDbSymbolTableRecord
100
AcDbBlockTableRecord
  2
*D12
340
0
  0
BLOCK_RECORD
  5
285
102
{ACAD_XDICTIONARY
360
286
102
}
330
1
100
AcDbSymbolTableRecord
100
AcDbBlockTableRecord
  2
A$C4ED33F28
340
0
102
{BLKREFS
331
358
331
3C5
102
}
1001
AcDbDynamicBlockGUID
1000
{A30E2CFE-3F35-4425-9E77-2DBB990C8A89}
1001
ACAD
1000
DesignCenter Data
1002
{
1070
     1
1070
     4
1002
}
  0
BLOCK_RECORD
  5
3C6
330
1
100
AcDbSymbolTableRecord
100
AcDbBlockTableRecord
  2
*D15
340
0
  0
BLOCK_RECORD
  5
3D2
330
1
100
AcDbSymbolTableRecord
100
AcDbBlockTableRecord
  2
*D16
340
0
  0
BLOCK_RECORD
  5
3E2
330
1
100
AcDbSymbolTableRecord
100
AcDbBlockTableRecord
  2
*D17
340
0
  0
BLOCK_RECORD
  5
3EE
330
1
100
AcDbSymbolTableRecord
100
AcDbBlockTableRecord
  2
*D18
340
0
  0
BLOCK_RECORD
  5
3FA
330
1
100
AcDbSymbolTableRecord
100
AcDbBlockTableRecord
  2
*D19
340
0
  0
BLOCK_RECORD
  5
406
330
1
100
AcDbSymbolTableRecord
100
AcDbBlockTableRecord
  2
*D20
340
0
  0
BLOCK_RECORD
  5
412
330
1
100
AcDbSymbolTableRecord
100
AcDbBlockTableRecord
  2
*D21
340
0
  0
BLOCK_RECORD
  5
41E
330
1
100
AcDbSymbolTableRecord
100
AcDbBlockTableRecord
  2
*D22
340
0
  0
BLOCK_RECORD
  5
42A
330
1
100
AcDbSymbolTableRecord
100
AcDbBlockTableRecord
  2
*D23
340
0
  0
BLOCK_RECORD
  5
48B
330
1
100
AcDbSymbolTableRecord
100
AcDbBlockTableRecord
  2
*D24
340
0
  0
BLOCK_RECORD
  5
499
330
1
100
AcDbSymbolTableRecord
100
AcDbBlockTableRecord
  2
*D25
340
0
  0
ENDTAB
  0
ENDSEC
  0
SECTION
  2
BLOCKS
  0
BLOCK
  5
20
330
1F
100
AcDbEntity
  8
0
100
AcDbBlockBegin
  2
*Model_Space
 70
     0
 10
0.0
 20
0.0
 30
0.0
  3
*Model_Space
  1

  0
ENDBLK
  5
21
330
1F
100
AcDbEntity
  8
0
100
AcDbBlockEnd
  0
BLOCK
  5
D4
330
D2
100
AcDbEntity
 67
     1
  8
0
100
AcDbBlockBegin
  2
*Paper_Space
 70
     0
 10
0.0
 20
0.0
 30
0.0
  3
*Paper_Space
  1

  0
ENDBLK
  5
D5
330
D2
100
AcDbEntity
 67
     1
  8
0
100
AcDbBlockEnd
  0
BLOCK
  5
D8
330
D6
100
AcDbEntity
 67
     1
  8
0
100
AcDbBlockBegin
  2
*Paper_Space0
 70
     0
 10
0.0
 20
0.0
 30
0.0
  3
*Paper_Space0
  1

  0
ENDBLK
  5
D9
330
D6
100
AcDbEntity
 67
     1
  8
0
100
AcDbBlockEnd
  0
BLOCK
  5
1F6
330
1F4
100
AcDbEntity
  8
0
 62
     3
100
AcDbBlockBegin
  2
A$C79C4041D
 70
     0
 10
0.0
 20
0.0
 30
0.0
  3
A$C79C4041D
  1

  0
LINE
  5
1F7
330
1F4
100
AcDbEntity
  8
S10_Quote
 62
     4
100
AcDbLine
 10
-20.0
 20
-50.0
 30
0.0
 11
20.0
 21
50.0
 31
0.0
1001
AcDbBlockRepETag
1070
     1
1071
        0
1005
1F7
  0
LINE
  5
1F8
330
1F4
100
AcDbEntity
  8
S10_Quote
100
AcDbLine
 10
0.0
 20
50.0
 30
0.0
 11
0.0
 21
-50.0
 31
0.0
1001
AcDbBlockRepETag
1070
     1
1071
        1
1005
1F8
  0
ENDBLK
  5
1F9
330
1F4
100
AcDbEntity
  8
0
 62
     3
100
AcDbBlockEnd
  0
BLOCK
  5
1FB
330
1FA
100
AcDbEntity
  8
0
100
AcDbBlockBegin
  2
*D2
 70
     1
 10
0.0
 20
0.0
 30
0.0
  3
*D2
  1

  0
LINE
  5
1FC
330
1FA
100
AcDbEntity
  8
S10_Quote
 62
     0
370
    -2
100
AcDbLine
 10
506.0361406140276
 20
4944.834107656823
 30
0.0
 11
505.411140614019
 21
4944.834107656823
 31
0.0
  0
LINE
  5
1FD
330
1FA
100
AcDbEntity
  8
S10_Quote
 62
     0
370
    -2
100
AcDbLine
 10
508.2353057682065
 20
4951.33410765683
 30
0.0
 11
505.411140614019
 21
4951.33410765683
 31
0.0
  0
LINE
  5
1FE
330
1FA
100
AcDbEntity
  8
S10_Quote
 62
     0
370
    -2
100
AcDbLine
 10
506.6611406140189
 20
4944.849107656822
 30
0.0
 11
506.6611406140189
 21
4951.319107656829
 31
0.0
  0
MTEXT
  5
1FF
330
1FA
100
AcDbEntity
  8
S10_Quote
 62
     0
100
AcDbMText
 10
503.8303713832493
 20
4946.353338426053
 30
0.0
 40
2.0
 41
0.0
 71
     1
 72
     1
  1
6.5
  7
wurth
 11
0.0000000000000001
 21
1.0
 31
0.0
 73
     1
 44
1.0
  0
INSERT
  5
200
330
1FA
100
AcDbEntity
  8
S10_Quote
 62
     0
370
    -2
100
AcDbBlockReference
  2
A$C79C4041D
 10
506.6611406140189
 20
4944.834107656823
 30
0.0
 41
0.015
 42
0.015
 43
0.015
 50
270.0
  0
INSERT
  5
201
330
1FA
100
AcDbEntity
  8
S10_Quote
 62
     0
370
    -2
100
AcDbBlockReference
  2
A$C79C4041D
 10
506.6611406140189
 20
4951.33410765683
 30
0.0
 41
0.015
 42
0.015
 43
0.015
 50
90.0
  0
POINT
  5
202
330
1FA
100
AcDbEntity
  8
Defpoints
 62
     0
100
AcDbPoint
 10
506.6611406140276
 20
4944.834107656823
 30
0.0
  0
POINT
  5
203
330
1FA
100
AcDbEntity
  8
Defpoints
 62
     0
100
AcDbPoint
 10
508.8603057682065
 20
4951.33410765683
 30
0.0
  0
POINT
  5
204
330
1FA
100
AcDbEntity
  8
Defpoints
 62
     0
100
AcDbPoint
 10
506.6611406140189
 20
4951.33410765683
 30
0.0
  0
ENDBLK
  5
205
330
1FA
100
AcDbEntity
  8
0
100
AcDbBlockEnd
  0
BLOCK
  5
207
330
206
100
AcDbEntity
  8
0
100
AcDbBlockBegin
  2
*D3
 70
     1
 10
0.0
 20
0.0
 30
0.0
  3
*D3
  1

  0
LINE
  5
208
330
206
100
AcDbEntity
  8
S10_Quote
 62
     0
370
    -2
100
AcDbLine
 10
514.7853057682802
 20
4907.634107656794
 30
0.0
 11
520.5981174981616
 21
4907.634107656794
 31
0.0
  0
LINE
  5
209
330
206
100
AcDbEntity
  8
S10_Quote
 62
     0
370
    -2
100
AcDbLine
 10
516.0853057683327
 20
4906.33410765675
 30
0.0
 11
520.5981174981616
 21
4906.33410765675
 31
0.0
  0
LINE
  5
20A
330
206
100
AcDbEntity
  8
S10_Quote
 62
     0
370
    -2
100
AcDbLine
 10
519.3481174981616
 20
4907.649107656794
 30
0.0
 11
519.3481174981616
 21
4907.664107656794
 31
0.0
  0
LINE
  5
20B
330
206
100
AcDbEntity
  8
S10_Quote
 62
     0
370
    -2
100
AcDbLine
 10
519.3481174981616
 20
4906.319107656749
 30
0.0
 11
519.3481174981616
 21
4906.30410765675
 31
0.0
  0
LINE
  5
20C
330
206
100
AcDbEntity
  8
S10_Quote
 62
     0
370
    -2
100
AcDbLine
 10
519.3481174981616
 20
4901.328164479322
 30
0.0
 11
519.3481174981616
 21
4906.33410765675
 31
0.0
  0
MTEXT
  5
20D
330
206
100
AcDbEntity
  8
S10_Quote
 62
     0
100
AcDbMText
 10
516.5173482673916
 20
4902.128164479321
 30
0.0
 40
2.0
 41
0.0
 71
     1
 72
     1
  1
1.3
  7
wurth
 11
0.0000000000000001
 21
1.0
 31
0.0
 73
     1
 44
1.0
  0
LINE
  5
20E
330
206
100
AcDbEntity
  8
S10_Quote
 62
     0
370
    -2
100
AcDbLine
 10
519.3481174981616
 20
4907.634107656794
 30
0.0
 11
519.3481174981616
 21
4906.33410765675
 31
0.0
  0
LINE
  5
20F
330
206
100
AcDbEntity
  8
S10_Quote
 62
     0
370
    -2
100
AcDbLine
 10
519.3481174981616
 20
4907.634107656794
 30
0.0
 11
519.3481174981616
 21
4906.33410765675
 31
0.0
  0
INSERT
  5
210
330
206
100
AcDbEntity
  8
S10_Quote
 62
     0
370
    -2
100
AcDbBlockReference
  2
A$C79C4041D
 10
519.3481174981616
 20
4907.634107656794
 30
0.0
 41
0.015
 42
0.015
 43
0.015
 50
270.0
  0
INSERT
  5
211
330
206
100
AcDbEntity
  8
S10_Quote
 62
     0
370
    -2
100
AcDbBlockReference
  2
A$C79C4041D
 10
519.3481174981616
 20
4906.33410765675
 30
0.0
 41
0.015
 42
0.015
 43
0.015
 50
90.0
  0
POINT
  5
212
330
206
100
AcDbEntity
  8
Defpoints
 62
     0
100
AcDbPoint
 10
514.1603057682801
 20
4907.634107656794
 30
0.0
  0
POINT
  5
213
330
206
100
AcDbEntity
  8
Defpoints
 62
     0
100
AcDbPoint
 10
515.4603057683328
 20
4906.33410765675
 30
0.0
  0
POINT
  5
214
330
206
100
AcDbEntity
  8
Defpoints
 62
     0
100
AcDbPoint
 10
519.3481174981616
 20
4906.33410765675
 30
0.0
  0
ENDBLK
  5
215
330
206
100
AcDbEntity
  8
0
100
AcDbBlockEnd
  0
BLOCK
  5
217
330
216
100
AcDbEntity
  8
0
100
AcDbBlockBegin
  2
*D4
 70
     1
 10
0.0
 20
0.0
 30
0.0
  3
*D4
  1

  0
LINE
  5
218
330
216
100
AcDbEntity
  8
S10_Quote
 62
     0
370
    -2
100
AcDbLine
 10
516.0853057683327
 20
4906.33410765675
 30
0.0
 11
523.7103057682274
 21
4906.33410765675
 31
0.0
  0
LINE
  5
219
330
216
100
AcDbEntity
  8
S10_Quote
 62
     0
370
    -2
100
AcDbLine
 10
518.0853057682009
 20
4953.334107656854
 30
0.0
 11
523.7103057682274
 21
4953.334107656854
 31
0.0
  0
LINE
  5
21A
330
216
100
AcDbEntity
  8
S10_Quote
 62
     0
370
    -2
100
AcDbLine
 10
522.4603057682274
 20
4906.34910765675
 30
0.0
 11
522.4603057682274
 21
4953.319107656852
 31
0.0
  0
MTEXT
  5
21B
330
216
100
AcDbEntity
  8
S10_Quote
 62
     0
100
AcDbMText
 10
519.600165908087
 20
4928.260681083381
 30
0.0
 40
2.0
 41
0.0
 71
     1
 72
     1
  1
47
  7
wurth
 11
0.0000000000000001
 21
1.0
 31
0.0
 73
     1
 44
1.0
  0
INSERT
  5
21C
330
216
100
AcDbEntity
  8
S10_Quote
 62
     0
370
    -2
100
AcDbBlockReference
  2
A$C79C4041D
 10
522.4603057682274
 20
4906.33410765675
 30
0.0
 41
0.015
 42
0.015
 43
0.015
 50
270.0
  0
INSERT
  5
21D
330
216
100
AcDbEntity
  8
S10_Quote
 62
     0
370
    -2
100
AcDbBlockReference
  2
A$C79C4041D
 10
522.4603057682274
 20
4953.334107656854
 30
0.0
 41
0.015
 42
0.015
 43
0.015
 50
90.0
  0
POINT
  5
21E
330
216
100
AcDbEntity
  8
Defpoints
 62
     0
100
AcDbPoint
 10
515.4603057683328
 20
4906.33410765675
 30
0.0
  0
POINT
  5
21F
330
216
100
AcDbEntity
  8
Defpoints
 62
     0
100
AcDbPoint
 10
517.4603057682008
 20
4953.334107656854
 30
0.0
  0
POINT
  5
220
330
216
100
AcDbEntity
  8
Defpoints
 62
     0
100
AcDbPoint
 10
522.4603057682274
 20
4953.334107656854
 30
0.0
  0
ENDBLK
  5
221
330
216
100
AcDbEntity
  8
0
100
AcDbBlockEnd
  0
BLOCK
  5
223
330
222
100
AcDbEntity
  8
0
100
AcDbBlockBegin
  2
*D5
 70
     1
 10
0.0
 20
0.0
 30
0.0
  3
*D5
  1

  0
LINE
  5
224
330
222
100
AcDbEntity
  8
S10_Quote
 62
     0
370
    -2
100
AcDbLine
 10
515.6603057683342
 20
4905.90910765675
 30
0.0
 11
515.6603057683646
 21
4894.764887879567
 31
0.0
  0
LINE
  5
225
330
222
100
AcDbEntity
  8
S10_Quote
 62
     0
370
    -2
100
AcDbLine
 10
480.2603057682849
 20
4907.585393770106
 30
0.0
 11
480.2603057683198
 21
4894.764887879471
 31
0.0
  0
LINE
  5
226
330
222
100
AcDbEntity
  8
S10_Quote
 62
     0
370
    -2
100
AcDbLine
 10
515.6453057683612
 20
4896.014887879567
 30
0.0
 11
480.2753057683164
 21
4896.014887879471
 31
0.0
  0
MTEXT
  5
227
330
222
100
AcDbEntity
  8
S10_Quote
 62
     0
100
AcDbMText
 10
495.4036624116886
 20
4898.861041725666
 30
0.0
 40
2.0
 41
0.0
 71
     1
 72
     1
  1
35.4
  7
wurth
 11
1.0
 21
0.0000000000027285
 31
0.0
 73
     1
 44
1.0
  0
INSERT
  5
228
330
222
100
AcDbEntity
  8
S10_Quote
 62
     0
370
    -2
100
AcDbBlockReference
  2
A$C79C4041D
 10
515.6603057683612
 20
4896.014887879567
 30
0.0
 41
0.015
 42
0.015
 43
0.015
 50
0.0000000001563549
  0
INSERT
  5
229
330
222
100
AcDbEntity
  8
S10_Quote
 62
     0
370
    -2
100
AcDbBlockReference
  2
A$C79C4041D
 10
480.2603057683164
 20
4896.014887879471
 30
0.0
 41
0.015
 42
0.015
 43
0.015
 50
180.0000000001563
  0
POINT
  5
22A
330
222
100
AcDbEntity
  8
Defpoints
 62
     0
100
AcDbPoint
 10
515.6603057683325
 20
4906.53410765675
 30
0.0
  0
POINT
  5
22B
330
222
100
AcDbEntity
  8
Defpoints
 62
     0
100
AcDbPoint
 10
480.2603057682831
 20
4908.210393770105
 30
0.0
  0
POINT
  5
22C
330
222
100
AcDbEntity
  8
Defpoints
 62
     0
100
AcDbPoint
 10
480.2603057683164
 20
4896.014887879471
 30
0.0
  0
ENDBLK
  5
22D
330
222
100
AcDbEntity
  8
0
100
AcDbBlockEnd
  0
BLOCK
  5
22F
330
22E
100
AcDbEntity
  8
0
100
AcDbBlockBegin
  2
*D6
 70
     1
 10
0.0
 20
0.0
 30
0.0
  3
*D6
  1

  0
LINE
  5
230
330
22E
100
AcDbEntity
  8
S10_Quote
 62
     0
370
    -2
100
AcDbLine
 10
479.8946427663584
 20
4912.834107656711
 30
0.0
 11
475.8833716409029
 21
4912.834107656711
 31
0.0
  0
LINE
  5
231
330
22E
100
AcDbEntity
  8
S10_Quote
 62
     0
370
    -2
100
AcDbLine
 10
480.7443004966845
 20
4926.834107656711
 30
0.0
 11
475.8833716409029
 21
4926.834107656711
 31
0.0
  0
LINE
  5
232
330
22E
100
AcDbEntity
  8
S10_Quote
 62
     0
370
    -2
100
AcDbLine
 10
477.133371640903
 20
4912.849107656711
 30
0.0
 11
477.133371640903
 21
4926.819107656712
 31
0.0
  0
MTEXT
  5
233
330
22E
100
AcDbEntity
  8
S10_Quote
 62
     0
100
AcDbMText
 10
474.3179870255178
 20
4918.522219544823
 30
0.0
 40
2.0
 41
0.0
 71
     1
 72
     1
  1
14
  7
wurth
 11
0.0000000000000001
 21
1.0
 31
0.0
 73
     1
 44
1.0
  0
INSERT
  5
234
330
22E
100
AcDbEntity
  8
S10_Quote
 62
     0
370
    -2
100
AcDbBlockReference
  2
A$C79C4041D
 10
477.133371640903
 20
4912.834107656711
 30
0.0
 41
0.015
 42
0.015
 43
0.015
 50
270.0
  0
INSERT
  5
235
330
22E
100
AcDbEntity
  8
S10_Quote
 62
     0
370
    -2
100
AcDbBlockReference
  2
A$C79C4041D
 10
477.133371640903
 20
4926.834107656711
 30
0.0
 41
0.015
 42
0.015
 43
0.015
 50
90.0
  0
POINT
  5
236
330
22E
100
AcDbEntity
  8
Defpoints
 62
     0
100
AcDbPoint
 10
480.5196427663584
 20
4912.834107656711
 30
0.0
  0
POINT
  5
237
330
22E
100
AcDbEntity
  8
Defpoints
 62
     0
100
AcDbPoint
 10
481.3693004966845
 20
4926.834107656711
 30
0.0
  0
POINT
  5
238
330
22E
100
AcDbEntity
  8
Defpoints
 62
     0
100
AcDbPoint
 10
477.133371640903
 20
4926.834107656711
 30
0.0
  0
ENDBLK
  5
239
330
22E
100
AcDbEntity
  8
0
100
AcDbBlockEnd
  0
BLOCK
  5
23B
330
23A
100
AcDbEntity
  8
0
100
AcDbBlockBegin
  2
*D7
 70
     1
 10
0.0
 20
0.0
 30
0.0
  3
*D7
  1

  0
LINE
  5
23C
330
23A
100
AcDbEntity
  8
S10_Quote
 62
     0
370
    -2
100
AcDbLine
 10
481.7353057682831
 20
4908.334107656711
 30
0.0
 11
471.2088777437189
 21
4908.334107656711
 31
0.0
  0
LINE
  5
23D
330
23A
100
AcDbEntity
  8
S10_Quote
 62
     0
370
    -2
100
AcDbLine
 10
481.7353057682831
 20
4931.334107656711
 30
0.0
 11
471.2088777437189
 21
4931.334107656711
 31
0.0
  0
LINE
  5
23E
330
23A
100
AcDbEntity
  8
S10_Quote
 62
     0
370
    -2
100
AcDbLine
 10
472.4588777437189
 20
4908.349107656711
 30
0.0
 11
472.4588777437189
 21
4931.319107656711
 31
0.0
  0
MTEXT
  5
23F
330
23A
100
AcDbEntity
  8
S10_Quote
 62
     0
100
AcDbMText
 10
469.6281085129492
 20
4918.441799964404
 30
0.0
 40
2.0
 41
0.0
 71
     1
 72
     1
  1
23
  7
wurth
 11
0.0000000000000001
 21
1.0
 31
0.0
 73
     1
 44
1.0
  0
INSERT
  5
240
330
23A
100
AcDbEntity
  8
S10_Quote
 62
     0
370
    -2
100
AcDbBlockReference
  2
A$C79C4041D
 10
472.4588777437189
 20
4908.334107656711
 30
0.0
 41
0.015
 42
0.015
 43
0.015
 50
270.0
  0
INSERT
  5
241
330
23A
100
AcDbEntity
  8
S10_Quote
 62
     0
370
    -2
100
AcDbBlockReference
  2
A$C79C4041D
 10
472.4588777437189
 20
4931.334107656711
 30
0.0
 41
0.015
 42
0.015
 43
0.015
 50
90.0
  0
POINT
  5
242
330
23A
100
AcDbEntity
  8
Defpoints
 62
     0
100
AcDbPoint
 10
482.3603057682832
 20
4908.334107656711
 30
0.0
  0
POINT
  5
243
330
23A
100
AcDbEntity
  8
Defpoints
 62
     0
100
AcDbPoint
 10
482.3603057682832
 20
4931.334107656711
 30
0.0
  0
POINT
  5
244
330
23A
100
AcDbEntity
  8
Defpoints
 62
     0
100
AcDbPoint
 10
472.4588777437189
 20
4931.334107656711
 30
0.0
  0
ENDBLK
  5
245
330
23A
100
AcDbEntity
  8
0
100
AcDbBlockEnd
  0
BLOCK
  5
247
330
246
100
AcDbEntity
  8
0
100
AcDbBlockBegin
  2
*D8
 70
     1
 10
0.0
 20
0.0
 30
0.0
  3
*D8
  1

  0
LINE
  5
248
330
246
100
AcDbEntity
  8
S10_Quote
 62
     0
370
    -2
100
AcDbLine
 10
508.6603057682014
 20
4953.759107656829
 30
0.0
 11
508.6603057682014
 21
4959.38410765681
 31
0.0
  0
LINE
  5
249
330
246
100
AcDbEntity
  8
S10_Quote
 62
     0
370
    -2
100
AcDbLine
 10
495.6603057682015
 20
4953.759107656793
 30
0.0
 11
495.6603057682015
 21
4959.38410765681
 31
0.0
  0
LINE
  5
24A
330
246
100
AcDbEntity
  8
S10_Quote
 62
     0
370
    -2
100
AcDbLine
 10
508.6453057682015
 20
4958.13410765681
 30
0.0
 11
495.6753057682014
 21
4958.13410765681
 31
0.0
  0
MTEXT
  5
24B
330
246
100
AcDbEntity
  8
S10_Quote
 62
     0
100
AcDbMText
 10
500.9162498241314
 20
4960.96487688758
 30
0.0
 40
2.0
 41
0.0
 71
     1
 72
     1
  1
13
  7
wurth
 73
     1
 44
1.0
  0
INSERT
  5
24C
330
246
100
AcDbEntity
  8
S10_Quote
 62
     0
370
    -2
100
AcDbBlockReference
  2
A$C79C4041D
 10
508.6603057682014
 20
4958.13410765681
 30
0.0
 41
0.015
 42
0.015
 43
0.015
  0
INSERT
  5
24D
330
246
100
AcDbEntity
  8
S10_Quote
 62
     0
370
    -2
100
AcDbBlockReference
  2
A$C79C4041D
 10
495.6603057682015
 20
4958.13410765681
 30
0.0
 41
0.015
 42
0.015
 43
0.015
 50
180.0
  0
POINT
  5
24E
330
246
100
AcDbEntity
  8
Defpoints
 62
     0
100
AcDbPoint
 10
508.6603057682014
 20
4953.134107656829
 30
0.0
  0
POINT
  5
24F
330
246
100
AcDbEntity
  8
Defpoints
 62
     0
100
AcDbPoint
 10
495.6603057682015
 20
4953.134107656793
 30
0.0
  0
POINT
  5
250
330
246
100
AcDbEntity
  8
Defpoints
 62
     0
100
AcDbPoint
 10
495.6603057682015
 20
4958.13410765681
 30
0.0
  0
ENDBLK
  5
251
330
246
100
AcDbEntity
  8
0
100
AcDbBlockEnd
  0
BLOCK
  5
253
330
252
100
AcDbEntity
  8
0
100
AcDbBlockBegin
  2
*D9
 70
     1
 10
0.0
 20
0.0
 30
0.0
  3
*D9
  1

  0
LINE
  5
254
330
252
100
AcDbEntity
  8
S10_Quote
 62
     0
370
    -2
100
AcDbLine
 10
490.6603057682054
 20
4951.759107656778
 30
0.0
 11
490.6603057681717
 21
4964.063016496528
 31
0.0
  0
LINE
  5
255
330
252
100
AcDbEntity
  8
S10_Quote
 62
     0
370
    -2
100
AcDbLine
 10
513.6603057682053
 20
4951.759107656842
 30
0.0
 11
513.6603057681717
 21
4964.063016496591
 31
0.0
  0
LINE
  5
256
330
252
100
AcDbEntity
  8
S10_Quote
 62
     0
370
    -2
100
AcDbLine
 10
490.6753057681751
 20
4962.813016496528
 30
0.0
 11
513.6453057681751
 21
4962.813016496591
 31
0.0
  0
MTEXT
  5
257
330
252
100
AcDbEntity
  8
S10_Quote
 62
     0
100
AcDbMText
 10
500.7679980758588
 20
4965.643785727325
 30
0.0
 40
2.0
 41
0.0
 71
     1
 72
     1
  1
23
  7
wurth
 11
1.0
 21
0.0000000000027285
 31
0.0
 73
     1
 44
1.0
  0
INSERT
  5
258
330
252
100
AcDbEntity
  8
S10_Quote
 62
     0
370
    -2
100
AcDbBlockReference
  2
A$C79C4041D
 10
490.6603057681752
 20
4962.813016496528
 30
0.0
 41
0.015
 42
0.015
 43
0.015
 50
180.0000000001563
  0
INSERT
  5
259
330
252
100
AcDbEntity
  8
S10_Quote
 62
     0
370
    -2
100
AcDbBlockReference
  2
A$C79C4041D
 10
513.6603057681751
 20
4962.813016496591
 30
0.0
 41
0.015
 42
0.015
 43
0.015
 50
0.0000000001563306
  0
POINT
  5
25A
330
252
100
AcDbEntity
  8
Defpoints
 62
     0
100
AcDbPoint
 10
490.6603057682071
 20
4951.134107656778
 30
0.0
  0
POINT
  5
25B
330
252
100
AcDbEntity
  8
Defpoints
 62
     0
100
AcDbPoint
 10
513.660305768207
 20
4951.134107656843
 30
0.0
  0
POINT
  5
25C
330
252
100
AcDbEntity
  8
Defpoints
 62
     0
100
AcDbPoint
 10
513.6603057681751
 20
4962.813016496591
 30
0.0
  0
ENDBLK
  5
25D
330
252
100
AcDbEntity
  8
0
100
AcDbBlockEnd
  0
BLOCK
  5
25F
330
25E
100
AcDbEntity
  8
0
100
AcDbBlockBegin
  2
*D10
 70
     1
 10
0.0
 20
0.0
 30
0.0
  3
*D10
  1

  0
LINE
  5
260
330
25E
100
AcDbEntity
  8
S10_Quote
 62
     0
370
    -2
100
AcDbLine
 10
486.6603057682015
 20
4953.759107656767
 30
0.0
 11
486.6603057682015
 21
4968.38410765681
 31
0.0
  0
LINE
  5
261
330
25E
100
AcDbEntity
  8
S10_Quote
 62
     0
370
    -2
100
AcDbLine
 10
517.6603057682014
 20
4953.759107656854
 30
0.0
 11
517.6603057682014
 21
4968.38410765681
 31
0.0
  0
LINE
  5
262
330
25E
100
AcDbEntity
  8
S10_Quote
 62
     0
370
    -2
100
AcDbLine
 10
486.6753057682014
 20
4967.134107656811
 30
0.0
 11
517.6453057682015
 21
4967.134107656811
 31
0.0
  0
MTEXT
  5
263
330
25E
100
AcDbEntity
  8
S10_Quote
 62
     0
100
AcDbMText
 10
500.9756903835468
 20
4969.96487688758
 30
0.0
 40
2.0
 41
0.0
 71
     1
 72
     1
  1
31
  7
wurth
 73
     1
 44
1.0
  0
INSERT
  5
264
330
25E
100
AcDbEntity
  8
S10_Quote
 62
     0
370
    -2
100
AcDbBlockReference
  2
A$C79C4041D
 10
486.6603057682015
 20
4967.134107656811
 30
0.0
 41
0.015
 42
0.015
 43
0.015
 50
180.0
  0
INSERT
  5
265
330
25E
100
AcDbEntity
  8
S10_Quote
 62
     0
370
    -2
100
AcDbBlockReference
  2
A$C79C4041D
 10
517.6603057682014
 20
4967.134107656811
 30
0.0
 41
0.015
 42
0.015
 43
0.015
  0
POINT
  5
266
330
25E
100
AcDbEntity
  8
Defpoints
 62
     0
100
AcDbPoint
 10
486.6603057682015
 20
4953.134107656767
 30
0.0
  0
POINT
  5
267
330
25E
100
AcDbEntity
  8
Defpoints
 62
     0
100
AcDbPoint
 10
517.6603057682014
 20
4953.134107656854
 30
0.0
  0
POINT
  5
268
330
25E
100
AcDbEntity
  8
Defpoints
 62
     0
100
AcDbPoint
 10
517.6603057682014
 20
4967.134107656811
 30
0.0
  0
ENDBLK
  5
269
330
25E
100
AcDbEntity
  8
0
100
AcDbBlockEnd
  0
BLOCK
  5
26B
330
26A
100
AcDbEntity
  8
0
100
AcDbBlockBegin
  2
*D11
 70
     1
 10
0.0
 20
0.0
 30
0.0
  3
*D11
  1

  0
LINE
  5
26C
330
26A
100
AcDbEntity
  8
S10_Quote
 62
     0
370
    -2
100
AcDbLine
 10
515.6603057682712
 20
4928.984843588083
 30
0.0
 11
515.6603057682712
 21
4930.701792539119
 31
0.0
  0
LINE
  5
26D
330
26A
100
AcDbEntity
  8
S10_Quote
 62
     0
370
    -2
100
AcDbLine
 10
514.3603057682219
 20
4928.98484358808
 30
0.0
 11
514.3603057682219
 21
4930.701792539119
 31
0.0
  0
LINE
  5
26E
330
26A
100
AcDbEntity
  8
S10_Quote
 62
     0
370
    -2
100
AcDbLine
 10
515.6753057682712
 20
4929.451792539119
 30
0.0
 11
515.6903057682711
 21
4929.451792539119
 31
0.0
  0
LINE
  5
26F
330
26A
100
AcDbEntity
  8
S10_Quote
 62
     0
370
    -2
100
AcDbLine
 10
514.3453057682219
 20
4929.451792539119
 30
0.0
 11
509.2086940466102
 21
4929.451792539119
 31
0.0
  0
LINE
  5
270
330
26A
100
AcDbEntity
  8
S10_Quote
 62
     0
370
    -2
100
AcDbLine
 10
515.6603057682712
 20
4929.451792539119
 30
0.0
 11
514.3603057682219
 21
4929.451792539119
 31
0.0
  0
INSERT
  5
271
330
26A
100
AcDbEntity
  8
S10_Quote
 62
     0
370
    -2
100
AcDbBlockReference
  2
A$C79C4041D
 10
515.6603057682712
 20
4929.451792539119
 30
0.0
 41
0.015
 42
0.015
 43
0.015
 50
180.0
  0
INSERT
  5
272
330
26A
100
AcDbEntity
  8
S10_Quote
 62
     0
370
    -2
100
AcDbBlockReference
  2
A$C79C4041D
 10
514.3603057682219
 20
4929.451792539119
 30
0.0
 41
0.015
 42
0.015
 43
0.015
  0
MTEXT
  5
273
330
26A
100
AcDbEntity
  8
S10_Quote
 62
     0
100
AcDbMText
 10
511.577924815841
 20
4931.267177154504
 30
0.0
 40
2.0
 41
0.0
 71
     5
 72
     1
  1
1.3
  7
wurth
 73
     1
 44
1.0
  0
POINT
  5
274
330
26A
100
AcDbEntity
  8
Defpoints
 62
     0
100
AcDbPoint
 10
515.6603057682712
 20
4928.359843588083
 30
0.0
  0
POINT
  5
275
330
26A
100
AcDbEntity
  8
Defpoints
 62
     0
100
AcDbPoint
 10
514.3603057682219
 20
4928.359843588079
 30
0.0
  0
POINT
  5
276
330
26A
100
AcDbEntity
  8
Defpoints
 62
     0
100
AcDbPoint
 10
514.3603057682219
 20
4929.451792539119
 30
0.0
  0
ENDBLK
  5
277
330
26A
100
AcDbEntity
  8
0
100
AcDbBlockEnd
  0
BLOCK
  5
279
330
278
100
AcDbEntity
  8
0
100
AcDbBlockBegin
  2
*D12
 70
     1
 10
0.0
 20
0.0
 30
0.0
  3
*D12
  1

  0
LINE
  5
27A
330
278
100
AcDbEntity
  8
S10_Quote
 62
     0
370
    -2
100
AcDbLine
 10
490.6603057682156
 20
4947.459107656777
 30
0.0
 11
490.6603057682156
 21
4945.27306660197
 31
0.0
  0
LINE
  5
27B
330
278
100
AcDbEntity
  8
S10_Quote
 62
     0
370
    -2
100
AcDbLine
 10
488.6603057682158
 20
4947.459107656772
 30
0.0
 11
488.6603057682158
 21
4945.27306660197
 31
0.0
  0
LINE
  5
27C
330
278
100
AcDbEntity
  8
S10_Quote
 62
     0
370
    -2
100
AcDbLine
 10
490.6453057682156
 20
4946.52306660197
 30
0.0
 11
488.6753057682159
 21
4946.52306660197
 31
0.0
  0
LINE
  5
27D
330
278
100
AcDbEntity
  8
S10_Quote
 62
     0
370
    -2
100
AcDbLine
 10
488.6603057682158
 20
4946.52306660197
 30
0.0
 11
483.1815986932167
 21
4946.52306660197
 31
0.0
  0
INSERT
  5
27E
330
278
100
AcDbEntity
  8
S10_Quote
 62
     0
370
    -2
100
AcDbBlockReference
  2
A$C79C4041D
 10
490.6603057682156
 20
4946.52306660197
 30
0.0
 41
0.015
 42
0.015
 43
0.015
  0
INSERT
  5
27F
330
278
100
AcDbEntity
  8
S10_Quote
 62
     0
370
    -2
100
AcDbBlockReference
  2
A$C79C4041D
 10
488.6603057682158
 20
4946.52306660197
 30
0.0
 41
0.015
 42
0.015
 43
0.015
 50
180.0
  0
MTEXT
  5
280
330
278
100
AcDbEntity
  8
S10_Quote
 62
     0
100
AcDbMText
 10
484.5990812106992
 20
4948.32306660197
 30
0.0
 40
2.0
 41
0.0
 71
     5
 72
     1
  1
2
  7
wurth
 73
     1
 44
1.0
  0
POINT
  5
281
330
278
100
AcDbEntity
  8
Defpoints
 62
     0
100
AcDbPoint
 10
490.6603057682156
 20
4948.084107656778
 30
0.0
  0
POINT
  5
282
330
278
100
AcDbEntity
  8
Defpoints
 62
     0
100
AcDbPoint
 10
488.6603057682158
 20
4948.084107656772
 30
0.0
  0
POINT
  5
283
330
278
100
AcDbEntity
  8
Defpoints
 62
     0
100
AcDbPoint
 10
488.6603057682158
 20
4946.52306660197
 30
0.0
  0
ENDBLK
  5
284
330
278
100
AcDbEntity
  8
0
100
AcDbBlockEnd
  0
BLOCK
  5
288
330
285
100
AcDbEntity
  8
0
100
AcDbBlockBegin
  2
A$C4ED33F28
 70
     0
 10
0.0
 20
0.0
 30
0.0
  3
A$C4ED33F28
  1

  0
ARC
  5
289
330
285
100
AcDbEntity
  8
Sichtbar (ISO)
100
AcDbCircle
 10
-22.71713739135726
 20
-6.284193722030067
 30
0.0
 40
0.2000000000000008
100
AcDbArc
 50
90.0
 51
132.4999999999976
  0
ARC
  5
28A
330
285
100
AcDbEntity
  8
Sichtbar (ISO)
100
AcDbCircle
 10
-21.83006422791914
 20
14.21580627796902
 30
0.0
 40
0.200000000000001
100
AcDbArc
 50
89.99999999970688
 51
149.9999999998799
  0
ARC
  5
28B
330
285
100
AcDbEntity
  8
Sichtbar (ISO)
100
AcDbCircle
 10
-21.86747966103121
 20
8.115806277969568
 30
0.0
 40
0.1999999999999832
100
AcDbArc
 50
219.4222685574168
 51
270.0
  0
LINE
  5
28C
330
285
100
AcDbEntity
  8
Sichtbar (ISO)
100
AcDbLine
 10
-22.71713739135726
 20
-6.084193722030249
 30
0.0
 11
-21.27647438943268
 21
-6.084193722030249
 31
0.0
  0
LINE
  5
28D
330
285
100
AcDbEntity
  8
Sichtbar (ISO)
100
AcDbLine
 10
11.12352561046396
 20
24.41580627805342
 30
0.0
 11
11.12352561056377
 21
-11.08419372194657
 31
0.0
  0
ARC
  5
28E
330
285
100
AcDbEntity
  8
Sichtbar (ISO)
100
AcDbCircle
 10
10.92352561056395
 20
-11.08419372194748
 30
0.0
 40
0.2000000000000046
100
AcDbArc
 50
270.0000000001629
 51
0.0
  0
LINE
  5
28F
330
285
100
AcDbEntity
  8
Sichtbar (ISO)
100
AcDbLine
 10
10.92352561056441
 20
-11.2841937219473
 30
0.0
 11
-13.07647438952563
 21
-11.2841937220146
 31
0.0
  0
ARC
  5
290
330
285
100
AcDbEntity
  8
Sichtbar (ISO)
100
AcDbCircle
 10
-13.07647438952631
 20
-11.08419372201479
 30
0.0
 40
0.1999999999999868
100
AcDbArc
 50
180.0
 51
270.0000000001629
  0
LINE
  5
291
330
285
100
AcDbEntity
  8
Sichtbar (ISO)
100
AcDbLine
 10
-13.27647438952636
 20
-11.0841937220157
 30
0.0
 11
-13.27647438962617
 21
24.4158062779843
 31
0.0
  0
ARC
  5
292
330
285
100
AcDbEntity
  8
Sichtbar (ISO)
100
AcDbCircle
 10
-13.07647438962613
 20
24.41580627798521
 30
0.0
 40
0.2000000000000113
100
AcDbArc
 50
90.00000000014981
 51
180.0
  0
LINE
  5
293
330
285
100
AcDbEntity
  8
Sichtbar (ISO)
100
AcDbLine
 10
-13.07647438962658
 20
24.61580627798503
 30
0.0
 11
10.92352561046346
 21
24.61580627805233
 31
0.0
  0
ARC
  5
294
330
285
100
AcDbEntity
  8
Sichtbar (ISO)
100
AcDbCircle
 10
10.92352561046414
 20
24.41580627805251
 30
0.0
 40
0.199999999999998
100
AcDbArc
 50
0.0
 51
90.00000000016283
  0
LINE
  5
295
330
285
100
AcDbEntity
  8
Sichtbar (ISO)
100
AcDbLine
 10
-21.9764743894325
 20
-12.38419372203043
 30
0.0
 11
-21.9764743894325
 21
-11.80024299501019
 31
0.0
  0
ARC
  5
296
330
285
100
AcDbEntity
  8
Sichtbar (ISO)
100
AcDbCircle
 10
-21.77647438943268
 20
-12.38419372203043
 30
0.0
 40
0.199999999999998
100
AcDbArc
 50
180.0
 51
270.0000000000652
  0
LINE
  5
297
330
285
100
AcDbEntity
  8
Sichtbar (ISO)
100
AcDbLine
 10
12.22352561061711
 20
-12.58419372199296
 30
0.0
 11
-21.77647438943222
 21
-12.58419372203025
 31
0.0
  0
ARC
  5
298
330
285
100
AcDbEntity
  8
Sichtbar (ISO)
100
AcDbCircle
 10
12.22352561061689
 20
-12.38419372199314
 30
0.0
 40
0.2000000000000002
100
AcDbArc
 50
270.0000000000586
 51
0.0
  0
LINE
  5
299
330
285
100
AcDbEntity
  8
Sichtbar (ISO)
100
AcDbLine
 10
12.42352561049415
 20
31.26727814067454
 30
0.0
 11
12.42352561061671
 21
-12.38419372199223
 31
0.0
  0
ARC
  5
29A
330
285
100
AcDbEntity
  8
Sichtbar (ISO)
100
AcDbCircle
 10
12.72352561049615
 20
31.26727814067545
 30
0.0
 40
0.300000000002055
100
AcDbArc
 50
45.0000000001566
 51
180.0
  0
LINE
  5
29B
330
285
100
AcDbEntity
  8
Sichtbar (ISO)
100
AcDbLine
 10
13.91139357613679
 20
30.50367424375509
 30
0.0
 11
12.93565764485288
 21
31.47941017503308
 31
0.0
  0
ARC
  5
29C
330
285
100
AcDbEntity
  8
Sichtbar (ISO)
100
AcDbCircle
 10
14.12352561049351
 20
30.71580627811272
 30
0.0
 40
0.300000000002052
100
AcDbArc
 50
225.0000000001566
 51
0.0
  0
LINE
  5
29D
330
285
100
AcDbEntity
  8
Sichtbar (ISO)
100
AcDbLine
 10
14.42352561048574
 20
34.21580627811181
 30
0.0
 11
14.42352561049574
 21
30.71580627811363
 31
0.0
  0
ARC
  5
29E
330
285
100
AcDbEntity
  8
Sichtbar (ISO)
100
AcDbCircle
 10
14.22352561048592
 20
34.21580627811091
 30
0.0
 40
0.1999999999999957
100
AcDbArc
 50
0.0
 51
90.00000000016283
  0
LINE
  5
29F
330
285
100
AcDbEntity
  8
Sichtbar (ISO)
100
AcDbLine
 10
5.62352561048533
 20
34.41580627808708
 30
0.0
 11
14.22352561048524
 21
34.41580627811072
 31
0.0
  0
ARC
  5
2A0
330
285
100
AcDbEntity
  8
Sichtbar (ISO)
100
AcDbCircle
 10
5.623525610485785
 20
34.21580627808726
 30
0.0
 40
0.2000000000000013
100
AcDbArc
 50
90.00000000016283
 51
180.0
  0
LINE
  5
2A1
330
285
100
AcDbEntity
  8
Sichtbar (ISO)
100
AcDbLine
 10
5.423525610490287
 20
32.61580627808598
 30
0.0
 11
5.423525610485739
 21
34.21580627808635
 31
0.0
  0
ARC
  5
2A2
330
285
100
AcDbEntity
  8
Sichtbar (ISO)
100
AcDbCircle
 10
5.623525610490332
 20
32.61580627808689
 30
0.0
 40
0.1999999999999913
100
AcDbArc
 50
180.0
 51
270.0000000001629
  0
LINE
  5
2A3
330
285
100
AcDbEntity
  8
Sichtbar (ISO)
100
AcDbLine
 10
10.22352561049092
 20
32.41580627809981
 30
0.0
 11
5.623525610490787
 21
32.41580627808708
 31
0.0
  0
ARC
  5
2A4
330
285
100
AcDbEntity
  8
Sichtbar (ISO)
100
AcDbCircle
 10
10.22352561049138
 20
32.21580627809999
 30
0.0
 40
0.2000000000000091
100
AcDbArc
 50
0.0
 51
90.00000000014981
  0
LINE
  5
2A5
330
285
100
AcDbEntity
  8
Sichtbar (ISO)
100
AcDbLine
 10
10.42352561050847
 20
26.11580627810054
 30
0.0
 11
10.42352561049142
 21
32.21580627809999
 31
0.0
  0
ARC
  5
2A6
330
285
100
AcDbEntity
  8
Sichtbar (ISO)
100
AcDbCircle
 10
10.22352561050866
 20
26.11580627809963
 30
0.0
 40
0.199999999999998
100
AcDbArc
 50
270.0000000001629
 51
0.0
  0
LINE
  5
2A7
330
285
100
AcDbEntity
  8
Sichtbar (ISO)
100
AcDbLine
 10
-12.37647438949079
 20
25.91580627803614
 30
0.0
 11
10.22352561050911
 21
25.91580627809981
 31
0.0
  0
ARC
  5
2A8
330
285
100
AcDbEntity
  8
Sichtbar (ISO)
100
AcDbCircle
 10
-12.37647438949148
 20
26.11580627803596
 30
0.0
 40
0.199999999999998
100
AcDbArc
 50
180.0
 51
270.0000000001629
  0
LINE
  5
2A9
330
285
100
AcDbEntity
  8
Sichtbar (ISO)
100
AcDbLine
 10
-12.57647438950857
 20
32.21580627803542
 30
0.0
 11
-12.57647438949152
 21
26.11580627803596
 31
0.0
  0
ARC
  5
2AA
330
285
100
AcDbEntity
  8
Sichtbar (ISO)
100
AcDbCircle
 10
-12.37647438950853
 20
32.21580627803632
 30
0.0
 40
0.2000000000000091
100
AcDbArc
 50
90.00000000016283
 51
180.0
  0
LINE
  5
2AB
330
285
100
AcDbEntity
  8
Sichtbar (ISO)
100
AcDbLine
 10
-7.776474389509075
 20
32.41580627804888
 30
0.0
 11
-12.37647438950921
 21
32.41580627803614
 31
0.0
  0
ARC
  5
2AC
330
285
100
AcDbEntity
  8
Sichtbar (ISO)
100
AcDbCircle
 10
-7.776474389509758
 20
32.6158062780496
 30
0.0
 40
0.2000000000000013
100
AcDbArc
 50
270.0000000001629
 51
0.0
  0
LINE
  5
2AD
330
285
100
AcDbEntity
  8
Sichtbar (ISO)
100
AcDbLine
 10
-7.57647438951426
 20
34.21580627804997
 30
0.0
 11
-7.576474389509712
 21
32.6158062780496
 31
0.0
  0
ARC
  5
2AE
330
285
100
AcDbEntity
  8
Sichtbar (ISO)
100
AcDbCircle
 10
-7.776474389514078
 20
34.21580627804906
 30
0.0
 40
0.1999999999999957
100
AcDbArc
 50
0.0
 51
90.00000000016283
  0
LINE
  5
2AF
330
285
100
AcDbEntity
  8
Sichtbar (ISO)
100
AcDbLine
 10
-16.37647438951467
 20
34.41580627802523
 30
0.0
 11
-7.77647438951476
 21
34.41580627804888
 31
0.0
  0
ARC
  5
2B0
330
285
100
AcDbEntity
  8
Sichtbar (ISO)
100
AcDbCircle
 10
-16.37647438951421
 20
34.21580627802541
 30
0.0
 40
0.199999999999998
100
AcDbArc
 50
90.00000000016283
 51
180.0
  0
LINE
  5
2B1
330
285
100
AcDbEntity
  8
Sichtbar (ISO)
100
AcDbLine
 10
-16.57647438950425
 20
30.71580627802632
 30
0.0
 11
-16.57647438951426
 21
34.2158062780245
 31
0.0
  0
ARC
  5
2B2
330
285
100
AcDbEntity
  8
Sichtbar (ISO)
100
AcDbCircle
 10
-16.27647438950225
 20
30.71580627802723
 30
0.0
 40
0.300000000002055
100
AcDbArc
 50
180.0
 51
315.000000000175
  0
LINE
  5
2B3
330
285
100
AcDbEntity
  8
Sichtbar (ISO)
100
AcDbLine
 10
-15.0886064238648
 20
31.47941017495578
 30
0.0
 11
-16.06434235514439
 21
30.5036742436705
 31
0.0
  0
ARC
  5
2B4
330
285
100
AcDbEntity
  8
Sichtbar (ISO)
100
AcDbCircle
 10
-14.87647438950671
 20
31.26727814059905
 30
0.0
 40
0.3000000000020541
100
AcDbArc
 50
0.0
 51
135.000000000175
  0
LINE
  5
2B5
330
285
100
AcDbEntity
  8
Sichtbar (ISO)
100
AcDbLine
 10
-14.57647438945901
 20
14.61580627793319
 30
0.0
 11
-14.57647438950585
 21
31.26727814059814
 31
0.0
  0
ARC
  5
2B6
330
285
100
AcDbEntity
  8
Sichtbar (ISO)
100
AcDbCircle
 10
-14.77647438945905
 20
14.61580627793228
 30
0.0
 40
0.2000000000000002
100
AcDbArc
 50
269.9999999997069
 51
0.0
  0
LINE
  5
2B7
330
285
100
AcDbEntity
  8
Sichtbar (ISO)
100
AcDbLine
 10
-21.83006422791823
 20
14.41580627796884
 30
0.0
 11
-14.77647438946019
 21
14.41580627793246
 31
0.0
  0
LINE
  5
2B8
330
285
100
AcDbEntity
  8
Sichtbar (ISO)
100
AcDbLine
 10
-21.86747966103121
 20
7.91580627796975
 30
0.0
 11
-21.27647438943268
 21
7.91580627796975
 31
0.0
  0
ARC
  5
2B9
330
285
100
AcDbEntity
  8
Sichtbar (ISO)
100
AcDbCircle
 10
-21.27647438943245
 20
8.115806277969568
 30
0.0
 40
0.1999999999999891
100
AcDbArc
 50
269.9999999999935
 51
0.0
  0
LINE
  5
2BA
330
285
100
AcDbEntity
  8
Sichtbar (ISO)
100
AcDbLine
 10
-21.07647438943264
 20
12.21580627796993
 30
0.0
 11
-21.07647438943264
 21
8.115806277969568
 31
0.0
  0
ARC
  5
2BB
330
285
100
AcDbEntity
  8
Sichtbar (ISO)
100
AcDbCircle
 10
-20.87647438943259
 20
12.21580627796993
 30
0.0
 40
0.2000000000000002
100
AcDbArc
 50
90.0
 51
180.0
  0
LINE
  5
2BC
330
285
100
AcDbEntity
  8
Sichtbar (ISO)
100
AcDbLine
 10
-14.77647438943268
 20
12.41580627796975
 30
0.0
 11
-20.87647438943259
 21
12.41580627796975
 31
0.0
  0
ARC
  5
2BD
330
285
100
AcDbEntity
  8
Sichtbar (ISO)
100
AcDbCircle
 10
-14.77647438943245
 20
12.21580627796993
 30
0.0
 40
0.199999999999998
100
AcDbArc
 50
0.0
 51
90.0
  0
LINE
  5
2BE
330
285
100
AcDbEntity
  8
Sichtbar (ISO)
100
AcDbLine
 10
-14.57647438943263
 20
-10.38419372203043
 30
0.0
 11
-14.57647438943263
 21
12.21580627796993
 31
0.0
  0
ARC
  5
2BF
330
285
100
AcDbEntity
  8
Sichtbar (ISO)
100
AcDbCircle
 10
-14.77647438943245
 20
-10.38419372203043
 30
0.0
 40
0.199999999999998
100
AcDbArc
 50
270.0
 51
0.0
  0
LINE
  5
2C0
330
285
100
AcDbEntity
  8
Sichtbar (ISO)
100
AcDbLine
 10
-20.87647438943259
 20
-10.58419372203025
 30
0.0
 11
-14.77647438943268
 21
-10.58419372203025
 31
0.0
  0
ARC
  5
2C1
330
285
100
AcDbEntity
  8
Sichtbar (ISO)
100
AcDbCircle
 10
-20.87647438943259
 20
-10.38419372203043
 30
0.0
 40
0.199999999999998
100
AcDbArc
 50
180.0
 51
270.0
  0
LINE
  5
2C2
330
285
100
AcDbEntity
  8
Sichtbar (ISO)
100
AcDbLine
 10
-21.07647438943264
 20
-6.284193722030067
 30
0.0
 11
-21.07647438943264
 21
-10.38419372203043
 31
0.0
  0
ARC
  5
2C3
330
285
100
AcDbEntity
  8
Sichtbar (ISO)
100
AcDbCircle
 10
-21.27647438943268
 20
-6.284193722030067
 30
0.0
 40
0.1999999999999957
100
AcDbArc
 50
0.0
 51
90.0
  0
LINE
  5
2C4
330
285
100
AcDbEntity
  8
Sichtbar (ISO)
100
AcDbLine
 10
-22.91159243095581
 20
-6.19111059577699
 30
0.0
 11
-22.85225543288039
 21
-6.136738254668671
 31
0.0
  0
ARC
  5
2C5
330
285
100
AcDbEntity
  8
Sichtbar (ISO)
100
AcDbCircle
 10
-22.77647438943268
 20
-6.338566063139296
 30
0.0
 40
0.1999999999999991
100
AcDbArc
 50
132.4999999999976
 51
227.5000000000024
  0
LINE
  5
2C6
330
285
100
AcDbEntity
  8
Sichtbar (ISO)
100
AcDbLine
 10
-22.04135634790941
 20
-7.283445982151533
 30
0.0
 11
-22.91159243095581
 21
-6.486021530501602
 31
0.0
  0
ARC
  5
2C7
330
285
100
AcDbEntity
  8
Sichtbar (ISO)
100
AcDbCircle
 10
-22.17647438943254
 20
-7.430901449513839
 30
0.0
 40
0.1999999999999961
100
AcDbArc
 50
312.4999999999976
 51
47.50000000000242
  0
LINE
  5
2C8
330
285
100
AcDbEntity
  8
Sichtbar (ISO)
100
AcDbLine
 10
-22.91159243095581
 20
-8.375781368526077
 30
0.0
 11
-22.04135634790941
 21
-7.578356916875236
 31
0.0
  0
ARC
  5
2C9
330
285
100
AcDbEntity
  8
Sichtbar (ISO)
100
AcDbCircle
 10
-22.77647438943268
 20
-8.523236835887473
 30
0.0
 40
0.1999999999999991
100
AcDbArc
 50
132.4999999999976
 51
227.5000000000024
  0
LINE
  5
2CA
330
285
100
AcDbEntity
  8
Sichtbar (ISO)
100
AcDbLine
 10
-22.04135634790941
 20
-9.46811675489971
 30
0.0
 11
-22.91159243095581
 21
-8.670692303249779
 31
0.0
  0
ARC
  5
2CB
330
285
100
AcDbEntity
  8
Sichtbar (ISO)
100
AcDbCircle
 10
-22.17647438943254
 20
-9.615572222262017
 30
0.0
 40
0.1999999999999978
100
AcDbArc
 50
312.4999999999976
 51
47.50000000000242
  0
LINE
  5
2CC
330
285
100
AcDbEntity
  8
Sichtbar (ISO)
100
AcDbLine
 10
-22.91159243095581
 20
-10.56045214127425
 30
0.0
 11
-22.04135634790941
 21
-9.763027689624323
 31
0.0
  0
ARC
  5
2CD
330
285
100
AcDbEntity
  8
Sichtbar (ISO)
100
AcDbCircle
 10
-22.77647438943268
 20
-10.70790760863565
 30
0.0
 40
0.1999999999999991
100
AcDbArc
 50
132.4999999999976
 51
227.5000000000024
  0
LINE
  5
2CE
330
285
100
AcDbEntity
  8
Sichtbar (ISO)
100
AcDbLine
 10
-22.04135634790941
 20
-11.65278752764788
 30
0.0
 11
-22.91159243095581
 21
-10.85536307599795
 31
0.0
  0
ARC
  5
2CF
330
285
100
AcDbEntity
  8
Sichtbar (ISO)
100
AcDbCircle
 10
-22.17647438943254
 20
-11.80024299501019
 30
0.0
 40
0.1999999999999957
100
AcDbArc
 50
0.0
 51
47.50000000000242
  0
LINE
  5
2D0
330
285
100
AcDbEntity
  8
Sichtbar (ISO)
100
AcDbLine
 10
-22.91159243095581
 20
11.28625558620933
 30
0.0
 11
-22.04135634790941
 21
12.08368003785927
 31
0.0
  0
ARC
  5
2D1
330
285
100
AcDbEntity
  8
Sichtbar (ISO)
100
AcDbCircle
 10
-22.77647438943268
 20
11.13880011884703
 30
0.0
 40
0.1999999999999987
100
AcDbArc
 50
132.4999999999976
 51
227.5000000000024
  0
LINE
  5
2D2
330
285
100
AcDbEntity
  8
Sichtbar (ISO)
100
AcDbLine
 10
-22.04135634790941
 20
10.19392019983479
 30
0.0
 11
-22.91159243095581
 21
10.99134465148472
 31
0.0
  0
ARC
  5
2D3
330
285
100
AcDbEntity
  8
Sichtbar (ISO)
100
AcDbCircle
 10
-22.17647438943254
 20
10.04646473247248
 30
0.0
 40
0.1999999999999957
100
AcDbArc
 50
312.4999999999976
 51
47.50000000000242
  0
LINE
  5
2D4
330
285
100
AcDbEntity
  8
Sichtbar (ISO)
100
AcDbLine
 10
-22.91159243095581
 20
9.101584813461158
 30
0.0
 11
-22.04135634790941
 21
9.899009265111089
 31
0.0
  0
ARC
  5
2D5
330
285
100
AcDbEntity
  8
Sichtbar (ISO)
100
AcDbCircle
 10
-22.77647438943268
 20
8.954129346098852
 30
0.0
 40
0.1999999999999987
100
AcDbArc
 50
132.4999999999976
 51
227.5000000000024
  0
LINE
  5
2D6
330
285
100
AcDbEntity
  8
Sichtbar (ISO)
100
AcDbLine
 10
-22.04135634790941
 20
8.009249427086615
 30
0.0
 11
-22.91159243095581
 21
8.806673878736546
 31
0.0
  0
ARC
  5
2D7
330
285
100
AcDbEntity
  8
Sichtbar (ISO)
100
AcDbCircle
 10
-22.17647438943231
 20
7.861793959724309
 30
0.0
 40
0.1999999999997679
100
AcDbArc
 50
39.42226855741687
 51
47.50000000000242
  0
ARC
  5
2D8
330
285
100
AcDbEntity
  8
Sichtbar (ISO)
100
AcDbCircle
 10
-22.17647438943254
 20
14.41580627796975
 30
0.0
 40
0.1999999999999072
100
AcDbArc
 50
312.4999999999976
 51
329.9999999998799
  0
LINE
  5
2D9
330
285
100
AcDbEntity
  8
Sichtbar (ISO)
100
AcDbLine
 10
-22.91159243095581
 20
13.47092635895751
 30
0.0
 11
-22.04135634790941
 21
14.26835081060744
 31
0.0
  0
ARC
  5
2DA
330
285
100
AcDbEntity
  8
Sichtbar (ISO)
100
AcDbCircle
 10
-22.77647438943268
 20
13.32347089159521
 30
0.0
 40
0.1999999999999991
100
AcDbArc
 50
132.4999999999976
 51
227.5000000000024
  0
LINE
  5
2DB
330
285
100
AcDbEntity
  8
Sichtbar (ISO)
100
AcDbLine
 10
-22.04135634790941
 20
12.37859097258297
 30
0.0
 11
-22.91159243095581
 21
13.1760154242329
 31
0.0
  0
ARC
  5
2DC
330
285
100
AcDbEntity
  8
Sichtbar (ISO)
100
AcDbCircle
 10
-22.17647438943254
 20
12.23113550522157
 30
0.0
 40
0.1999999999999961
100
AcDbArc
 50
312.4999999999976
 51
47.50000000000242
  0
ENDBLK
  5
2DD
330
285
100
AcDbEntity
  8
0
100
AcDbBlockEnd
  0
BLOCK
  5
3C7
330
3C6
100
AcDbEntity
  8
0
100
AcDbBlockBegin
  2
*D15
 70
     1
 10
0.0
 20
0.0
 30
0.0
  3
*D15
  1

  0
LINE
  5
436
330
3C6
100
AcDbEntity
  8
S10_Quote
 62
     0
370
    -2
100
AcDbLine
 10
1709.750133173994
 20
821.1734485274773
 30
0.0
 11
1709.125133173985
 21
821.1734485274773
 31
0.0
  0
LINE
  5
437
330
3C6
100
AcDbEntity
  8
S10_Quote
 62
     0
370
    -2
100
AcDbLine
 10
1711.949298328172
 20
827.6734485274847
 30
0.0
 11
1709.125133173985
 21
827.6734485274847
 31
0.0
  0
LINE
  5
438
330
3C6
100
AcDbEntity
  8
S10_Quote
 62
     0
370
    -2
100
AcDbLine
 10
1710.375133173985
 20
821.1884485274774
 30
0.0
 11
1710.375133173985
 21
827.6584485274847
 31
0.0
  0
MTEXT
  5
439
330
3C6
100
AcDbEntity
  8
S10_Quote
 62
     0
100
AcDbMText
 10
1707.544363943215
 20
822.6926792967081
 30
0.0
 40
2.0
 41
0.0
 71
     1
 72
     1
  1
6.5
  7
wurth
 11
0.0000000000000001
 21
1.0
 31
0.0
 73
     1
 44
1.0
  0
INSERT
  5
43A
330
3C6
100
AcDbEntity
  8
S10_Quote
 62
     0
370
    -2
100
AcDbBlockReference
  2
A$C79C4041D
 10
1710.375133173985
 20
821.1734485274773
 30
0.0
 41
0.015
 42
0.015
 43
0.015
 50
270.0
  0
INSERT
  5
43B
330
3C6
100
AcDbEntity
  8
S10_Quote
 62
     0
370
    -2
100
AcDbBlockReference
  2
A$C79C4041D
 10
1710.375133173985
 20
827.6734485274847
 30
0.0
 41
0.015
 42
0.015
 43
0.015
 50
90.0
  0
POINT
  5
43C
330
3C6
100
AcDbEntity
  8
Defpoints
 62
     0
100
AcDbPoint
 10
1710.375133173993
 20
821.1734485274773
 30
0.0
  0
POINT
  5
43D
330
3C6
100
AcDbEntity
  8
Defpoints
 62
     0
100
AcDbPoint
 10
1712.574298328172
 20
827.6734485274847
 30
0.0
  0
POINT
  5
43E
330
3C6
100
AcDbEntity
  8
Defpoints
 62
     0
100
AcDbPoint
 10
1710.375133173985
 20
827.6734485274847
 30
0.0
  0
ENDBLK
  5
3C8
330
3C6
100
AcDbEntity
  8
0
100
AcDbBlockEnd
  0
BLOCK
  5
3D3
330
3D2
100
AcDbEntity
  8
0
100
AcDbBlockBegin
  2
*D16
 70
     1
 10
0.0
 20
0.0
 30
0.0
  3
*D16
  1

  0
LINE
  5
43F
330
3D2
100
AcDbEntity
  8
S10_Quote
 62
     0
370
    -2
100
AcDbLine
 10
1718.499298328246
 20
783.9734485274493
 30
0.0
 11
1724.312110058127
 21
783.9734485274493
 31
0.0
  0
LINE
  5
440
330
3D2
100
AcDbEntity
  8
S10_Quote
 62
     0
370
    -2
100
AcDbLine
 10
1719.799298328299
 20
782.6734485274045
 30
0.0
 11
1724.312110058127
 21
782.6734485274045
 31
0.0
  0
LINE
  5
441
330
3D2
100
AcDbEntity
  8
S10_Quote
 62
     0
370
    -2
100
AcDbLine
 10
1723.062110058127
 20
783.9884485274493
 30
0.0
 11
1723.062110058127
 21
784.0034485274493
 31
0.0
  0
LINE
  5
442
330
3D2
100
AcDbEntity
  8
S10_Quote
 62
     0
370
    -2
100
AcDbLine
 10
1723.062110058127
 20
782.6584485274046
 30
0.0
 11
1723.062110058127
 21
782.6434485274046
 31
0.0
  0
LINE
  5
443
330
3D2
100
AcDbEntity
  8
S10_Quote
 62
     0
370
    -2
100
AcDbLine
 10
1723.062110058127
 20
777.6675053499765
 30
0.0
 11
1723.062110058127
 21
782.6734485274045
 31
0.0
  0
MTEXT
  5
444
330
3D2
100
AcDbEntity
  8
S10_Quote
 62
     0
100
AcDbMText
 10
1720.231340827358
 20
778.4675053499767
 30
0.0
 40
2.0
 41
0.0
 71
     1
 72
     1
  1
1.3
  7
wurth
 11
0.0000000000000001
 21
1.0
 31
0.0
 73
     1
 44
1.0
  0
LINE
  5
445
330
3D2
100
AcDbEntity
  8
S10_Quote
 62
     0
370
    -2
100
AcDbLine
 10
1723.062110058127
 20
783.9734485274493
 30
0.0
 11
1723.062110058127
 21
782.6734485274045
 31
0.0
  0
LINE
  5
446
330
3D2
100
AcDbEntity
  8
S10_Quote
 62
     0
370
    -2
100
AcDbLine
 10
1723.062110058127
 20
783.9734485274493
 30
0.0
 11
1723.062110058127
 21
782.6734485274045
 31
0.0
  0
INSERT
  5
447
330
3D2
100
AcDbEntity
  8
S10_Quote
 62
     0
370
    -2
100
AcDbBlockReference
  2
A$C79C4041D
 10
1723.062110058127
 20
783.9734485274493
 30
0.0
 41
0.015
 42
0.015
 43
0.015
 50
270.0
  0
INSERT
  5
448
330
3D2
100
AcDbEntity
  8
S10_Quote
 62
     0
370
    -2
100
AcDbBlockReference
  2
A$C79C4041D
 10
1723.062110058127
 20
782.6734485274045
 30
0.0
 41
0.015
 42
0.015
 43
0.015
 50
90.0
  0
POINT
  5
449
330
3D2
100
AcDbEntity
  8
Defpoints
 62
     0
100
AcDbPoint
 10
1717.874298328245
 20
783.9734485274493
 30
0.0
  0
POINT
  5
44A
330
3D2
100
AcDbEntity
  8
Defpoints
 62
     0
100
AcDbPoint
 10
1719.174298328298
 20
782.6734485274045
 30
0.0
  0
POINT
  5
44B
330
3D2
100
AcDbEntity
  8
Defpoints
 62
     0
100
AcDbPoint
 10
1723.062110058127
 20
782.6734485274045
 30
0.0
  0
ENDBLK
  5
3D4
330
3D2
100
AcDbEntity
  8
0
100
AcDbBlockEnd
  0
BLOCK
  5
3E3
330
3E2
100
AcDbEntity
  8
0
100
AcDbBlockBegin
  2
*D17
 70
     1
 10
0.0
 20
0.0
 30
0.0
  3
*D17
  1

  0
LINE
  5
44C
330
3E2
100
AcDbEntity
  8
S10_Quote
 62
     0
370
    -2
100
AcDbLine
 10
1719.799298328299
 20
782.6734485274045
 30
0.0
 11
1727.424298328193
 21
782.6734485274045
 31
0.0
  0
LINE
  5
44D
330
3E2
100
AcDbEntity
  8
S10_Quote
 62
     0
370
    -2
100
AcDbLine
 10
1721.799298328167
 20
829.6734485275083
 30
0.0
 11
1727.424298328193
 21
829.6734485275083
 31
0.0
  0
LINE
  5
44E
330
3E2
100
AcDbEntity
  8
S10_Quote
 62
     0
370
    -2
100
AcDbLine
 10
1726.174298328193
 20
782.6884485274046
 30
0.0
 11
1726.174298328193
 21
829.6584485275083
 31
0.0
  0
MTEXT
  5
44F
330
3E2
100
AcDbEntity
  8
S10_Quote
 62
     0
100
AcDbMText
 10
1723.314158468053
 20
804.6000219540362
 30
0.0
 40
2.0
 41
0.0
 71
     1
 72
     1
  1
47
  7
wurth
 11
0.0000000000000001
 21
1.0
 31
0.0
 73
     1
 44
1.0
  0
INSERT
  5
450
330
3E2
100
AcDbEntity
  8
S10_Quote
 62
     0
370
    -2
100
AcDbBlockReference
  2
A$C79C4041D
 10
1726.174298328193
 20
782.6734485274045
 30
0.0
 41
0.015
 42
0.015
 43
0.015
 50
270.0
  0
INSERT
  5
451
330
3E2
100
AcDbEntity
  8
S10_Quote
 62
     0
370
    -2
100
AcDbBlockReference
  2
A$C79C4041D
 10
1726.174298328193
 20
829.6734485275083
 30
0.0
 41
0.015
 42
0.015
 43
0.015
 50
90.0
  0
POINT
  5
452
330
3E2
100
AcDbEntity
  8
Defpoints
 62
     0
100
AcDbPoint
 10
1719.174298328298
 20
782.6734485274045
 30
0.0
  0
POINT
  5
453
330
3E2
100
AcDbEntity
  8
Defpoints
 62
     0
100
AcDbPoint
 10
1721.174298328167
 20
829.6734485275083
 30
0.0
  0
POINT
  5
454
330
3E2
100
AcDbEntity
  8
Defpoints
 62
     0
100
AcDbPoint
 10
1726.174298328193
 20
829.6734485275083
 30
0.0
  0
ENDBLK
  5
3E4
330
3E2
100
AcDbEntity
  8
0
100
AcDbBlockEnd
  0
BLOCK
  5
3EF
330
3EE
100
AcDbEntity
  8
0
100
AcDbBlockBegin
  2
*D18
 70
     1
 10
0.0
 20
0.0
 30
0.0
  3
*D18
  1

  0
LINE
  5
455
330
3EE
100
AcDbEntity
  8
S10_Quote
 62
     0
370
    -2
100
AcDbLine
 10
1719.3742983283
 20
782.2484485274054
 30
0.0
 11
1719.37429832833
 21
771.1042287502225
 31
0.0
  0
LINE
  5
456
330
3EE
100
AcDbEntity
  8
S10_Quote
 62
     0
370
    -2
100
AcDbLine
 10
1683.974298328251
 20
783.924734640761
 30
0.0
 11
1683.974298328285
 21
771.1042287501259
 31
0.0
  0
LINE
  5
457
330
3EE
100
AcDbEntity
  8
S10_Quote
 62
     0
370
    -2
100
AcDbLine
 10
1719.359298328327
 20
772.3542287502225
 30
0.0
 11
1683.989298328282
 21
772.354228750126
 31
0.0
  0
MTEXT
  5
458
330
3EE
100
AcDbEntity
  8
S10_Quote
 62
     0
100
AcDbMText
 10
1699.117654971654
 20
775.200382596321
 30
0.0
 40
2.0
 41
0.0
 71
     1
 72
     1
  1
35.4
  7
wurth
 11
1.0
 21
0.0000000000027285
 31
0.0
 73
     1
 44
1.0
  0
INSERT
  5
459
330
3EE
100
AcDbEntity
  8
S10_Quote
 62
     0
370
    -2
100
AcDbBlockReference
  2
A$C79C4041D
 10
1719.374298328327
 20
772.3542287502225
 30
0.0
 41
0.015
 42
0.015
 43
0.015
 50
0.0000000001563549
  0
INSERT
  5
45A
330
3EE
100
AcDbEntity
  8
S10_Quote
 62
     0
370
    -2
100
AcDbBlockReference
  2
A$C79C4041D
 10
1683.974298328282
 20
772.3542287501259
 30
0.0
 41
0.015
 42
0.015
 43
0.015
 50
180.0000000001563
  0
POINT
  5
45B
330
3EE
100
AcDbEntity
  8
Defpoints
 62
     0
100
AcDbPoint
 10
1719.374298328298
 20
782.8734485274053
 30
0.0
  0
POINT
  5
45C
330
3EE
100
AcDbEntity
  8
Defpoints
 62
     0
100
AcDbPoint
 10
1683.974298328249
 20
784.549734640761
 30
0.0
  0
POINT
  5
45D
330
3EE
100
AcDbEntity
  8
Defpoints
 62
     0
100
AcDbPoint
 10
1683.974298328282
 20
772.3542287501259
 30
0.0
  0
ENDBLK
  5
3F0
330
3EE
100
AcDbEntity
  8
0
100
AcDbBlockEnd
  0
BLOCK
  5
3FB
330
3FA
100
AcDbEntity
  8
0
100
AcDbBlockBegin
  2
*D19
 70
     1
 10
0.0
 20
0.0
 30
0.0
  3
*D19
  1

  0
LINE
  5
45E
330
3FA
100
AcDbEntity
  8
S10_Quote
 62
     0
370
    -2
100
AcDbLine
 10
1683.608635326324
 20
789.1734485273664
 30
0.0
 11
1679.597364200869
 21
789.1734485273664
 31
0.0
  0
LINE
  5
45F
330
3FA
100
AcDbEntity
  8
S10_Quote
 62
     0
370
    -2
100
AcDbLine
 10
1684.45829305665
 20
803.1734485273664
 30
0.0
 11
1679.597364200869
 21
803.1734485273664
 31
0.0
  0
LINE
  5
460
330
3FA
100
AcDbEntity
  8
S10_Quote
 62
     0
370
    -2
100
AcDbLine
 10
1680.847364200869
 20
789.1884485273664
 30
0.0
 11
1680.847364200869
 21
803.1584485273665
 31
0.0
  0
MTEXT
  5
461
330
3FA
100
AcDbEntity
  8
S10_Quote
 62
     0
100
AcDbMText
 10
1678.031979585484
 20
794.8615604154782
 30
0.0
 40
2.0
 41
0.0
 71
     1
 72
     1
  1
14
  7
wurth
 11
0.0000000000000001
 21
1.0
 31
0.0
 73
     1
 44
1.0
  0
INSERT
  5
462
330
3FA
100
AcDbEntity
  8
S10_Quote
 62
     0
370
    -2
100
AcDbBlockReference
  2
A$C79C4041D
 10
1680.847364200869
 20
789.1734485273664
 30
0.0
 41
0.015
 42
0.015
 43
0.015
 50
270.0
  0
INSERT
  5
463
330
3FA
100
AcDbEntity
  8
S10_Quote
 62
     0
370
    -2
100
AcDbBlockReference
  2
A$C79C4041D
 10
1680.847364200869
 20
803.1734485273664
 30
0.0
 41
0.015
 42
0.015
 43
0.015
 50
90.0
  0
POINT
  5
464
330
3FA
100
AcDbEntity
  8
Defpoints
 62
     0
100
AcDbPoint
 10
1684.233635326324
 20
789.1734485273664
 30
0.0
  0
POINT
  5
465
330
3FA
100
AcDbEntity
  8
Defpoints
 62
     0
100
AcDbPoint
 10
1685.08329305665
 20
803.1734485273664
 30
0.0
  0
POINT
  5
466
330
3FA
100
AcDbEntity
  8
Defpoints
 62
     0
100
AcDbPoint
 10
1680.847364200869
 20
803.1734485273664
 30
0.0
  0
ENDBLK
  5
3FC
330
3FA
100
AcDbEntity
  8
0
100
AcDbBlockEnd
  0
BLOCK
  5
407
330
406
100
AcDbEntity
  8
0
100
AcDbBlockBegin
  2
*D20
 70
     1
 10
0.0
 20
0.0
 30
0.0
  3
*D20
  1

  0
LINE
  5
467
330
406
100
AcDbEntity
  8
S10_Quote
 62
     0
370
    -2
100
AcDbLine
 10
1685.449298328249
 20
784.6734485273664
 30
0.0
 11
1674.922870303685
 21
784.6734485273664
 31
0.0
  0
LINE
  5
468
330
406
100
AcDbEntity
  8
S10_Quote
 62
     0
370
    -2
100
AcDbLine
 10
1685.449298328249
 20
807.6734485273664
 30
0.0
 11
1674.922870303685
 21
807.6734485273664
 31
0.0
  0
LINE
  5
469
330
406
100
AcDbEntity
  8
S10_Quote
 62
     0
370
    -2
100
AcDbLine
 10
1676.172870303685
 20
784.6884485273664
 30
0.0
 11
1676.172870303685
 21
807.6584485273665
 31
0.0
  0
MTEXT
  5
46A
330
406
100
AcDbEntity
  8
S10_Quote
 62
     0
100
AcDbMText
 10
1673.342101072915
 20
794.7811408350587
 30
0.0
 40
2.0
 41
0.0
 71
     1
 72
     1
  1
23
  7
wurth
 11
0.0000000000000001
 21
1.0
 31
0.0
 73
     1
 44
1.0
  0
INSERT
  5
46B
330
406
100
AcDbEntity
  8
S10_Quote
 62
     0
370
    -2
100
AcDbBlockReference
  2
A$C79C4041D
 10
1676.172870303685
 20
784.6734485273664
 30
0.0
 41
0.015
 42
0.015
 43
0.015
 50
270.0
  0
INSERT
  5
46C
330
406
100
AcDbEntity
  8
S10_Quote
 62
     0
370
    -2
100
AcDbBlockReference
  2
A$C79C4041D
 10
1676.172870303685
 20
807.6734485273664
 30
0.0
 41
0.015
 42
0.015
 43
0.015
 50
90.0
  0
POINT
  5
46D
330
406
100
AcDbEntity
  8
Defpoints
 62
     0
100
AcDbPoint
 10
1686.074298328249
 20
784.6734485273664
 30
0.0
  0
POINT
  5
46E
330
406
100
AcDbEntity
  8
Defpoints
 62
     0
100
AcDbPoint
 10
1686.074298328249
 20
807.6734485273664
 30
0.0
  0
POINT
  5
46F
330
406
100
AcDbEntity
  8
Defpoints
 62
     0
100
AcDbPoint
 10
1676.172870303685
 20
807.6734485273664
 30
0.0
  0
ENDBLK
  5
408
330
406
100
AcDbEntity
  8
0
100
AcDbBlockEnd
  0
BLOCK
  5
413
330
412
100
AcDbEntity
  8
0
100
AcDbBlockBegin
  2
*D21
 70
     1
 10
0.0
 20
0.0
 30
0.0
  3
*D21
  1

  0
LINE
  5
470
330
412
100
AcDbEntity
  8
S10_Quote
 62
     0
370
    -2
100
AcDbLine
 10
1712.374298328167
 20
830.0984485274838
 30
0.0
 11
1712.374298328167
 21
835.7234485274657
 31
0.0
  0
LINE
  5
471
330
412
100
AcDbEntity
  8
S10_Quote
 62
     0
370
    -2
100
AcDbLine
 10
1699.374298328167
 20
830.0984485274476
 30
0.0
 11
1699.374298328167
 21
835.7234485274657
 31
0.0
  0
LINE
  5
472
330
412
100
AcDbEntity
  8
S10_Quote
 62
     0
370
    -2
100
AcDbLine
 10
1712.359298328167
 20
834.4734485274656
 30
0.0
 11
1699.389298328167
 21
834.4734485274656
 31
0.0
  0
MTEXT
  5
473
330
412
100
AcDbEntity
  8
S10_Quote
 62
     0
100
AcDbMText
 10
1704.630242384097
 20
837.3042177582348
 30
0.0
 40
2.0
 41
0.0
 71
     1
 72
     1
  1
13
  7
wurth
 73
     1
 44
1.0
  0
INSERT
  5
474
330
412
100
AcDbEntity
  8
S10_Quote
 62
     0
370
    -2
100
AcDbBlockReference
  2
A$C79C4041D
 10
1712.374298328167
 20
834.4734485274656
 30
0.0
 41
0.015
 42
0.015
 43
0.015
  0
INSERT
  5
475
330
412
100
AcDbEntity
  8
S10_Quote
 62
     0
370
    -2
100
AcDbBlockReference
  2
A$C79C4041D
 10
1699.374298328167
 20
834.4734485274656
 30
0.0
 41
0.015
 42
0.015
 43
0.015
 50
180.0
  0
POINT
  5
476
330
412
100
AcDbEntity
  8
Defpoints
 62
     0
100
AcDbPoint
 10
1712.374298328167
 20
829.4734485274839
 30
0.0
  0
POINT
  5
477
330
412
100
AcDbEntity
  8
Defpoints
 62
     0
100
AcDbPoint
 10
1699.374298328167
 20
829.4734485274474
 30
0.0
  0
POINT
  5
478
330
412
100
AcDbEntity
  8
Defpoints
 62
     0
100
AcDbPoint
 10
1699.374298328167
 20
834.4734485274656
 30
0.0
  0
ENDBLK
  5
414
330
412
100
AcDbEntity
  8
0
100
AcDbBlockEnd
  0
BLOCK
  5
41F
330
41E
100
AcDbEntity
  8
0
100
AcDbBlockBegin
  2
*D22
 70
     1
 10
0.0
 20
0.0
 30
0.0
  3
*D22
  1

  0
LINE
  5
479
330
41E
100
AcDbEntity
  8
S10_Quote
 62
     0
370
    -2
100
AcDbLine
 10
1694.374298328171
 20
828.0984485274329
 30
0.0
 11
1694.374298328138
 21
840.402357367183
 31
0.0
  0
LINE
  5
47A
330
41E
100
AcDbEntity
  8
S10_Quote
 62
     0
370
    -2
100
AcDbLine
 10
1717.374298328171
 20
828.0984485274975
 30
0.0
 11
1717.374298328138
 21
840.4023573672457
 31
0.0
  0
LINE
  5
47B
330
41E
100
AcDbEntity
  8
S10_Quote
 62
     0
370
    -2
100
AcDbLine
 10
1694.389298328141
 20
839.1523573671829
 30
0.0
 11
1717.359298328141
 21
839.1523573672456
 31
0.0
  0
MTEXT
  5
47C
330
41E
100
AcDbEntity
  8
S10_Quote
 62
     0
100
AcDbMText
 10
1704.481990635824
 20
841.9831265979802
 30
0.0
 40
2.0
 41
0.0
 71
     1
 72
     1
  1
23
  7
wurth
 11
1.0
 21
0.0000000000027285
 31
0.0
 73
     1
 44
1.0
  0
INSERT
  5
47D
330
41E
100
AcDbEntity
  8
S10_Quote
 62
     0
370
    -2
100
AcDbBlockReference
  2
A$C79C4041D
 10
1694.374298328141
 20
839.1523573671829
 30
0.0
 41
0.015
 42
0.015
 43
0.015
 50
180.0000000001563
  0
INSERT
  5
47E
330
41E
100
AcDbEntity
  8
S10_Quote
 62
     0
370
    -2
100
AcDbBlockReference
  2
A$C79C4041D
 10
1717.374298328141
 20
839.1523573672456
 30
0.0
 41
0.015
 42
0.015
 43
0.015
 50
0.0000000001563306
  0
POINT
  5
47F
330
41E
100
AcDbEntity
  8
Defpoints
 62
     0
100
AcDbPoint
 10
1694.374298328173
 20
827.4734485274329
 30
0.0
  0
POINT
  5
480
330
41E
100
AcDbEntity
  8
Defpoints
 62
     0
100
AcDbPoint
 10
1717.374298328173
 20
827.4734485274976
 30
0.0
  0
POINT
  5
481
330
41E
100
AcDbEntity
  8
Defpoints
 62
     0
100
AcDbPoint
 10
1717.374298328141
 20
839.1523573672456
 30
0.0
  0
ENDBLK
  5
420
330
41E
100
AcDbEntity
  8
0
100
AcDbBlockEnd
  0
BLOCK
  5
42B
330
42A
100
AcDbEntity
  8
0
100
AcDbBlockBegin
  2
*D23
 70
     1
 10
0.0
 20
0.0
 30
0.0
  3
*D23
  1

  0
LINE
  5
482
330
42A
100
AcDbEntity
  8
S10_Quote
 62
     0
370
    -2
100
AcDbLine
 10
1690.374298328167
 20
830.098448527422
 30
0.0
 11
1690.374298328167
 21
844.7234485274657
 31
0.0
  0
LINE
  5
483
330
42A
100
AcDbEntity
  8
S10_Quote
 62
     0
370
    -2
100
AcDbLine
 10
1721.374298328167
 20
830.0984485275094
 30
0.0
 11
1721.374298328167
 21
844.7234485274657
 31
0.0
  0
LINE
  5
484
330
42A
100
AcDbEntity
  8
S10_Quote
 62
     0
370
    -2
100
AcDbLine
 10
1690.389298328167
 20
843.4734485274656
 30
0.0
 11
1721.359298328167
 21
843.4734485274656
 31
0.0
  0
MTEXT
  5
485
330
42A
100
AcDbEntity
  8
S10_Quote
 62
     0
100
AcDbMText
 10
1704.689682943512
 20
846.3042177582348
 30
0.0
 40
2.0
 41
0.0
 71
     1
 72
     1
  1
31
  7
wurth
 73
     1
 44
1.0
  0
INSERT
  5
486
330
42A
100
AcDbEntity
  8
S10_Quote
 62
     0
370
    -2
100
AcDbBlockReference
  2
A$C79C4041D
 10
1690.374298328167
 20
843.4734485274656
 30
0.0
 41
0.015
 42
0.015
 43
0.015
 50
180.0
  0
INSERT
  5
487
330
42A
100
AcDbEntity
  8
S10_Quote
 62
     0
370
    -2
100
AcDbBlockReference
  2
A$C79C4041D
 10
1721.374298328167
 20
843.4734485274656
 30
0.0
 41
0.015
 42
0.015
 43
0.015
  0
POINT
  5
488
330
42A
100
AcDbEntity
  8
Defpoints
 62
     0
100
AcDbPoint
 10
1690.374298328167
 20
829.473448527422
 30
0.0
  0
POINT
  5
489
330
42A
100
AcDbEntity
  8
Defpoints
 62
     0
100
AcDbPoint
 10
1721.374298328167
 20
829.4734485275094
 30
0.0
  0
POINT
  5
48A
330
42A
100
AcDbEntity
  8
Defpoints
 62
     0
100
AcDbPoint
 10
1721.374298328167
 20
843.4734485274656
 30
0.0
  0
ENDBLK
  5
42C
330
42A
100
AcDbEntity
  8
0
100
AcDbBlockEnd
  0
BLOCK
  5
48C
330
48B
100
AcDbEntity
  8
0
100
AcDbBlockBegin
  2
*D24
 70
     1
 10
0.0
 20
0.0
 30
0.0
  3
*D24
  1

  0
LINE
  5
4A6
330
48B
100
AcDbEntity
  8
S10_Quote
 62
     0
370
    -2
100
AcDbLine
 10
1719.374298328237
 20
805.3241844587383
 30
0.0
 11
1719.374298328237
 21
807.0411334097743
 31
0.0
  0
LINE
  5
4A7
330
48B
100
AcDbEntity
  8
S10_Quote
 62
     0
370
    -2
100
AcDbLine
 10
1718.074298328187
 20
805.3241844587345
 30
0.0
 11
1718.074298328187
 21
807.0411334097743
 31
0.0
  0
LINE
  5
4A8
330
48B
100
AcDbEntity
  8
S10_Quote
 62
     0
370
    -2
100
AcDbLine
 10
1719.389298328237
 20
805.7911334097743
 30
0.0
 11
1719.404298328237
 21
805.7911334097743
 31
0.0
  0
LINE
  5
4A9
330
48B
100
AcDbEntity
  8
S10_Quote
 62
     0
370
    -2
100
AcDbLine
 10
1718.059298328187
 20
805.7911334097743
 30
0.0
 11
1712.922686606576
 21
805.7911334097743
 31
0.0
  0
LINE
  5
4AA
330
48B
100
AcDbEntity
  8
S10_Quote
 62
     0
370
    -2
100
AcDbLine
 10
1719.374298328237
 20
805.7911334097743
 30
0.0
 11
1718.074298328187
 21
805.7911334097743
 31
0.0
  0
INSERT
  5
4AB
330
48B
100
AcDbEntity
  8
S10_Quote
 62
     0
370
    -2
100
AcDbBlockReference
  2
A$C79C4041D
 10
1719.374298328237
 20
805.7911334097743
 30
0.0
 41
0.015
 42
0.015
 43
0.015
 50
180.0
  0
INSERT
  5
4AC
330
48B
100
AcDbEntity
  8
S10_Quote
 62
     0
370
    -2
100
AcDbBlockReference
  2
A$C79C4041D
 10
1718.074298328187
 20
805.7911334097743
 30
0.0
 41
0.015
 42
0.015
 43
0.015
  0
MTEXT
  5
4AD
330
48B
100
AcDbEntity
  8
S10_Quote
 62
     0
100
AcDbMText
 10
1715.291917375807
 20
807.6065180251589
 30
0.0
 40
2.0
 41
0.0
 71
     5
 72
     1
  1
1.3
  7
wurth
 73
     1
 44
1.0
  0
POINT
  5
4AE
330
48B
100
AcDbEntity
  8
Defpoints
 62
     0
100
AcDbPoint
 10
1719.374298328237
 20
804.6991844587383
 30
0.0
  0
POINT
  5
4AF
330
48B
100
AcDbEntity
  8
Defpoints
 62
     0
100
AcDbPoint
 10
1718.074298328187
 20
804.6991844587346
 30
0.0
  0
POINT
  5
4B0
330
48B
100
AcDbEntity
  8
Defpoints
 62
     0
100
AcDbPoint
 10
1718.074298328187
 20
805.7911334097743
 30
0.0
  0
ENDBLK
  5
48D
330
48B
100
AcDbEntity
  8
0
100
AcDbBlockEnd
  0
BLOCK
  5
49A
330
499
100
AcDbEntity
  8
0
100
AcDbBlockBegin
  2
*D25
 70
     1
 10
0.0
 20
0.0
 30
0.0
  3
*D25
  1

  0
LINE
  5
4B1
330
499
100
AcDbEntity
  8
S10_Quote
 62
     0
370
    -2
100
AcDbLine
 10
1694.374298328181
 20
823.7984485274328
 30
0.0
 11
1694.374298328181
 21
821.6124074726248
 31
0.0
  0
LINE
  5
4B2
330
499
100
AcDbEntity
  8
S10_Quote
 62
     0
370
    -2
100
AcDbLine
 10
1692.374298328181
 20
823.7984485274273
 30
0.0
 11
1692.374298328181
 21
821.6124074726248
 31
0.0
  0
LINE
  5
4B3
330
499
100
AcDbEntity
  8
S10_Quote
 62
     0
370
    -2
100
AcDbLine
 10
1694.359298328181
 20
822.862407472625
 30
0.0
 11
1692.389298328182
 21
822.862407472625
 31
0.0
  0
LINE
  5
4B4
330
499
100
AcDbEntity
  8
S10_Quote
 62
     0
370
    -2
100
AcDbLine
 10
1692.374298328181
 20
822.862407472625
 30
0.0
 11
1686.895591253182
 21
822.862407472625
 31
0.0
  0
INSERT
  5
4B5
330
499
100
AcDbEntity
  8
S10_Quote
 62
     0
370
    -2
100
AcDbBlockReference
  2
A$C79C4041D
 10
1694.374298328181
 20
822.862407472625
 30
0.0
 41
0.015
 42
0.015
 43
0.015
  0
INSERT
  5
4B6
330
499
100
AcDbEntity
  8
S10_Quote
 62
     0
370
    -2
100
AcDbBlockReference
  2
A$C79C4041D
 10
1692.374298328181
 20
822.862407472625
 30
0.0
 41
0.015
 42
0.015
 43
0.015
 50
180.0
  0
MTEXT
  5
4B7
330
499
100
AcDbEntity
  8
S10_Quote
 62
     0
100
AcDbMText
 10
1688.313073770665
 20
824.6624074726248
 30
0.0
 40
2.0
 41
0.0
 71
     5
 72
     1
  1
2
  7
wurth
 73
     1
 44
1.0
  0
POINT
  5
4B8
330
499
100
AcDbEntity
  8
Defpoints
 62
     0
100
AcDbPoint
 10
1694.374298328181
 20
824.4234485274327
 30
0.0
  0
POINT
  5
4B9
330
499
100
AcDbEntity
  8
Defpoints
 62
     0
100
AcDbPoint
 10
1692.374298328181
 20
824.4234485274272
 30
0.0
  0
POINT
  5
4BA
330
499
100
AcDbEntity
  8
Defpoints
 62
     0
100
AcDbPoint
 10
1692.374298328181
 20
822.862407472625
 30
0.0
  0
ENDBLK
  5
49B
330
499
100
AcDbEntity
  8
0
100
AcDbBlockEnd
  0
ENDSEC
  0
SECTION
  2
ENTITIES
  0
ARC
  5
361
330
1F
100
AcDbEntity
  8
S05_Acciaio
100
AcDbCircle
 10
1684.233635326324
 20
788.9734485273666
 30
0.0
 40
0.2000000000000008
100
AcDbArc
 50
90.0
 51
132.500000000016
  0
ARC
  5
362
330
1F
100
AcDbEntity
  8
S05_Acciaio
100
AcDbCircle
 10
1685.120708489762
 20
809.4734485273656
 30
0.0
 40
0.200000000000001
100
AcDbArc
 50
89.99999999970036
 51
149.9999999998799
  0
ARC
  5
363
330
1F
100
AcDbEntity
  8
S05_Acciaio
100
AcDbCircle
 10
1685.08329305665
 20
803.373448527367
 30
0.0
 40
0.1999999999999832
100
AcDbArc
 50
219.4222685574352
 51
270.0
  0
LINE
  5
364
330
1F
100
AcDbEntity
  8
S05_Acciaio
100
AcDbLine
 10
1684.233635326324
 20
789.1734485273664
 30
0.0
 11
1685.674298328249
 21
789.1734485273664
 31
0.0
  0
HATCH
  5
365
330
1F
100
AcDbEntity
  8
S07_Prospetto
100
AcDbHatch
 10
0.0
 20
0.0
 30
0.0
210
0.0
220
0.0
230
1.0
  2
ANSI31
 70
     0
 71
     0
 91
        2
 92
        7
 72
     1
 73
     1
 93
       75
 10
1685.08329305665
 20
803.1734485273664
 42
-0.2243408710812422
 10
1684.928795692449
 20
803.246442368245
 42
0.0352603545294336
 10
1684.909416369771
 20
803.2668916764842
 42
0.0
 10
1684.039180286725
 20
804.0643161281341
 42
-0.4400105308917488
 10
1684.039180286725
 20
804.3592270628577
 42
0.0
 10
1684.909416369772
 20
805.1566515145077
 42
0.4400105308918196
 10
1684.909416369772
 20
805.4515624492323
 42
0.0
 10
1684.039180286725
 20
806.2489869008823
 42
-0.4400105308918194
 10
1684.039180286725
 20
806.5438978356059
 42
0.0
 10
1684.909416369772
 20
807.3413222872568
 42
0.4400105308918196
 10
1684.909416369772
 20
807.6362332219796
 42
0.0
 10
1684.039180286725
 20
808.4336576736314
 42
-0.4400105308918194
 10
1684.039180286725
 20
808.7285686083541
 42
0.0
 10
1684.909416369772
 20
809.5259930600059
 42
0.0765069055035179
 10
1684.947503409006
 20
809.5734485273661
 42
-0.2679491924315277
 10
1685.120708489763
 20
809.6734485273664
 42
0.0
 10
1692.174298328221
 20
809.67344852733
 42
0.4142135623754076
 10
1692.374298328222
 20
809.8734485273308
 42
0.0
 10
1692.374298328177
 20
826.5249203899966
 42
0.6681786379192497
 10
1691.862166293817
 20
826.7370524243524
 42
0.0
 10
1690.886430362537
 20
825.7613164930681
 42
-0.6681786379192358
 10
1690.374298328177
 20
825.9734485274238
 42
0.0
 10
1690.374298328167
 20
829.473448527422
 42
-0.414213562373102
 10
1690.574298328166
 20
829.6734485274228
 42
0.0
 10
1699.174298328167
 20
829.6734485274464
 42
-0.4142135623730833
 10
1699.374298328167
 20
829.4734485274474
 42
0.0
 10
1699.374298328171
 20
827.8734485274471
 42
-0.4142135623731166
 10
1699.174298328172
 20
827.6734485274465
 42
0.0
 10
1694.574298328172
 20
827.6734485274337
 42
0.4142135623730798
 10
1694.374298328173
 20
827.4734485274329
 42
0.0
 10
1694.37429832819
 20
821.3734485274326
 42
0.4142135623730897
 10
1694.574298328191
 20
821.1734485274337
 42
0.0
 10
1717.174298328191
 20
821.1734485274973
 42
0.4142135623731029
 10
1717.37429832819
 20
821.3734485274981
 42
0.0
 10
1717.374298328173
 20
827.4734485274976
 42
0.4142135623730753
 10
1717.174298328172
 20
827.6734485274973
 42
0.0
 10
1712.574298328172
 20
827.6734485274847
 42
-0.4142135623730744
 10
1712.374298328172
 20
827.8734485274835
 42
0.0
 10
1712.374298328167
 20
829.4734485274839
 42
-0.4142135623730848
 10
1712.574298328166
 20
829.6734485274846
 42
0.0
 10
1721.174298328167
 20
829.6734485275083
 42
-0.414213562373099
 10
1721.374298328167
 20
829.4734485275094
 42
0.0
 10
1721.374298328177
 20
825.9734485275112
 42
-0.668178637919314
 10
1720.862166293818
 20
825.7613164931518
 42
0.0
 10
1719.886430362534
 20
826.7370524244306
 42
0.6681786379193225
 10
1719.374298328176
 20
826.5249203900712
 42
0.0
 10
1719.374298328298
 20
782.8734485274053
 42
-0.4142135623735841
 10
1719.174298328299
 20
782.6734485274045
 42
0.0
 10
1685.174298328249
 20
782.6734485273673
 42
-0.4142135623734229
 10
1684.974298328249
 20
782.8734485273671
 42
0.0
 10
1684.974298328249
 20
783.4573992543864
 42
0.2102773852971778
 10
1684.909416369772
 20
783.6048547217488
 42
0.0
 10
1684.039180286725
 20
784.4022791733987
 42
-0.4400105308918115
 10
1684.039180286725
 20
784.6971901081233
 42
0.0
 10
1684.909416369772
 20
785.4946145597732
 42
0.4400105308918118
 10
1684.909416369772
 20
785.7895254944978
 42
0.0
 10
1684.039180286725
 20
786.5869499461478
 42
-0.4400105308919057
 10
1684.039180286725
 20
786.8818608808715
 42
0.0
 10
1684.909416369772
 20
787.6792853325223
 42
0.4400105308918275
 10
1684.909416369772
 20
787.9741962672451
 42
0.0
 10
1684.039180286725
 20
788.7716207188959
 42
-0.4400105308911995
 10
1684.039180286725
 20
789.0665316536196
 42
0.0
 10
1684.155859579953
 20
789.1734485273664
 42
0.0
 10
1685.674298328249
 20
789.1734485273664
 42
-0.4142135623730951
 10
1685.874298328249
 20
788.9734485273666
 42
0.0
 10
1685.874298328249
 20
784.8734485273671
 42
0.4142135623730951
 10
1686.074298328249
 20
784.6734485273664
 42
0.0
 10
1692.174298328249
 20
784.6734485273664
 42
0.4142135623730951
 10
1692.374298328249
 20
784.8734485273671
 42
0.0
 10
1692.374298328249
 20
807.4734485273665
 42
0.4142135623730951
 10
1692.174298328249
 20
807.6734485273664
 42
0.0
 10
1686.074298328249
 20
807.6734485273664
 42
0.414213562373116
 10
1685.874298328249
 20
807.4734485273665
 42
0.0
 10
1685.874298328249
 20
803.373448527367
 42
-0.4142135623731024
 10
1685.674298328249
 20
803.1734485273664
 42
0.0
 97
        0
 92
       22
 72
     1
 73
     1
 93
        8
 10
1717.874298328145
 20
819.873448527449
 42
-0.4142135623730978
 10
1718.074298328146
 20
819.67344852745
 42
0.0
 10
1718.074298328246
 20
784.1734485274501
 42
-0.414213562373095
 10
1717.874298328246
 20
783.9734485274493
 42
0.0
 10
1693.874298328156
 20
783.9734485273821
 42
-0.4142135623730937
 10
1693.674298328155
 20
784.1734485273819
 42
0.0
 10
1693.674298328055
 20
819.6734485273818
 42
-0.4142135623730958
 10
1693.874298328054
 20
819.8734485273817
 42
0.0
 97
        0
 75
     0
 76
     1
 52
0.0
 41
0.25
 77
     0
 78
     1
 53
45.0
 43
1098.711336963219
 44
-2445.986864876384
 45
-0.5612660075668221
 46
0.5612660075668221
 79
     0
 47
0.1776277787290558
 98
        2
 10
1696.348199518701
 20
828.7042409585701
 10
1696.348199518701
 20
828.7042409585701
1001
ACAD
1010
0.0
1020
0.0
1030
0.0
  0
LINE
  5
366
102
{ACAD_REACTORS
330
3C1
102
}
330
1F
100
AcDbEntity
  8
S05_Acciaio
100
AcDbLine
 10
1718.074298328146
 20
819.67344852745
 30
0.0
 11
1718.074298328245
 21
784.1734485274501
 31
0.0
  0
ARC
  5
367
330
1F
100
AcDbEntity
  8
S05_Acciaio
100
AcDbCircle
 10
1717.874298328245
 20
784.1734485274501
 30
0.0
 40
0.2000000000000046
100
AcDbArc
 50
270.0000000001563
 51
0.0
  0
LINE
  5
368
330
1F
100
AcDbEntity
  8
S05_Acciaio
100
AcDbLine
 10
1717.874298328245
 20
783.9734485274493
 30
0.0
 11
1693.874298328156
 21
783.9734485273821
 31
0.0
  0
ARC
  5
369
330
1F
100
AcDbEntity
  8
S05_Acciaio
100
AcDbCircle
 10
1693.874298328155
 20
784.1734485273827
 30
0.0
 40
0.1999999999999868
100
AcDbArc
 50
180.0
 51
270.0000000001563
  0
LINE
  5
36A
330
1F
100
AcDbEntity
  8
S05_Acciaio
100
AcDbLine
 10
1693.674298328155
 20
784.1734485273819
 30
0.0
 11
1693.674298328055
 21
819.6734485273818
 31
0.0
  0
ARC
  5
36B
330
1F
100
AcDbEntity
  8
S05_Acciaio
100
AcDbCircle
 10
1693.874298328055
 20
819.6734485273827
 30
0.0
 40
0.2000000000000113
100
AcDbArc
 50
90.00000000015633
 51
180.0
  0
LINE
  5
36C
330
1F
100
AcDbEntity
  8
S05_Acciaio
100
AcDbLine
 10
1693.874298328054
 20
819.8734485273817
 30
0.0
 11
1717.874298328145
 21
819.8734485274499
 31
0.0
  0
ARC
  5
36D
330
1F
100
AcDbEntity
  8
S05_Acciaio
100
AcDbCircle
 10
1717.874298328145
 20
819.67344852745
 30
0.0
 40
0.199999999999998
100
AcDbArc
 50
0.0
 51
90.00000000015633
  0
LINE
  5
36E
330
1F
100
AcDbEntity
  8
S05_Acciaio
100
AcDbLine
 10
1684.974298328249
 20
782.8734485273671
 30
0.0
 11
1684.974298328249
 21
783.4573992543864
 31
0.0
  0
ARC
  5
36F
330
1F
100
AcDbEntity
  8
S05_Acciaio
100
AcDbCircle
 10
1685.174298328249
 20
782.8734485273671
 30
0.0
 40
0.199999999999998
100
AcDbArc
 50
180.0
 51
270.0000000000652
  0
LINE
  5
370
330
1F
100
AcDbEntity
  8
S05_Acciaio
100
AcDbLine
 10
1719.174298328298
 20
782.6734485274045
 30
0.0
 11
1685.174298328249
 21
782.6734485273663
 31
0.0
  0
ARC
  5
371
330
1F
100
AcDbEntity
  8
S05_Acciaio
100
AcDbCircle
 10
1719.174298328298
 20
782.8734485274044
 30
0.0
 40
0.2000000000000002
100
AcDbArc
 50
270.0000000000652
 51
0.0
  0
LINE
  5
372
102
{ACAD_REACTORS
330
3C1
102
}
330
1F
100
AcDbEntity
  8
S05_Acciaio
100
AcDbLine
 10
1719.374298328176
 20
826.5249203900712
 30
0.0
 11
1719.374298328298
 21
782.8734485274053
 31
0.0
  0
ARC
  5
373
330
1F
100
AcDbEntity
  8
S05_Acciaio
100
AcDbCircle
 10
1719.674298328177
 20
826.5249203900729
 30
0.0
 40
0.300000000002055
100
AcDbArc
 50
45.0000000001566
 51
180.0
  0
LINE
  5
374
330
1F
100
AcDbEntity
  8
S05_Acciaio
100
AcDbLine
 10
1720.862166293818
 20
825.7613164931518
 30
0.0
 11
1719.886430362534
 21
826.7370524244306
 31
0.0
  0
ARC
  5
375
330
1F
100
AcDbEntity
  8
S05_Acciaio
100
AcDbCircle
 10
1721.074298328175
 20
825.9734485275103
 30
0.0
 40
0.300000000002052
100
AcDbArc
 50
225.0000000001566
 51
0.0
  0
LINE
  5
376
330
1F
100
AcDbEntity
  8
S05_Acciaio
100
AcDbLine
 10
1721.374298328167
 20
829.4734485275094
 30
0.0
 11
1721.374298328177
 21
825.9734485275112
 31
0.0
  0
ARC
  5
377
330
1F
100
AcDbEntity
  8
S05_Acciaio
100
AcDbCircle
 10
1721.174298328167
 20
829.4734485275084
 30
0.0
 40
0.1999999999999957
100
AcDbArc
 50
0.0
 51
90.00000000015633
  0
LINE
  5
378
330
1F
100
AcDbEntity
  8
S05_Acciaio
100
AcDbLine
 10
1712.574298328167
 20
829.6734485274846
 30
0.0
 11
1721.174298328167
 21
829.6734485275083
 31
0.0
  0
ARC
  5
379
330
1F
100
AcDbEntity
  8
S05_Acciaio
100
AcDbCircle
 10
1712.574298328167
 20
829.4734485274839
 30
0.0
 40
0.2000000000000013
100
AcDbArc
 50
90.00000000015633
 51
180.0
  0
LINE
  5
37A
330
1F
100
AcDbEntity
  8
S05_Acciaio
100
AcDbLine
 10
1712.374298328172
 20
827.8734485274835
 30
0.0
 11
1712.374298328167
 21
829.4734485274839
 31
0.0
  0
ARC
  5
37B
330
1F
100
AcDbEntity
  8
S05_Acciaio
100
AcDbCircle
 10
1712.574298328172
 20
827.8734485274835
 30
0.0
 40
0.1999999999999913
100
AcDbArc
 50
180.0
 51
270.0000000001563
  0
LINE
  5
37C
330
1F
100
AcDbEntity
  8
S05_Acciaio
100
AcDbLine
 10
1717.174298328172
 20
827.6734485274973
 30
0.0
 11
1712.574298328172
 21
827.6734485274847
 31
0.0
  0
ARC
  5
37D
330
1F
100
AcDbEntity
  8
S05_Acciaio
100
AcDbCircle
 10
1717.174298328172
 20
827.4734485274967
 30
0.0
 40
0.2000000000000091
100
AcDbArc
 50
0.0
 51
90.00000000015633
  0
LINE
  5
37E
330
1F
100
AcDbEntity
  8
S05_Acciaio
100
AcDbLine
 10
1717.37429832819
 20
821.3734485274981
 30
0.0
 11
1717.374298328173
 21
827.4734485274976
 31
0.0
  0
ARC
  5
37F
330
1F
100
AcDbEntity
  8
S05_Acciaio
100
AcDbCircle
 10
1717.17429832819
 20
821.3734485274972
 30
0.0
 40
0.199999999999998
100
AcDbArc
 50
270.0000000001563
 51
0.0
  0
LINE
  5
380
330
1F
100
AcDbEntity
  8
S05_Acciaio
100
AcDbLine
 10
1694.574298328191
 20
821.1734485274337
 30
0.0
 11
1717.17429832819
 21
821.1734485274973
 31
0.0
  0
ARC
  5
381
330
1F
100
AcDbEntity
  8
S05_Acciaio
100
AcDbCircle
 10
1694.57429832819
 20
821.3734485274335
 30
0.0
 40
0.199999999999998
100
AcDbArc
 50
180.0
 51
270.0000000001563
  0
LINE
  5
382
102
{ACAD_REACTORS
330
3C4
102
}
330
1F
100
AcDbEntity
  8
S05_Acciaio
100
AcDbLine
 10
1694.374298328173
 20
827.4734485274329
 30
0.0
 11
1694.37429832819
 21
821.3734485274326
 31
0.0
  0
ARC
  5
383
330
1F
100
AcDbEntity
  8
S05_Acciaio
100
AcDbCircle
 10
1694.574298328173
 20
827.4734485274329
 30
0.0
 40
0.2000000000000091
100
AcDbArc
 50
90.00000000015633
 51
180.0
  0
LINE
  5
384
330
1F
100
AcDbEntity
  8
S05_Acciaio
100
AcDbLine
 10
1699.174298328172
 20
827.6734485274465
 30
0.0
 11
1694.574298328172
 21
827.6734485274337
 31
0.0
  0
ARC
  5
385
330
1F
100
AcDbEntity
  8
S05_Acciaio
100
AcDbCircle
 10
1699.174298328172
 20
827.8734485274471
 30
0.0
 40
0.2000000000000013
100
AcDbArc
 50
270.0000000001563
 51
0.0
  0
LINE
  5
386
330
1F
100
AcDbEntity
  8
S05_Acciaio
100
AcDbLine
 10
1699.374298328167
 20
829.4734485274474
 30
0.0
 11
1699.374298328171
 21
827.8734485274471
 31
0.0
  0
ARC
  5
387
330
1F
100
AcDbEntity
  8
S05_Acciaio
100
AcDbCircle
 10
1699.174298328167
 20
829.4734485274465
 30
0.0
 40
0.1999999999999957
100
AcDbArc
 50
0.0
 51
90.00000000015633
  0
LINE
  5
388
330
1F
100
AcDbEntity
  8
S05_Acciaio
100
AcDbLine
 10
1690.574298328167
 20
829.6734485274228
 30
0.0
 11
1699.174298328166
 21
829.6734485274464
 31
0.0
  0
ARC
  5
389
330
1F
100
AcDbEntity
  8
S05_Acciaio
100
AcDbCircle
 10
1690.574298328168
 20
829.473448527422
 30
0.0
 40
0.199999999999998
100
AcDbArc
 50
90.00000000015633
 51
180.0
  0
LINE
  5
38A
330
1F
100
AcDbEntity
  8
S05_Acciaio
100
AcDbLine
 10
1690.374298328177
 20
825.9734485274238
 30
0.0
 11
1690.374298328167
 21
829.473448527422
 31
0.0
  0
ARC
  5
38B
330
1F
100
AcDbEntity
  8
S05_Acciaio
100
AcDbCircle
 10
1690.674298328179
 20
825.9734485274247
 30
0.0
 40
0.300000000002055
100
AcDbArc
 50
180.0
 51
315.0000000001566
  0
LINE
  5
38C
330
1F
100
AcDbEntity
  8
S05_Acciaio
100
AcDbLine
 10
1691.862166293817
 20
826.7370524243524
 30
0.0
 11
1690.886430362537
 21
825.7613164930681
 31
0.0
  0
ARC
  5
38D
330
1F
100
AcDbEntity
  8
S05_Acciaio
100
AcDbCircle
 10
1692.074298328175
 20
826.5249203899966
 30
0.0
 40
0.3000000000020541
100
AcDbArc
 50
0.0
 51
135.0000000001565
  0
LINE
  5
38E
102
{ACAD_REACTORS
330
3C4
102
}
330
1F
100
AcDbEntity
  8
S05_Acciaio
100
AcDbLine
 10
1692.374298328222
 20
809.8734485273308
 30
0.0
 11
1692.374298328175
 21
826.5249203899957
 31
0.0
  0
ARC
  5
38F
330
1F
100
AcDbEntity
  8
S05_Acciaio
100
AcDbCircle
 10
1692.174298328222
 20
809.8734485273299
 30
0.0
 40
0.2000000000000002
100
AcDbArc
 50
269.9999999997004
 51
0.0
  0
LINE
  5
390
330
1F
100
AcDbEntity
  8
S05_Acciaio
100
AcDbLine
 10
1685.120708489763
 20
809.6734485273664
 30
0.0
 11
1692.174298328221
 21
809.67344852733
 31
0.0
  0
LINE
  5
391
330
1F
100
AcDbEntity
  8
S05_Acciaio
100
AcDbLine
 10
1685.08329305665
 20
803.1734485273664
 30
0.0
 11
1685.674298328249
 21
803.1734485273664
 31
0.0
  0
ARC
  5
392
330
1F
100
AcDbEntity
  8
S05_Acciaio
100
AcDbCircle
 10
1685.674298328249
 20
803.373448527367
 30
0.0
 40
0.1999999999999891
100
AcDbArc
 50
269.999999999987
 51
0.0
  0
LINE
  5
393
330
1F
100
AcDbEntity
  8
S05_Acciaio
100
AcDbLine
 10
1685.874298328249
 20
807.4734485273665
 30
0.0
 11
1685.874298328249
 21
803.373448527367
 31
0.0
  0
ARC
  5
394
330
1F
100
AcDbEntity
  8
S05_Acciaio
100
AcDbCircle
 10
1686.074298328249
 20
807.4734485273665
 30
0.0
 40
0.2000000000000002
100
AcDbArc
 50
90.0
 51
180.0
  0
LINE
  5
395
330
1F
100
AcDbEntity
  8
S05_Acciaio
100
AcDbLine
 10
1692.174298328249
 20
807.6734485273664
 30
0.0
 11
1686.074298328249
 21
807.6734485273664
 31
0.0
  0
ARC
  5
396
330
1F
100
AcDbEntity
  8
S05_Acciaio
100
AcDbCircle
 10
1692.174298328249
 20
807.4734485273665
 30
0.0
 40
0.199999999999998
100
AcDbArc
 50
0.0
 51
90.0
  0
LINE
  5
397
330
1F
100
AcDbEntity
  8
S05_Acciaio
100
AcDbLine
 10
1692.374298328249
 20
784.8734485273671
 30
0.0
 11
1692.374298328249
 21
807.4734485273665
 31
0.0
  0
ARC
  5
398
330
1F
100
AcDbEntity
  8
S05_Acciaio
100
AcDbCircle
 10
1692.174298328249
 20
784.8734485273671
 30
0.0
 40
0.199999999999998
100
AcDbArc
 50
270.0
 51
0.0
  0
LINE
  5
399
330
1F
100
AcDbEntity
  8
S05_Acciaio
100
AcDbLine
 10
1686.074298328249
 20
784.6734485273664
 30
0.0
 11
1692.174298328249
 21
784.6734485273664
 31
0.0
  0
ARC
  5
39A
330
1F
100
AcDbEntity
  8
S05_Acciaio
100
AcDbCircle
 10
1686.074298328249
 20
784.8734485273671
 30
0.0
 40
0.199999999999998
100
AcDbArc
 50
180.0
 51
270.0
  0
LINE
  5
39B
330
1F
100
AcDbEntity
  8
S05_Acciaio
100
AcDbLine
 10
1685.874298328249
 20
788.9734485273666
 30
0.0
 11
1685.874298328249
 21
784.8734485273671
 31
0.0
  0
ARC
  5
39C
330
1F
100
AcDbEntity
  8
S05_Acciaio
100
AcDbCircle
 10
1685.674298328249
 20
788.9734485273666
 30
0.0
 40
0.1999999999999957
100
AcDbArc
 50
0.0
 51
90.0
  0
LINE
  5
39D
330
1F
100
AcDbEntity
  8
S05_Acciaio
100
AcDbLine
 10
1684.039180286725
 20
789.0665316536196
 30
0.0
 11
1684.098517284801
 21
789.1209039947288
 31
0.0
  0
ARC
  5
39E
330
1F
100
AcDbEntity
  8
S05_Acciaio
100
AcDbCircle
 10
1684.174298328249
 20
788.9190761862574
 30
0.0
 40
0.1999999999999991
100
AcDbArc
 50
132.500000000016
 51
227.499999999984
  0
LINE
  5
39F
330
1F
100
AcDbEntity
  8
S05_Acciaio
100
AcDbLine
 10
1684.909416369772
 20
787.9741962672451
 30
0.0
 11
1684.039180286725
 21
788.7716207188959
 31
0.0
  0
ARC
  5
3A0
330
1F
100
AcDbEntity
  8
S05_Acciaio
100
AcDbCircle
 10
1684.774298328249
 20
787.8267407998837
 30
0.0
 40
0.1999999999999961
100
AcDbArc
 50
312.500000000016
 51
47.49999999998401
  0
LINE
  5
3A1
330
1F
100
AcDbEntity
  8
S05_Acciaio
100
AcDbLine
 10
1684.039180286725
 20
786.8818608808715
 30
0.0
 11
1684.909416369772
 21
787.6792853325214
 31
0.0
  0
ARC
  5
3A2
330
1F
100
AcDbEntity
  8
S05_Acciaio
100
AcDbCircle
 10
1684.174298328249
 20
786.73440541351
 30
0.0
 40
0.1999999999999991
100
AcDbArc
 50
132.500000000016
 51
227.499999999984
  0
LINE
  5
3A3
330
1F
100
AcDbEntity
  8
S05_Acciaio
100
AcDbLine
 10
1684.909416369772
 20
785.7895254944978
 30
0.0
 11
1684.039180286725
 21
786.5869499461478
 31
0.0
  0
ARC
  5
3A4
330
1F
100
AcDbEntity
  8
S05_Acciaio
100
AcDbCircle
 10
1684.774298328249
 20
785.6420700271355
 30
0.0
 40
0.1999999999999978
100
AcDbArc
 50
312.500000000016
 51
47.49999999998401
  0
LINE
  5
3A5
330
1F
100
AcDbEntity
  8
S05_Acciaio
100
AcDbLine
 10
1684.039180286725
 20
784.6971901081233
 30
0.0
 11
1684.909416369772
 21
785.4946145597732
 31
0.0
  0
ARC
  5
3A6
330
1F
100
AcDbEntity
  8
S05_Acciaio
100
AcDbCircle
 10
1684.174298328249
 20
784.549734640761
 30
0.0
 40
0.1999999999999991
100
AcDbArc
 50
132.500000000016
 51
227.499999999984
  0
LINE
  5
3A7
330
1F
100
AcDbEntity
  8
S05_Acciaio
100
AcDbLine
 10
1684.909416369772
 20
783.6048547217488
 30
0.0
 11
1684.039180286725
 21
784.4022791733987
 31
0.0
  0
ARC
  5
3A8
330
1F
100
AcDbEntity
  8
S05_Acciaio
100
AcDbCircle
 10
1684.774298328249
 20
783.4573992543864
 30
0.0
 40
0.1999999999999957
100
AcDbArc
 50
0.0
 51
47.49999999998401
  0
LINE
  5
3A9
330
1F
100
AcDbEntity
  8
S05_Acciaio
100
AcDbLine
 10
1684.039180286725
 20
806.5438978356068
 30
0.0
 11
1684.909416369772
 21
807.3413222872568
 31
0.0
  0
ARC
  5
3AA
330
1F
100
AcDbEntity
  8
S05_Acciaio
100
AcDbCircle
 10
1684.174298328249
 20
806.3964423682445
 30
0.0
 40
0.1999999999999987
100
AcDbArc
 50
132.500000000016
 51
227.499999999984
  0
LINE
  5
3AB
330
1F
100
AcDbEntity
  8
S05_Acciaio
100
AcDbLine
 10
1684.909416369772
 20
805.4515624492323
 30
0.0
 11
1684.039180286725
 21
806.2489869008823
 31
0.0
  0
ARC
  5
3AC
330
1F
100
AcDbEntity
  8
S05_Acciaio
100
AcDbCircle
 10
1684.774298328249
 20
805.30410698187
 30
0.0
 40
0.1999999999999957
100
AcDbArc
 50
312.500000000016
 51
47.49999999998401
  0
LINE
  5
3AD
330
1F
100
AcDbEntity
  8
S05_Acciaio
100
AcDbLine
 10
1684.039180286725
 20
804.3592270628577
 30
0.0
 11
1684.909416369772
 21
805.1566515145077
 31
0.0
  0
ARC
  5
3AE
330
1F
100
AcDbEntity
  8
S05_Acciaio
100
AcDbCircle
 10
1684.174298328249
 20
804.2117715954955
 30
0.0
 40
0.1999999999999987
100
AcDbArc
 50
132.500000000016
 51
227.499999999984
  0
LINE
  5
3AF
330
1F
100
AcDbEntity
  8
S05_Acciaio
100
AcDbLine
 10
1684.909416369772
 20
803.2668916764832
 30
0.0
 11
1684.039180286725
 21
804.0643161281341
 31
0.0
  0
ARC
  5
3B0
330
1F
100
AcDbEntity
  8
S05_Acciaio
100
AcDbCircle
 10
1684.774298328249
 20
803.1194362091218
 30
0.0
 40
0.1999999999997679
100
AcDbArc
 50
39.4222685574352
 51
47.49999999998401
  0
ARC
  5
3B1
330
1F
100
AcDbEntity
  8
S05_Acciaio
100
AcDbCircle
 10
1684.774298328249
 20
809.6734485273664
 30
0.0
 40
0.1999999999999072
100
AcDbArc
 50
312.500000000016
 51
329.9999999998799
  0
LINE
  5
3B2
330
1F
100
AcDbEntity
  8
S05_Acciaio
100
AcDbLine
 10
1684.039180286725
 20
808.7285686083541
 30
0.0
 11
1684.909416369772
 21
809.5259930600041
 31
0.0
  0
ARC
  5
3B3
330
1F
100
AcDbEntity
  8
S05_Acciaio
100
AcDbCircle
 10
1684.174298328249
 20
808.5811131409927
 30
0.0
 40
0.1999999999999991
100
AcDbArc
 50
132.500000000016
 51
227.499999999984
  0
LINE
  5
3B4
330
1F
100
AcDbEntity
  8
S05_Acciaio
100
AcDbLine
 10
1684.909416369772
 20
807.6362332219805
 30
0.0
 11
1684.039180286725
 21
808.4336576736305
 31
0.0
  0
ARC
  5
3B5
330
1F
100
AcDbEntity
  8
S05_Acciaio
100
AcDbCircle
 10
1684.774298328249
 20
807.4887777546182
 30
0.0
 40
0.1999999999999961
100
AcDbArc
 50
312.500000000016
 51
47.49999999998401
  0
DIMENSION
  5
3B6
330
1F
100
AcDbEntity
  8
S10_Quote
100
AcDbDimension
  2
*D15
 10
1710.375133173985
 20
827.6734485274847
 30
0.0
 11
1710.375133173984
 21
824.4234485274773
 31
0.0
 70
   160
  1
<>
 42
6.500000000007275
  3
mm 1_1
100
AcDbAlignedDimension
 13
1710.375133173993
 23
821.1734485274773
 33
0.0
 14
1712.574298328172
 24
827.6734485274847
 34
0.0
 50
270.0000000001563
100
AcDbRotatedDimension
1001
ACAD
1000
DSTYLE
1002
{
1070
   279
1070
     1
1002
}
  0
DIMENSION
  5
3B7
330
1F
100
AcDbEntity
  8
S10_Quote
100
AcDbDimension
  2
*D16
 10
1723.062110058127
 20
782.6734485274045
 30
0.0
 11
1723.062110058127
 21
780.0367361192074
 31
0.0
 70
   160
  1
<>
 42
1.300000000044747
  3
mm 1_1
100
AcDbAlignedDimension
 13
1717.874298328245
 23
783.9734485274493
 33
0.0
 14
1719.174298328298
 24
782.6734485274045
 34
0.0
 50
90.00000000015633
100
AcDbRotatedDimension
1001
ACAD
1000
DSTYLE
1002
{
1070
   279
1070
     1
1002
}
  0
DIMENSION
  5
3B8
330
1F
100
AcDbEntity
  8
S10_Quote
100
AcDbDimension
  2
*D17
 10
1726.174298328193
 20
829.6734485275083
 30
0.0
 11
1726.174298328193
 21
806.1734485274628
 31
0.0
 70
   160
  1
<>
 42
47.00000000010368
  3
mm 1_1
100
AcDbAlignedDimension
 13
1719.174298328298
 23
782.6734485274045
 33
0.0
 14
1721.174298328167
 24
829.6734485275083
 34
0.0
 50
90.00000000006513
100
AcDbRotatedDimension
1001
ACAD
1000
DSTYLE
1002
{
1070
   279
1070
     1
1002
}
  0
DIMENSION
  5
3B9
330
1F
100
AcDbEntity
  8
S10_Quote
100
AcDbDimension
  2
*D18
 10
1683.974298328282
 20
772.3542287501259
 30
0.0
 11
1701.674298328305
 21
772.3542287501741
 31
0.0
 70
   160
  1
<>
 42
35.40000000004443
  3
mm 1_1
100
AcDbAlignedDimension
 13
1719.374298328298
 23
782.8734485274053
 33
0.0
 14
1683.974298328249
 24
784.549734640761
 34
0.0
 50
180.0000000001563
100
AcDbRotatedDimension
1001
ACAD
1000
DSTYLE
1002
{
1070
   279
1070
     1
1002
}
  0
DIMENSION
  5
3BA
330
1F
100
AcDbEntity
  8
S10_Quote
100
AcDbDimension
  2
*D19
 10
1680.847364200869
 20
803.1734485273664
 30
0.0
 11
1680.847364200868
 21
796.1734485273664
 31
0.0
 70
   160
  1
<>
 42
14.0
  3
mm 1_1
100
AcDbAlignedDimension
 13
1684.233635326324
 23
789.1734485273664
 33
0.0
 14
1685.08329305665
 24
803.1734485273664
 34
0.0
 50
270.0
100
AcDbRotatedDimension
1001
ACAD
1000
DSTYLE
1002
{
1070
   279
1070
     1
1002
}
  0
DIMENSION
  5
3BB
330
1F
100
AcDbEntity
  8
S10_Quote
100
AcDbDimension
  2
*D20
 10
1676.172870303685
 20
807.6734485273664
 30
0.0
 11
1676.172870303684
 21
796.1734485273664
 31
0.0
 70
   160
  1
<>
 42
23.0
  3
mm 1_1
100
AcDbAlignedDimension
 13
1686.074298328249
 23
784.6734485273664
 33
0.0
 14
1686.074298328249
 24
807.6734485273664
 34
0.0
 50
270.0
100
AcDbRotatedDimension
1001
ACAD
1000
DSTYLE
1002
{
1070
   279
1070
     1
1002
}
  0
DIMENSION
  5
3BC
330
1F
100
AcDbEntity
  8
S10_Quote
100
AcDbDimension
  2
*D21
 10
1699.374298328167
 20
834.4734485274656
 30
0.0
 11
1705.874298328153
 21
834.4734485274656
 31
0.0
 70
   160
  1
<>
 42
13.0
  3
mm 1_1
100
AcDbAlignedDimension
 13
1712.374298328167
 23
829.4734485274839
 33
0.0
 14
1699.374298328167
 24
829.4734485274474
 34
0.0
 50
0.0000000001563306
100
AcDbRotatedDimension
1001
ACAD
1000
DSTYLE
1002
{
1070
   279
1070
     1
1002
}
  0
DIMENSION
  5
3BD
330
1F
100
AcDbEntity
  8
S10_Quote
100
AcDbDimension
  2
*D22
 10
1717.374298328141
 20
839.1523573672456
 30
0.0
 11
1705.87429832814
 21
839.1523573672147
 31
0.0
 70
   160
  1
<>
 42
23.0
  3
mm 1_1
100
AcDbAlignedDimension
 13
1694.374298328173
 23
827.4734485274329
 33
0.0
 14
1717.374298328173
 24
827.4734485274976
 34
0.0
 50
180.0000000001563
100
AcDbRotatedDimension
1001
ACAD
1000
DSTYLE
1002
{
1070
   279
1070
     1
1002
}
  0
DIMENSION
  5
3BE
330
1F
100
AcDbEntity
  8
S10_Quote
100
AcDbDimension
  2
*D23
 10
1721.374298328167
 20
843.4734485274656
 30
0.0
 11
1705.874298328128
 21
843.4734485274656
 31
0.0
 70
   160
  1
<>
 42
31.0
  3
mm 1_1
100
AcDbAlignedDimension
 13
1690.374298328167
 23
829.473448527422
 33
0.0
 14
1721.374298328167
 24
829.4734485275094
 34
0.0
 50
0.0000000001563306
100
AcDbRotatedDimension
1001
ACAD
1000
DSTYLE
1002
{
1070
   279
1070
     1
1002
}
  0
DIMENSION
  5
3BF
102
{ACAD_XDICTIONARY
360
3C0
102
}
102
{ACAD_REACTORS
330
3C1
102
}
330
1F
100
AcDbEntity
  8
S10_Quote
100
AcDbDimension
  2
*D24
 10
1718.074298328187
 20
805.7911334097743
 30
0.0
 11
1715.291917375807
 21
805.7911334097743
 31
0.0
 70
   160
 71
     5
 42
1.300000000049294
  3
mm 1_1
100
AcDbAlignedDimension
 13
1719.374298328237
 23
804.6991844587383
 33
0.0
 14
1718.074298328187
 24
804.6991844587346
 34
0.0
100
AcDbRotatedDimension
  0
DIMENSION
  5
3C2
102
{ACAD_XDICTIONARY
360
3C3
102
}
102
{ACAD_REACTORS
330
3C4
102
}
330
1F
100
AcDbEntity
  8
S10_Quote
100
AcDbDimension
  2
*D25
 10
1692.374298328181
 20
822.862407472625
 30
0.0
 11
1688.313073770665
 21
822.862407472625
 31
0.0
 70
   160
 71
     5
 42
1.999999999999772
  3
mm 1_1
100
AcDbAlignedDimension
 13
1694.374298328181
 23
824.4234485274327
 33
0.0
 14
1692.374298328181
 24
824.4234485274272
 34
0.0
100
AcDbRotatedDimension
  0
INSERT
  5
3C5
330
1F
100
AcDbEntity
  8
Sichtbar (ISO)
100
AcDbBlockReference
  2
A$C4ED33F28
 10
1706.950772717681
 20
795.2576422493976
 30
0.0
  0
ENDSEC
  0
SECTION
  2
OBJECTS
  0
DICTIONARY
  5
C
330
0
100
AcDbDictionary
281
     1
  3
ACAD_COLOR
350
6B
  3
ACAD_GROUP
350
D
  3
ACAD_LAYOUT
350
1A
  3
ACAD_MATERIAL
350
6A
  3
ACAD_MLEADERSTYLE
350
12D
  3
ACAD_MLINESTYLE
350
17
  3
ACAD_PLOTSETTINGS
350
19
  3
ACAD_PLOTSTYLENAME
350
E
  3
ACAD_SCALELIST
350
10C
  3
ACAD_TABLESTYLE
350
7E
  3
ACAD_VISUALSTYLE
350
EF
  3
ACDB_RECOMPOSE_DATA
350
4F6
  3
AcDbVariableDictionary
350
5E
  0
DICTIONARY
  5
2F1
330
2
100
AcDbDictionary
280
     1
281
     1
  3
ACAD_LAYERSTATES
360
2F2
  0
DICTIONARY
  5
13C
330
10
100
AcDbDictionary
280
     1
281
     1
  0
DICTIONARY
  5
2E0
330
2DF
100
AcDbDictionary
280
     1
281
     1
  0
DICTIONARY
  5
2E2
330
2E1
100
AcDbDictionary
280
     1
281
     1
  0
DICTIONARY
  5
2E4
330
2E3
100
AcDbDictionary
280
     1
281
     1
  0
DICTIONARY
  5
2E6
330
2E5
100
AcDbDictionary
280
     1
281
     1
  0
DICTIONARY
  5
1CE
330
1F
100
AcDbDictionary
280
     1
281
     1
  0
DICTIONARY
  5
1F5
330
1F4
100
AcDbDictionary
280
     1
281
     1
  0
DICTIONARY
  5
286
330
285
100
AcDbDictionary
280
     1
281
     1
  3
ACAD_SORTENTS
360
287
  0
DICTIONARY
  5
3C0
330
3BF
100
AcDbDictionary
280
     1
281
     1
  3
ACAD_DIMASSOC
360
3C1
  0
DICTIONARY
  5
3C3
330
3C2
100
AcDbDictionary
280
     1
281
     1
  3
ACAD_DIMASSOC
360
3C4
  0
DICTIONARY
  5
6B
102
{ACAD_REACTORS
330
C
102
}
330
C
100
AcDbDictionary
281
     1
  0
DICTIONARY
  5
D
102
{ACAD_REACTORS
330
C
102
}
330
C
100
AcDbDictionary
281
     1
  0
DICTIONARY
  5
1A
102
{ACAD_REACTORS
330
C
102
}
330
C
100
AcDbDictionary
281
     1
  3
Layout1
350
D3
  3
Layout2
350
D7
  3
Model
350
22
  0
DICTIONARY
  5
6A
102
{ACAD_REACTORS
330
C
102
}
330
C
100
AcDbDictionary
281
     1
  3
ByBlock
350
ED
  3
ByLayer
350
EC
  3
Global
350
EE
  0
DICTIONARY
  5
12D
102
{ACAD_REACTORS
330
C
102
}
330
C
100
AcDbDictionary
281
     1
  3
Annotativa
350
13B
  3
Standard
350
12E
  0
DICTIONARY
  5
17
102
{ACAD_REACTORS
330
C
102
}
330
C
100
AcDbDictionary
281
     1
  3
Standard
350
18
  0
DICTIONARY
  5
19
102
{ACAD_REACTORS
330
C
102
}
330
C
100
AcDbDictionary
281
     1
  0
ACDBDICTIONARYWDFLT
  5
E
102
{ACAD_REACTORS
330
C
102
}
330
C
100
AcDbDictionary
281
     1
  3
Normal
350
F
100
AcDbDictionaryWithDefault
340
F
  0
DICTIONARY
  5
10C
102
{ACAD_REACTORS
330
C
102
}
330
C
100
AcDbDictionary
281
     1
  3
A0
350
10D
  3
A1
350
1BE
  3
A2
350
1BF
  3
A3
350
1C0
  3
A4
350
1C1
  3
A5
350
1C2
  3
A6
350
1C3
  3
A7
350
1C4
  3
A8
350
1C5
  3
A9
350
1C6
  3
B0
350
1C7
  3
B1
350
1C8
  3
B2
350
1C9
  3
B3
350
1CA
  3
B4
350
1CB
  3
B5
350
1CC
  3
B6
350
1CD
  0
DICTIONARY
  5
7E
102
{ACAD_REACTORS
330
C
102
}
330
C
100
AcDbDictionary
281
     1
  3
Standard
350
7F
  0
DICTIONARY
  5
EF
102
{ACAD_REACTORS
330
C
102
}
330
C
100
AcDbDictionary
281
     1
  3
2dWireframe
350
F5
  3
3D Hidden
350
F7
  3
3dWireframe
350
F6
  3
Basic
350
F4
  3
Brighten
350
FB
  3
ColorChange
350
FF
  3
Conceptual
350
F8
  3
Dim
350
FA
  3
EdgeColorOff
350
1E6
  3
Facepattern
350
FE
  3
Flat
350
F0
  3
FlatWithEdges
350
F1
  3
Gouraud
350
F2
  3
GouraudWithEdges
350
F3
  3
JitterOff
350
1E4
  3
Linepattern
350
FD
  3
OverhangOff
350
1E5
  3
Realistic
350
F9
  3
Thicken
350
FC
  0
XRECORD
  5
4F6
102
{ACAD_REACTORS
330
C
102
}
330
C
100
AcDbXrecord
280
     1
 90
        1
330
7F
  0
DICTIONARY
  5
5E
102
{ACAD_REACTORS
330
C
102
}
330
C
100
AcDbDictionary
281
     1
  3
CANNOSCALE
350
146
  3
CMLEADERSTYLE
350
145
  3
CTABLESTYLE
350
84
  3
DIMASSOC
350
5F
  3
HIDETEXT
350
63
  3
LAYEREVAL
350
1AE
  3
LAYERNOTIFY
350
1AF
  3
LIGHTINGUNITS
350
4F1
  3
MSLTSCALE
350
4F0
  3
PSOLHEIGHT
350
4F3
  3
PSOLWIDTH
350
4F2
  3
XCLIPFRAME
350
4F4
  0
DICTIONARY
  5
2F2
102
{ACAD_REACTORS
330
2F1
102
}
330
2F1
100
AcDbDictionary
281
     1
  0
SORTENTSTABLE
  5
287
102
{ACAD_REACTORS
330
286
102
}
330
286
100
AcDbSortentsTable
330
285
  0
DIMASSOC
  5
3C1
102
{ACAD_REACTORS
330
3C0
102
}
330
3C0
100
AcDbDimAssoc
330
3BF
 90
        3
 70
     0
 71
     0
  1
AcDbOsnapPointRef
 72
     2
331
372
 73
     2
 91
        0
 40
0.5
 10
0.0
 20
0.0
 30
0.0
 75
     0
  1
AcDbOsnapPointRef
 72
     8
331
366
 73
     2
 91
        0
 40
0.4218102554567863
 10
0.0
 20
0.0
 30
0.0
 75
     1
  1
AcDbOsnapPointRef
 72
     2
331
372
 73
     2
 91
        0
 40
0.5
 10
0.0
 20
0.0
 30
0.0
 75
     0
  0
DIMASSOC
  5
3C4
102
{ACAD_REACTORS
330
3C3
102
}
330
3C3
100
AcDbDimAssoc
330
3C2
 90
        3
 70
     0
 71
     0
  1
AcDbOsnapPointRef
 72
     2
331
382
 73
     2
 91
        0
 40
0.5000000000000373
 10
0.0
 20
0.0
 30
0.0
 75
     0
  1
AcDbOsnapPointRef
 72
     8
331
38E
 73
     2
 91
        0
 40
0.8737966301177188
 10
0.0
 20
0.0
 30
0.0
 75
     1
  1
AcDbOsnapPointRef
 72
     2
331
382
 73
     2
 91
        0
 40
0.5000000000000373
 10
0.0
 20
0.0
 30
0.0
 75
     0
  0
LAYOUT
  5
D3
102
{ACAD_REACTORS
330
1A
102
}
330
1A
100
AcDbPlotSettings
  1

  2
C:\Documents and Settings\basas\Application Data\Autodesk\AutoCAD 2005\R16.1\enu\plotters\Default Windows System Printer.pc3
  4

  6

 40
0.0
 41
0.0
 42
0.0
 43
0.0
 44
0.0
 45
0.0
 46
0.0
 47
0.0
 48
0.0
 49
0.0
140
0.0
141
0.0
142
1.0
143
1.0
 70
   688
 72
     0
 73
     0
 74
     5
  7

 75
    16
147
1.0
 76
     0
 77
     2
 78
   300
148
0.0
149
0.0
100
AcDbLayout
  1
Layout1
 70
     1
 71
     1
 10
0.0
 20
0.0
 11
12.0
 21
9.0
 12
0.0
 22
0.0
 32
0.0
 14
0.0
 24
0.0
 34
0.0
 15
0.0
 25
0.0
 35
0.0
146
0.0
 13
0.0
 23
0.0
 33
0.0
 16
1.0
 26
0.0
 36
0.0
 17
0.0
 27
1.0
 37
0.0
 76
     0
330
D2
  0
LAYOUT
  5
D7
102
{ACAD_REACTORS
330
1A
102
}
330
1A
100
AcDbPlotSettings
  1

  2
C:\Documents and Settings\basas\Application Data\Autodesk\AutoCAD 2005\R16.1\enu\plotters\Default Windows System Printer.pc3
  4

  6

 40
0.0
 41
0.0
 42
0.0
 43
0.0
 44
0.0
 45
0.0
 46
0.0
 47
0.0
 48
0.0
 49
0.0
140
0.0
141
0.0
142
1.0
143
1.0
 70
   688
 72
     0
 73
     0
 74
     5
  7

 75
    16
147
1.0
 76
     0
 77
     2
 78
   300
148
0.0
149
0.0
100
AcDbLayout
  1
Layout2
 70
     1
 71
     2
 10
0.0
 20
0.0
 11
12.0
 21
9.0
 12
0.0
 22
0.0
 32
0.0
 14
0.0
 24
0.0
 34
0.0
 15
0.0
 25
0.0
 35
0.0
146
0.0
 13
0.0
 23
0.0
 33
0.0
 16
1.0
 26
0.0
 36
0.0
 17
0.0
 27
1.0
 37
0.0
 76
     0
330
D6
  0
LAYOUT
  5
22
102
{ACAD_REACTORS
330
1A
102
}
330
1A
100
AcDbPlotSettings
  1

  2
none_device
  4
ISO_A4_(210.00_x_297.00_MM)
  6

 40
7.5
 41
20.0
 42
7.5
 43
20.0
 44
210.0
 45
297.0
 46
11.54999923706054
 47
-13.65000009536743
 48
0.0
 49
0.0
140
0.0
141
0.0
142
1.0
143
8.704084754739808
 70
 11952
 72
     1
 73
     0
 74
     0
  7

 75
     0
147
0.1148885871608098
 76
     0
 77
     2
 78
   300
148
0.0
149
0.0
100
AcDbLayout
  1
Model
 70
     1
 71
     0
 10
0.0
 20
0.0
 11
12.0
 21
9.0
 12
0.0
 22
0.0
 32
0.0
 14
0.0
 24
0.0
 34
0.0
 15
0.0
 25
0.0
 35
0.0
146
0.0
 13
0.0
 23
0.0
 33
0.0
 16
1.0
 26
0.0
 36
0.0
 17
0.0
 27
1.0
 37
0.0
 76
     0
330
1F
331
EA
1001
ACAD_PSEXT
1000
None
1000
None
1000
Not applicable
1000
The layout will not be plotted unless a new plotter configuration name is selected.
1070
     0
  0
MATERIAL
  5
ED
102
{ACAD_XDICTIONARY
360
4FA
102
}
102
{ACAD_REACTORS
330
6A
102
}
330
6A
100
AcDbMaterial
  1
ByBlock
  0
MATERIAL
  5
EC
102
{ACAD_XDICTIONARY
360
4F8
102
}
102
{ACAD_REACTORS
330
6A
102
}
330
6A
100
AcDbMaterial
  1
ByLayer
  0
MATERIAL
  5
EE
102
{ACAD_XDICTIONARY
360
173
102
}
102
{ACAD_REACTORS
330
6A
102
}
330
6A
100
AcDbMaterial
  1
Global
 43
0.0007999999797903
 43
0.0
 43
0.0
 43
0.0
 43
0.0
 43
0.0007999999797903
 43
0.0
 43
0.0
 43
0.0
 43
0.0
 43
1.0
 43
0.0
 43
0.0
 43
0.0
 43
0.0
 43
1.0
 49
0.0007999999797903
 49
0.0
 49
0.0
 49
0.0
 49
0.0
 49
0.0007999999797903
 49
0.0
 49
0.0
 49
0.0
 49
0.0
 49
1.0
 49
0.0
 49
0.0
 49
0.0
 49
0.0
 49
1.0
142
0.0007999999797903
142
0.0
142
0.0
142
0.0
142
0.0
142
0.0007999999797903
142
0.0
142
0.0
142
0.0
142
0.0
142
1.0
142
0.0
142
0.0
142
0.0
142
0.0
142
1.0
144
0.0007999999797903
144
0.0
144
0.0
144
0.0
144
0.0
144
0.0007999999797903
144
0.0
144
0.0
144
0.0
144
0.0
144
1.0
144
0.0
144
0.0
144
0.0
144
0.0
144
1.0
1001
ACAD
1070
    -1
1070
     3
1070
     0
1000

1071
        0
1070
     0
  0
MLEADERSTYLE
  5
13B
102
{ACAD_REACTORS
330
12D
102
}
330
12D
100
AcDbMLeaderStyle
170
     2
171
     1
172
     0
 90
        2
 40
0.0
 41
0.0
173
     1
 91
-1056964608
340
14
 92
       -2
290
     1
 42
2.0
291
     1
 43
8.0
  3
Standard
 44
4.0
300

342
11
174
     1
178
     1
175
     1
176
     0
 93
-1056964608
 45
4.0
292
     0
297
     0
 46
4.0
 94
-1056964608
 47
1.0
 49
1.0
140
1.0
293
     1
141
0.0
294
     1
177
     0
142
1.0
295
     0
296
     1
143
3.75
1001
ACAD_MLEADERVER
1070
     2
  0
MLEADERSTYLE
  5
12E
102
{ACAD_REACTORS
330
12D
102
}
330
12D
100
AcDbMLeaderStyle
170
     2
171
     1
172
     0
 90
        2
 40
0.0
 41
0.0
173
     1
 91
-1056964608
340
14
 92
       -2
290
     1
 42
2.0
291
     1
 43
8.0
  3
Standard
 44
4.0
300

342
11
174
     1
178
     1
175
     1
176
     0
 93
-1056964608
 45
4.0
292
     0
297
     0
 46
4.0
 94
-1056964608
 47
1.0
 49
1.0
140
1.0
293
     1
141
0.0
294
     1
177
     0
142
1.0
295
     0
296
     0
143
3.75
1001
ACAD_MLEADERVER
1070
     2
  0
MLINESTYLE
  5
18
102
{ACAD_REACTORS
330
17
102
}
330
17
100
AcDbMlineStyle
  2
STANDARD
 70
     0
  3

 62
   256
 51
90.0
 52
90.0
 71
     2
 49
0.5
 62
   256
  6
BYLAYER
 49
-0.5
 62
   256
  6
BYLAYER
  0
ACDBPLACEHOLDER
  5
F
102
{ACAD_REACTORS
330
E
102
}
330
E
  0
SCALE
  5
10D
102
{ACAD_REACTORS
330
10C
102
}
330
10C
100
AcDbScale
 70
     0
300
1:1
140
1.0
141
1.0
290
     1
  0
SCALE
  5
1BE
102
{ACAD_REACTORS
330
10C
102
}
330
10C
100
AcDbScale
 70
     0
300
1:2
140
1.0
141
2.0
290
     0
  0
SCALE
  5
1BF
102
{ACAD_REACTORS
330
10C
102
}
330
10C
100
AcDbScale
 70
     0
300
1:4
140
1.0
141
4.0
290
     0
  0
SCALE
  5
1C0
102
{ACAD_REACTORS
330
10C
102
}
330
10C
100
AcDbScale
 70
     0
300
1:5
140
1.0
141
5.0
290
     0
  0
SCALE
  5
1C1
102
{ACAD_REACTORS
330
10C
102
}
330
10C
100
AcDbScale
 70
     0
300
1:8
140
1.0
141
8.0
290
     0
  0
SCALE
  5
1C2
102
{ACAD_REACTORS
330
10C
102
}
330
10C
100
AcDbScale
 70
     0
300
1:10
140
1.0
141
10.0
290
     0
  0
SCALE
  5
1C3
102
{ACAD_REACTORS
330
10C
102
}
330
10C
100
AcDbScale
 70
     0
300
1:16
140
1.0
141
16.0
290
     0
  0
SCALE
  5
1C4
102
{ACAD_REACTORS
330
10C
102
}
330
10C
100
AcDbScale
 70
     0
300
1:20
140
1.0
141
20.0
290
     0
  0
SCALE
  5
1C5
102
{ACAD_REACTORS
330
10C
102
}
330
10C
100
AcDbScale
 70
     0
300
1:30
140
1.0
141
30.0
290
     0
  0
SCALE
  5
1C6
102
{ACAD_REACTORS
330
10C
102
}
330
10C
100
AcDbScale
 70
     0
300
1:40
140
1.0
141
40.0
290
     0
  0
SCALE
  5
1C7
102
{ACAD_REACTORS
330
10C
102
}
330
10C
100
AcDbScale
 70
     0
300
1:50
140
1.0
141
50.0
290
     0
  0
SCALE
  5
1C8
102
{ACAD_REACTORS
330
10C
102
}
330
10C
100
AcDbScale
 70
     0
300
1:100
140
1.0
141
100.0
290
     0
  0
SCALE
  5
1C9
102
{ACAD_REACTORS
330
10C
102
}
330
10C
100
AcDbScale
 70
     0
300
2:1
140
2.0
141
1.0
290
     0
  0
SCALE
  5
1CA
102
{ACAD_REACTORS
330
10C
102
}
330
10C
100
AcDbScale
 70
     0
300
4:1
140
4.0
141
1.0
290
     0
  0
SCALE
  5
1CB
102
{ACAD_REACTORS
330
10C
102
}
330
10C
100
AcDbScale
 70
     0
300
8:1
140
8.0
141
1.0
290
     0
  0
SCALE
  5
1CC
102
{ACAD_REACTORS
330
10C
102
}
330
10C
100
AcDbScale
 70
     0
300
10:1
140
10.0
141
1.0
290
     0
  0
SCALE
  5
1CD
102
{ACAD_REACTORS
330
10C
102
}
330
10C
100
AcDbScale
 70
     0
300
100:1
140
100.0
141
1.0
290
     0
  0
TABLESTYLE
  5
7F
102
{ACAD_XDICTIONARY
360
162
102
}
102
{ACAD_REACTORS
330
7E
102
}
330
7E
100
AcDbTableStyle
  3
Standard
 70
     0
 71
     0
 40
1.5
 41
1.5
280
     0
281
     0
  7
Standard
140
4.5
170
     2
 62
     0
 63
     7
283
     0
274
    -2
284
     1
 64
     0
275
    -2
285
     1
 65
     0
276
    -2
286
     1
 66
     0
277
    -2
287
     1
 67
     0
278
    -2
288
     1
 68
     0
279
    -2
289
     1
 69
     0
  7
Standard
140
6.0
170
     5
 62
     0
 63
     7
283
     0
274
    -2
284
     1
 64
     0
275
    -2
285
     1
 65
     0
276
    -2
286
     1
 66
     0
277
    -2
287
     1
 67
     0
278
    -2
288
     1
 68
     0
279
    -2
289
     1
 69
     0
  7
Standard
140
4.5
170
     5
 62
     0
 63
     7
283
     0
274
    -2
284
     1
 64
     0
275
    -2
285
     1
 65
     0
276
    -2
286
     1
 66
     0
277
    -2
287
     1
 67
     0
278
    -2
288
     1
 68
     0
279
    -2
289
     1
 69
     0
  0
VISUALSTYLE
  5
F5
102
{ACAD_XDICTIONARY
360
507
102
}
102
{ACAD_REACTORS
330
EF
102
}
330
EF
100
AcDbVisualStyle
  2
2dWireframe
 70
     4
 71
     0
 72
     2
 73
     1
 90
        0
 40
-0.6
 41
-30.0
 62
     5
 63
     7
421
 16777215
 74
     1
 91
        4
 64
     7
 65
   257
 75
     1
175
     1
 42
1.0
 92
        0
 66
   257
 43
1.0
 76
     1
 77
     6
 78
     2
 67
     7
 79
     5
170
     0
171
     0
290
     0
174
     0
 93
        1
 44
0.0
173
     0
291
     0
 45
0.0
1001
ACAD
1000
AcDbSavedByObjectVersion
1070
     0
  0
VISUALSTYLE
  5
F7
102
{ACAD_XDICTIONARY
360
50B
102
}
102
{ACAD_REACTORS
330
EF
102
}
330
EF
100
AcDbVisualStyle
  2
3D Hidden
 70
     6
 71
     1
 72
     2
 73
     2
 90
        0
 40
-0.6
 41
-30.0
 62
     5
 63
     7
421
 16777215
 74
     2
 91
        2
 64
     7
 65
   257
 75
     2
175
     1
 42
40.0
 92
        0
 66
   257
 43
1.0
 76
     1
 77
     6
 78
     2
 67
     7
 79
     3
170
     0
171
     0
290
     0
174
     0
 93
        1
 44
0.0
173
     0
291
     0
 45
0.0
1001
ACAD
1000
AcDbSavedByObjectVersion
1070
     0
  0
VISUALSTYLE
  5
F6
102
{ACAD_XDICTIONARY
360
509
102
}
102
{ACAD_REACTORS
330
EF
102
}
330
EF
100
AcDbVisualStyle
  2
3dWireframe
 70
     5
 71
     0
 72
     2
 73
     1
 90
        0
 40
-0.6
 41
-30.0
 62
     5
 63
     7
421
 16777215
 74
     1
 91
        4
 64
     7
 65
   257
 75
     1
175
     1
 42
1.0
 92
        0
 66
   257
 43
1.0
 76
     1
 77
     6
 78
     2
 67
     7
 79
     5
170
     0
171
     0
290
     0
174
     0
 93
        1
 44
0.0
173
     0
291
     0
 45
0.0
1001
ACAD
1000
AcDbSavedByObjectVersion
1070
     0
  0
VISUALSTYLE
  5
F4
102
{ACAD_XDICTIONARY
360
505
102
}
102
{ACAD_REACTORS
330
EF
102
}
330
EF
100
AcDbVisualStyle
  2
Basic
 70
     7
 71
     1
 72
     0
 73
     1
 90
        0
 40
-0.6
 41
-30.0
 62
     5
 63
     7
421
 16777215
 74
     0
 91
        4
 64
     7
 65
   257
 75
     1
175
     1
 42
1.0
 92
        8
 66
     7
 43
1.0
 76
     1
 77
     6
 78
     2
 67
     7
 79
     5
170
     0
171
     0
290
     0
174
     0
 93
        1
 44
0.0
173
     0
291
     1
 45
0.0
1001
ACAD
1000
AcDbSavedByObjectVersion
1070
     0
  0
VISUALSTYLE
  5
FB
102
{ACAD_XDICTIONARY
360
513
102
}
102
{ACAD_REACTORS
330
EF
102
}
330
EF
100
AcDbVisualStyle
  2
Brighten
 70
    12
 71
     2
 72
     2
 73
     1
 90
        0
 40
-0.6
 41
-30.0
 62
     5
 63
     7
421
 16777215
 74
     1
 91
        4
 64
     7
 65
   257
 75
     1
175
     1
 42
1.0
 92
        8
 66
     7
 43
1.0
 76
     1
 77
     6
 78
     2
 67
     7
 79
     5
170
     0
171
     0
290
     0
174
     0
 93
        1
 44
50.0
173
     0
291
     1
 45
0.0
1001
ACAD
1000
AcDbSavedByObjectVersion
1070
     0
  0
VISUALSTYLE
  5
FF
102
{ACAD_XDICTIONARY
360
51B
102
}
102
{ACAD_REACTORS
330
EF
102
}
330
EF
100
AcDbVisualStyle
  2
ColorChange
 70
    16
 71
     2
 72
     2
 73
     3
 90
        0
 40
-0.6
 41
-30.0
 62
     5
 63
     8
421
  8421504
 74
     1
 91
        4
 64
     7
 65
   257
 75
     1
175
     1
 42
1.0
 92
        8
 66
     8
424
  8421504
 43
1.0
 76
     1
 77
     6
 78
     2
 67
     7
 79
     5
170
     0
171
     0
290
     0
174
     0
 93
        1
 44
0.0
173
     0
291
     1
 45
0.0
1001
ACAD
1000
AcDbSavedByObjectVersion
1070
     0
  0
VISUALSTYLE
  5
F8
102
{ACAD_XDICTIONARY
360
50D
102
}
102
{ACAD_REACTORS
330
EF
102
}
330
EF
100
AcDbVisualStyle
  2
Conceptual
 70
     9
 71
     3
 72
     2
 73
     1
 90
        0
 40
-0.6
 41
-30.0
 62
     5
 63
     7
421
 16777215
 74
     2
 91
        2
 64
     7
 65
   257
 75
     1
175
     1
 42
40.0
 92
        8
 66
     7
 43
1.0
 76
     1
 77
     6
 78
     2
 67
     7
 79
     3
170
     0
171
     0
290
     0
174
     0
 93
        1
 44
0.0
173
     0
291
     0
 45
0.0
1001
ACAD
1000
AcDbSavedByObjectVersion
1070
     0
  0
VISUALSTYLE
  5
FA
102
{ACAD_XDICTIONARY
360
511
102
}
102
{ACAD_REACTORS
330
EF
102
}
330
EF
100
AcDbVisualStyle
  2
Dim
 70
    11
 71
     2
 72
     2
 73
     1
 90
        0
 40
-0.6
 41
-30.0
 62
     5
 63
     7
421
 16777215
 74
     1
 91
        4
 64
     7
 65
   257
 75
     1
175
     1
 42
1.0
 92
        8
 66
     7
 43
1.0
 76
     1
 77
     6
 78
     2
 67
     7
 79
     5
170
     0
171
     0
290
     0
174
     0
 93
        1
 44
-50.0
173
     0
291
     1
 45
0.0
1001
ACAD
1000
AcDbSavedByObjectVersion
1070
     0
  0
VISUALSTYLE
  5
1E6
102
{ACAD_XDICTIONARY
360
521
102
}
102
{ACAD_REACTORS
330
EF
102
}
330
EF
100
AcDbVisualStyle
  2
EdgeColorOff
 70
    22
 71
     2
 72
     2
 73
     0
 90
        0
 40
-0.6
 41
-30.0
 62
     5
 63
     7
421
 16777215
 74
     1
 91
        4
 64
     7
 65
   257
 75
     1
175
     1
 42
1.0
 92
        8
 66
     7
 43
1.0
 76
     1
 77
     6
 78
     2
 67
     7
 79
     5
170
     0
171
     0
290
     0
174
     0
 93
        1
 44
0.0
173
     0
291
     1
 45
0.0
1001
ACAD
1000
AcDbSavedByObjectVersion
1070
     0
  0
VISUALSTYLE
  5
FE
102
{ACAD_XDICTIONARY
360
519
102
}
102
{ACAD_REACTORS
330
EF
102
}
330
EF
100
AcDbVisualStyle
  2
Facepattern
 70
    15
 71
     2
 72
     2
 73
     1
 90
        0
 40
-0.6
 41
-30.0
 62
     5
 63
     7
421
 16777215
 74
     1
 91
        4
 64
     7
 65
   257
 75
     1
175
     1
 42
1.0
 92
        8
 66
     7
 43
1.0
 76
     1
 77
     6
 78
     2
 67
     7
 79
     5
170
     0
171
     0
290
     0
174
     0
 93
        1
 44
0.0
173
     0
291
     1
 45
0.0
1001
ACAD
1000
AcDbSavedByObjectVersion
1070
     0
  0
VISUALSTYLE
  5
F0
102
{ACAD_XDICTIONARY
360
4FD
102
}
102
{ACAD_REACTORS
330
EF
102
}
330
EF
100
AcDbVisualStyle
  2
Flat
 70
     0
 71
     2
 72
     1
 73
     1
 90
        2
 40
-0.6
 41
30.0
 62
     5
 63
     7
421
 16777215
 74
     0
 91
        4
 64
     7
 65
   257
 75
     1
175
     1
 42
1.0
 92
        8
 66
     7
 43
1.0
 76
     1
 77
     6
 78
     2
 67
     7
 79
     5
170
     0
171
     0
290
     0
174
     0
 93
        1
 44
0.0
173
     0
291
     1
 45
0.0
1001
ACAD
1000
AcDbSavedByObjectVersion
1070
     0
  0
VISUALSTYLE
  5
F1
102
{ACAD_XDICTIONARY
360
4FF
102
}
102
{ACAD_REACTORS
330
EF
102
}
330
EF
100
AcDbVisualStyle
  2
FlatWithEdges
 70
     1
 71
     2
 72
     1
 73
     1
 90
        2
 40
-0.6
 41
30.0
 62
     5
 63
     7
421
 16777215
 74
     1
 91
        4
 64
     7
 65
   257
 75
     1
175
     1
 42
1.0
 92
        0
 66
   257
 43
1.0
 76
     1
 77
     6
 78
     2
 67
     7
 79
     5
170
     0
171
     0
290
     0
174
     0
 93
        1
 44
0.0
173
     0
291
     1
 45
0.0
1001
ACAD
1000
AcDbSavedByObjectVersion
1070
     0
  0
VISUALSTYLE
  5
F2
102
{ACAD_XDICTIONARY
360
501
102
}
102
{ACAD_REACTORS
330
EF
102
}
330
EF
100
AcDbVisualStyle
  2
Gouraud
 70
     2
 71
     2
 72
     2
 73
     1
 90
        2
 40
-0.6
 41
30.0
 62
     5
 63
     7
421
 16777215
 74
     0
 91
        4
 64
     7
 65
   257
 75
     1
175
     1
 42
1.0
 92
        0
 66
     7
 43
1.0
 76
     1
 77
     6
 78
     2
 67
     7
 79
     5
170
     0
171
     0
290
     0
174
     0
 93
        1
 44
0.0
173
     0
291
     1
 45
0.0
1001
ACAD
1000
AcDbSavedByObjectVersion
1070
     0
  0
VISUALSTYLE
  5
F3
102
{ACAD_XDICTIONARY
360
503
102
}
102
{ACAD_REACTORS
330
EF
102
}
330
EF
100
AcDbVisualStyle
  2
GouraudWithEdges
 70
     3
 71
     2
 72
     2
 73
     1
 90
        2
 40
-0.6
 41
30.0
 62
     5
 63
     7
421
 16777215
 74
     1
 91
        4
 64
     7
 65
   257
 75
     1
175
     1
 42
1.0
 92
        0
 66
   257
 43
1.0
 76
     1
 77
     6
 78
     2
 67
     7
 79
     5
170
     0
171
     0
290
     0
174
     0
 93
        1
 44
0.0
173
     0
291
     1
 45
0.0
1001
ACAD
1000
AcDbSavedByObjectVersion
1070
     0
  0
VISUALSTYLE
  5
1E4
102
{ACAD_XDICTIONARY
360
51D
102
}
102
{ACAD_REACTORS
330
EF
102
}
330
EF
100
AcDbVisualStyle
  2
JitterOff
 70
    20
 71
     2
 72
     2
 73
     0
 90
        0
 40
-0.6
 41
-30.0
 62
     5
 63
     7
421
 16777215
 74
     1
 91
        4
 64
     7
 65
   257
 75
     1
175
     1
 42
1.0
 92
       10
 66
     7
 43
1.0
 76
     1
 77
     6
 78
     2
 67
     7
 79
     5
170
     0
171
     0
290
     0
174
     0
 93
        1
 44
0.0
173
     0
291
     1
 45
0.0
1001
ACAD
1000
AcDbSavedByObjectVersion
1070
     0
  0
VISUALSTYLE
  5
FD
102
{ACAD_XDICTIONARY
360
517
102
}
102
{ACAD_REACTORS
330
EF
102
}
330
EF
100
AcDbVisualStyle
  2
Linepattern
 70
    14
 71
     2
 72
     2
 73
     1
 90
        0
 40
-0.6
 41
-30.0
 62
     5
 63
     7
421
 16777215
 74
     1
 91
        4
 64
     7
 65
   257
 75
     7
175
     7
 42
1.0
 92
        8
 66
     7
 43
1.0
 76
     1
 77
     6
 78
     2
 67
     7
 79
     5
170
     0
171
     0
290
     0
174
     0
 93
        1
 44
0.0
173
     0
291
     1
 45
0.0
1001
ACAD
1000
AcDbSavedByObjectVersion
1070
     0
  0
VISUALSTYLE
  5
1E5
102
{ACAD_XDICTIONARY
360
51F
102
}
102
{ACAD_REACTORS
330
EF
102
}
330
EF
100
AcDbVisualStyle
  2
OverhangOff
 70
    21
 71
     2
 72
     2
 73
     0
 90
        0
 40
-0.6
 41
-30.0
 62
     5
 63
     7
421
 16777215
 74
     1
 91
        4
 64
     7
 65
   257
 75
     1
175
     1
 42
1.0
 92
        9
 66
     7
 43
1.0
 76
     1
 77
     6
 78
     2
 67
     7
 79
     5
170
     0
171
     0
290
     0
174
     0
 93
        1
 44
0.0
173
     0
291
     1
 45
0.0
1001
ACAD
1000
AcDbSavedByObjectVersion
1070
     0
  0
VISUALSTYLE
  5
F9
102
{ACAD_XDICTIONARY
360
50F
102
}
102
{ACAD_REACTORS
330
EF
102
}
330
EF
100
AcDbVisualStyle
  2
Realistic
 70
     8
 71
     2
 72
     2
 73
     1
 90
        0
 40
-0.6
 41
-30.0
 62
     5
 63
     7
421
 16777215
 74
     1
 91
        0
 64
     7
 65
   257
 75
     1
175
     1
 42
1.0
 92
        8
 66
     8
424
  7895160
 43
1.0
 76
     1
 77
     6
 78
     2
 67
     7
 79
     5
170
     0
171
     0
290
     0
174
     0
 93
       13
 44
0.0
173
     0
291
     0
 45
0.0
1001
ACAD
1000
AcDbSavedByObjectVersion
1070
     0
  0
VISUALSTYLE
  5
FC
102
{ACAD_XDICTIONARY
360
515
102
}
102
{ACAD_REACTORS
330
EF
102
}
330
EF
100
AcDbVisualStyle
  2
Thicken
 70
    13
 71
     2
 72
     2
 73
     1
 90
        0
 40
-0.6
 41
-30.0
 62
     5
 63
     7
421
 16777215
 74
     1
 91
        4
 64
     7
 65
   257
 75
     1
175
     1
 42
1.0
 92
       12
 66
     7
 43
1.0
 76
     1
 77
     6
 78
     2
 67
     7
 79
     5
170
     0
171
     0
290
     0
174
     0
 93
        1
 44
0.0
173
     0
291
     1
 45
0.0
1001
ACAD
1000
AcDbSavedByObjectVersion
1070
     0
  0
DICTIONARYVAR
  5
146
102
{ACAD_REACTORS
330
5E
102
}
330
5E
100
DictionaryVariables
280
     0
  1
1:1
  0
DICTIONARYVAR
  5
145
102
{ACAD_REACTORS
330
5E
102
}
330
5E
100
DictionaryVariables
280
     0
  1
STANDARD
  0
DICTIONARYVAR
  5
84
102
{ACAD_REACTORS
330
5E
102
}
330
5E
100
DictionaryVariables
280
     0
  1
STANDARD
  0
DICTIONARYVAR
  5
5F
102
{ACAD_REACTORS
330
5E
102
}
330
5E
100
DictionaryVariables
280
     0
  1
2
  0
DICTIONARYVAR
  5
63
102
{ACAD_REACTORS
330
5E
102
}
330
5E
100
DictionaryVariables
280
     0
  1
1
  0
DICTIONARYVAR
  5
1AE
102
{ACAD_REACTORS
330
5E
102
}
330
5E
100
DictionaryVariables
280
     0
  1
0
  0
DICTIONARYVAR
  5
1AF
102
{ACAD_REACTORS
330
5E
102
}
330
5E
100
DictionaryVariables
280
     0
  1
0
  0
DICTIONARYVAR
  5
4F1
102
{ACAD_REACTORS
330
5E
102
}
330
5E
100
DictionaryVariables
280
     0
  1
2
  0
DICTIONARYVAR
  5
4F0
102
{ACAD_REACTORS
330
5E
102
}
330
5E
100
DictionaryVariables
280
     0
  1
1
  0
DICTIONARYVAR
  5
4F3
102
{ACAD_REACTORS
330
5E
102
}
330
5E
100
DictionaryVariables
280
     0
  1
80.000000
  0
DICTIONARYVAR
  5
4F2
102
{ACAD_REACTORS
330
5E
102
}
330
5E
100
DictionaryVariables
280
     0
  1
5.000000
  0
DICTIONARYVAR
  5
4F4
102
{ACAD_REACTORS
330
5E
102
}
330
5E
100
DictionaryVariables
280
     0
  1
2
  0
DICTIONARY
  5
4FA
330
ED
100
AcDbDictionary
280
     1
281
     1
  3
ACAD_XREC_ROUNDTRIP
360
4FB
  0
DICTIONARY
  5
4F8
330
EC
100
AcDbDictionary
280
     1
281
     1
  3
ACAD_XREC_ROUNDTRIP
360
4F9
  0
DICTIONARY
  5
173
330
EE
100
AcDbDictionary
280
     1
281
     1
  3
ACAD_XREC_ROUNDTRIP
360
4FC
  3
BUMPTILE
360
175
  3
DIFFUSETILE
360
174
  3
OPACITYTILE
360
176
  3
REFLECTIONTILE
360
177
  0
DICTIONARY
  5
162
330
7F
100
AcDbDictionary
280
     1
281
     1
  3
ACAD_ROUNDTRIP_2008_TABLESTYLE_CELLSTYLEMAP
360
4F5
  3
ACAD_XREC_ROUNDTRIP
360
4F7
  0
DICTIONARY
  5
507
330
F5
100
AcDbDictionary
280
     1
281
     1
  3
ACAD_XREC_ROUNDTRIP
360
508
  0
DICTIONARY
  5
50B
330
F7
100
AcDbDictionary
280
     1
281
     1
  3
ACAD_XREC_ROUNDTRIP
360
50C
  0
DICTIONARY
  5
509
330
F6
100
AcDbDictionary
280
     1
281
     1
  3
ACAD_XREC_ROUNDTRIP
360
50A
  0
DICTIONARY
  5
505
330
F4
100
AcDbDictionary
280
     1
281
     1
  3
ACAD_XREC_ROUNDTRIP
360
506
  0
DICTIONARY
  5
513
330
FB
100
AcDbDictionary
280
     1
281
     1
  3
ACAD_XREC_ROUNDTRIP
360
514
  0
DICTIONARY
  5
51B
330
FF
100
AcDbDictionary
280
     1
281
     1
  3
ACAD_XREC_ROUNDTRIP
360
51C
  0
DICTIONARY
  5
50D
330
F8
100
AcDbDictionary
280
     1
281
     1
  3
ACAD_XREC_ROUNDTRIP
360
50E
  0
DICTIONARY
  5
511
330
FA
100
AcDbDictionary
280
     1
281
     1
  3
ACAD_XREC_ROUNDTRIP
360
512
  0
DICTIONARY
  5
521
330
1E6
100
AcDbDictionary
280
     1
281
     1
  3
ACAD_XREC_ROUNDTRIP
360
522
  0
DICTIONARY
  5
519
330
FE
100
AcDbDictionary
280
     1
281
     1
  3
ACAD_XREC_ROUNDTRIP
360
51A
  0
DICTIONARY
  5
4FD
330
F0
100
AcDbDictionary
280
     1
281
     1
  3
ACAD_XREC_ROUNDTRIP
360
4FE
  0
DICTIONARY
  5
4FF
330
F1
100
AcDbDictionary
280
     1
281
     1
  3
ACAD_XREC_ROUNDTRIP
360
500
  0
DICTIONARY
  5
501
330
F2
100
AcDbDictionary
280
     1
281
     1
  3
ACAD_XREC_ROUNDTRIP
360
502
  0
DICTIONARY
  5
503
330
F3
100
AcDbDictionary
280
     1
281
     1
  3
ACAD_XREC_ROUNDTRIP
360
504
  0
DICTIONARY
  5
51D
330
1E4
100
AcDbDictionary
280
     1
281
     1
  3
ACAD_XREC_ROUNDTRIP
360
51E
  0
DICTIONARY
  5
517
330
FD
100
AcDbDictionary
280
     1
281
     1
  3
ACAD_XREC_ROUNDTRIP
360
518
  0
DICTIONARY
  5
51F
330
1E5
100
AcDbDictionary
280
     1
281
     1
  3
ACAD_XREC_ROUNDTRIP
360
520
  0
DICTIONARY
  5
50F
330
F9
100
AcDbDictionary
280
     1
281
     1
  3
ACAD_XREC_ROUNDTRIP
360
510
  0
DICTIONARY
  5
515
330
FC
100
AcDbDictionary
280
     1
281
     1
  3
ACAD_XREC_ROUNDTRIP
360
516
  0
XRECORD
  5
4FB
102
{ACAD_REACTORS
330
4FA
102
}
330
4FA
100
AcDbXrecord
280
     1
102
MATERIAL
148
0.0
149
0.0
149
0.0
 93
        0
 94
       63
282
     0
 72
     1
 77
     1
171
     1
175
     1
179
     1
273
     0
  0
XRECORD
  5
4F9
102
{ACAD_REACTORS
330
4F8
102
}
330
4F8
100
AcDbXrecord
280
     1
102
MATERIAL
148
0.0
149
0.0
149
0.0
 93
        0
 94
       63
282
     0
 72
     1
 77
     1
171
     1
175
     1
179
     1
273
     0
  0
XRECORD
  5
4FC
102
{ACAD_REACTORS
330
173
102
}
330
173
100
AcDbXrecord
280
     1
102
MATERIAL
148
0.0
149
0.0
149
0.0
 93
        0
 94
       63
282
     0
 72
     1
 77
     1
171
     1
175
     1
179
     1
273
     0
  0
XRECORD
  5
175
102
{ACAD_REACTORS
330
173
102
}
330
173
100
AcDbXrecord
280
     1
270
     1
271
     1
  0
XRECORD
  5
174
102
{ACAD_REACTORS
330
173
102
}
330
173
100
AcDbXrecord
280
     1
270
     1
271
     1
  0
XRECORD
  5
176
102
{ACAD_REACTORS
330
173
102
}
330
173
100
AcDbXrecord
280
     1
270
     1
271
     1
  0
XRECORD
  5
177
102
{ACAD_REACTORS
330
173
102
}
330
173
100
AcDbXrecord
280
     1
270
     1
271
     1
  0
CELLSTYLEMAP
  5
4F5
102
{ACAD_REACTORS
330
162
102
}
330
162
100
AcDbCellStyleMap
 90
        3
300
CELLSTYLE
  1
TABLEFORMAT_BEGIN
 90
        5
170
     1
 91
        0
 92
    32768
 62
   257
 93
        1
300
CONTENTFORMAT
  1
CONTENTFORMAT_BEGIN
 90
        0
 91
        0
 92
      512
 93
        0
300

 40
0.0
140
1.0
 94
        5
 62
     0
340
11
144
6.0
309
CONTENTFORMAT_END
171
     1
301
MARGIN
  1
CELLMARGIN_BEGIN
 40
1.5
 40
1.5
 40
1.5
 40
1.5
 40
4.5
 40
4.5
309
CELLMARGIN_END
 94
        6
 95
        1
302
GRIDFORMAT
  1
GRIDFORMAT_BEGIN
 90
        0
 91
        1
 62
     0
 92
       -2
340
14
 93
        0
 40
1.125
309
GRIDFORMAT_END
 95
        2
302
GRIDFORMAT
  1
GRIDFORMAT_BEGIN
 90
        0
 91
        1
 62
     0
 92
       -2
340
14
 93
        0
 40
1.125
309
GRIDFORMAT_END
 95
        4
302
GRIDFORMAT
  1
GRIDFORMAT_BEGIN
 90
        0
 91
        1
 62
     0
 92
       -2
340
14
 93
        0
 40
1.125
309
GRIDFORMAT_END
 95
        8
302
GRIDFORMAT
  1
GRIDFORMAT_BEGIN
 90
        0
 91
        1
 62
     0
 92
       -2
340
14
 93
        0
 40
1.125
309
GRIDFORMAT_END
 95
       16
302
GRIDFORMAT
  1
GRIDFORMAT_BEGIN
 90
        0
 91
        1
 62
     0
 92
       -2
340
14
 93
        0
 40
1.125
309
GRIDFORMAT_END
 95
       32
302
GRIDFORMAT
  1
GRIDFORMAT_BEGIN
 90
        0
 91
        1
 62
     0
 92
       -2
340
14
 93
        0
 40
1.125
309
GRIDFORMAT_END
309
TABLEFORMAT_END
  1
CELLSTYLE_BEGIN
 90
        1
 91
        1
300
_TITLE
309
CELLSTYLE_END
300
CELLSTYLE
  1
TABLEFORMAT_BEGIN
 90
        5
170
     1
 91
        0
 92
        0
 62
   257
 93
        1
300
CONTENTFORMAT
  1
CONTENTFORMAT_BEGIN
 90
        0
 91
        0
 92
      512
 93
        0
300

 40
0.0
140
1.0
 94
        5
 62
     0
340
11
144
4.5
309
CONTENTFORMAT_END
171
     1
301
MARGIN
  1
CELLMARGIN_BEGIN
 40
1.5
 40
1.5
 40
1.5
 40
1.5
 40
4.5
 40
4.5
309
CELLMARGIN_END
 94
        6
 95
        1
302
GRIDFORMAT
  1
GRIDFORMAT_BEGIN
 90
        0
 91
        1
 62
     0
 92
       -2
340
14
 93
        0
 40
1.125
309
GRIDFORMAT_END
 95
        2
302
GRIDFORMAT
  1
GRIDFORMAT_BEGIN
 90
        0
 91
        1
 62
     0
 92
       -2
340
14
 93
        0
 40
1.125
309
GRIDFORMAT_END
 95
        4
302
GRIDFORMAT
  1
GRIDFORMAT_BEGIN
 90
        0
 91
        1
 62
     0
 92
       -2
340
14
 93
        0
 40
1.125
309
GRIDFORMAT_END
 95
        8
302
GRIDFORMAT
  1
GRIDFORMAT_BEGIN
 90
        0
 91
        1
 62
     0
 92
       -2
340
14
 93
        0
 40
1.125
309
GRIDFORMAT_END
 95
       16
302
GRIDFORMAT
  1
GRIDFORMAT_BEGIN
 90
        0
 91
        1
 62
     0
 92
       -2
340
14
 93
        0
 40
1.125
309
GRIDFORMAT_END
 95
       32
302
GRIDFORMAT
  1
GRIDFORMAT_BEGIN
 90
        0
 91
        1
 62
     0
 92
       -2
340
14
 93
        0
 40
1.125
309
GRIDFORMAT_END
309
TABLEFORMAT_END
  1
CELLSTYLE_BEGIN
 90
        2
 91
        1
300
_HEADER
309
CELLSTYLE_END
300
CELLSTYLE
  1
TABLEFORMAT_BEGIN
 90
        5
170
     1
 91
        0
 92
        0
 62
   257
 93
        1
300
CONTENTFORMAT
  1
CONTENTFORMAT_BEGIN
 90
        0
 91
        0
 92
      512
 93
        0
300

 40
0.0
140
1.0
 94
        2
 62
     0
340
11
144
4.5
309
CONTENTFORMAT_END
171
     1
301
MARGIN
  1
CELLMARGIN_BEGIN
 40
1.5
 40
1.5
 40
1.5
 40
1.5
 40
4.5
 40
4.5
309
CELLMARGIN_END
 94
        6
 95
        1
302
GRIDFORMAT
  1
GRIDFORMAT_BEGIN
 90
        0
 91
        1
 62
     0
 92
       -2
340
14
 93
        0
 40
1.125
309
GRIDFORMAT_END
 95
        2
302
GRIDFORMAT
  1
GRIDFORMAT_BEGIN
 90
        0
 91
        1
 62
     0
 92
       -2
340
14
 93
        0
 40
1.125
309
GRIDFORMAT_END
 95
        4
302
GRIDFORMAT
  1
GRIDFORMAT_BEGIN
 90
        0
 91
        1
 62
     0
 92
       -2
340
14
 93
        0
 40
1.125
309
GRIDFORMAT_END
 95
        8
302
GRIDFORMAT
  1
GRIDFORMAT_BEGIN
 90
        0
 91
        1
 62
     0
 92
       -2
340
14
 93
        0
 40
1.125
309
GRIDFORMAT_END
 95
       16
302
GRIDFORMAT
  1
GRIDFORMAT_BEGIN
 90
        0
 91
        1
 62
     0
 92
       -2
340
14
 93
        0
 40
1.125
309
GRIDFORMAT_END
 95
       32
302
GRIDFORMAT
  1
GRIDFORMAT_BEGIN
 90
        0
 91
        1
 62
     0
 92
       -2
340
14
 93
        0
 40
1.125
309
GRIDFORMAT_END
309
TABLEFORMAT_END
  1
CELLSTYLE_BEGIN
 90
        3
 91
        2
300
_DATA
309
CELLSTYLE_END
  0
XRECORD
  5
4F7
102
{ACAD_REACTORS
330
162
102
}
330
162
100
AcDbXrecord
280
     1
102
ACAD_ROUNDTRIP_PRE2007_TABLESTYLE
 90
      512
 91
        0
  1

 92
      512
 93
        0
  2

 94
      512
 95
        0
  3

  0
XRECORD
  5
508
102
{ACAD_REACTORS
330
507
102
}
330
507
100
AcDbXrecord
280
     1
102
RTVSPropertyOp0
 70
     1
102
RTVSPropertyOp1
 70
     1
102
RTVSPropertyOp2
 70
     1
102
RTVSPropertyOp3
 70
     1
102
RTVSPropertyOp4
 70
     1
102
RTVSPropertyOp5
 70
     1
102
RTVSPropertyOp6
 70
     1
102
RTVSPropertyOp7
 70
     1
102
RTVSPropertyOp8
 70
     1
102
RTVSPropertyOp9
 70
     1
102
RTVSPropertyOp10
 70
     1
102
RTVSPropertyOp11
 70
     1
102
RTVSPropertyOp12
 70
     1
102
RTVSPropertyOp13
 70
     1
102
RTVSPropertyOp14
 70
     1
102
RTVSPropertyOp15
 70
     1
102
RTVSPropertyOp16
 70
     1
102
RTVSPropertyOp17
 70
     1
102
RTVSPropertyOp18
 70
     1
102
RTVSPropertyOp19
 70
     1
102
RTVSPropertyOp20
 70
     1
102
RTVSPropertyOp21
 70
     1
102
RTVSPropertyOp22
 70
     1
102
RTVSPropertyOp23
 70
     1
102
RTVSPropertyOp24
 70
     1
102
RTVSPropertyOp25
 70
     1
102
RTVSPropertyOp26
 70
     1
102
RTVSPropertyOp27
 70
     1
  0
XRECORD
  5
50C
102
{ACAD_REACTORS
330
50B
102
}
330
50B
100
AcDbXrecord
280
     1
102
RTVSPropertyOp0
 70
     1
102
RTVSPropertyOp1
 70
     1
102
RTVSPropertyOp2
 70
     1
102
RTVSPropertyOp3
 70
     1
102
RTVSPropertyOp4
 70
     1
102
RTVSPropertyOp5
 70
     1
102
RTVSPropertyOp6
 70
     1
102
RTVSPropertyOp7
 70
     1
102
RTVSPropertyOp8
 70
     1
102
RTVSPropertyOp9
 70
     1
102
RTVSPropertyOp10
 70
     1
102
RTVSPropertyOp11
 70
     1
102
RTVSPropertyOp12
 70
     1
102
RTVSPropertyOp13
 70
     1
102
RTVSPropertyOp14
 70
     1
102
RTVSPropertyOp15
 70
     1
102
RTVSPropertyOp16
 70
     1
102
RTVSPropertyOp17
 70
     1
102
RTVSPropertyOp18
 70
     1
102
RTVSPropertyOp19
 70
     1
102
RTVSPropertyOp20
 70
     1
102
RTVSPropertyOp21
 70
     1
102
RTVSPropertyOp22
 70
     1
102
RTVSPropertyOp23
 70
     1
102
RTVSPropertyOp24
 70
     1
102
RTVSPropertyOp25
 70
     1
102
RTVSPropertyOp26
 70
     1
102
RTVSPropertyOp27
 70
     1
  0
XRECORD
  5
50A
102
{ACAD_REACTORS
330
509
102
}
330
509
100
AcDbXrecord
280
     1
102
RTVSPropertyOp0
 70
     1
102
RTVSPropertyOp1
 70
     1
102
RTVSPropertyOp2
 70
     1
102
RTVSPropertyOp3
 70
     1
102
RTVSPropertyOp4
 70
     1
102
RTVSPropertyOp5
 70
     1
102
RTVSPropertyOp6
 70
     1
102
RTVSPropertyOp7
 70
     1
102
RTVSPropertyOp8
 70
     1
102
RTVSPropertyOp9
 70
     1
102
RTVSPropertyOp10
 70
     1
102
RTVSPropertyOp11
 70
     1
102
RTVSPropertyOp12
 70
     1
102
RTVSPropertyOp13
 70
     1
102
RTVSPropertyOp14
 70
     1
102
RTVSPropertyOp15
 70
     1
102
RTVSPropertyOp16
 70
     1
102
RTVSPropertyOp17
 70
     1
102
RTVSPropertyOp18
 70
     1
102
RTVSPropertyOp19
 70
     1
102
RTVSPropertyOp20
 70
     1
102
RTVSPropertyOp21
 70
     1
102
RTVSPropertyOp22
 70
     1
102
RTVSPropertyOp23
 70
     1
102
RTVSPropertyOp24
 70
     1
102
RTVSPropertyOp25
 70
     1
102
RTVSPropertyOp26
 70
     1
102
RTVSPropertyOp27
 70
     1
  0
XRECORD
  5
506
102
{ACAD_REACTORS
330
505
102
}
330
505
100
AcDbXrecord
280
     1
102
RTVSPropertyOp0
 70
     1
102
RTVSPropertyOp1
 70
     1
102
RTVSPropertyOp2
 70
     1
102
RTVSPropertyOp3
 70
     1
102
RTVSPropertyOp4
 70
     1
102
RTVSPropertyOp5
 70
     1
102
RTVSPropertyOp6
 70
     1
102
RTVSPropertyOp7
 70
     1
102
RTVSPropertyOp8
 70
     1
102
RTVSPropertyOp9
 70
     1
102
RTVSPropertyOp10
 70
     1
102
RTVSPropertyOp11
 70
     1
102
RTVSPropertyOp12
 70
     1
102
RTVSPropertyOp13
 70
     1
102
RTVSPropertyOp14
 70
     1
102
RTVSPropertyOp15
 70
     1
102
RTVSPropertyOp16
 70
     1
102
RTVSPropertyOp17
 70
     1
102
RTVSPropertyOp18
 70
     1
102
RTVSPropertyOp19
 70
     1
102
RTVSPropertyOp20
 70
     1
102
RTVSPropertyOp21
 70
     1
102
RTVSPropertyOp22
 70
     1
102
RTVSPropertyOp23
 70
     1
102
RTVSPropertyOp24
 70
     1
102
RTVSPropertyOp25
 70
     1
102
RTVSPropertyOp26
 70
     1
102
RTVSPropertyOp27
 70
     1
  0
XRECORD
  5
514
102
{ACAD_REACTORS
330
513
102
}
330
513
100
AcDbXrecord
280
     1
102
RTVSPropertyOp0
 70
     1
102
RTVSPropertyOp1
 70
     1
102
RTVSPropertyOp2
 70
     1
102
RTVSPropertyOp3
 70
     1
102
RTVSPropertyOp4
 70
     1
102
RTVSPropertyOp5
 70
     1
102
RTVSPropertyOp6
 70
     1
102
RTVSPropertyOp7
 70
     1
102
RTVSPropertyOp8
 70
     1
102
RTVSPropertyOp9
 70
     1
102
RTVSPropertyOp10
 70
     1
102
RTVSPropertyOp11
 70
     1
102
RTVSPropertyOp12
 70
     1
102
RTVSPropertyOp13
 70
     1
102
RTVSPropertyOp14
 70
     1
102
RTVSPropertyOp15
 70
     1
102
RTVSPropertyOp16
 70
     1
102
RTVSPropertyOp17
 70
     1
102
RTVSPropertyOp18
 70
     1
102
RTVSPropertyOp19
 70
     1
102
RTVSPropertyOp20
 70
     1
102
RTVSPropertyOp21
 70
     1
102
RTVSPropertyOp22
 70
     1
102
RTVSPropertyOp23
 70
     1
102
RTVSPropertyOp24
 70
     1
102
RTVSPropertyOp25
 70
     1
102
RTVSPropertyOp26
 70
     1
102
RTVSPropertyOp27
 70
     1
  0
XRECORD
  5
51C
102
{ACAD_REACTORS
330
51B
102
}
330
51B
100
AcDbXrecord
280
     1
102
RTVSPropertyOp0
 70
     1
102
RTVSPropertyOp1
 70
     1
102
RTVSPropertyOp2
 70
     1
102
RTVSPropertyOp3
 70
     1
102
RTVSPropertyOp4
 70
     1
102
RTVSPropertyOp5
 70
     1
102
RTVSPropertyOp6
 70
     1
102
RTVSPropertyOp7
 70
     1
102
RTVSPropertyOp8
 70
     1
102
RTVSPropertyOp9
 70
     1
102
RTVSPropertyOp10
 70
     1
102
RTVSPropertyOp11
 70
     1
102
RTVSPropertyOp12
 70
     1
102
RTVSPropertyOp13
 70
     1
102
RTVSPropertyOp14
 70
     1
102
RTVSPropertyOp15
 70
     1
102
RTVSPropertyOp16
 70
     1
102
RTVSPropertyOp17
 70
     1
102
RTVSPropertyOp18
 70
     1
102
RTVSPropertyOp19
 70
     1
102
RTVSPropertyOp20
 70
     1
102
RTVSPropertyOp21
 70
     1
102
RTVSPropertyOp22
 70
     1
102
RTVSPropertyOp23
 70
     1
102
RTVSPropertyOp24
 70
     1
102
RTVSPropertyOp25
 70
     1
102
RTVSPropertyOp26
 70
     1
102
RTVSPropertyOp27
 70
     1
  0
XRECORD
  5
50E
102
{ACAD_REACTORS
330
50D
102
}
330
50D
100
AcDbXrecord
280
     1
102
RTVSPropertyOp0
 70
     1
102
RTVSPropertyOp1
 70
     1
102
RTVSPropertyOp2
 70
     1
102
RTVSPropertyOp3
 70
     1
102
RTVSPropertyOp4
 70
     1
102
RTVSPropertyOp5
 70
     1
102
RTVSPropertyOp6
 70
     1
102
RTVSPropertyOp7
 70
     1
102
RTVSPropertyOp8
 70
     1
102
RTVSPropertyOp9
 70
     1
102
RTVSPropertyOp10
 70
     1
102
RTVSPropertyOp11
 70
     1
102
RTVSPropertyOp12
 70
     1
102
RTVSPropertyOp13
 70
     1
102
RTVSPropertyOp14
 70
     1
102
RTVSPropertyOp15
 70
     1
102
RTVSPropertyOp16
 70
     1
102
RTVSPropertyOp17
 70
     1
102
RTVSPropertyOp18
 70
     1
102
RTVSPropertyOp19
 70
     1
102
RTVSPropertyOp20
 70
     1
102
RTVSPropertyOp21
 70
     1
102
RTVSPropertyOp22
 70
     1
102
RTVSPropertyOp23
 70
     1
102
RTVSPropertyOp24
 70
     1
102
RTVSPropertyOp25
 70
     1
102
RTVSPropertyOp26
 70
     1
102
RTVSPropertyOp27
 70
     1
  0
XRECORD
  5
512
102
{ACAD_REACTORS
330
511
102
}
330
511
100
AcDbXrecord
280
     1
102
RTVSPropertyOp0
 70
     1
102
RTVSPropertyOp1
 70
     1
102
RTVSPropertyOp2
 70
     1
102
RTVSPropertyOp3
 70
     1
102
RTVSPropertyOp4
 70
     1
102
RTVSPropertyOp5
 70
     1
102
RTVSPropertyOp6
 70
     1
102
RTVSPropertyOp7
 70
     1
102
RTVSPropertyOp8
 70
     1
102
RTVSPropertyOp9
 70
     1
102
RTVSPropertyOp10
 70
     1
102
RTVSPropertyOp11
 70
     1
102
RTVSPropertyOp12
 70
     1
102
RTVSPropertyOp13
 70
     1
102
RTVSPropertyOp14
 70
     1
102
RTVSPropertyOp15
 70
     1
102
RTVSPropertyOp16
 70
     1
102
RTVSPropertyOp17
 70
     1
102
RTVSPropertyOp18
 70
     1
102
RTVSPropertyOp19
 70
     1
102
RTVSPropertyOp20
 70
     1
102
RTVSPropertyOp21
 70
     1
102
RTVSPropertyOp22
 70
     1
102
RTVSPropertyOp23
 70
     1
102
RTVSPropertyOp24
 70
     1
102
RTVSPropertyOp25
 70
     1
102
RTVSPropertyOp26
 70
     1
102
RTVSPropertyOp27
 70
     1
  0
XRECORD
  5
522
102
{ACAD_REACTORS
330
521
102
}
330
521
100
AcDbXrecord
280
     1
102
RTVSPropertyOp0
 70
     0
102
RTVSPropertyOp1
 70
     0
102
RTVSPropertyOp2
 70
     0
102
RTVSPropertyOp3
 70
     0
102
RTVSPropertyOp4
 70
     0
102
RTVSPropertyOp5
 70
     0
102
RTVSPropertyOp6
 70
     0
102
RTVSPropertyOp7
 70
     0
102
RTVSPropertyOp8
 70
     0
102
RTVSPropertyOp9
 70
     0
102
RTVSPropertyOp10
 70
     0
102
RTVSPropertyOp11
 70
     0
102
RTVSPropertyOp12
 70
     0
102
RTVSPropertyOp13
 70
     0
102
RTVSPropertyOp14
 70
     2
102
RTVSPropertyOp15
 70
     0
102
RTVSPropertyOp16
 70
     0
102
RTVSPropertyOp17
 70
     0
102
RTVSPropertyOp18
 70
     0
102
RTVSPropertyOp19
 70
     0
102
RTVSPropertyOp20
 70
     0
102
RTVSPropertyOp21
 70
     0
102
RTVSPropertyOp22
 70
     0
102
RTVSPropertyOp23
 70
     0
102
RTVSPropertyOp24
 70
     0
102
RTVSPropertyOp25
 70
     0
102
RTVSPropertyOp26
 70
     0
102
RTVSPropertyOp27
 70
     0
  0
XRECORD
  5
51A
102
{ACAD_REACTORS
330
519
102
}
330
519
100
AcDbXrecord
280
     1
102
RTVSPropertyOp0
 70
     1
102
RTVSPropertyOp1
 70
     1
102
RTVSPropertyOp2
 70
     1
102
RTVSPropertyOp3
 70
     1
102
RTVSPropertyOp4
 70
     1
102
RTVSPropertyOp5
 70
     1
102
RTVSPropertyOp6
 70
     1
102
RTVSPropertyOp7
 70
     1
102
RTVSPropertyOp8
 70
     1
102
RTVSPropertyOp9
 70
     1
102
RTVSPropertyOp10
 70
     1
102
RTVSPropertyOp11
 70
     1
102
RTVSPropertyOp12
 70
     1
102
RTVSPropertyOp13
 70
     1
102
RTVSPropertyOp14
 70
     1
102
RTVSPropertyOp15
 70
     1
102
RTVSPropertyOp16
 70
     1
102
RTVSPropertyOp17
 70
     1
102
RTVSPropertyOp18
 70
     1
102
RTVSPropertyOp19
 70
     1
102
RTVSPropertyOp20
 70
     1
102
RTVSPropertyOp21
 70
     1
102
RTVSPropertyOp22
 70
     1
102
RTVSPropertyOp23
 70
     1
102
RTVSPropertyOp24
 70
     1
102
RTVSPropertyOp25
 70
     1
102
RTVSPropertyOp26
 70
     1
102
RTVSPropertyOp27
 70
     1
  0
XRECORD
  5
4FE
102
{ACAD_REACTORS
330
4FD
102
}
330
4FD
100
AcDbXrecord
280
     1
102
RTVSPropertyOp0
 70
     1
102
RTVSPropertyOp1
 70
     1
102
RTVSPropertyOp2
 70
     1
102
RTVSPropertyOp3
 70
     1
102
RTVSPropertyOp4
 70
     1
102
RTVSPropertyOp5
 70
     1
102
RTVSPropertyOp6
 70
     1
102
RTVSPropertyOp7
 70
     1
102
RTVSPropertyOp8
 70
     1
102
RTVSPropertyOp9
 70
     1
102
RTVSPropertyOp10
 70
     1
102
RTVSPropertyOp11
 70
     1
102
RTVSPropertyOp12
 70
     1
102
RTVSPropertyOp13
 70
     1
102
RTVSPropertyOp14
 70
     1
102
RTVSPropertyOp15
 70
     1
102
RTVSPropertyOp16
 70
     1
102
RTVSPropertyOp17
 70
     1
102
RTVSPropertyOp18
 70
     1
102
RTVSPropertyOp19
 70
     1
102
RTVSPropertyOp20
 70
     1
102
RTVSPropertyOp21
 70
     1
102
RTVSPropertyOp22
 70
     1
102
RTVSPropertyOp23
 70
     1
102
RTVSPropertyOp24
 70
     1
102
RTVSPropertyOp25
 70
     1
102
RTVSPropertyOp26
 70
     1
102
RTVSPropertyOp27
 70
     1
  0
XRECORD
  5
500
102
{ACAD_REACTORS
330
4FF
102
}
330
4FF
100
AcDbXrecord
280
     1
102
RTVSPropertyOp0
 70
     1
102
RTVSPropertyOp1
 70
     1
102
RTVSPropertyOp2
 70
     1
102
RTVSPropertyOp3
 70
     1
102
RTVSPropertyOp4
 70
     1
102
RTVSPropertyOp5
 70
     1
102
RTVSPropertyOp6
 70
     1
102
RTVSPropertyOp7
 70
     1
102
RTVSPropertyOp8
 70
     1
102
RTVSPropertyOp9
 70
     1
102
RTVSPropertyOp10
 70
     1
102
RTVSPropertyOp11
 70
     1
102
RTVSPropertyOp12
 70
     1
102
RTVSPropertyOp13
 70
     1
102
RTVSPropertyOp14
 70
     1
102
RTVSPropertyOp15
 70
     1
102
RTVSPropertyOp16
 70
     1
102
RTVSPropertyOp17
 70
     1
102
RTVSPropertyOp18
 70
     1
102
RTVSPropertyOp19
 70
     1
102
RTVSPropertyOp20
 70
     1
102
RTVSPropertyOp21
 70
     1
102
RTVSPropertyOp22
 70
     1
102
RTVSPropertyOp23
 70
     1
102
RTVSPropertyOp24
 70
     1
102
RTVSPropertyOp25
 70
     1
102
RTVSPropertyOp26
 70
     1
102
RTVSPropertyOp27
 70
     1
  0
XRECORD
  5
502
102
{ACAD_REACTORS
330
501
102
}
330
501
100
AcDbXrecord
280
     1
102
RTVSPropertyOp0
 70
     1
102
RTVSPropertyOp1
 70
     1
102
RTVSPropertyOp2
 70
     1
102
RTVSPropertyOp3
 70
     1
102
RTVSPropertyOp4
 70
     1
102
RTVSPropertyOp5
 70
     1
102
RTVSPropertyOp6
 70
     1
102
RTVSPropertyOp7
 70
     1
102
RTVSPropertyOp8
 70
     1
102
RTVSPropertyOp9
 70
     1
102
RTVSPropertyOp10
 70
     1
102
RTVSPropertyOp11
 70
     1
102
RTVSPropertyOp12
 70
     1
102
RTVSPropertyOp13
 70
     1
102
RTVSPropertyOp14
 70
     1
102
RTVSPropertyOp15
 70
     1
102
RTVSPropertyOp16
 70
     1
102
RTVSPropertyOp17
 70
     1
102
RTVSPropertyOp18
 70
     1
102
RTVSPropertyOp19
 70
     1
102
RTVSPropertyOp20
 70
     1
102
RTVSPropertyOp21
 70
     1
102
RTVSPropertyOp22
 70
     1
102
RTVSPropertyOp23
 70
     1
102
RTVSPropertyOp24
 70
     1
102
RTVSPropertyOp25
 70
     1
102
RTVSPropertyOp26
 70
     1
102
RTVSPropertyOp27
 70
     1
  0
XRECORD
  5
504
102
{ACAD_REACTORS
330
503
102
}
330
503
100
AcDbXrecord
280
     1
102
RTVSPropertyOp0
 70
     1
102
RTVSPropertyOp1
 70
     1
102
RTVSPropertyOp2
 70
     1
102
RTVSPropertyOp3
 70
     1
102
RTVSPropertyOp4
 70
     1
102
RTVSPropertyOp5
 70
     1
102
RTVSPropertyOp6
 70
     1
102
RTVSPropertyOp7
 70
     1
102
RTVSPropertyOp8
 70
     1
102
RTVSPropertyOp9
 70
     1
102
RTVSPropertyOp10
 70
     1
102
RTVSPropertyOp11
 70
     1
102
RTVSPropertyOp12
 70
     1
102
RTVSPropertyOp13
 70
     1
102
RTVSPropertyOp14
 70
     1
102
RTVSPropertyOp15
 70
     1
102
RTVSPropertyOp16
 70
     1
102
RTVSPropertyOp17
 70
     1
102
RTVSPropertyOp18
 70
     1
102
RTVSPropertyOp19
 70
     1
102
RTVSPropertyOp20
 70
     1
102
RTVSPropertyOp21
 70
     1
102
RTVSPropertyOp22
 70
     1
102
RTVSPropertyOp23
 70
     1
102
RTVSPropertyOp24
 70
     1
102
RTVSPropertyOp25
 70
     1
102
RTVSPropertyOp26
 70
     1
102
RTVSPropertyOp27
 70
     1
  0
XRECORD
  5
51E
102
{ACAD_REACTORS
330
51D
102
}
330
51D
100
AcDbXrecord
280
     1
102
RTVSPropertyOp0
 70
     0
102
RTVSPropertyOp1
 70
     0
102
RTVSPropertyOp2
 70
     0
102
RTVSPropertyOp3
 70
     0
102
RTVSPropertyOp4
 70
     0
102
RTVSPropertyOp5
 70
     0
102
RTVSPropertyOp6
 70
     0
102
RTVSPropertyOp7
 70
     0
102
RTVSPropertyOp8
 70
     0
102
RTVSPropertyOp9
 70
     0
102
RTVSPropertyOp10
 70
     0
102
RTVSPropertyOp11
 70
     0
102
RTVSPropertyOp12
 70
     0
102
RTVSPropertyOp13
 70
     0
102
RTVSPropertyOp14
 70
     2
102
RTVSPropertyOp15
 70
     0
102
RTVSPropertyOp16
 70
     0
102
RTVSPropertyOp17
 70
     0
102
RTVSPropertyOp18
 70
     0
102
RTVSPropertyOp19
 70
     0
102
RTVSPropertyOp20
 70
     0
102
RTVSPropertyOp21
 70
     0
102
RTVSPropertyOp22
 70
     0
102
RTVSPropertyOp23
 70
     0
102
RTVSPropertyOp24
 70
     0
102
RTVSPropertyOp25
 70
     0
102
RTVSPropertyOp26
 70
     0
102
RTVSPropertyOp27
 70
     0
  0
XRECORD
  5
518
102
{ACAD_REACTORS
330
517
102
}
330
517
100
AcDbXrecord
280
     1
102
RTVSPropertyOp0
 70
     1
102
RTVSPropertyOp1
 70
     1
102
RTVSPropertyOp2
 70
     1
102
RTVSPropertyOp3
 70
     1
102
RTVSPropertyOp4
 70
     1
102
RTVSPropertyOp5
 70
     1
102
RTVSPropertyOp6
 70
     1
102
RTVSPropertyOp7
 70
     1
102
RTVSPropertyOp8
 70
     1
102
RTVSPropertyOp9
 70
     1
102
RTVSPropertyOp10
 70
     1
102
RTVSPropertyOp11
 70
     1
102
RTVSPropertyOp12
 70
     1
102
RTVSPropertyOp13
 70
     1
102
RTVSPropertyOp14
 70
     1
102
RTVSPropertyOp15
 70
     1
102
RTVSPropertyOp16
 70
     1
102
RTVSPropertyOp17
 70
     1
102
RTVSPropertyOp18
 70
     1
102
RTVSPropertyOp19
 70
     1
102
RTVSPropertyOp20
 70
     1
102
RTVSPropertyOp21
 70
     1
102
RTVSPropertyOp22
 70
     1
102
RTVSPropertyOp23
 70
     1
102
RTVSPropertyOp24
 70
     1
102
RTVSPropertyOp25
 70
     1
102
RTVSPropertyOp26
 70
     1
102
RTVSPropertyOp27
 70
     1
  0
XRECORD
  5
520
102
{ACAD_REACTORS
330
51F
102
}
330
51F
100
AcDbXrecord
280
     1
102
RTVSPropertyOp0
 70
     0
102
RTVSPropertyOp1
 70
     0
102
RTVSPropertyOp2
 70
     0
102
RTVSPropertyOp3
 70
     0
102
RTVSPropertyOp4
 70
     0
102
RTVSPropertyOp5
 70
     0
102
RTVSPropertyOp6
 70
     0
102
RTVSPropertyOp7
 70
     0
102
RTVSPropertyOp8
 70
     0
102
RTVSPropertyOp9
 70
     0
102
RTVSPropertyOp10
 70
     0
102
RTVSPropertyOp11
 70
     0
102
RTVSPropertyOp12
 70
     0
102
RTVSPropertyOp13
 70
     0
102
RTVSPropertyOp14
 70
     2
102
RTVSPropertyOp15
 70
     0
102
RTVSPropertyOp16
 70
     0
102
RTVSPropertyOp17
 70
     0
102
RTVSPropertyOp18
 70
     0
102
RTVSPropertyOp19
 70
     0
102
RTVSPropertyOp20
 70
     0
102
RTVSPropertyOp21
 70
     0
102
RTVSPropertyOp22
 70
     0
102
RTVSPropertyOp23
 70
     0
102
RTVSPropertyOp24
 70
     0
102
RTVSPropertyOp25
 70
     0
102
RTVSPropertyOp26
 70
     0
102
RTVSPropertyOp27
 70
     0
  0
XRECORD
  5
510
102
{ACAD_REACTORS
330
50F
102
}
330
50F
100
AcDbXrecord
280
     1
102
RTVSPropertyOp0
 70
     1
102
RTVSPropertyOp1
 70
     1
102
RTVSPropertyOp2
 70
     1
102
RTVSPropertyOp3
 70
     1
102
RTVSPropertyOp4
 70
     1
102
RTVSPropertyOp5
 70
     1
102
RTVSPropertyOp6
 70
     1
102
RTVSPropertyOp7
 70
     1
102
RTVSPropertyOp8
 70
     1
102
RTVSPropertyOp9
 70
     1
102
RTVSPropertyOp10
 70
     1
102
RTVSPropertyOp11
 70
     1
102
RTVSPropertyOp12
 70
     1
102
RTVSPropertyOp13
 70
     1
102
RTVSPropertyOp14
 70
     1
102
RTVSPropertyOp15
 70
     1
102
RTVSPropertyOp16
 70
     1
102
RTVSPropertyOp17
 70
     1
102
RTVSPropertyOp18
 70
     1
102
RTVSPropertyOp19
 70
     1
102
RTVSPropertyOp20
 70
     1
102
RTVSPropertyOp21
 70
     1
102
RTVSPropertyOp22
 70
     1
102
RTVSPropertyOp23
 70
     1
102
RTVSPropertyOp24
 70
     1
102
RTVSPropertyOp25
 70
     1
102
RTVSPropertyOp26
 70
     1
102
RTVSPropertyOp27
 70
     1
  0
XRECORD
  5
516
102
{ACAD_REACTORS
330
515
102
}
330
515
100
AcDbXrecord
280
     1
102
RTVSPropertyOp0
 70
     1
102
RTVSPropertyOp1
 70
     1
102
RTVSPropertyOp2
 70
     1
102
RTVSPropertyOp3
 70
     1
102
RTVSPropertyOp4
 70
     1
102
RTVSPropertyOp5
 70
     1
102
RTVSPropertyOp6
 70
     1
102
RTVSPropertyOp7
 70
     1
102
RTVSPropertyOp8
 70
     1
102
RTVSPropertyOp9
 70
     1
102
RTVSPropertyOp10
 70
     1
102
RTVSPropertyOp11
 70
     1
102
RTVSPropertyOp12
 70
     1
102
RTVSPropertyOp13
 70
     1
102
RTVSPropertyOp14
 70
     1
102
RTVSPropertyOp15
 70
     1
102
RTVSPropertyOp16
 70
     1
102
RTVSPropertyOp17
 70
     1
102
RTVSPropertyOp18
 70
     1
102
RTVSPropertyOp19
 70
     1
102
RTVSPropertyOp20
 70
     1
102
RTVSPropertyOp21
 70
     1
102
RTVSPropertyOp22
 70
     1
102
RTVSPropertyOp23
 70
     1
102
RTVSPropertyOp24
 70
     1
102
RTVSPropertyOp25
 70
     1
102
RTVSPropertyOp26
 70
     1
102
RTVSPropertyOp27
 70
     1
  0
ENDSEC
  0
EOF
